osu file format v14

[General]
AudioFilename: Picon de Metafiction.mp3
AudioLeadIn: 0
PreviewTime: 78019
Countdown: 0
SampleSet: Soft
StackLeniency: 0.7
Mode: 0
LetterboxInBreaks: 0
WidescreenStoryboard: 1

[Editor]
DistanceSpacing: 1.3
BeatDivisor: 12
GridSize: 4
TimelineZoom: 1.8

[Metadata]
Title:Picon de Metafiction
TitleUnicode:ピコンでメタフィクション
Artist:Erabareshi
ArtistUnicode:エラバレシ
Creator:Darksonic
Version:Insane
Source:四女神オンライン CYBER DIMENSION NEPTUNE
Tags:Neptunia Hyperdimension Four Goddesses Online cyberdimension choujigen game neptune idea factory compile heart opening OP JRPG 超次元ゲイム ネプテューヌ tamsoft pikon japanese videogame video game hazu- crissa theshadowofdark [-crissaegrim-]
BeatmapID:1910433
BeatmapSetID:913092

[Difficulty]
HPDrainRate:6
CircleSize:4
OverallDifficulty:8
ApproachRate:9
SliderMultiplier:1.7
SliderTickRate:1

[Events]
//Background and Video events
0,0,"BG.jpg",0,0
//Break Periods
//Storyboard Layer 0 (Background)
//Storyboard Layer 1 (Fail)
//Storyboard Layer 2 (Pass)
//Storyboard Layer 3 (Foreground)
//Storyboard Layer 4 (Overlay)
//Storyboard Sound Samples

[TimingPoints]
79,491.803278688525,4,2,0,30,1,0
79,-133.333333333333,4,2,0,30,0,0
11872,491.803278688525,4,2,0,30,1,0
11872,-133.333333333333,4,2,0,30,0,0
12855,444.444444444444,4,2,0,30,1,0
12855,-133.333333333333,4,2,0,30,0,0
13299,491.803278688525,4,2,0,30,1,0
13865,491.803278688525,4,2,0,30,1,0
16324,-133.333333333333,4,2,0,30,0,0
22409,319.148936170213,4,2,3,50,1,0
22409,-100,4,2,3,50,0,0
22887,319.148936170213,4,2,3,70,1,0
32780,-76.9230769230769,4,2,4,60,0,0
33099,-166.666666666667,4,2,2,45,0,0
33259,-166.666666666667,4,2,5,45,0,0
38206,-166.666666666667,4,2,2,45,0,0
38365,-166.666666666667,4,2,5,45,0,0
43312,-166.666666666667,4,2,2,45,0,0
43472,-166.666666666667,4,2,5,45,0,0
50972,-333.333333333333,4,2,0,30,0,0
52089,-100,4,2,3,60,0,0
68844,-166.666666666667,4,2,2,40,0,0
69004,-166.666666666667,4,2,3,40,0,0
71397,-100,4,2,3,60,0,0
78099,-166.666666666667,4,2,0,20,0,0
78897,-83.3333333333333,4,2,3,70,0,1
88631,-133.333333333333,4,2,0,60,0,0
89110,-83.3333333333333,4,2,4,70,0,1
89269,-83.3333333333333,4,2,3,70,0,1
101876,-125,4,2,3,60,0,0
108418,-166.666666666667,4,2,2,40,0,0
108578,-166.666666666667,4,2,3,40,0,0
109535,-100,4,2,3,60,0,0
124535,-100,4,2,4,60,0,0
125014,-100,4,2,4,30,0,0

[Colours]
Combo1 : 255,255,128
Combo2 : 194,150,254
Combo3 : 132,215,255
Combo4 : 255,168,81

[HitObjects]
336,272,1800,5,0,0:0:0:0:
336,272,2046,6,0,P|310:253|280:242,1,63.7500024318696,2|0,0:0|0:0,0:0:0:0:
204,248,2538,1,0,0:0:0:0:
135,208,2783,2,0,P|166:152|166:89,1,127.500004863739,2|0,0:0|0:0,0:0:0:0:
88,72,3521,1,0,0:0:0:0:
166,89,3767,6,0,B|229:91,1,63.7500024318696,2|2,0:0|0:0,0:0:0:0:
312,96,4259,1,2,0:0:0:0:
392,203,4505,2,0,P|331:221|270:206,2,127.500004863739,2|2|2,0:0|0:0|0:0,0:0:0:0:
412,124,5734,1,2,0:0:0:0:
412,124,5980,6,0,L|370:75,1,63.7500024318696,2|0,0:0|0:0,0:0:0:0:
292,64,6472,1,0,0:0:0:0:
216,88,6718,1,2,0:0:0:0:
135,226,6964,2,0,P|196:226|224:172,1,127.500004863739,2|2,0:0|0:0,0:0:0:0:
64,188,7947,5,2,0:0:0:0:
64,187,8193,2,0,P|52:217|54:249,1,63.7500024318696,2|0,0:0|0:0,0:0:0:0:
228,296,8685,1,2,0:0:0:0:
228,296,9177,2,0,P|284:248|292:184,1,127.500004863739,2|0,0:0|0:0,0:0:0:0:
264,124,9915,5,2,0:0:0:0:
120,192,10406,2,0,L|132:254,1,63.7500024318696,2|0,0:0|0:0,0:0:0:0:
184,316,10898,1,2,0:0:0:0:
328,252,11390,1,2,0:0:0:0:
344,92,11872,6,0,P|281:80|217:80,1,127.500004863739,2|2,0:0|0:0,0:0:0:0:
336,188,12855,2,0,P|398:199|462:199,1,127.500004863739,2|2,0:0|0:0,0:0:0:0:
264,296,13865,1,2,0:0:0:0:
256,192,13987,12,2,15750,0:0:0:0:
132,312,16324,5,2,0:0:0:0:
132,312,16569,2,0,P|104:255|112:192,1,127.500004863739,2|0,0:0|0:0,0:0:0:0:
160,128,17307,1,2,0:0:0:0:
228,172,17553,1,0,0:0:0:0:
304,144,17799,1,2,0:0:0:0:
256,192,17922,12,0,22225,0:0:0:0:
274,294,22887,6,0,P|228:227|253:149,1,170,6|8,0:0|0:0,0:0:0:0:
329,75,23365,1,0,0:0:0:0:
464,196,23525,1,10,0:0:0:0:
313,213,23684,1,2,0:0:0:0:
392,140,23844,1,10,0:0:0:0:
375,324,24004,6,0,L|205:333,1,170,6|0,0:0|0:0,0:0:0:0:
60,239,24482,2,0,P|101:231|141:242,1,85,8|0,0:0|0:0,0:0:0:0:
248,144,24801,2,0,P|206:152|166:141,1,85,8|2,0:0|0:0,0:0:0:0:
304,76,25121,1,10,0:0:0:0:
285,225,25280,1,2,0:0:0:0:
77,125,25440,6,0,P|130:61|212:66,1,170,14|8,0:0|0:0,0:0:0:0:
280,148,25918,1,0,0:0:0:0:
460,128,26078,1,10,0:0:0:0:
336,212,26238,1,2,0:0:0:0:
404,64,26397,1,10,0:0:0:0:
407,246,26557,6,0,P|339:292|267:251,1,170,6|0,0:0|0:0,0:0:0:0:
96,188,27035,2,0,L|105:272,1,85,8|0,0:0|0:0,0:0:0:0:
188,168,27355,1,8,0:0:0:0:
160,20,27514,1,2,0:0:0:0:
48,152,27674,2,0,L|57:236,1,85,10|2,0:0|0:0,0:0:0:0:
216,332,27993,6,0,P|298:328|355:268,1,170,14|8,0:0|0:0,0:0:0:0:
388,168,28472,1,0,0:0:0:0:
224,104,28631,1,10,0:0:0:0:
360,80,28791,1,2,0:0:0:0:
221,189,28950,1,10,0:0:0:0:
395,63,29110,6,0,P|463:112|478:193,1,170,6|0,0:0|0:0,0:0:0:0:
376,332,29589,2,0,P|349:299|346:257,1,85,8|0,0:0|0:0,0:0:0:0:
272,124,29908,2,0,P|298:156|301:198,1,85,8|2,0:0|0:0,0:0:0:0:
152,208,30227,1,10,0:0:0:0:
88,64,30387,1,2,0:0:0:0:
232,232,30546,6,0,P|213:310|135:332,1,170,14|8,0:0|0:0,0:0:0:0:
60,260,31025,1,0,0:0:0:0:
208,152,31184,1,10,0:0:0:0:
320,276,31344,1,2,0:0:0:0:
152,208,31504,1,10,0:0:0:0:
341,207,31663,6,0,B|388:158|449:240|500:191,1,170,14|2,0:0|0:0,0:0:0:0:
364,76,32142,1,10,0:0:0:0:
344,287,32301,2,0,P|303:276|272:248,1,85,2|8,0:0|0:0,0:0:0:0:
296,144,32621,1,0,0:0:0:0:
112,92,32780,6,0,P|128:144|120:200,1,110.499994941712,6|0,0:0|0:0,0:0:0:0:
39,303,33099,6,0,P|88:319|138:314,1,101.999996887207,4|2,0:2|1:2,0:0:0:0:
196,264,33578,1,0,0:0:0:0:
244,324,33738,2,0,L|294:320,1,50.9999984436036,2|0,1:2|0:0,0:0:0:0:
312,248,34057,2,0,L|362:244,1,50.9999984436036,2|0,1:2|0:0,0:0:0:0:
410,164,34376,2,0,L|360:168,1,50.9999984436036,2|0,1:2|0:0,0:0:0:0:
281,99,34695,2,0,L|332:96,1,50.9999984436036,2|0,1:2|0:0,0:0:0:0:
280,176,35014,2,0,L|229:179,1,50.9999984436036,2|0,1:2|0:0,0:0:0:0:
192,112,35333,1,2,1:2:0:0:
192,112,35493,1,0,0:0:0:0:
39,195,35652,6,0,P|62:240|110:250,1,101.999996887207,2|2,1:2|1:2,0:0:0:0:
248,68,36291,2,0,L|140:60,1,101.999996887207,2|2,1:2|1:2,0:0:0:0:
132,136,36769,2,0,L|233:143,1,101.999996887207,2|0,0:2|0:0,0:0:0:0:
310,148,37248,1,0,1:0:0:0:
373,105,37408,1,0,0:0:0:0:
392,236,37567,2,0,L|384:184,1,50.9999984436036,2|0,1:2|0:0,0:0:0:0:
316,224,37887,2,0,L|324:276,1,50.9999984436036,2|0,1:2|0:0,0:0:0:0:
268,323,38206,6,0,P|221:343|170:345,1,101.999996887207,4|2,0:0|1:2,0:0:0:0:
24,164,38844,2,0,P|74:166|121:185,1,101.999996887207,2|2,1:2|1:2,0:0:0:0:
176,236,39323,1,0,0:0:0:0:
231,188,39482,2,0,P|245:166|248:141,1,50.9999984436036,2|0,1:2|0:0,0:0:0:0:
200,52,39801,2,0,P|186:73|183:98,1,50.9999984436036,2|0,1:2|0:0,0:0:0:0:
384,136,40121,2,0,P|385:110|375:87,1,50.9999984436036,2|0,1:2|0:0,0:0:0:0:
287,33,40440,2,0,P|285:58|295:81,1,50.9999984436036,2|0,1:2|0:0,0:0:0:0:
444,144,40759,6,0,L|343:164,1,101.999996887207,2|0,1:2|1:0,0:0:0:0:
176,344,41397,2,0,L|276:323,1,101.999996887207,2|0,1:2|1:0,0:0:0:0:
136,120,42035,2,0,P|85:120|40:143,1,101.999996887207,2|0,1:2|1:0,0:0:0:0:
64,216,42514,1,0,0:0:0:0:
128,256,42674,1,2,1:2:0:0:
204,252,42833,1,2,0:2:0:0:
264,204,42993,2,0,L|288:148,1,50.9999984436036,2|0,1:2|0:0,0:0:0:0:
200,47,43312,6,0,P|186:96|208:141,1,101.999996887207,4|0,0:0|1:0,0:0:0:0:
368,264,43950,2,0,P|381:215|359:170,1,101.999996887207,2|2,1:2|1:2,0:0:0:0:
284,157,44429,1,0,0:0:0:0:
235,216,44589,2,0,P|224:238|223:263,1,50.9999984436036,2|0,1:2|0:0,0:0:0:0:
278,344,44908,2,0,P|290:321|290:295,1,50.9999984436036,2|0,1:2|0:0,0:0:0:0:
200,344,45227,2,0,L|98:354,1,101.999996887207,2|2,1:2|1:2,0:0:0:0:
83,127,45865,6,0,P|125:156|140:204,1,101.999996887207,2|0,1:2|1:0,0:0:0:0:
96,268,46344,1,0,0:0:0:0:
96,267,46504,2,0,P|50:283|16:249,1,101.999996887207,2|2,1:2|1:2,0:0:0:0:
83,127,46982,2,0,P|139:107|183:115,1,101.999996887207,2|0,0:2|0:0,0:0:0:0:
236,164,47461,2,0,P|259:174|284:177,1,50.9999984436036,0|0,1:0|0:0,0:0:0:0:
368,121,47780,2,0,P|345:110|320:108,1,50.9999984436036,2|0,1:2|0:0,0:0:0:0:
240,24,48099,2,0,P|263:34|288:37,1,50.9999984436036,2|2,1:2|0:2,0:0:0:0:
449,78,48418,6,0,P|399:83|367:121,1,101.999996887207,2|2,1:2|1:2,0:0:0:0:
436,156,48897,2,0,P|404:194|354:199,1,101.999996887207,2|0,0:2|0:0,0:0:0:0:
295,151,49376,2,0,P|271:144|246:145,1,50.9999984436036,2|0,1:2|0:0,0:0:0:0:
220,255,49695,6,0,P|242:243|259:224,1,50.9999984436036,2|0,1:2|0:0,0:0:0:0:
188,100,50014,2,0,P|176:122|172:147,1,50.9999984436036,2|0,1:2|0:0,0:0:0:0:
376,148,50333,2,0,P|373:123|363:99,1,50.9999984436036,2|0,1:2|0:0,0:0:0:0:
183,221,50652,2,0,P|198:241|219:254,1,50.9999984436036,2|0,1:2|0:0,0:0:0:0:
344,284,50972,6,0,P|323:212|255:183,1,152.999995330811,2|2,0:0|0:0,0:0:0:0:
172,332,52089,6,0,L|256:335,1,85,6|0,0:0|0:0,0:0:0:0:
188,224,52408,1,2,0:0:0:0:
188,224,52488,1,2,0:0:0:0:
188,224,52567,1,10,0:0:0:0:
256,335,52727,1,8,0:0:0:0:
356,192,52887,1,10,0:0:0:0:
188,224,53046,1,2,0:0:0:0:
188,224,53365,6,0,P|117:186|121:105,1,170,6|0,0:0|0:0,0:0:0:0:
244,36,53844,1,10,0:0:0:0:
244,36,54004,2,0,P|260:76|262:118,2,85,0|2|2,0:0|0:0|0:0,0:0:0:0:
268,196,54482,1,8,0:0:0:0:
119,177,54642,6,0,P|189:220|268:196,1,170,2|0,0:0|0:0,0:0:0:0:
160,104,55121,1,10,0:0:0:0:
160,104,55280,2,0,P|118:97|77:109,2,85,0|2|2,0:0|0:0|0:0,0:0:0:0:
340,160,55759,2,0,P|346:201|334:242,1,85,8|0,0:0|0:0,0:0:0:0:
240,300,56078,5,2,0:0:0:0:
216,156,56238,1,2,0:0:0:0:
334,242,56397,1,10,0:0:0:0:
160,332,56557,2,0,L|128:164,1,170,2|2,0:0|0:0,0:0:0:0:
192,72,57035,1,10,0:0:0:0:
365,203,57195,6,0,P|283:213|220:160,1,170,6|0,0:0|0:0,0:0:0:0:
312,45,57674,2,0,P|320:86|308:127,1,85,8|0,0:0|0:0,0:0:0:0:
159,215,57993,2,0,P|182:180|219:159,1,85,10|0,0:0|0:0,0:0:0:0:
447,205,58312,2,0,P|405:213|364:202,1,85,10|2,0:0|0:0,0:0:0:0:
344,192,58551,1,2,0:0:0:0:
319,186,58631,6,0,P|237:192|188:258,1,170,6|8,0:0|0:0,0:0:0:0:
344,308,59110,2,0,P|316:276|276:263,1,85,2|2,0:0|0:0,0:0:0:0:
204,350,59429,1,2,0:0:0:0:
404,359,59589,2,0,P|419:320|418:278,1,85,8|0,0:0|0:0,0:0:0:0:
343,152,59908,6,0,P|314:229|343:307,1,170,2|10,0:0|0:0,0:0:0:0:
412,184,60387,1,2,0:0:0:0:
296,56,60546,1,2,0:0:0:0:
236,220,60706,1,2,0:0:0:0:
322,148,60865,2,0,P|357:122|395:103,1,85,8|0,0:0|0:0,0:0:0:0:
316,244,61184,6,0,P|274:237|235:219,1,85,6|0,0:0|0:0,0:0:0:0:
224,104,61504,1,8,0:0:0:0:
316,244,61663,2,0,P|321:287|313:328,1,85,2|0,0:0|0:0,0:0:0:0:
160,256,61982,2,0,P|155:213|163:172,1,85,2|0,0:0|0:0,0:0:0:0:
387,84,62301,6,0,B|323:128|287:68|222:104,1,170,6|2,0:0|0:0,0:0:0:0:
200,112,62700,1,2,0:0:0:0:
180,128,62780,1,10,0:0:0:0:
272,264,62940,1,8,0:0:0:0:
308,96,63099,1,10,0:0:0:0:
172,236,63259,1,2,0:0:0:0:
172,236,63578,6,0,P|186:317|254:363,1,170,6|0,0:0|0:0,0:0:0:0:
356,270,64057,1,10,0:0:0:0:
356,270,64216,2,0,P|304:262|256:266,2,85,0|2|2,0:0|0:0|0:0,0:0:0:0:
428,352,64695,1,8,0:0:0:0:
412,197,64855,6,0,P|328:182|244:183,1,170,2|0,0:0|0:0,0:0:0:0:
104,260,65333,1,10,0:0:0:0:
103,259,65493,2,0,P|143:275|185:271,2,85,0|10|2,0:0|0:0|0:0,0:0:0:0:
20,140,65972,1,8,0:0:0:0:
160,192,66131,1,0,0:0:0:0:
32,308,66291,6,0,L|25:223,1,85,14|2,0:0|0:0,0:0:0:0:
100,136,66610,1,10,0:0:0:0:
243,216,66769,2,0,P|224:253|187:270,1,85,10|0,0:0|0:0,0:0:0:0:
120,60,67089,2,0,P|157:77|176:114,1,85,10|0,0:0|0:0,0:0:0:0:
353,102,67408,6,10,P|317:177|243:215,1,170,6|0,0:0|0:0,0:0:0:0:
272,74,67887,2,0,L|352:101,1,85,8|0,0:0|0:0,0:0:0:0:
328,280,68206,1,10,0:0:0:0:
408,164,68365,1,2,0:0:0:0:
396,319,68525,1,10,0:0:0:0:
316,203,68684,1,2,0:0:0:0:
235,303,68844,6,0,P|285:307|327:279,1,101.999996887207,6|0,0:0|0:0,0:0:0:0:
216,196,69482,2,0,P|166:192|124:220,1,101.999996887207,2|0,0:0|0:0,0:0:0:0:
316,203,70121,2,0,P|365:206|407:178,1,101.999996887207,2|0,0:0|0:0,0:0:0:0:
312,32,70599,1,0,0:0:0:0:
312,32,70759,2,0,L|341:129,1,101.999996887207,2|0,0:0|0:0,0:0:0:0:
196,336,71397,6,0,P|183:295|192:254,1,85,14|0,0:0|0:0,0:0:0:0:
236,96,71716,2,0,P|248:136|239:177,1,85,10|0,0:0|0:0,0:0:0:0:
72,196,72035,1,10,0:0:0:0:
168,136,72195,1,2,0:0:0:0:
64,92,72355,1,10,0:0:0:0:
7,251,72514,2,0,P|42:276|84:279,1,85,6|0,0:0|0:0,0:0:0:0:
192,240,72833,5,10,0:0:0:0:
344,152,72993,2,0,P|302:155|268:180,1,85,10|2,0:0|0:0,0:0:0:0:
312,336,73312,1,10,0:0:0:0:
344,152,73472,1,10,0:0:0:0:
344,151,73791,6,0,P|334:70|261:33,1,170,14|0,0:0|0:0,0:0:0:0:
184,136,74269,2,0,P|226:139|264:120,1,85,10|2,0:0|0:0,0:0:0:0:
152,56,74589,1,10,0:0:0:0:
168,215,74748,2,0,P|187:177|184:135,1,85,2|10,0:0|0:0,0:0:0:0:
72,152,75067,1,2,0:0:0:0:
128,296,75227,2,0,L|212:306,1,85,10|10,0:0|0:0,0:0:0:0:
336,235,75546,5,10,0:0:0:0:
168,215,75706,1,10,0:0:0:0:
312,316,75865,1,10,0:0:0:0:
332,148,76025,1,10,0:0:0:0:
331,147,76344,6,0,P|265:97|182:102,1,170,6|0,0:0|0:0,0:0:0:0:
128,248,76823,2,0,L|212:255,1,85,10|2,0:0|0:0,0:0:0:0:
331,147,77142,1,10,0:0:0:0:
224,32,77301,1,2,0:0:0:0:
120,152,77461,5,10,0:0:0:0:
320,52,77621,1,14,0:0:0:0:
188,340,78099,5,2,0:0:0:0:
400,284,78418,1,2,0:0:0:0:
400,284,78578,2,0,L|340:300,1,50.9999984436036,2|0,0:0|0:0,0:0:0:0:
171,199,78897,6,0,P|217:221|242:264,1,101.999996887207,6|0,0:0|0:0,0:0:0:0:
104,344,79216,1,2,0:0:0:0:
171,199,79376,1,10,0:0:0:0:
316,280,79535,2,0,P|290:323|245:344,1,101.999996887207,2|0,0:0|0:0,0:0:0:0:
280,192,79855,2,0,P|329:182|375:202,1,101.999996887207,2|10,0:0|0:0,0:0:0:0:
208,264,80174,6,0,P|164:173|181:74,1,203.999993774414,2|0,0:0|0:0,0:0:0:0:
364,92,80652,2,0,L|263:109,1,101.999996887207,10|0,0:0|0:0,0:0:0:0:
400,204,80972,2,0,L|500:186,1,101.999996887207,2|0,0:0|0:0,0:0:0:0:
404,320,81291,2,0,L|303:337,1,101.999996887207,10|0,0:0|0:0,0:0:0:0:
152,223,81610,6,0,P|229:275|188:359,1,203.999993774414,2|8,0:0|0:0,0:0:0:0:
80,304,82089,1,0,0:0:0:0:
244,176,82248,2,0,P|284:216|304:276,1,101.999996887207,2|0,0:0|0:0,0:0:0:0:
168,144,82567,2,0,P|152:104|168:43,1,101.999996887207,10|0,0:0|0:0,0:0:0:0:
352,28,82887,5,2,0:0:0:0:
236,92,83046,2,0,L|344:104,1,101.999996887207,2|8,0:0|0:0,0:0:0:0:
427,236,83365,2,0,P|378:225|344:189,1,101.999996887207,2|0,0:0|0:0,0:0:0:0:
456,68,83684,1,2,0:0:0:0:
428,236,83844,1,8,0:0:0:0:
336,92,84004,1,0,0:0:0:0:
432,263,84163,6,0,P|389:291|339:300,1,101.999996887207,6|0,0:0|0:0,0:0:0:0:
252,168,84482,2,0,P|303:167|350:187,1,101.999996887207,10|0,0:0|0:0,0:0:0:0:
228,304,84801,1,2,0:0:0:0:
228,304,84961,2,0,P|200:260|191:211,1,101.999996887207,2|8,0:0|0:0,0:0:0:0:
360,88,85280,6,0,P|365:185|282:236,1,203.999993774414,2|0,0:0|0:0,0:0:0:0:
196,103,85759,2,0,P|245:111|286:141,1,101.999996887207,10|0,0:0|0:0,0:0:0:0:
128,220,86078,2,0,L|111:119,1,101.999996887207,2|0,0:0|0:0,0:0:0:0:
284,72,86397,1,10,0:0:0:0:
156,32,86557,1,0,0:0:0:0:
208,184,86716,6,0,L|224:284,1,101.999996887207,14|0,0:0|0:0,0:0:0:0:
52,216,87035,1,10,0:0:0:0:
208,184,87195,1,0,0:0:0:0:
396,315,87355,6,0,P|346:309|316:270,1,101.999996887207,14|0,0:0|0:0,0:0:0:0:
412,144,87674,1,10,0:0:0:0:
396,315,87833,1,2,0:0:0:0:
208,184,87993,6,0,L|312:152,1,101.999996887207,6|0,0:0|0:0,0:0:0:0:
356,32,88312,1,10,0:0:0:0:
196,100,88472,2,0,L|98:129,1,101.999996887207,2|0,0:0|0:0,0:0:0:0:
56,248,88791,6,0,L|116:229,1,63.7500024318696,2|0,0:0|0:0,0:0:0:0:
275,348,89110,6,0,P|306:307|316:257,1,101.999996887207,6|0,0:0|0:0,0:0:0:0:
280,128,89429,1,2,0:0:0:0:
116,228,89589,2,0,P|164:256|212:264,1,101.999996887207,10|2,0:0|0:0,0:0:0:0:
280,128,89908,1,8,0:0:0:0:
108,124,90067,1,2,0:0:0:0:
209,263,90227,1,10,0:0:0:0:
282,99,90387,6,0,P|188:68|108:124,1,203.999993774414,6|0,0:0|0:0,0:0:0:0:
288,208,90865,2,0,L|389:210,1,101.999996887207,10|0,0:0|0:0,0:0:0:0:
500,100,91184,2,0,L|398:97,1,101.999996887207,10|0,0:0|0:0,0:0:0:0:
288,208,91504,1,10,0:0:0:0:
290,71,91663,1,0,0:0:0:0:
271,287,91823,6,0,P|205:219|250:135,1,203.999993774414,6|8,0:0|0:0,0:0:0:0:
376,176,92301,1,0,0:0:0:0:
352,332,92461,2,0,P|308:364|248:376,1,101.999996887207,2|0,0:0|0:0,0:0:0:0:
120,200,92780,2,0,P|173:208|224:242,1,101.999996887207,10|0,0:0|0:0,0:0:0:0:
64,336,93099,5,6,0:0:0:0:
64,336,93259,2,0,L|42:236,1,101.999996887207,2|0,0:0|0:0,0:0:0:0:
141,100,93578,2,0,L|119:200,1,101.999996887207,2|0,0:0|0:0,0:0:0:0:
228,328,93897,2,0,L|206:228,1,101.999996887207,2|0,0:0|0:0,0:0:0:0:
416,256,94216,2,0,P|371:279|320:279,1,101.999996887207,6|0,0:0|0:0,0:0:0:0:
268,160,94535,5,2,0:0:0:0:
436,168,94695,1,8,0:0:0:0:
324,40,94855,1,2,0:0:0:0:
307,236,95014,2,0,P|342:199|350:149,1,101.999996887207,2|0,0:0|0:0,0:0:0:0:
220,236,95333,1,10,0:0:0:0:
220,235,95493,2,0,P|200:283|199:333,1,101.999996887207,2|0,0:0|0:0,0:0:0:0:
408,352,95812,1,0,0:0:0:0:
307,236,95972,1,10,0:0:0:0:
200,343,96131,6,0,P|105:351|74:261,1,203.999993774414,2|0,0:0|0:0,0:0:0:0:
172,144,96610,1,10,0:0:0:0:
194,130,96690,1,0,0:0:0:0:
219,124,96769,1,2,0:0:0:0:
244,128,96849,1,0,0:0:0:0:
265,140,96929,6,0,P|304:173|354:181,1,101.999996887207,14|0,0:0|0:0,0:0:0:0:
415,17,97248,2,0,P|375:50|352:94,1,101.999996887207,10|0,0:0|0:0,0:0:0:0:
448,208,97567,6,0,L|462:107,1,101.999996887207,10|0,0:0|0:0,0:0:0:0:
348,240,97887,2,0,L|362:340,1,101.999996887207,10|0,0:0|0:0,0:0:0:0:
376,160,98206,6,0,P|326:148|275:146,1,101.999996887207,10|0,0:0|0:0,0:0:0:0:
188,316,98525,2,0,P|231:289|268:254,1,101.999996887207,10|0,0:0|0:0,0:0:0:0:
144,136,98844,5,10,0:0:0:0:
196,308,99004,1,0,0:0:0:0:
100,158,99163,1,10,0:0:0:0:
238,274,99323,1,0,0:0:0:0:
284,104,99482,6,0,P|200:49|101:62,1,203.999993774414,6|8,0:0|0:0,0:0:0:0:
40,224,99961,2,0,L|140:240,1,101.999996887207,2|10,0:0|0:0,0:0:0:0:
260,180,100280,1,2,0:0:0:0:
100,158,100440,1,10,0:0:0:0:
260,264,100599,6,0,P|340:211|317:119,1,203.999993774414,14|2,0:0|0:0,0:0:0:0:
184,120,101078,1,6,0:0:0:0:
380,323,101876,6,0,P|399:259|388:193,1,136,6|0,0:0|0:0,0:0:0:0:
279,124,102355,2,0,P|272:157|273:191,1,68,2|2,0:0|0:0,0:0:0:0:
372,116,102674,1,10,0:0:0:0:
280,124,102833,1,2,0:0:0:0:
316,252,102993,1,2,0:0:0:0:
372,116,103152,6,0,L|236:129,1,136,2|2,0:0|0:0,0:0:0:0:
160,220,103631,1,0,0:0:0:0:
160,220,103791,2,0,L|227:213,1,68,2|8,0:0|0:0,0:0:0:0:
320,200,104110,1,2,0:0:0:0:
164,136,104269,2,0,P|130:140|99:154,1,68,2|2,0:0|0:0,0:0:0:0:
146,345,104589,6,0,P|173:285|159:219,1,136,6|2,0:0|0:0,0:0:0:0:
24,264,105067,1,0,0:0:0:0:
23,263,105227,2,0,P|56:274|90:277,1,68,10|2,0:0|0:0,0:0:0:0:
158,218,105546,1,0,0:0:0:0:
108,72,105706,6,0,P|71:128|71:195,1,136,2|2,0:0|0:0,0:0:0:0:
158,218,106184,2,0,P|208:232|244:228,1,68,2|2,0:0|0:0,0:0:0:0:
268,152,106504,1,8,0:0:0:0:
148,136,106663,1,2,0:0:0:0:
304,224,106823,1,2,0:0:0:0:
268,48,106982,1,2,0:0:0:0:
196,228,107142,6,0,P|204:304|260:340,1,136,14|0,0:0|0:0,0:0:0:0:
304,224,107621,2,0,P|296:148|240:112,1,136,10|8,0:0|0:0,0:0:0:0:
132,152,108099,1,8,0:0:0:0:
304,224,108418,5,6,0:0:0:0:
304,224,108578,2,0,L|354:229,1,50.9999984436036,2|0,0:0|0:0,0:0:0:0:
440,144,108897,2,0,P|392:127|344:142,1,101.999996887207,2|0,0:0|0:0,0:0:0:0:
432,224,109376,1,2,0:0:0:0:
252,80,109535,6,0,L|229:248,1,170,6|0,0:0|0:0,0:0:0:0:
71,220,110014,2,0,P|109:200|151:195,1,85,8|0,0:0|0:0,0:0:0:0:
108,328,110333,2,0,L|24:344,1,85,2|0,0:0|0:0,0:0:0:0:
71,220,110652,1,8,0:0:0:0:
104,76,110812,1,0,0:0:0:0:
180,200,110972,6,0,L|272:220,1,85,2|0,0:0|0:0,0:0:0:0:
404,124,111291,2,0,L|320:142,1,85,10|0,0:0|0:0,0:0:0:0:
180,200,111610,1,2,0:0:0:0:
348,228,111769,1,2,0:0:0:0:
272,76,111929,1,10,0:0:0:0:
255,224,112089,6,0,P|256:305|327:343,1,170,6|2,0:0|0:0,0:0:0:0:
452,200,112567,1,8,0:0:0:0:
452,200,112727,2,0,P|371:193|327:261,1,170,2|2,0:0|0:0,0:0:0:0:
452,200,113206,1,8,0:0:0:0:
452,200,113365,6,0,L|464:115,1,85,2|0,0:0|0:0,0:0:0:0:
352,24,113684,2,0,L|340:109,1,85,2|8,0:0|0:0,0:0:0:0:
452,200,114004,1,0,0:0:0:0:
308,184,114163,1,8,0:0:0:0:
287,180,114243,1,0,3:0:0:0:
266,177,114323,1,0,3:0:0:0:
245,173,114402,1,0,3:0:0:0:
224,170,114482,1,10,0:0:0:0:
203,166,114562,1,0,3:0:0:0:
182,163,114642,1,0,3:0:0:0:
161,159,114722,1,0,3:0:0:0:
140,155,114801,6,0,P|64:185|45:265,1,170,14|8,0:0|0:0,0:0:0:0:
176,340,115280,1,0,0:0:0:0:
260,204,115440,1,10,0:0:0:0:
120,272,115599,1,2,0:0:0:0:
276,296,115759,1,10,0:0:0:0:
402,164,115918,6,0,P|321:149|260:204,1,170,6|0,0:0|0:0,0:0:0:0:
384,332,116397,2,0,L|406:249,1,85,8|0,0:0|0:0,0:0:0:0:
424,82,116716,2,0,L|401:164,1,85,8|2,0:0|0:0,0:0:0:0:
288,264,117035,1,10,0:0:0:0:
329,117,117195,1,2,0:0:0:0:
187,216,117355,6,0,P|160:292|220:352,1,170,6|8,0:0|0:0,0:0:0:0:
372,316,117833,1,0,0:0:0:0:
240,276,117993,1,10,0:0:0:0:
399,228,118152,1,2,0:0:0:0:
240,276,118312,1,10,0:0:0:0:
399,227,118472,6,0,P|423:147|408:64,1,170,6|0,0:0|0:0,0:0:0:0:
240,112,118950,1,10,0:0:0:0:
239,111,119110,2,0,P|279:127|321:129,1,85,2|8,0:0|0:0,0:0:0:0:
216,32,119429,2,0,P|173:34|134:49,1,85,2|10,0:0|0:0,0:0:0:0:
116,62,119668,1,8,0:0:0:0:
107,82,119748,1,10,0:0:0:0:
104,104,119828,1,8,0:0:0:0:
107,125,119908,6,0,P|160:187|243:188,1,170,14|8,0:0|0:0,0:0:0:0:
396,192,120387,1,0,0:0:0:0:
376,36,120546,1,10,0:0:0:0:
216,40,120706,1,2,0:0:0:0:
352,120,120865,1,10,0:0:0:0:
488,36,121025,6,0,L|476:205,1,170,6|0,0:0|0:0,0:0:0:0:
328,280,121504,2,0,P|341:240|374:214,1,85,8|0,0:0|0:0,0:0:0:0:
398,54,121823,2,0,P|384:93|351:119,1,85,8|2,0:0|0:0,0:0:0:0:
196,88,122142,1,10,0:0:0:0:
324,44,122301,1,2,0:0:0:0:
252,216,122461,6,0,P|178:231|88:204,1,170,14|8,0:0|0:0,0:0:0:0:
40,60,122940,1,0,0:0:0:0:
200,16,123099,1,10,0:0:0:0:
304,156,123259,1,2,0:0:0:0:
144,112,123418,1,10,0:0:0:0:
368,104,123578,6,0,B|397:144|383:182|383:182|365:226|385:266,1,170,14|10,0:0|0:0,0:0:0:0:
272,336,124057,1,2,0:0:0:0:
459,213,124216,2,0,P|419:199|377:197,1,85,10|0,0:0|0:0,0:0:0:0:
188,300,124535,6,0,B|222:241|289:249|289:249|268:209|281:170|281:170|231:186,1,255,6|0,0:0|0:0,0:0:0:0:
