osu file format v14

[General]
AudioFilename: Picon de Metafiction.mp3
AudioLeadIn: 0
PreviewTime: 78019
Countdown: 0
SampleSet: Soft
StackLeniency: 0.7
Mode: 0
LetterboxInBreaks: 0
WidescreenStoryboard: 0

[Editor]
DistanceSpacing: 0.9
BeatDivisor: 6
GridSize: 4
TimelineZoom: 1

[Metadata]
Title:Picon de Metafiction
TitleUnicode:ピコンでメタフィクション
Artist:Erabareshi
ArtistUnicode:エラバレシ
Creator:Darksonic
Version:Extra
Source:四女神オンライン CYBER DIMENSION NEPTUNE
Tags:Neptunia Hyperdimension Four Goddesses Online cyberdimension choujigen game neptune idea factory compile heart opening OP JRPG 超次元ゲイム ネプテューヌ tamsoft pikon japanese videogame video game hazu- crissa theshadowofdark [-crissaegrim-]
BeatmapID:1907422
BeatmapSetID:913092

[Difficulty]
HPDrainRate:6
CircleSize:4
OverallDifficulty:9
ApproachRate:9.3
SliderMultiplier:1.9
SliderTickRate:1

[Events]
//Background and Video events
0,0,"BG.jpg",0,0
//Break Periods
//Storyboard Layer 0 (Background)
//Storyboard Layer 1 (Fail)
//Storyboard Layer 2 (Pass)
//Storyboard Layer 3 (Foreground)
//Storyboard Layer 4 (Overlay)
//Storyboard Sound Samples

[TimingPoints]
79,491.803278688525,4,2,0,30,1,0
79,-133.333333333333,4,2,0,30,0,0
11872,491.803278688525,4,2,0,30,1,0
11872,-133.333333333333,4,2,0,30,0,0
12855,444.444444444444,4,2,0,30,1,0
12855,-133.333333333333,4,2,0,30,0,0
13299,491.803278688525,4,2,0,30,1,0
13299,-133.333333333333,4,2,0,30,0,0
13865,491.803278688525,4,2,0,30,1,0
16324,-133.333333333333,4,2,0,30,0,0
22409,319.148936170213,4,2,3,50,1,0
22409,-100,4,2,3,50,0,0
22887,319.148936170213,4,2,3,70,1,0
32780,-76.9230769230769,4,2,4,60,0,0
33099,-166.666666666667,4,2,2,45,0,0
33259,-166.666666666667,4,2,5,45,0,0
38206,-166.666666666667,4,2,2,45,0,0
38365,-166.666666666667,4,2,5,45,0,0
43312,-166.666666666667,4,2,2,45,0,0
43472,-166.666666666667,4,2,5,45,0,0
50972,-333.333333333333,4,2,0,30,0,0
52089,-100,4,2,3,60,0,0
68844,-166.666666666667,4,2,2,40,0,0
69004,-166.666666666667,4,2,3,40,0,0
71397,-100,4,2,3,60,0,0
78099,-166.666666666667,4,2,0,20,0,0
78897,-83.3333333333333,4,2,3,70,0,1
88631,-133.333333333333,4,2,0,60,0,0
89110,-83.3333333333333,4,2,4,70,0,1
89269,-83.3333333333333,4,2,3,70,0,1
101876,-125,4,2,3,60,0,0
108418,-166.666666666667,4,2,2,40,0,0
108578,-166.666666666667,4,2,3,40,0,0
109535,-100,4,2,3,60,0,0
124535,-100,4,2,4,60,0,0
125014,-100,4,2,4,30,0,0

[Colours]
Combo1 : 255,255,128
Combo2 : 194,150,254
Combo3 : 132,215,255
Combo4 : 255,168,81

[HitObjects]
326,73,1800,5,0,0:0:0:0:
326,73,2046,6,0,L|398:75,1,71.2500027179719,2|0,0:0|0:0,0:0:0:0:
400,156,2538,1,0,0:0:0:0:
320,156,2783,2,0,L|177:152,1,142.500005435944,2|0,0:0|0:0,0:0:0:0:
96,148,3521,1,0,0:0:0:0:
47,211,3767,2,0,P|52:246|70:278,1,71.2500027179719,2|2,0:0|0:0,0:0:0:0:
151,297,4259,1,2,0:0:0:0:
238,135,4505,2,0,P|172:158|139:219,2,142.500005435944,2|2|2,0:0|0:0|0:0,0:0:0:0:
288,200,5734,1,2,0:0:0:0:
358,338,5980,6,0,P|424:315|457:254,1,142.500005435944,2|0,0:0|0:0,0:0:0:0:
451,172,6718,1,2,0:0:0:0:
412,100,6964,1,2,0:0:0:0:
268,168,7456,1,2,0:0:0:0:
168,44,7947,5,2,0:0:0:0:
168,44,8193,2,0,L|238:54,1,71.2500027179719,2|0,0:0|0:0,0:0:0:0:
104,188,8685,1,2,0:0:0:0:
104,188,9177,2,0,P|65:130|77:61,1,142.500005435944,2|0,0:0|0:0,0:0:0:0:
192,152,9915,5,2,0:0:0:0:
124,300,10406,2,0,L|194:312,1,71.2500027179719,2|0,0:0|0:0,0:0:0:0:
260,268,10898,1,2,0:0:0:0:
384,160,11390,1,2,0:0:0:0:
264,47,11872,2,0,P|233:111|239:181,1,142.500005435944,2|2,0:0|0:0,0:0:0:0:
432,336,12855,2,0,P|462:272|456:202,1,142.500005435944,2|2,0:0|0:0,0:0:0:0:
238,180,13865,1,2,0:0:0:0:
256,192,13987,12,2,15750,0:0:0:0:
124,96,16324,5,2,0:0:0:0:
124,95,16569,2,0,P|90:157|97:227,1,142.500005435944,2|0,0:0|0:0,0:0:0:0:
169,266,17307,1,2,0:0:0:0:
231,214,17553,1,0,0:0:0:0:
224,132,17799,1,2,0:0:0:0:
256,192,17922,12,0,22225,0:0:0:0:
400,56,22887,6,0,P|315:80|321:168,1,190,6|8,0:0|0:0,0:0:0:0:
380,296,23365,1,0,0:0:0:0:
224,172,23525,1,10,0:0:0:0:
76,272,23684,1,2,0:0:0:0:
274,291,23844,1,10,0:0:0:0:
499,192,24004,6,0,P|413:154|321:168,1,190,6|0,0:0|0:0,0:0:0:0:
48,336,24482,2,0,L|142:347,1,95,8|0,0:0|0:0,0:0:0:0:
276,320,24801,1,8,0:0:0:0:
140,140,24961,1,2,0:0:0:0:
292,240,25121,1,10,0:0:0:0:
52,232,25280,1,2,0:0:0:0:
223,48,25440,6,0,P|316:31|410:35,1,190,14|8,0:0|0:0,0:0:0:0:
484,152,25918,1,0,0:0:0:0:
404,328,26078,1,10,0:0:0:0:
224,128,26238,1,2,0:0:0:0:
408,148,26397,1,10,0:0:0:0:
159,335,26557,6,0,B|112:344|84:312|84:312|88:240|42:222,1,190,6|0,0:0|0:0,0:0:0:0:
210,64,27035,2,0,P|226:108|225:156,1,95,8|0,0:0|0:0,0:0:0:0:
256,288,27355,1,8,0:0:0:0:
124,120,27514,1,2,0:0:0:0:
164,352,27674,2,0,L|257:368,1,95,10|2,0:0|0:0,0:0:0:0:
488,164,27993,6,0,L|300:196,1,190,14|8,0:0|0:0,0:0:0:0:
160,180,28472,1,0,0:0:0:0:
296,48,28631,1,10,0:0:0:0:
60,88,28791,1,2,0:0:0:0:
112,272,28950,1,10,0:0:0:0:
416,137,29110,6,0,B|372:152|336:144|336:144|340:80|296:48,1,190,6|0,0:0|0:0,0:0:0:0:
351,275,29589,2,0,P|399:276|445:264,1,95,8|0,0:0|0:0,0:0:0:0:
212,148,29908,2,0,L|200:242,1,95,8|2,0:0|0:0,0:0:0:0:
44,184,30227,1,10,0:0:0:0:
176,44,30387,1,2,0:0:0:0:
258,310,30546,6,0,B|204:345|147:314|147:314|122:291|77:301,1,190,14|8,0:0|0:0,0:0:0:0:
120,168,31025,1,0,0:0:0:0:
300,216,31184,1,10,0:0:0:0:
144,48,31344,1,2,0:0:0:0:
24,240,31504,1,10,0:0:0:0:
300,96,31663,6,0,P|244:96|196:112,1,95,14|0,0:0|0:0,0:0:0:0:
120,356,31982,1,2,0:0:0:0:
112,144,32142,1,10,0:0:0:0:
356,348,32301,2,0,P|372:303|372:256,1,95,2|8,0:0|0:0,0:0:0:0:
156,248,32621,1,0,0:0:0:0:
311,32,32780,6,0,P|292:90|300:150,1,123.499994346619,6|0,0:0|0:0,0:0:0:0:
216,335,33099,6,0,P|160:346|108:324,1,113.999996520996,4|2,0:2|1:2,0:0:0:0:
96,168,33578,1,0,0:0:0:0:
88,251,33738,2,0,P|116:249|144:255,1,56.9999982604981,2|0,1:2|0:0,0:0:0:0:
296,264,34057,2,0,P|267:266|239:260,1,56.9999982604981,2|0,1:2|0:0,0:0:0:0:
192,108,34376,2,0,L|241:79,1,56.9999982604981,2|0,1:2|0:0,0:0:0:0:
392,64,34695,2,0,L|342:92,1,56.9999982604981,2|0,1:2|0:0,0:0:0:0:
224,187,35014,2,0,P|252:183|280:187,1,56.9999982604981,2|0,1:2|0:0,0:0:0:0:
320,268,35333,1,2,1:2:0:0:
320,268,35493,1,0,0:0:0:0:
152,240,35652,6,0,P|135:186|150:132,1,113.999996520996,2|2,1:2|1:2,0:0:0:0:
200,64,36131,1,0,0:0:0:0:
279,172,36291,2,0,L|224:184,1,56.9999982604981,2|0,1:2|0:0,0:0:0:0:
232,264,36610,1,2,1:2:0:0:
296,92,36769,2,0,P|345:118|364:170,1,113.999996520996,2|0,0:2|0:0,0:0:0:0:
368,252,37248,2,0,L|308:256,1,56.9999982604981,0|0,1:0|0:0,0:0:0:0:
223,335,37567,2,0,L|280:332,1,56.9999982604981,2|0,1:2|0:0,0:0:0:0:
224,256,37887,1,2,1:2:0:0:
224,256,38046,1,0,0:0:0:0:
167,64,38206,6,0,P|118:89|96:140,1,113.999996520996,4|2,0:0|1:2,0:0:0:0:
152,204,38684,1,0,0:0:0:0:
200,135,38844,2,0,P|227:128|255:129,1,56.9999982604981,2|0,1:2|0:0,0:0:0:0:
300,200,39163,1,2,1:2:0:0:
384,196,39323,1,0,0:0:0:0:
243,296,39482,2,0,P|224:275|213:249,1,56.9999982604981,2|0,1:2|0:0,0:0:0:0:
255,129,39801,2,0,P|275:149|286:175,1,56.9999982604981,2|0,1:2|0:0,0:0:0:0:
144,280,40121,2,0,P|138:252|143:224,1,56.9999982604981,2|0,1:2|0:0,0:0:0:0:
356,148,40440,2,0,P|361:175|356:203,1,56.9999982604981,2|0,1:2|0:0,0:0:0:0:
184,67,40759,6,0,P|233:41|290:41,1,113.999996520996,2|0,1:2|1:0,0:0:0:0:
348,108,41238,1,0,0:0:0:0:
348,108,41397,2,0,L|372:228,1,113.999996520996,2|0,1:2|1:0,0:0:0:0:
324,288,41876,1,0,0:0:0:0:
324,288,42035,2,0,P|274:314|217:314,1,113.999996520996,2|0,1:2|1:0,0:0:0:0:
164,248,42514,1,0,0:0:0:0:
212,104,42674,1,2,1:2:0:0:
152,164,42833,1,2,0:2:0:0:
232,192,42993,2,0,P|260:192|285:178,1,56.9999982604981,2|0,1:2|0:0,0:0:0:0:
111,92,43312,6,0,P|77:136|74:192,1,113.999996520996,4|0,0:0|1:0,0:0:0:0:
136,252,43791,1,0,0:0:0:0:
271,280,43950,2,0,P|243:279|216:272,1,56.9999982604981,2|0,1:2|0:0,0:0:0:0:
148,160,44269,2,0,P|176:160|203:168,1,56.9999982604981,2|0,1:2|0:0,0:0:0:0:
288,184,44589,2,0,L|341:164,1,56.9999982604981,2|0,1:2|0:0,0:0:0:0:
400,60,44908,2,0,L|346:79,1,56.9999982604981,2|0,1:2|0:0,0:0:0:0:
392,236,45227,2,0,L|445:216,1,56.9999982604981,2|0,1:2|0:0,0:0:0:0:
472,136,45546,1,2,1:2:0:0:
472,136,45706,1,0,0:0:0:0:
313,237,45865,6,0,P|328:290|376:320,1,113.999996520996,2|0,1:2|1:0,0:0:0:0:
336,160,46344,1,0,0:0:0:0:
336,160,46504,2,0,P|296:156|268:160,1,56.9999982604981,2|0,1:2|0:0,0:0:0:0:
200,168,46823,1,2,1:2:0:0:
88,296,46982,2,0,P|143:290|182:250,1,113.999996520996,2|0,0:2|0:0,0:0:0:0:
200,168,47461,2,0,P|168:160|132:160,1,56.9999982604981,0|0,1:0|0:0,0:0:0:0:
96,88,47780,2,0,P|123:80|151:78,1,56.9999982604981,2|0,1:2|0:0,0:0:0:0:
236,88,48099,1,2,1:2:0:0:
320,80,48259,1,2,0:2:0:0:
204,260,48418,6,0,L|182:207,1,56.9999982604981,2|0,1:2|0:0,0:0:0:0:
328,160,48738,1,2,1:2:0:0:
268,212,48897,2,0,L|289:264,1,56.9999982604981,2|0,0:2|1:0,0:0:0:0:
372,268,49216,1,0,0:0:0:0:
473,332,49376,2,0,L|452:280,1,56.9999982604981,2|0,1:2|0:0,0:0:0:0:
396,96,49695,6,0,P|388:123|367:142,1,56.9999982604981,2|0,1:2|0:0,0:0:0:0:
212,128,50014,2,0,P|233:109|260:104,1,56.9999982604981,2|0,1:2|0:0,0:0:0:0:
280,300,50333,2,0,P|252:304|226:293,1,56.9999982604981,2|0,1:2|0:0,0:0:0:0:
84,96,50652,2,0,P|109:107|125:131,1,56.9999982604981,2|0,1:2|0:0,0:0:0:0:
83,343,50972,6,0,P|44:270|61:188,1,170.999994781494,2|2,0:0|0:0,0:0:0:0:
171,264,52089,6,0,P|218:272|253:303,1,95,6|0,0:0|0:0,0:0:0:0:
452,216,52408,1,2,0:0:0:0:
444,180,52488,1,2,0:0:0:0:
436,144,52567,1,10,0:0:0:0:
272,80,52727,1,8,0:0:0:0:
368,348,52887,1,10,0:0:0:0:
380,40,53046,1,2,0:0:0:0:
380,39,53365,6,0,P|335:56|303:90,1,95,6|0,0:0|0:0,0:0:0:0:
324,224,53684,1,0,0:0:0:0:
144,256,53844,1,10,0:0:0:0:
256,332,54004,1,0,0:0:0:0:
179,151,54163,1,2,0:0:0:0:
72,312,54323,2,0,B|112:344|159:343,1,95,2|8,0:0|0:0,0:0:0:0:
206,75,54642,6,0,B|148:63|117:102|117:102|64:132|32:105,1,190,2|0,0:0|0:0,0:0:0:0:
206,75,55121,1,10,0:0:0:0:
396,116,55280,1,0,0:0:0:0:
240,236,55440,1,2,0:0:0:0:
288,48,55599,1,2,0:0:0:0:
328,316,55759,2,0,L|234:331,1,95,8|0,0:0|0:0,0:0:0:0:
63,143,56078,6,0,P|108:158|145:188,1,95,2|2,0:0|0:0,0:0:0:0:
100,316,56397,1,10,0:0:0:0:
227,71,56557,2,0,P|260:157|210:234,1,190,2|2,0:0|0:0,0:0:0:0:
108,80,57035,1,10,0:0:0:0:
356,152,57195,6,0,P|444:188|440:120,1,190,6|0,0:0|0:0,0:0:0:0:
320,72,57674,1,8,0:0:0:0:
315,285,57833,1,0,0:0:0:0:
280,11,57993,2,0,P|240:35|209:71,1,95,10|0,0:0|0:0,0:0:0:0:
130,317,58312,2,0,P|135:270|123:224,1,95,10|2,0:0|0:0,0:0:0:0:
103,204,58551,1,2,0:0:0:0:
87,180,58631,6,0,P|61:92|124:26,1,190,6|8,0:0|0:0,0:0:0:0:
288,160,59110,2,0,P|236:176|192:168,1,95,2|2,0:0|0:0,0:0:0:0:
352,24,59429,1,2,0:0:0:0:
368,188,59589,2,0,L|380:292,1,95,8|0,0:0|0:0,0:0:0:0:
476,100,59908,6,0,B|442:100|418:80|418:80|360:124|297:88,1,190,2|10,0:0|0:0,0:0:0:0:
80,108,60387,2,0,P|136:95|180:107,1,95,2|2,0:0|0:0,0:0:0:0:
286,239,60706,1,2,0:0:0:0:
120,268,60865,2,0,P|131:216|125:169,1,95,8|0,0:0|0:0,0:0:0:0:
430,308,61184,6,0,P|376:234|284:239,1,190,6|8,0:0|0:0,0:0:0:0:
88,340,61663,2,0,L|181:322,1,95,2|0,0:0|0:0,0:0:0:0:
400,116,61982,2,0,L|306:133,1,95,2|0,0:0|0:0,0:0:0:0:
440,361,62301,2,0,P|463:269|452:175,1,190,6|2,0:0|0:0,0:0:0:0:
428,144,62700,1,2,0:0:0:0:
400,116,62780,5,10,0:0:0:0:
212,40,62940,1,8,0:0:0:0:
108,213,63099,1,10,0:0:0:0:
360,340,63259,1,2,0:0:0:0:
360,339,63578,6,0,P|312:340|270:318,1,95,6|0,0:0|0:0,0:0:0:0:
244,184,63897,1,0,0:0:0:0:
388,64,64057,1,10,0:0:0:0:
336,260,64216,1,0,0:0:0:0:
248,80,64376,1,2,0:0:0:0:
336,260,64535,2,0,P|352:304|344:356,1,95,2|8,0:0|0:0,0:0:0:0:
48,288,64855,6,0,B|92:265|133:297|133:297|177:332|234:312,1,190,2|0,0:0|0:0,0:0:0:0:
240,136,65333,1,10,0:0:0:0:
56,88,65493,1,0,0:0:0:0:
192,224,65652,1,10,0:0:0:0:
292,64,65812,2,0,P|317:103|327:155,1,95,2|8,0:0|0:0,0:0:0:0:
284,276,66131,1,0,0:0:0:0:
288,60,66291,5,14,0:0:0:0:
380,252,66450,1,2,0:0:0:0:
140,160,66610,1,10,0:0:0:0:
479,119,66769,2,0,P|432:118|387:131,1,95,10|0,0:0|0:0,0:0:0:0:
348,336,67089,2,0,P|395:337|440:324,1,95,10|0,0:0|0:0,0:0:0:0:
220,88,67408,6,10,P|140:125|164:209,1,190,6|0,0:0|0:0,0:0:0:0:
360,240,67887,1,8,0:0:0:0:
196,280,68046,1,0,0:0:0:0:
450,226,68206,1,10,0:0:0:0:
254,118,68365,1,2,0:0:0:0:
312,352,68525,2,0,L|217:359,1,95,10|2,0:0|0:0,0:0:0:0:
31,128,68844,6,0,P|86:142|122:185,1,113.999996520996,6|0,0:0|0:0,0:0:0:0:
288,152,69482,2,0,P|251:194|197:209,1,113.999996520996,2|0,0:0|0:0,0:0:0:0:
152,372,70121,2,0,P|126:322|132:266,1,113.999996520996,2|0,0:0|0:0,0:0:0:0:
240,304,70599,1,0,0:0:0:0:
240,304,70759,2,0,L|352:324,1,113.999996520996,2|0,0:0|0:0,0:0:0:0:
416,72,71397,6,0,P|369:79|328:103,1,95,14|0,0:0|0:0,0:0:0:0:
288,240,71716,1,10,0:0:0:0:
184,52,71876,1,0,0:0:0:0:
139,205,72035,5,10,0:0:0:0:
368,253,72195,1,2,0:0:0:0:
259,48,72355,1,10,0:0:0:0:
85,268,72514,2,0,P|128:288|174:281,1,95,6|0,0:0|0:0,0:0:0:0:
316,200,72833,5,10,0:0:0:0:
140,144,72993,1,10,0:0:0:0:
320,276,73152,5,2,0:0:0:0:
150,52,73312,1,10,0:0:0:0:
179,336,73472,1,10,0:0:0:0:
184,356,73791,6,0,P|258:299|351:301,1,190,14|0,0:0|0:0,0:0:0:0:
420,176,74269,1,10,0:0:0:0:
272,116,74429,1,2,0:0:0:0:
288,276,74589,1,10,0:0:0:0:
196,145,74748,1,2,0:0:0:0:
124,288,74908,1,10,0:0:0:0:
118,128,75067,1,2,0:0:0:0:
288,276,75227,2,0,L|388:288,1,95,10|10,0:0|0:0,0:0:0:0:
406,126,75546,5,10,0:0:0:0:
180,248,75706,1,10,0:0:0:0:
456,292,75865,1,10,0:0:0:0:
376,28,76025,1,10,0:0:0:0:
359,39,76344,6,0,B|287:9|241:72|241:72|219:52|188:59,1,190,6|0,0:0|0:0,0:0:0:0:
314,111,76823,1,10,0:0:0:0:
382,287,76982,1,2,0:0:0:0:
430,55,77142,1,10,0:0:0:0:
216,152,77301,1,2,0:0:0:0:
452,156,77461,5,10,0:0:0:0:
189,58,77621,1,14,0:0:0:0:
48,260,78099,5,2,0:0:0:0:
376,280,78418,1,2,0:0:0:0:
376,280,78578,2,0,L|319:276,1,56.9999982604981,2|0,0:0|0:0,0:0:0:0:
167,335,78897,6,0,P|144:285|156:230,1,113.999996520996,6|0,0:0|0:0,0:0:0:0:
204,76,79216,1,2,0:0:0:0:
424,92,79376,1,10,0:0:0:0:
220,160,79535,2,0,P|243:210|231:265,1,113.999996520996,2|0,0:0|0:0,0:0:0:0:
72,308,79855,1,2,0:0:0:0:
96,80,80014,1,10,0:0:0:0:
307,339,80174,6,0,P|415:336|450:235,1,227.999993041992,2|0,0:0|0:0,0:0:0:0:
368,56,80652,2,0,P|344:107|349:163,1,113.999996520996,10|0,0:0|0:0,0:0:0:0:
200,340,80972,2,0,P|223:288|218:232,1,113.999996520996,2|0,0:0|0:0,0:0:0:0:
84,48,81291,2,0,P|60:99|65:155,1,113.999996520996,10|0,0:0|0:0,0:0:0:0:
279,355,81610,6,0,P|298:244|250:142,1,227.999993041992,2|8,0:0|0:0,0:0:0:0:
88,168,82089,1,0,0:0:0:0:
300,264,82248,2,0,L|413:271,1,113.999996520996,2|0,0:0|0:0,0:0:0:0:
224,48,82567,2,0,L|110:40,1,113.999996520996,10|0,0:0|0:0,0:0:0:0:
40,188,82887,5,2,0:0:0:0:
300,24,83046,2,0,P|296:80|248:128,1,113.999996520996,2|8,0:0|0:0,0:0:0:0:
40,296,83365,2,0,P|82:259|138:255,1,113.999996520996,2|0,0:0|0:0,0:0:0:0:
268,344,83684,1,2,0:0:0:0:
408,184,83844,1,8,0:0:0:0:
200,200,84004,1,0,0:0:0:0:
200,200,84083,1,0,0:0:0:0:
200,200,84163,6,0,P|256:232|324:228,1,113.999996520996,6|0,0:0|0:0,0:0:0:0:
160,64,84482,2,0,P|103:67|55:97,1,113.999996520996,10|0,0:0|0:0,0:0:0:0:
128,332,84801,1,2,0:0:0:0:
276,148,84961,2,0,L|288:32,1,113.999996520996,2|8,0:0|0:0,0:0:0:0:
440,328,85280,6,0,B|388:332|352:304|352:304|312:288|272:312|272:312|244:300|216:320,1,227.999993041992,2|0,0:0|0:0,0:0:0:0:
32,207,85759,2,0,P|87:217|130:254,1,113.999996520996,10|0,0:0|0:0,0:0:0:0:
292,304,86078,1,2,0:0:0:0:
392,124,86238,1,0,0:0:0:0:
212,248,86397,2,0,L|185:358,1,113.999996520996,10|0,0:0|0:0,0:0:0:0:
168,176,86716,5,14,0:0:0:0:
264,40,86876,1,0,0:0:0:0:
288,273,87035,1,10,0:0:0:0:
231,116,87195,1,0,0:0:0:0:
136,332,87355,5,14,0:0:0:0:
288,273,87514,1,0,0:0:0:0:
92,256,87674,1,10,0:0:0:0:
320,350,87833,1,2,0:0:0:0:
367,346,87913,1,2,0:0:0:0:
407,321,87993,6,0,P|430:270|428:214,1,113.999996520996,6|0,0:0|0:0,0:0:0:0:
360,64,88312,1,10,0:0:0:0:
68,176,88472,2,0,P|122:191|179:190,1,113.999996520996,2|0,0:0|0:0,0:0:0:0:
360,63,88791,6,0,P|340:93|334:128,1,71.2500027179719,2|0,0:0|0:0,0:0:0:0:
240,330,89110,6,0,P|273:285|286:230,1,113.999996520996,6|0,0:0|0:0,0:0:0:0:
215,103,89429,1,2,0:0:0:0:
74,242,89589,1,10,0:0:0:0:
262,168,89748,1,2,0:0:0:0:
58,74,89908,1,8,0:0:0:0:
129,298,90067,1,2,0:0:0:0:
204,83,90227,1,10,0:0:0:0:
56,239,90387,6,0,B|104:249|129:298|129:298|182:321|261:288,1,227.999993041992,6|0,0:0|0:0,0:0:0:0:
370,210,90865,1,10,0:0:0:0:
182,145,91025,1,0,0:0:0:0:
372,138,91184,1,10,0:0:0:0:
174,221,91344,1,0,0:0:0:0:
377,296,91504,1,10,0:0:0:0:
339,62,91663,1,0,0:0:0:0:
120,276,91823,6,0,B|168:317|225:280|225:280|279:254|330:297,1,227.999993041992,6|8,0:0|0:0,0:0:0:0:
438,258,92301,1,0,0:0:0:0:
165,111,92461,2,0,P|182:158|173:222,1,113.999996520996,2|0,0:0|0:0,0:0:0:0:
385,149,92780,2,0,P|367:102|377:38,1,113.999996520996,10|0,0:0|0:0,0:0:0:0:
290,235,93099,5,6,0:0:0:0:
49,62,93259,2,0,L|168:48,1,113.999996520996,2|0,0:0|0:0,0:0:0:0:
316,304,93578,2,0,L|197:318,1,113.999996520996,2|0,0:0|0:0,0:0:0:0:
420,66,93897,2,0,P|450:113|451:170,1,113.999996520996,2|0,0:0|0:0,0:0:0:0:
135,191,94216,2,0,P|182:159|238:149,1,113.999996520996,6|0,0:0|0:0,0:0:0:0:
341,242,94535,5,2,0:0:0:0:
150,286,94695,1,8,0:0:0:0:
127,82,94855,1,2,0:0:0:0:
305,312,95014,2,0,P|266:344|205:342,1,113.999996520996,2|0,0:0|0:0,0:0:0:0:
114,217,95333,1,10,0:0:0:0:
399,163,95493,2,0,P|416:217|408:272,1,113.999996520996,2|0,0:0|0:0,0:0:0:0:
114,217,95812,1,0,0:0:0:0:
335,224,95972,1,10,0:0:0:0:
60,269,96131,6,0,B|18:213|66:158|66:158|96:120|78:58,1,227.999993041992,2|0,0:0|0:0,0:0:0:0:
267,240,96610,1,10,0:0:0:0:
227,255,96690,1,0,0:0:0:0:
186,257,96769,1,2,0:0:0:0:
146,244,96849,1,0,0:0:0:0:
113,217,96929,6,0,P|142:168|186:134,1,113.999996520996,14|0,0:0|0:0,0:0:0:0:
381,233,97248,2,0,L|266:240,1,113.999996520996,10|0,0:0|0:0,0:0:0:0:
269,94,97567,5,10,0:0:0:0:
448,183,97727,1,0,0:0:0:0:
220,156,97887,1,10,0:0:0:0:
410,92,98046,1,0,0:0:0:0:
310,297,98206,5,10,0:0:0:0:
145,186,98365,1,0,0:0:0:0:
372,218,98525,1,10,0:0:0:0:
186,287,98684,1,0,0:0:0:0:
93,76,98844,5,10,0:0:0:0:
248,204,99004,1,0,0:0:0:0:
424,59,99163,1,10,0:0:0:0:
224,76,99323,1,0,0:0:0:0:
337,314,99482,6,0,B|326:247|379:222|379:222|334:177|349:112,1,227.999993041992,6|8,0:0|0:0,0:0:0:0:
207,165,99961,1,2,0:0:0:0:
427,151,100121,1,10,0:0:0:0:
169,283,100280,1,2,0:0:0:0:
254,60,100440,1,10,0:0:0:0:
362,300,100599,6,0,P|310:322|253:318,1,113.999996520996,14|0,0:0|0:0,0:0:0:0:
89,185,100918,1,2,0:0:0:0:
395,221,101078,1,6,0:0:0:0:
436,212,101876,6,0,P|375:256|300:256,1,152,6|0,0:0|0:0,0:0:0:0:
80,192,102355,1,2,0:0:0:0:
244,164,102514,1,2,0:0:0:0:
176,348,102674,1,10,0:0:0:0:
164,180,102833,1,2,0:0:0:0:
176,348,102993,1,2,0:0:0:0:
108,116,103152,6,0,B|153:89|196:104|196:104|191:73|210:47,1,152,2|2,0:0|0:0,0:0:0:0:
28,120,103631,1,0,0:0:0:0:
28,120,103791,2,0,L|44:194,1,76,2|8,0:0|0:0,0:0:0:0:
128,264,104110,1,2,0:0:0:0:
344,224,104269,1,2,0:0:0:0:
226,191,104429,1,2,0:0:0:0:
352,340,104589,6,0,P|424:347|464:287,1,152,6|2,0:0|0:0,0:0:0:0:
448,180,105067,1,0,0:0:0:0:
260,156,105227,1,10,0:0:0:0:
371,259,105387,2,0,P|334:260|300:277,1,76,2|0,0:0|0:0,0:0:0:0:
120,347,105706,6,0,P|159:284|156:209,1,152,2|2,0:0|0:0,0:0:0:0:
136,52,106184,1,2,0:0:0:0:
136,52,106344,2,0,L|211:41,1,76,2|8,0:0|0:0,0:0:0:0:
352,256,106663,1,2,0:0:0:0:
324,96,106823,1,2,0:0:0:0:
169,138,106982,1,2,0:0:0:0:
428,283,107142,6,0,P|460:217|437:146,1,152,14|0,0:0|0:0,0:0:0:0:
204,248,107621,2,0,P|241:255|278:253,1,76,10|0,0:0|0:0,0:0:0:0:
336,160,107940,1,8,0:0:0:0:
120,200,108099,1,8,0:0:0:0:
360,336,108418,5,6,0:0:0:0:
360,335,108578,2,0,P|370:309|373:281,1,56.9999982604981,2|0,0:0|0:0,0:0:0:0:
263,128,108897,2,0,P|244:181|248:237,1,113.999996520996,2|0,0:0|0:0,0:0:0:0:
368,188,109376,1,2,0:0:0:0:
64,151,109535,6,0,P|39:237|112:288,1,190,6|0,0:0|0:0,0:0:0:0:
236,152,110014,1,8,0:0:0:0:
112,212,110174,1,0,0:0:0:0:
315,180,110333,2,0,P|318:133|296:91,1,95,2|0,0:0|0:0,0:0:0:0:
220,316,110652,2,0,L|314:326,1,95,8|0,0:0|0:0,0:0:0:0:
472,232,110972,5,2,0:0:0:0:
336,252,111131,1,0,0:0:0:0:
300,52,111291,1,10,0:0:0:0:
392,192,111450,1,0,0:0:0:0:
468,40,111610,1,2,0:0:0:0:
300,52,111769,1,2,0:0:0:0:
224,204,111929,1,10,0:0:0:0:
48,39,112089,6,0,P|139:37|194:110,1,190,6|2,0:0|0:0,0:0:0:0:
80,192,112567,1,8,0:0:0:0:
370,274,112727,2,0,P|278:276|223:203,1,190,2|2,0:0|0:0,0:0:0:0:
428,175,113206,1,8,0:0:0:0:
311,14,113365,6,0,B|281:55|317:93|317:93|339:145|317:195,1,190,2|2,0:0|0:0,0:0:0:0:
190,145,113844,1,8,0:0:0:0:
308,336,114004,2,0,L|213:324,1,95,0|8,0:0|0:0,0:0:0:0:
172,320,114243,1,0,3:0:0:0:
137,297,114323,1,0,3:0:0:0:
109,267,114402,1,0,3:0:0:0:
89,232,114482,1,10,0:0:0:0:
78,192,114562,1,0,3:0:0:0:
78,153,114642,1,0,3:0:0:0:
86,112,114722,1,0,3:0:0:0:
102,76,114801,6,0,P|188:40|276:69,1,190,14|8,0:0|0:0,0:0:0:0:
400,124,115280,1,0,0:0:0:0:
244,272,115440,1,10,0:0:0:0:
452,264,115599,1,2,0:0:0:0:
240,112,115759,1,10,0:0:0:0:
279,368,115918,6,0,P|341:299|335:206,1,190,6|0,0:0|0:0,0:0:0:0:
88,268,116397,2,0,L|182:273,1,95,8|0,0:0|0:0,0:0:0:0:
260,112,116716,1,8,0:0:0:0:
72,104,116876,1,2,0:0:0:0:
304,208,117035,1,10,0:0:0:0:
312,20,117195,1,2,0:0:0:0:
248,270,117355,6,0,B|298:309|349:278|349:278|384:256|425:272,1,190,6|8,0:0|0:0,0:0:0:0:
496,160,117833,1,0,0:0:0:0:
304,208,117993,1,10,0:0:0:0:
144,136,118152,1,2,0:0:0:0:
336,88,118312,1,10,0:0:0:0:
224,336,118472,6,0,L|43:275,1,190,6|0,0:0|0:0,0:0:0:0:
220,72,118950,1,10,0:0:0:0:
219,71,119110,2,0,P|239:114|233:161,1,95,2|8,0:0|0:0,0:0:0:0:
384,360,119429,2,0,P|364:317|370:270,1,95,2|10,0:0|0:0,0:0:0:0:
392,236,119668,1,8,0:0:0:0:
404,196,119748,1,10,0:0:0:0:
396,156,119828,1,8,0:0:0:0:
368,124,119908,6,0,B|323:106|284:145|284:145|234:144|214:81,1,190,14|8,0:0|0:0,0:0:0:0:
356,32,120387,1,0,0:0:0:0:
488,176,120546,1,10,0:0:0:0:
272,224,120706,1,2,0:0:0:0:
396,110,120865,1,10,0:0:0:0:
232,296,121025,6,0,B|180:248|200:192|200:192|164:168|129:174,1,190,6|0,0:0|0:0,0:0:0:0:
36,320,121504,2,0,P|79:339|126:340,1,95,8|0,0:0|0:0,0:0:0:0:
292,356,121823,1,8,0:0:0:0:
296,172,121982,1,2,0:0:0:0:
128,136,122142,1,10,0:0:0:0:
260,263,122301,1,2,0:0:0:0:
452,64,122461,6,0,P|363:37|285:86,1,190,14|8,0:0|0:0,0:0:0:0:
204,196,122940,1,0,0:0:0:0:
408,168,123099,1,10,0:0:0:0:
149,73,123259,1,2,0:0:0:0:
316,252,123418,1,10,0:0:0:0:
120,40,123578,6,0,P|68:52|36:80,1,95,14|0,0:0|0:0,0:0:0:0:
48,252,123897,1,10,0:0:0:0:
316,252,124057,1,2,0:0:0:0:
120,124,124216,2,0,P|129:170|158:206,1,95,10|0,0:0|0:0,0:0:0:0:
425,98,124535,6,0,B|363:106|337:46|337:46|321:126|266:151|214:128,1,285,6|0,0:0|0:0,0:0:0:0:
