osu file format v14

[General]
AudioFilename: audio.mp3
AudioLeadIn: 0
PreviewTime: 83076
Countdown: 1
SampleSet: Normal
StackLeniency: 0.7
Mode: 0
LetterboxInBreaks: 0
WidescreenStoryboard: 0

[Editor]
Bookmarks: 10468,21268,44968,64251,83676,102276,111126,134676,140976,141876,153651,193101,202026,249126
DistanceSpacing: 1
BeatDivisor: 4
GridSize: 32
TimelineZoom: 0.6999999

[Metadata]
Title:Zum Horizont
TitleUnicode:Zum Horizont
Artist:Equilibrium
ArtistUnicode:Equilibrium
Creator:AUS-teisciitb
Version:Normal
Source:
Tags:German, Metal
BeatmapID:1188448
BeatmapSetID:562117

[Difficulty]
HPDrainRate:6
CircleSize:4.2
OverallDifficulty:5
ApproachRate:9.2
SliderMultiplier:1.4
SliderTickRate:1

[Events]
//Background and Video events
0,0,"ghdfghdfghdh.jpg",0,0
//Break Periods
2,64375,83106
2,96175,111606
2,143876,153606
2,159176,201606
//Storyboard Layer 0 (Background)
//Storyboard Layer 1 (Fail)
//Storyboard Layer 2 (Pass)
//Storyboard Layer 3 (Foreground)
//Storyboard Sound Samples

[TimingPoints]
276,300,4,1,0,100,1,0

[HitObjects]
240,249,11376,5,0,0:0:0:0:
338,123,11976,1,0,0:0:0:0:
240,249,12576,1,0,0:0:0:0:
171,103,13176,1,0,0:0:0:0:
304,144,13476,1,0,0:0:0:0:
183,188,13776,1,0,0:0:0:0:
307,289,14376,5,0,0:0:0:0:
254,137,14976,1,0,0:0:0:0:
149,195,15576,1,0,0:0:0:0:
149,195,15876,1,0,0:0:0:0:
228,191,16176,1,0,0:0:0:0:
307,187,16476,1,0,0:0:0:0:
265,119,16776,1,0,0:0:0:0:
306,188,17076,1,0,0:0:0:0:
344,117,17376,1,0,0:0:0:0:
304,188,17676,1,0,0:0:0:0:
383,182,17976,1,0,0:0:0:0:
349,256,18276,1,0,0:0:0:0:
304,188,18576,1,0,0:0:0:0:
183,192,19176,1,0,0:0:0:0:
247,94,19776,1,0,0:0:0:0:
355,143,19926,5,0,0:0:0:0:
390,256,20076,1,0,0:0:0:0:
292,323,20226,1,0,0:0:0:0:
173,307,20376,1,0,0:0:0:0:
129,196,20526,1,0,0:0:0:0:
207,106,20676,1,0,0:0:0:0:
282,122,21126,6,0,B|368:126|357:90|357:90|487:103,1,210
412,121,21876,1,0,0:0:0:0:
329,204,22176,6,0,B|280:199|233:200|234:203,1,70
332,273,22476,2,0,P|280:269|247:273,1,70
262,270,22776,1,0,0:0:0:0:
191,278,23076,2,0,B|131:241|80:194|79:155,1,140
104,135,23676,2,0,P|146:121|181:117,1,70
123,203,23976,2,0,P|163:189|199:183,1,70
143,275,24276,2,0,P|178:261|230:254,1,70
209,254,24576,1,0,0:0:0:0:
209,254,24726,1,0,0:0:0:0:
209,254,24876,1,0,0:0:0:0:
209,254,25026,1,0,0:0:0:0:
225,268,25176,1,0,0:0:0:0:
298,265,25476,6,0,B|349:264|354:254|362:263|435:283|435:283|440:226|415:225|461:207|458:224|422:201|477:191|452:184|422:182|450:138,1,280
444,148,26376,1,0,0:0:0:0:
420,86,26676,1,0,0:0:0:0:
367,130,26976,1,0,0:0:0:0:
348,56,27276,1,0,0:0:0:0:
289,109,27576,1,0,0:0:0:0:
289,109,27726,1,0,0:0:0:0:
226,148,27876,1,0,0:0:0:0:
226,148,28026,1,0,0:0:0:0:
226,148,28176,1,0,0:0:0:0:
180,79,28326,1,0,0:0:0:0:
146,154,28476,1,0,0:0:0:0:
191,217,28626,1,0,0:0:0:0:
273,216,28776,2,0,P|288:191|297:137,2,70
207,244,29226,1,0,0:0:0:0:
145,195,29376,1,0,0:0:0:0:
256,128,30576,6,0,B|229:136|203:132|177:113,1,70
178,54,31026,2,0,P|210:49|253:55,1,70
310,85,31326,2,0,B|329:103|332:139|311:164,1,70
285,211,31626,2,0,P|257:244|205:266,1,70
164,261,31926,2,0,P|131:247|114:205,1,70
90,152,32226,1,0,0:0:0:0:
194,150,32376,1,0,0:0:0:0:
352,287,32676,1,0,0:0:0:0:
256,128,33126,6,0,B|229:136|203:132|177:113,2,70
178,54,33576,2,0,P|210:49|253:55,1,70
310,85,33876,2,0,B|329:103|332:139|311:164,1,70
285,211,34176,2,0,P|257:244|205:266,1,70
164,261,34476,2,0,P|131:247|114:205,1,70
90,152,34776,1,0,0:0:0:0:
352,287,35076,1,0,0:0:0:0:
142,281,35376,6,0,B|100:266|100:266|132:239|132:239|82:243|80:221,1,140
239,282,35976,6,0,B|281:267|281:267|249:240|249:240|299:244|301:222,1,140
178,250,36576,6,0,B|161:208|161:208|202:214|202:214|166:179|181:163,1,140
293,91,37176,2,0,P|336:80|375:90,1,70
332,148,37476,2,0,P|386:148|415:160,1,70
360,211,37776,2,0,P|399:221|425:238,1,70
371,283,38076,2,0,P|406:302|413:335,2,70
302,266,38526,2,0,P|257:261|218:268,2,70
403,294,38976,1,0,0:0:0:0:
204,73,40176,5,0,0:0:0:0:
267,102,40476,1,0,0:0:0:0:
209,141,40776,1,0,0:0:0:0:
196,72,41076,1,0,0:0:0:0:
264,85,41376,1,0,0:0:0:0:
224,142,41676,1,0,0:0:0:0:
190,80,41976,1,0,0:0:0:0:
264,85,42276,1,0,0:0:0:0:
224,142,42576,1,0,0:0:0:0:
178,195,42876,1,0,0:0:0:0:
127,243,43176,1,0,0:0:0:0:
49,313,43626,5,0,0:0:0:0:
55,321,43701,1,4,0:0:0:0:
55,321,43776,1,4,0:0:0:0:
89,318,43926,1,4,0:0:0:0:
123,318,44076,1,2,0:0:0:0:
158,318,44226,1,0,0:0:0:0:
192,316,44376,1,0,0:0:0:0:
226,315,44526,1,0,0:0:0:0:
261,315,44676,1,2,0:0:0:0:
283,176,44976,5,2,0:0:0:0:
178,83,45276,1,2,0:0:0:0:
159,221,45576,1,2,0:0:0:0:
288,166,45876,1,2,0:0:0:0:
153,127,46176,1,2,0:0:0:0:
244,233,46476,1,2,0:0:0:0:
104,226,46776,1,2,0:0:0:0:
221,150,47076,1,2,0:0:0:0:
100,146,47376,1,0,0:0:0:0:
246,151,47676,6,0,L|413:150,2,140
206,217,48576,1,0,0:0:0:0:
175,294,48876,2,0,B|15:343|17:343,2,140
314,310,49776,2,0,B|348:288|362:270|371:252|376:231|378:216|377:189,1,140
249,251,50376,2,0,B|215:260|196:258|177:246|169:238|149:223|140:199|140:186,1,140
151,121,50976,2,0,B|165:108|185:97|208:92|229:91|251:92|270:97|284:108|287:108,1,140
306,110,51576,1,0,0:0:0:0:
254,187,51726,1,0,0:0:0:0:
223,100,51876,1,0,0:0:0:0:
145,219,52176,1,0,0:0:0:0:
259,193,52476,5,0,0:0:0:0:
259,193,52626,1,0,0:0:0:0:
259,193,52776,1,0,0:0:0:0:
336,190,53076,1,0,0:0:0:0:
336,190,53226,1,0,0:0:0:0:
336,190,53376,1,0,0:0:0:0:
308,277,53676,2,0,B|283:212|283:212|261:236|254:211|179:211,1,175
182,211,54276,1,0,0:0:0:0:
182,211,54576,1,0,0:0:0:0:
199,144,54876,2,0,B|237:151|265:179|274:218|263:253|240:261,1,140
253,250,55326,1,0,0:0:0:0:
256,256,55476,1,0,0:0:0:0:
216,191,55776,1,0,0:0:0:0:
295,193,56076,1,0,0:0:0:0:
256,256,56376,1,0,0:0:0:0:
216,191,56676,2,0,L|145:161,2,70
242,181,57276,6,0,P|196:176|156:183,2,70
311,182,57876,2,0,L|385:182,2,70
186,118,58476,2,0,L|118:77,6,70
323,142,59676,1,0,0:0:0:0:
248,260,59976,1,0,0:0:0:0:
165,146,60276,1,0,0:0:0:0:
326,99,60576,5,0,0:0:0:0:
248,260,60876,1,0,0:0:0:0:
143,128,61176,1,0,0:0:0:0:
309,147,61476,1,0,0:0:0:0:
200,236,61776,5,0,0:0:0:0:
200,236,61926,2,0,L|287:264,1,70
223,169,62376,1,0,0:0:0:0:
223,169,62526,2,0,L|307:191,1,70
248,98,62976,1,0,0:0:0:0:
248,98,63126,2,0,L|333:104,1,70
366,188,63576,2,0,B|340:229|312:261|268:294|261:297,2,140
251,80,83676,6,0,P|325:66|395:68,1,140
273,147,84276,2,0,P|373:134|435:132,1,140
357,261,84876,2,0,L|218:222,1,140
95,162,85476,1,0,0:0:0:0:
164,156,85626,1,0,0:0:0:0:
319,297,86076,5,0,0:0:0:0:
188,247,86376,1,0,0:0:0:0:
299,162,86676,1,0,0:0:0:0:
287,304,86976,1,0,0:0:0:0:
213,185,87276,1,0,0:0:0:0:
345,230,87576,1,0,0:0:0:0:
229,309,87876,1,0,0:0:0:0:
83,69,88476,5,0,0:0:0:0:
80,208,88776,1,0,0:0:0:0:
205,145,89076,1,0,0:0:0:0:
178,282,89376,1,0,0:0:0:0:
303,219,89676,1,0,0:0:0:0:
232,340,89976,1,0,0:0:0:0:
344,256,90276,1,0,0:0:0:0:
206,230,90576,5,0,0:0:0:0:
255,160,90876,1,0,0:0:0:0:
324,167,91026,1,0,0:0:0:0:
380,207,91176,1,0,0:0:0:0:
405,272,91326,1,0,0:0:0:0:
345,309,91476,1,0,0:0:0:0:
275,308,91626,1,0,0:0:0:0:
232,252,91776,1,0,0:0:0:0:
226,182,91926,1,0,0:0:0:0:
239,113,92076,1,0,0:0:0:0:
296,73,92226,1,0,0:0:0:0:
365,80,92376,1,0,0:0:0:0:
420,122,92526,1,0,0:0:0:0:
431,191,92676,1,0,0:0:0:0:
410,257,92826,1,0,0:0:0:0:
182,238,93351,6,0,B|151:178|160:139|180:106|179:114,1,105
300,94,93876,2,0,B|352:102|392:115|425:161,1,140
411,253,94476,2,0,B|379:289|335:318|289:326|266:326,1,140
194,330,95076,2,0,L|120:332,2,70
291,322,95676,2,0,L|366:319,2,70
282,80,112176,6,0,P|318:86|391:178,1,140
231,130,112776,2,0,P|270:136|332:214,1,140
174,181,113376,2,0,P|216:192|296:277,1,140
284,257,113976,1,0,0:0:0:0:
284,257,114276,1,0,0:0:0:0:
284,257,114576,6,0,P|245:243|129:243,1,140
303,186,115176,6,0,P|264:172|148:172,1,140
327,116,115776,6,0,P|288:102|172:102,1,140
188,105,116376,1,0,0:0:0:0:
188,105,116676,1,0,0:0:0:0:
306,159,116976,5,0,0:0:0:0:
258,218,117276,1,0,0:0:0:0:
228,144,117576,1,0,0:0:0:0:
345,212,117876,1,0,0:0:0:0:
287,181,118176,1,0,0:0:0:0:
285,108,118476,1,0,0:0:0:0:
222,141,118776,1,0,0:0:0:0:
229,210,119076,5,0,0:0:0:0:
286,163,119376,1,0,0:0:0:0:
214,140,119676,1,0,0:0:0:0:
271,92,119826,1,0,0:0:0:0:
300,86,119976,1,0,0:0:0:0:
332,95,120126,1,0,0:0:0:0:
360,118,120276,1,0,0:0:0:0:
383,141,120576,2,0,B|416:185|419:210|417:255|406:287,1,140
414,277,121176,2,0,B|368:325|335:342|284:343,1,140
211,207,121776,2,0,L|131:207,2,70
247,111,122376,2,0,L|226:41,2,70
244,184,122976,1,0,0:0:0:0:
247,216,123126,1,0,0:0:0:0:
248,252,123276,1,0,0:0:0:0:
248,328,123576,1,0,0:0:0:0:
167,328,123876,5,0,0:0:0:0:
107,201,124176,1,0,0:0:0:0:
221,281,124476,1,0,0:0:0:0:
203,213,124626,1,0,0:0:0:0:
183,146,124776,1,0,0:0:0:0:
319,164,125076,1,0,0:0:0:0:
196,93,125376,1,0,0:0:0:0:
254,219,125676,5,0,0:0:0:0:
196,93,125976,1,0,0:0:0:0:
337,228,126576,1,0,0:0:0:0:
174,118,127176,1,0,0:0:0:0:
104,301,127776,1,0,0:0:0:0:
299,292,128376,1,0,0:0:0:0:
107,250,128976,2,0,P|70:216|119:143,2,140
204,252,129876,1,0,0:0:0:0:
301,253,130176,6,0,P|357:254|386:254,1,70
250,169,130776,2,0,L|323:174,1,70
258,97,131376,2,0,L|353:115,1,70
325,159,131676,2,0,L|234:171,1,70
254,217,131976,2,0,L|345:232,1,70
176,231,132576,2,0,L|109:202,1,70
116,154,132876,2,0,L|200:163,1,70
192,112,133176,2,0,P|109:90|103:89,1,70
163,62,133476,2,0,L|245:78,1,70
229,124,133776,2,0,L|260:196,1,70
277,233,134076,2,0,B|297:275|318:313|334:332|334:332|334:311|334:311|337:197|336:182|332:171|343:161,1,280
240,160,134976,2,0,L|200:149,28,35
311,215,137151,2,0,L|330:247,33,35
282,260,139701,2,0,L|239:262,8,35
222,219,140376,2,0,L|214:182,6,35
224,160,140976,1,0,0:0:0:0:
271,93,141276,6,0,B|311:94|342:96|372:104|393:127|400:148|405:181|402:222|391:268|370:293|373:292,1,280
271,308,142176,2,0,B|188:303|137:269|114:248|95:204|85:144|89:95|128:81|182:75|177:29|177:29|211:78|220:85|293:110|366:138|409:188|430:218,1,700
224,29,154176,6,0,B|240:31|264:39|283:60|276:96|299:96|257:174|238:137,1,140
211,91,154776,2,0,B|166:115|173:161|165:194|197:199|224:218,1,140
241,154,155376,2,0,B|275:171|284:202|269:227|263:250|237:273|237:257|219:275,1,140
179,222,155976,2,0,B|163:249|163:278|169:302|192:318|209:332|229:336|252:332,1,140
322,308,156576,1,0,0:0:0:0:
370,132,156876,5,0,0:0:0:0:
282,107,157026,1,0,0:0:0:0:
295,196,157176,1,0,0:0:0:0:
211,187,157476,1,0,0:0:0:0:
140,254,157626,1,0,0:0:0:0:
235,277,157776,1,0,0:0:0:0:
121,117,158076,1,0,0:0:0:0:
208,161,158226,1,0,0:0:0:0:
204,63,158376,1,0,0:0:0:0:
282,242,158676,1,0,0:0:0:0:
301,145,158826,1,0,0:0:0:0:
205,167,158976,1,0,0:0:0:0:
231,97,202176,6,0,B|265:88|317:90|380:120,1,140
382,211,202626,1,0,0:0:0:0:
287,236,202776,1,0,0:0:0:0:
249,101,203076,2,0,P|195:115|127:175,1,140
187,297,203676,1,0,0:0:0:0:
300,214,203976,2,0,P|294:163|219:103,1,140
120,191,204576,1,8,0:0:0:0:
198,300,204876,1,0,0:0:0:0:
266,311,205026,1,0,0:0:0:0:
335,307,205176,1,0,0:0:0:0:
337,167,205476,2,0,P|337:89|336:85,2,70
266,288,206076,1,0,0:0:0:0:
181,176,206376,1,0,0:0:0:0:
246,283,206976,6,0,B|302:275|342:256|367:212,1,140
343,149,207426,1,0,0:0:0:0:
290,103,207576,1,0,0:0:0:0:
156,62,207876,2,0,B|112:120|85:171|100:203,1,140
188,291,208476,2,0,L|272:313,2,70
60,233,209076,1,0,0:0:0:0:
198,252,209376,1,0,0:0:0:0:
335,276,209676,1,0,0:0:0:0:
384,226,209826,1,0,0:0:0:0:
383,156,209976,1,0,0:0:0:0:
348,95,210126,1,0,0:0:0:0:
284,65,210276,1,0,0:0:0:0:
152,112,210576,1,0,0:0:0:0:
191,246,210876,1,0,0:0:0:0:
284,65,211176,1,0,0:0:0:0:
188,145,211776,6,0,P|141:136|105:143,1,70
329,146,212376,2,0,P|372:143|403:149,1,70
202,225,212976,2,0,P|151:224|130:227,1,70
342,232,213576,2,0,P|376:233|413:248,1,70
