osu file format v14

[General]
AudioFilename: audio.mp3
AudioLeadIn: 0
PreviewTime: 48962
Countdown: 0
SampleSet: Normal
StackLeniency: 0.7
Mode: 1
LetterboxInBreaks: 0
WidescreenStoryboard: 0

[Editor]
DistanceSpacing: 1.2
BeatDivisor: 4
GridSize: 32
TimelineZoom: 1

[Metadata]
Title:Wirtshaus Gaudi
TitleUnicode:Wirtshaus Gaudi
Artist:Equilibrium
ArtistUnicode:Equilibrium
Creator:Zetera
Version:Mittel
Source:
Tags:Erdentempel German Black Folk Metal Nepuri Symphonic Viking Drunk Beer
BeatmapID:1492868
BeatmapSetID:549450

[Difficulty]
HPDrainRate:5.5
CircleSize:5
OverallDifficulty:4
ApproachRate:5
SliderMultiplier:1.4
SliderTickRate:1

[Events]
//Background and Video events
0,0,"BG_GAUDI.jpg",0,0
//Break Periods
//Storyboard Layer 0 (Background)
//Storyboard Layer 1 (Fail)
//Storyboard Layer 2 (Pass)
//Storyboard Layer 3 (Foreground)
//Storyboard Sound Samples

[TimingPoints]
152,324.324324324324,4,1,5,100,1,0
13124,-100,4,1,5,100,0,1
23503,-100,4,1,5,100,0,0
49449,-100,4,1,5,100,0,1
70206,-100,4,1,5,100,0,0
106530,-100,4,1,5,100,0,1
131179,-100,4,1,5,100,0,0
141557,315.789473684211,4,1,5,100,1,0
146609,307.692307692308,4,1,5,100,1,1
151532,300,4,1,5,100,1,1
155732,-100,4,1,5,100,0,0

[HitObjects]
256,192,152,5,4,0:0:0:0:
256,192,1449,1,12,0:0:0:0:
256,192,2746,1,4,0:0:0:0:
256,192,4043,1,12,0:0:0:0:
256,192,4692,1,12,0:0:0:0:
256,192,5341,1,4,0:0:0:0:
256,192,5665,1,0,0:0:0:0:
256,192,5989,1,0,0:0:0:0:
256,192,6638,1,12,0:0:0:0:
256,192,6962,1,0,0:0:0:0:
256,192,7287,1,0,0:0:0:0:
256,192,7935,1,4,0:0:0:0:
256,192,8260,1,0,0:0:0:0:
256,192,8584,1,0,0:0:0:0:
256,192,8908,1,0,0:0:0:0:
256,192,9233,1,12,0:0:0:0:
256,192,9557,1,8,0:0:0:0:
256,192,9719,1,8,0:0:0:0:
256,192,9881,1,8,0:0:0:0:
256,192,10206,1,0,0:0:0:0:
256,192,10530,1,12,0:0:0:0:
256,192,11016,1,8,0:0:0:0:
256,192,11665,1,8,0:0:0:0:
256,192,12314,1,8,0:0:0:0:
256,192,12962,1,12,0:0:0:0:
256,192,13124,1,4,0:0:0:0:
256,192,13449,1,0,0:0:0:0:
256,192,13611,1,0,0:0:0:0:
256,192,13773,1,8,0:0:0:0:
256,192,14097,1,0,0:0:0:0:
256,192,14422,1,0,0:0:0:0:
256,192,14584,1,8,0:0:0:0:
256,192,14746,1,0,0:0:0:0:
256,192,15070,1,8,0:0:0:0:
256,192,15719,1,0,0:0:0:0:
256,192,15881,1,0,0:0:0:0:
256,192,16043,1,0,0:0:0:0:
256,192,16368,1,8,0:0:0:0:
256,192,16692,1,0,0:0:0:0:
256,192,17016,1,8,0:0:0:0:
256,192,17341,1,0,0:0:0:0:
256,192,17665,1,8,0:0:0:0:
256,192,18314,1,4,0:0:0:0:
256,192,18638,1,0,0:0:0:0:
256,192,18800,1,0,0:0:0:0:
256,192,18962,1,8,0:0:0:0:
256,192,19287,1,0,0:0:0:0:
256,192,19611,1,0,0:0:0:0:
256,192,19773,1,8,0:0:0:0:
256,192,19935,1,0,0:0:0:0:
256,192,20260,1,8,0:0:0:0:
256,192,20908,1,0,0:0:0:0:
256,192,21070,1,0,0:0:0:0:
256,192,21233,1,0,0:0:0:0:
256,192,21557,1,8,0:0:0:0:
256,192,21881,1,0,0:0:0:0:
256,192,22206,1,12,0:0:0:0:
256,192,22530,1,0,0:0:0:0:
256,192,22854,1,8,0:0:0:0:
256,192,23179,1,8,0:0:0:0:
256,192,23503,1,4,0:0:0:0:
256,192,24151,1,8,0:0:0:0:
256,192,24476,1,0,0:0:0:0:
256,192,24800,1,0,0:0:0:0:
256,192,25449,1,8,0:0:0:0:
256,192,25773,1,8,0:0:0:0:
256,192,25935,1,8,0:0:0:0:
256,192,26097,1,0,0:0:0:0:
256,192,26746,1,8,0:0:0:0:
256,192,27070,1,0,0:0:0:0:
256,192,27395,1,0,0:0:0:0:
256,192,28043,1,8,0:0:0:0:
256,192,28368,1,0,0:0:0:0:
256,192,28530,1,8,0:0:0:0:
256,192,28692,1,0,0:0:0:0:
256,192,29341,1,8,0:0:0:0:
256,192,29665,1,0,0:0:0:0:
256,192,29989,1,0,0:0:0:0:
256,192,30638,1,8,0:0:0:0:
256,192,30962,1,8,0:0:0:0:
256,192,31124,1,8,0:0:0:0:
256,192,31287,1,4,0:0:0:0:
256,192,31611,1,4,0:0:0:0:
256,192,31935,1,4,0:0:0:0:
256,192,32260,1,4,0:0:0:0:
256,192,32584,1,4,0:0:0:0:
256,192,33233,1,8,0:0:0:0:
256,192,33557,1,8,0:0:0:0:
256,192,33881,1,4,0:0:0:0:
256,192,34530,1,8,0:0:0:0:
256,192,34854,1,0,0:0:0:0:
256,192,35179,1,0,0:0:0:0:
256,192,35341,1,0,0:0:0:0:
256,192,35503,1,8,0:0:0:0:
256,192,35827,1,8,0:0:0:0:
256,192,36476,1,8,0:0:0:0:
256,192,36800,1,8,0:0:0:0:
256,192,36962,1,0,0:0:0:0:
256,192,37124,1,8,0:0:0:0:
256,192,37773,1,4,0:0:0:0:
256,192,38097,1,8,0:0:0:0:
256,192,38422,1,4,0:0:0:0:
256,192,38746,1,8,0:0:0:0:
256,192,39070,1,4,0:0:0:0:
256,192,39719,1,8,0:0:0:0:
256,192,40043,1,8,0:0:0:0:
256,192,40368,1,0,0:0:0:0:
256,192,40530,1,0,0:0:0:0:
256,192,40692,1,8,0:0:0:0:
256,192,41016,1,8,0:0:0:0:
256,192,41665,1,8,0:0:0:0:
256,192,42151,1,0,0:0:0:0:
256,192,42314,1,8,0:0:0:0:
256,192,42638,1,8,0:0:0:0:
256,192,42800,1,8,0:0:0:0:
256,192,42962,1,4,0:0:0:0:
256,192,43611,1,4,0:0:0:0:
256,192,43935,1,12,0:0:0:0:
256,192,44260,1,4,0:0:0:0:
256,192,44746,1,0,0:0:0:0:
256,192,44908,1,0,0:0:0:0:
256,192,45395,1,0,0:0:0:0:
256,192,45557,1,0,0:0:0:0:
256,192,45881,1,0,0:0:0:0:
256,192,46043,1,0,0:0:0:0:
256,192,46206,1,0,0:0:0:0:
256,192,46692,1,0,0:0:0:0:
256,192,46854,1,0,0:0:0:0:
256,192,47179,1,8,0:0:0:0:
256,192,47341,1,8,0:0:0:0:
256,192,47503,1,0,0:0:0:0:
256,192,47827,1,8,0:0:0:0:
256,192,47989,1,8,0:0:0:0:
256,192,48151,1,0,0:0:0:0:
256,192,48476,1,8,0:0:0:0:
256,192,48800,1,4,0:0:0:0:
256,192,49449,1,4,0:0:0:0:
256,192,49773,1,8,0:0:0:0:
256,192,50097,1,0,0:0:0:0:
256,192,50422,1,0,0:0:0:0:
256,192,50584,1,0,0:0:0:0:
256,192,50746,1,0,0:0:0:0:
256,192,51070,1,8,0:0:0:0:
256,192,51395,1,0,0:0:0:0:
256,192,52043,1,0,0:0:0:0:
256,192,52368,1,8,0:0:0:0:
256,192,52692,1,0,0:0:0:0:
256,192,53341,1,8,0:0:0:0:
256,192,53665,1,0,0:0:0:0:
256,192,53989,1,8,0:0:0:0:
256,192,54151,1,0,0:0:0:0:
256,192,54314,1,8,0:0:0:0:
256,192,54476,1,8,0:0:0:0:
256,192,54638,1,0,0:0:0:0:
256,192,54962,1,0,0:0:0:0:
256,192,55287,1,8,0:0:0:0:
256,192,55611,1,8,0:0:0:0:
256,192,55773,1,8,0:0:0:0:
256,192,55935,1,0,0:0:0:0:
256,192,56260,1,8,0:0:0:0:
256,192,56584,1,0,0:0:0:0:
256,192,57233,1,0,0:0:0:0:
256,192,57557,1,8,0:0:0:0:
256,192,57881,1,0,0:0:0:0:
256,192,58206,1,0,0:0:0:0:
256,192,58368,1,8,0:0:0:0:
256,192,58530,1,0,0:0:0:0:
256,192,58854,1,8,0:0:0:0:
256,192,59179,1,4,0:0:0:0:
256,192,59827,1,0,0:0:0:0:
256,192,60151,1,0,0:0:0:0:
256,192,60314,1,8,0:0:0:0:
256,192,60476,1,0,0:0:0:0:
256,192,60962,1,0,0:0:0:0:
256,192,61124,1,0,0:0:0:0:
256,192,61449,1,0,0:0:0:0:
256,192,61611,1,8,0:0:0:0:
256,192,61773,1,0,0:0:0:0:
256,192,62260,1,0,0:0:0:0:
256,192,62422,1,0,0:0:0:0:
256,192,62746,1,0,0:0:0:0:
256,192,63070,1,8,0:0:0:0:
256,192,63395,1,0,0:0:0:0:
256,192,63719,1,0,0:0:0:0:
256,192,63881,1,0,0:0:0:0:
256,192,64043,1,8,0:0:0:0:
256,192,64368,1,12,0:0:0:0:
256,192,65016,1,0,0:0:0:0:
256,192,65341,1,0,0:0:0:0:
256,192,65665,1,8,0:0:0:0:
256,192,65989,1,0,0:0:0:0:
256,192,66151,1,8,0:0:0:0:
256,192,66314,1,0,0:0:0:0:
256,192,66638,1,8,0:0:0:0:
256,192,66962,1,0,0:0:0:0:
256,192,67611,1,0,0:0:0:0:
256,192,67935,1,8,0:0:0:0:
256,192,68260,1,0,0:0:0:0:
256,192,68584,1,8,0:0:0:0:
256,192,68746,1,8,0:0:0:0:
256,192,68908,1,4,0:0:0:0:
256,192,69233,1,4,0:0:0:0:
256,192,69557,1,4,0:0:0:0:
256,192,70206,1,4,0:0:0:0:
256,192,71503,1,12,0:0:0:0:
256,192,72800,1,4,0:0:0:0:
256,192,74097,1,12,0:0:0:0:
256,192,74746,1,12,0:0:0:0:
256,192,75395,1,4,0:0:0:0:
256,192,75719,1,0,0:0:0:0:
256,192,75881,1,0,0:0:0:0:
256,192,76043,1,8,0:0:0:0:
256,192,76368,1,0,0:0:0:0:
256,192,76692,1,8,0:0:0:0:
256,192,77341,1,8,0:0:0:0:
256,192,77665,1,8,0:0:0:0:
256,192,77989,1,4,0:0:0:0:
256,192,78314,1,0,0:0:0:0:
256,192,78476,1,0,0:0:0:0:
256,192,78638,1,8,0:0:0:0:
256,192,78962,1,0,0:0:0:0:
256,192,79287,1,8,0:0:0:0:
256,192,79935,1,8,0:0:0:0:
256,192,80260,1,8,0:0:0:0:
256,192,80584,1,4,0:0:0:0:
256,192,80908,1,0,0:0:0:0:
256,192,81070,1,8,0:0:0:0:
256,192,81233,1,0,0:0:0:0:
256,192,81557,1,0,0:0:0:0:
256,192,81719,1,8,0:0:0:0:
256,192,81881,1,8,0:0:0:0:
256,192,82530,1,8,0:0:0:0:
256,192,82854,1,0,0:0:0:0:
256,192,83016,1,8,0:0:0:0:
256,192,83179,1,4,0:0:0:0:
256,192,83503,1,0,0:0:0:0:
256,192,83827,1,0,0:0:0:0:
256,192,84151,1,8,0:0:0:0:
256,192,84476,1,0,0:0:0:0:
256,192,84800,1,8,0:0:0:0:
256,192,85124,1,8,0:0:0:0:
256,192,85449,1,0,0:0:0:0:
256,192,85773,1,12,0:0:0:0:
256,192,86422,1,8,0:0:0:0:
256,192,86746,1,0,0:0:0:0:
256,192,87070,1,0,0:0:0:0:
256,192,87233,1,0,0:0:0:0:
256,192,87395,1,8,0:0:0:0:
256,192,87719,1,8,0:0:0:0:
256,192,88043,1,0,0:0:0:0:
256,192,88206,1,0,0:0:0:0:
256,192,88368,1,8,0:0:0:0:
256,192,88692,1,8,0:0:0:0:
256,192,88854,1,0,0:0:0:0:
256,192,89016,1,8,0:0:0:0:
256,192,89341,1,0,0:0:0:0:
256,192,89665,1,12,0:0:0:0:
256,192,89989,1,0,0:0:0:0:
256,192,90314,1,12,0:0:0:0:
256,192,90638,1,0,0:0:0:0:
256,192,90962,1,4,0:0:0:0:
256,192,91611,1,8,0:0:0:0:
256,192,91935,1,0,0:0:0:0:
256,192,92260,1,8,0:0:0:0:
256,192,92422,1,8,0:0:0:0:
256,192,92584,1,0,0:0:0:0:
256,192,92908,1,8,0:0:0:0:
256,192,93233,1,0,0:0:0:0:
256,192,93557,1,0,0:0:0:0:
256,192,93719,1,0,0:0:0:0:
256,192,94043,1,0,0:0:0:0:
256,192,94206,1,8,0:0:0:0:
256,192,94530,1,8,0:0:0:0:
256,192,94692,1,8,0:0:0:0:
256,192,94854,1,4,0:0:0:0:
256,192,95179,1,12,0:0:0:0:
256,192,95503,1,4,0:0:0:0:
256,192,95827,1,12,0:0:0:0:
256,192,96151,1,4,0:0:0:0:
256,192,96800,1,0,0:0:0:0:
256,192,97449,1,0,0:0:0:0:
256,192,97773,1,8,0:0:0:0:
256,192,98097,1,0,0:0:0:0:
256,192,98746,1,0,0:0:0:0:
256,192,99395,1,0,0:0:0:0:
256,192,100043,1,0,0:0:0:0:
256,192,100368,1,0,0:0:0:0:
256,192,100692,1,0,0:0:0:0:
256,192,101016,1,0,0:0:0:0:
256,192,101341,1,4,0:0:0:0:
256,192,101989,1,8,0:0:0:0:
256,192,102638,1,4,0:0:0:0:
256,192,102962,1,0,0:0:0:0:
256,192,103287,1,8,0:0:0:0:
256,192,103935,1,4,0:0:0:0:
256,192,104584,1,12,0:0:0:0:
256,192,105233,1,12,0:0:0:0:
256,192,105557,1,12,0:0:0:0:
256,192,105881,1,12,0:0:0:0:
256,192,106206,1,12,0:0:0:0:
256,192,106530,1,4,0:0:0:0:
256,192,106854,1,8,0:0:0:0:
256,192,107178,1,0,0:0:0:0:
256,192,107503,1,0,0:0:0:0:
256,192,107665,1,0,0:0:0:0:
256,192,107827,1,0,0:0:0:0:
256,192,108151,1,8,0:0:0:0:
256,192,108476,1,0,0:0:0:0:
256,192,109124,1,0,0:0:0:0:
256,192,109449,1,8,0:0:0:0:
256,192,109773,1,0,0:0:0:0:
256,192,110422,1,8,0:0:0:0:
256,192,110746,1,0,0:0:0:0:
256,192,111070,1,8,0:0:0:0:
256,192,111232,1,0,0:0:0:0:
256,192,111395,1,8,0:0:0:0:
256,192,111557,1,8,0:0:0:0:
256,192,111719,1,0,0:0:0:0:
256,192,112043,1,0,0:0:0:0:
256,192,112368,1,8,0:0:0:0:
256,192,112692,1,8,0:0:0:0:
256,192,112854,1,8,0:0:0:0:
256,192,113016,1,0,0:0:0:0:
256,192,113341,1,8,0:0:0:0:
256,192,113665,1,0,0:0:0:0:
256,192,114314,1,0,0:0:0:0:
256,192,114638,1,8,0:0:0:0:
256,192,114962,1,0,0:0:0:0:
256,192,115287,1,0,0:0:0:0:
256,192,115449,1,8,0:0:0:0:
256,192,115611,1,0,0:0:0:0:
256,192,115935,1,8,0:0:0:0:
256,192,116260,1,4,0:0:0:0:
256,192,116908,1,0,0:0:0:0:
256,192,117232,1,0,0:0:0:0:
256,192,117395,1,8,0:0:0:0:
256,192,117557,1,0,0:0:0:0:
256,192,118043,1,0,0:0:0:0:
256,192,118205,1,0,0:0:0:0:
256,192,118530,1,0,0:0:0:0:
256,192,118692,1,8,0:0:0:0:
256,192,118854,1,0,0:0:0:0:
256,192,119341,1,0,0:0:0:0:
256,192,119503,1,0,0:0:0:0:
256,192,119827,1,0,0:0:0:0:
256,192,120151,1,8,0:0:0:0:
256,192,120476,1,0,0:0:0:0:
256,192,120800,1,0,0:0:0:0:
256,192,120962,1,0,0:0:0:0:
256,192,121124,1,8,0:0:0:0:
256,192,121449,1,8,0:0:0:0:
256,192,121773,1,12,0:0:0:0:
256,192,122097,1,0,0:0:0:0:
256,192,122422,1,0,0:0:0:0:
256,192,122746,1,8,0:0:0:0:
256,192,123070,1,0,0:0:0:0:
256,192,123232,1,8,0:0:0:0:
256,192,123395,1,0,0:0:0:0:
256,192,123719,1,8,0:0:0:0:
256,192,124043,1,0,0:0:0:0:
256,192,124692,1,0,0:0:0:0:
256,192,125016,1,8,0:0:0:0:
256,192,125341,1,0,0:0:0:0:
256,192,125665,1,8,0:0:0:0:
256,192,125827,1,8,0:0:0:0:
256,192,125989,1,4,0:0:0:0:
256,192,126314,1,12,0:0:0:0:
256,192,126638,1,4,0:0:0:0:
256,192,126962,1,12,0:0:0:0:
256,192,127287,1,4,0:0:0:0:
256,192,127611,1,12,0:0:0:0:
256,192,127935,1,4,0:0:0:0:
256,192,128260,1,12,0:0:0:0:
256,192,128584,1,4,0:0:0:0:
256,192,129233,1,12,0:0:0:0:
256,192,129881,1,4,0:0:0:0:
256,192,130530,1,12,0:0:0:0:
256,192,131179,1,4,0:0:0:0:
256,192,131827,1,12,0:0:0:0:
256,192,133773,1,4,0:0:0:0:
256,192,134422,1,8,0:0:0:0:
256,192,135070,1,0,0:0:0:0:
256,192,135233,1,0,0:0:0:0:
256,192,135395,1,0,0:0:0:0:
256,192,135719,1,8,0:0:0:0:
256,192,136043,1,0,0:0:0:0:
256,192,136368,1,4,0:0:0:0:
256,192,136692,1,8,0:0:0:0:
256,192,137016,1,0,0:0:0:0:
256,192,137179,1,0,0:0:0:0:
256,192,137341,1,8,0:0:0:0:
256,192,137665,1,0,0:0:0:0:
256,192,137989,1,0,0:0:0:0:
256,192,138314,1,8,0:0:0:0:
256,192,138962,1,0,0:0:0:0:
256,192,139287,1,8,0:0:0:0:
256,192,139611,1,8,0:0:0:0:
256,192,139773,1,8,0:0:0:0:
256,192,139935,1,0,0:0:0:0:
256,192,140260,1,0,0:0:0:0:
256,192,140422,1,0,0:0:0:0:
256,192,140584,1,8,0:0:0:0:
256,192,140746,1,8,0:0:0:0:
256,192,140908,1,0,0:0:0:0:
256,192,141233,1,8,0:0:0:0:
256,192,141557,1,4,0:0:0:0:
256,192,141872,1,8,0:0:0:0:
256,192,142188,1,0,0:0:0:0:
256,192,142346,1,0,0:0:0:0:
256,192,142504,1,8,0:0:0:0:
256,192,142820,1,0,0:0:0:0:
256,192,143135,1,0,0:0:0:0:
256,192,143451,1,8,0:0:0:0:
256,192,144083,1,0,0:0:0:0:
256,192,144399,1,8,0:0:0:0:
256,192,144714,1,8,0:0:0:0:
256,192,144872,1,8,0:0:0:0:
256,192,145030,1,0,0:0:0:0:
256,192,145346,1,0,0:0:0:0:
256,192,145504,1,0,0:0:0:0:
256,192,145662,1,8,0:0:0:0:
256,192,145820,1,8,0:0:0:0:
256,192,145978,1,0,0:0:0:0:
256,192,146293,1,8,0:0:0:0:
256,192,146609,1,4,0:0:0:0:
256,192,146762,1,8,0:0:0:0:
256,192,147070,1,8,0:0:0:0:
256,192,147224,1,0,0:0:0:0:
256,192,147378,1,8,0:0:0:0:
256,192,147685,1,8,0:0:0:0:
256,192,147839,1,0,0:0:0:0:
256,192,148147,1,0,0:0:0:0:
256,192,148301,1,8,0:0:0:0:
256,192,148455,1,0,0:0:0:0:
256,192,148762,1,0,0:0:0:0:
256,192,149070,1,8,0:0:0:0:
256,192,149378,1,8,0:0:0:0:
256,192,149532,1,8,0:0:0:0:
256,192,149685,1,8,0:0:0:0:
256,192,149993,1,0,0:0:0:0:
256,192,150301,1,0,0:0:0:0:
256,192,150455,1,0,0:0:0:0:
256,192,150609,1,8,0:0:0:0:
256,192,150762,1,8,0:0:0:0:
256,192,150916,1,0,0:0:0:0:
256,192,151532,1,4,0:0:0:0:
256,192,151682,1,8,0:0:0:0:
256,192,151982,1,8,0:0:0:0:
256,192,152132,1,0,0:0:0:0:
256,192,152282,1,8,0:0:0:0:
256,192,152582,1,8,0:0:0:0:
256,192,152732,1,0,0:0:0:0:
256,192,153032,1,0,0:0:0:0:
256,192,153182,1,8,0:0:0:0:
256,192,153332,1,0,0:0:0:0:
256,192,153632,1,8,0:0:0:0:
256,192,153782,1,8,0:0:0:0:
256,192,153932,1,4,0:0:0:0:
256,192,154232,1,12,0:0:0:0:
256,192,154532,1,12,0:0:0:0:
256,192,154832,1,4,0:0:0:0:
256,192,155132,1,4,0:0:0:0:
256,192,155432,1,12,0:0:0:0:
256,192,155732,1,4,0:0:0:0:
