osu file format v14

[General]
AudioFilename: audio.mp3
AudioLeadIn: 0
PreviewTime: 48962
Countdown: 0
SampleSet: Normal
StackLeniency: 0.7
Mode: 1
LetterboxInBreaks: 0
WidescreenStoryboard: 0

[Editor]
DistanceSpacing: 0.9
BeatDivisor: 2
GridSize: 32
TimelineZoom: 1

[Metadata]
Title:Wirtshaus Gaudi
TitleUnicode:Wirtshaus Gaudi
Artist:Equilibrium
ArtistUnicode:Equilibrium
Creator:Zetera
Version:Einfach
Source:
Tags:Erdentempel German Black Folk Metal Nepuri Symphonic Viking Drunk Beer
BeatmapID:1492867
BeatmapSetID:549450

[Difficulty]
HPDrainRate:6
CircleSize:5
OverallDifficulty:3
ApproachRate:5
SliderMultiplier:1.4
SliderTickRate:1

[Events]
//Background and Video events
0,0,"BG_GAUDI.jpg",0,0
//Break Periods
//Storyboard Layer 0 (Background)
//Storyboard Layer 1 (Fail)
//Storyboard Layer 2 (Pass)
//Storyboard Layer 3 (Foreground)
//Storyboard Sound Samples

[TimingPoints]
152,324.324324324324,4,1,5,100,1,0
13124,-100,4,1,5,100,0,1
23503,-100,4,1,5,100,0,0
49449,-100,4,1,5,100,0,1
70206,-100,4,1,5,100,0,0
106530,-100,4,1,5,100,0,1
131179,-100,4,1,5,100,0,0
141557,315.789473684211,4,1,5,100,1,0
146609,307.692307692308,4,1,5,100,1,1
151532,300,4,1,5,100,1,1
155732,-100,4,1,5,100,0,0

[HitObjects]
256,192,152,5,4,0:0:0:0:
256,192,1449,1,12,0:0:0:0:
256,192,2746,1,4,0:0:0:0:
256,192,4043,1,12,0:0:0:0:
256,192,4692,1,12,0:0:0:0:
256,192,5341,1,4,0:0:0:0:
256,192,6638,1,12,0:0:0:0:
256,192,7935,1,4,0:0:0:0:
256,192,9233,1,12,0:0:0:0:
256,192,9881,1,12,0:0:0:0:
256,192,10530,1,4,0:0:0:0:
256,192,12800,1,0,0:0:0:0:
256,192,13124,1,4,0:0:0:0:
256,192,13773,1,8,0:0:0:0:
256,192,14422,1,8,0:0:0:0:
256,192,14746,1,0,0:0:0:0:
256,192,15070,1,8,0:0:0:0:
256,192,15719,1,0,0:0:0:0:
256,192,16368,1,8,0:0:0:0:
256,192,17016,1,12,0:0:0:0:
256,192,17665,1,12,0:0:0:0:
256,192,18314,1,4,0:0:0:0:
256,192,18962,1,8,0:0:0:0:
256,192,19611,1,8,0:0:0:0:
256,192,19935,1,0,0:0:0:0:
256,192,20260,1,8,0:0:0:0:
256,192,20908,1,0,0:0:0:0:
256,192,21557,1,8,0:0:0:0:
256,192,22206,1,12,0:0:0:0:
256,192,22854,1,8,0:0:0:0:
256,192,23179,1,0,0:0:0:0:
256,192,23503,1,4,0:0:0:0:
256,192,24800,1,8,0:0:0:0:
256,192,25449,1,8,0:0:0:0:
256,192,25773,1,8,0:0:0:0:
256,192,26097,1,0,0:0:0:0:
256,192,27395,1,0,0:0:0:0:
256,192,28043,1,8,0:0:0:0:
256,192,28368,1,0,0:0:0:0:
256,192,28692,1,0,0:0:0:0:
256,192,29989,1,8,0:0:0:0:
256,192,30638,1,8,0:0:0:0:
256,192,30962,1,8,0:0:0:0:
256,192,31287,1,0,0:0:0:0:
256,192,31935,1,0,0:0:0:0:
256,192,32260,1,0,0:0:0:0:
256,192,32584,1,4,0:0:0:0:
256,192,33233,1,4,0:0:0:0:
256,192,33881,1,4,0:0:0:0:
256,192,35179,1,8,0:0:0:0:
256,192,35503,1,8,0:0:0:0:
256,192,35827,1,8,0:0:0:0:
256,192,36476,1,0,0:0:0:0:
256,192,37124,1,0,0:0:0:0:
256,192,37773,1,4,0:0:0:0:
256,192,38422,1,4,0:0:0:0:
256,192,39070,1,4,0:0:0:0:
256,192,40368,1,8,0:0:0:0:
256,192,40692,1,8,0:0:0:0:
256,192,41016,1,8,0:0:0:0:
256,192,41665,1,0,0:0:0:0:
256,192,42314,1,0,0:0:0:0:
256,192,42962,1,12,0:0:0:0:
256,192,43611,1,12,0:0:0:0:
256,192,44260,1,0,0:0:0:0:
256,192,45557,1,0,0:0:0:0:
256,192,45881,1,0,0:0:0:0:
256,192,46206,1,0,0:0:0:0:
256,192,46854,1,0,0:0:0:0:
256,192,47179,1,8,0:0:0:0:
256,192,47503,1,0,0:0:0:0:
256,192,47827,1,8,0:0:0:0:
256,192,48151,1,0,0:0:0:0:
256,192,48800,1,12,0:0:0:0:
256,192,49449,1,4,0:0:0:0:
256,192,50746,1,0,0:0:0:0:
256,192,51070,1,8,0:0:0:0:
256,192,51395,1,0,0:0:0:0:
256,192,52043,1,0,0:0:0:0:
256,192,52368,1,8,0:0:0:0:
256,192,52692,1,0,0:0:0:0:
256,192,53341,1,8,0:0:0:0:
256,192,53665,1,8,0:0:0:0:
256,192,53989,1,8,0:0:0:0:
256,192,54638,1,4,0:0:0:0:
256,192,55935,1,0,0:0:0:0:
256,192,56260,1,8,0:0:0:0:
256,192,56584,1,0,0:0:0:0:
256,192,57233,1,0,0:0:0:0:
256,192,57557,1,8,0:0:0:0:
256,192,57881,1,0,0:0:0:0:
256,192,58530,1,0,0:0:0:0:
256,192,59179,1,12,0:0:0:0:
256,192,59827,1,4,0:0:0:0:
256,192,61124,1,0,0:0:0:0:
256,192,61449,1,8,0:0:0:0:
256,192,61773,1,0,0:0:0:0:
256,192,62422,1,0,0:0:0:0:
256,192,63070,1,8,0:0:0:0:
256,192,63719,1,0,0:0:0:0:
256,192,64043,1,0,0:0:0:0:
256,192,64368,1,12,0:0:0:0:
256,192,65016,1,4,0:0:0:0:
256,192,66314,1,0,0:0:0:0:
256,192,66638,1,8,0:0:0:0:
256,192,66962,1,0,0:0:0:0:
256,192,67611,1,0,0:0:0:0:
256,192,67935,1,8,0:0:0:0:
256,192,68260,1,0,0:0:0:0:
256,192,68908,1,4,0:0:0:0:
256,192,69233,1,4,0:0:0:0:
256,192,69557,1,4,0:0:0:0:
256,192,70206,1,4,0:0:0:0:
256,192,71503,1,12,0:0:0:0:
256,192,72800,1,4,0:0:0:0:
256,192,74097,1,12,0:0:0:0:
256,192,74746,1,12,0:0:0:0:
256,192,75395,1,4,0:0:0:0:
256,192,76692,1,8,0:0:0:0:
256,192,77341,1,8,0:0:0:0:
256,192,77665,1,8,0:0:0:0:
256,192,77989,1,0,0:0:0:0:
256,192,79287,1,8,0:0:0:0:
256,192,79935,1,8,0:0:0:0:
256,192,80260,1,0,0:0:0:0:
256,192,80584,1,4,0:0:0:0:
256,192,81881,1,8,0:0:0:0:
256,192,82206,1,8,0:0:0:0:
256,192,82530,1,8,0:0:0:0:
256,192,83827,1,0,0:0:0:0:
256,192,84476,1,8,0:0:0:0:
256,192,84800,1,0,0:0:0:0:
256,192,85124,1,8,0:0:0:0:
256,192,85773,1,12,0:0:0:0:
256,192,87070,1,8,0:0:0:0:
256,192,87394,1,8,0:0:0:0:
256,192,87718,1,8,0:0:0:0:
256,192,88367,1,0,0:0:0:0:
256,192,89664,1,12,0:0:0:0:
256,192,90313,1,12,0:0:0:0:
256,192,90961,1,4,0:0:0:0:
256,192,92259,1,8,0:0:0:0:
256,192,92583,1,8,0:0:0:0:
256,192,92907,1,8,0:0:0:0:
256,192,93556,1,0,0:0:0:0:
256,192,94853,1,12,0:0:0:0:
256,192,95502,1,12,0:0:0:0:
256,192,96151,1,0,0:0:0:0:
256,192,97449,1,0,0:0:0:0:
256,192,97773,1,0,0:0:0:0:
256,192,98097,1,0,0:0:0:0:
256,192,98746,1,0,0:0:0:0:
256,192,100043,1,0,0:0:0:0:
256,192,100368,1,0,0:0:0:0:
256,192,100692,1,0,0:0:0:0:
256,192,101341,1,4,0:0:0:0:
256,192,101989,1,8,0:0:0:0:
256,192,102638,1,0,0:0:0:0:
256,192,103287,1,8,0:0:0:0:
256,192,103935,1,0,0:0:0:0:
256,192,104584,1,8,0:0:0:0:
256,192,105233,1,8,0:0:0:0:
256,192,105557,1,8,0:0:0:0:
256,192,105881,1,8,0:0:0:0:
256,192,106530,1,4,0:0:0:0:
256,192,107827,1,0,0:0:0:0:
256,192,108151,1,8,0:0:0:0:
256,192,108476,1,0,0:0:0:0:
256,192,109124,1,0,0:0:0:0:
256,192,109449,1,8,0:0:0:0:
256,192,109773,1,0,0:0:0:0:
256,192,110422,1,8,0:0:0:0:
256,192,110746,1,8,0:0:0:0:
256,192,111070,1,8,0:0:0:0:
256,192,111719,1,4,0:0:0:0:
256,192,113016,1,0,0:0:0:0:
256,192,113341,1,8,0:0:0:0:
256,192,113665,1,0,0:0:0:0:
256,192,114314,1,0,0:0:0:0:
256,192,114638,1,8,0:0:0:0:
256,192,114962,1,0,0:0:0:0:
256,192,115611,1,0,0:0:0:0:
256,192,116260,1,12,0:0:0:0:
256,192,116908,1,0,0:0:0:0:
256,192,118206,1,8,0:0:0:0:
256,192,118530,1,0,0:0:0:0:
256,192,118854,1,8,0:0:0:0:
256,192,119503,1,0,0:0:0:0:
256,192,120151,1,8,0:0:0:0:
256,192,120800,1,0,0:0:0:0:
256,192,121124,1,8,0:0:0:0:
256,192,121449,1,12,0:0:0:0:
256,192,122097,1,4,0:0:0:0:
256,192,122746,1,0,0:0:0:0:
256,192,123395,1,0,0:0:0:0:
256,192,123719,1,8,0:0:0:0:
256,192,124043,1,0,0:0:0:0:
256,192,124692,1,0,0:0:0:0:
256,192,125016,1,8,0:0:0:0:
256,192,125341,1,0,0:0:0:0:
256,192,125665,1,8,0:0:0:0:
256,192,125989,1,4,0:0:0:0:
256,192,126638,1,4,0:0:0:0:
256,192,127287,1,4,0:0:0:0:
256,192,127935,1,4,0:0:0:0:
256,192,128584,1,4,0:0:0:0:
256,192,129881,1,4,0:0:0:0:
256,192,131179,1,4,0:0:0:0:
256,192,133773,1,12,0:0:0:0:
256,192,135070,1,0,0:0:0:0:
256,192,135719,1,0,0:0:0:0:
256,192,136368,1,4,0:0:0:0:
256,192,137341,1,8,0:0:0:0:
256,192,137665,1,0,0:0:0:0:
256,192,138314,1,8,0:0:0:0:
256,192,138638,1,8,0:0:0:0:
256,192,138962,1,0,0:0:0:0:
256,192,139611,1,8,0:0:0:0:
256,192,140260,1,0,0:0:0:0:
256,192,140584,1,8,0:0:0:0:
256,192,140908,1,0,0:0:0:0:
256,192,141557,1,4,0:0:0:0:
256,192,142504,1,8,0:0:0:0:
256,192,142820,1,0,0:0:0:0:
256,192,143451,1,8,0:0:0:0:
256,192,143767,1,8,0:0:0:0:
256,192,144083,1,0,0:0:0:0:
256,192,144714,1,8,0:0:0:0:
256,192,145346,1,0,0:0:0:0:
256,192,145662,1,8,0:0:0:0:
256,192,145978,1,0,0:0:0:0:
256,192,146609,1,4,0:0:0:0:
256,192,146916,1,8,0:0:0:0:
256,192,147532,1,8,0:0:0:0:
256,192,148147,1,8,0:0:0:0:
256,192,148762,1,8,0:0:0:0:
256,192,149070,1,0,0:0:0:0:
256,192,149378,1,8,0:0:0:0:
256,192,149993,1,8,0:0:0:0:
256,192,150301,1,0,0:0:0:0:
256,192,150609,1,8,0:0:0:0:
256,192,150916,1,0,0:0:0:0:
256,192,151532,1,4,0:0:0:0:
256,192,151832,1,8,0:0:0:0:
256,192,152432,1,8,0:0:0:0:
256,192,153032,1,8,0:0:0:0:
256,192,153632,1,8,0:0:0:0:
256,192,153932,1,4,0:0:0:0:
256,192,154532,1,4,0:0:0:0:
256,192,155132,1,4,0:0:0:0:
256,192,155432,1,4,0:0:0:0:
256,192,155732,1,4,0:0:0:0:
