osu file format v14

[General]
AudioFilename: audio.mp3
AudioLeadIn: 0
PreviewTime: 135158
Countdown: 0
SampleSet: Normal
StackLeniency: 0.7
Mode: 1
LetterboxInBreaks: 0
WidescreenStoryboard: 0

[Editor]
Bookmarks: 20258,39458,61058,65858,68258,78158,92258,97058,106658,116258,121208,125858,159458,178658,188258,197858,207458,262658,310658
DistanceSpacing: 3.1
BeatDivisor: 4
GridSize: 4
TimelineZoom: 2.4

[Metadata]
Title:Waldschrein
TitleUnicode:Waldschrein
Artist:Equilibrium
ArtistUnicode:Equilibrium
Creator:Raiden
Version:Versteckter Daemon
Source:
Tags:folk black viking metal dämon damon german Erdentempel
BeatmapID:1370184
BeatmapSetID:646705

[Difficulty]
HPDrainRate:5
CircleSize:2
OverallDifficulty:6.5
ApproachRate:10
SliderMultiplier:1.4
SliderTickRate:1

[Events]
//Background and Video events
0,0,"folk folk folk folk.jpg",0,0
//Break Periods
//Storyboard Layer 0 (Background)
//Storyboard Layer 1 (Fail)
//Storyboard Layer 2 (Pass)
//Storyboard Layer 3 (Foreground)
//Storyboard Sound Samples

[TimingPoints]
2258,300,4,1,0,10,1,0
10658,-107.52688172043,4,1,0,70,0,0
19808,-106.382978723404,4,1,0,70,0,0
19883,-105.263157894737,4,1,0,70,0,0
19958,-104.166666666667,4,1,0,70,0,0
20033,-103.092783505155,4,1,0,75,0,0
20108,-102.040816326531,4,1,0,80,0,0
20183,-101.010101010101,4,1,0,85,0,0
20258,-100,4,1,0,90,0,0
47783,-66.6666666666667,4,1,0,90,0,0
48983,-80,4,1,0,90,0,0
49358,-100,4,1,0,90,0,0
57383,-66.6666666666667,4,1,0,90,0,0
58733,-100,4,1,0,70,0,0
59258,-100,4,1,0,70,0,0
61058,-84.7457627118644,4,1,0,90,0,0
62858,-86.2068965517241,4,1,0,90,0,0
62933,-87.719298245614,4,1,0,90,0,0
63008,-89.2857142857143,4,1,0,90,0,0
63083,-90.9090909090909,4,1,0,90,0,0
63158,-92.5925925925926,4,1,0,90,0,0
63233,-94.3396226415094,4,1,0,90,0,0
63308,-96.1538461538461,4,1,0,90,0,0
63383,-98.0392156862745,4,1,0,90,0,0
63458,-100,4,1,0,70,0,0
65858,-84.7457627118644,4,1,0,90,0,0
67658,-86.2068965517241,4,1,0,90,0,0
67733,-87.719298245614,4,1,0,90,0,0
67808,-89.2857142857143,4,1,0,90,0,0
67883,-90.9090909090909,4,1,0,90,0,0
67958,-92.5925925925926,4,1,0,90,0,0
68033,-94.3396226415094,4,1,0,90,0,0
68108,-96.1538461538461,4,1,0,90,0,0
68183,-98.0392156862745,4,1,0,90,0,0
68258,-100,4,1,0,90,0,0
72458,-66.6666666666667,4,1,0,90,0,0
72608,-74.0740740740741,4,1,0,90,0,0
72758,-83.3333333333333,4,1,0,90,0,0
72908,-90.9090909090909,4,1,0,90,0,0
73058,-100,4,1,0,90,0,0
76583,-66.6666666666667,4,1,0,90,0,0
77783,-80,4,1,0,90,0,0
78158,-100,4,1,0,90,0,0
86183,-66.6666666666667,4,1,0,90,0,0
87683,-71.4285714285714,4,1,0,60,0,0
88058,-76.9230769230769,4,1,0,60,0,0
88358,-83.3333333333333,4,1,0,60,0,0
88658,-90.9090909090909,4,1,0,60,0,0
88958,-100,4,1,0,60,0,0
89258,-105.263157894737,4,1,0,60,0,0
89558,-111.111111111111,4,1,0,60,0,0
89858,-117.647058823529,4,1,0,60,0,0
90158,-125,4,1,0,60,0,0
90458,-133.333333333333,4,1,0,60,0,0
90758,-142.857142857143,4,1,0,60,0,0
91058,-147.058823529412,4,1,0,60,0,0
91358,-151.515151515152,4,1,0,60,0,0
91658,-156.25,4,1,0,60,0,0
91958,-161.290322580645,4,1,0,60,0,0
92258,-100,4,1,0,90,0,0
135458,-83.3333333333333,4,1,0,100,0,1
136058,-76.9230769230769,4,1,0,100,0,1
136658,-90.9090909090909,4,1,0,100,0,1
137258,-83.3333333333333,4,1,0,100,0,1
137858,-76.9230769230769,4,1,0,100,0,1
138458,-83.3333333333333,4,1,0,100,0,1
139058,-90.9090909090909,4,1,0,100,0,1
139658,-83.3333333333333,4,1,0,100,0,1
140258,-76.9230769230769,4,1,0,100,0,1
140858,-83.3333333333333,4,1,0,100,0,1
141458,-90.9090909090909,4,1,0,100,0,1
142058,-83.3333333333333,4,1,0,100,0,1
142658,-76.9230769230769,4,1,0,100,0,1
143258,-83.3333333333333,4,1,0,100,0,1
143708,-90.9090909090909,4,1,0,100,0,1
144458,-83.3333333333333,4,1,0,100,0,1
145058,-76.9230769230769,4,1,0,100,0,1
145658,-83.3333333333333,4,1,0,100,0,1
146558,-90.9090909090909,4,1,0,100,0,1
146858,-83.3333333333333,4,1,0,100,0,1
147458,-76.9230769230769,4,1,0,100,0,1
148058,-83.3333333333333,4,1,0,100,0,1
148958,-90.9090909090909,4,1,0,100,0,1
149258,-83.3333333333333,4,1,0,100,0,1
149858,-76.9230769230769,4,1,0,100,0,1
151058,-83.3333333333333,4,1,0,100,0,1
152258,-90.9090909090909,4,1,0,100,0,1
153458,-76.9230769230769,4,1,0,100,0,1
154658,-100,4,1,0,100,0,0
217058,-83.3333333333333,4,1,0,100,0,1
217658,-76.9230769230769,4,1,0,100,0,1
218558,-83.3333333333333,4,1,0,100,0,1
218858,-86.9565217391304,4,1,0,100,0,1
219458,-90.9090909090909,4,1,0,100,0,1
220058,-83.3333333333333,4,1,0,100,0,1
220958,-76.9230769230769,4,1,0,100,0,1
221258,-80,4,1,0,100,0,1
221858,-83.3333333333333,4,1,0,100,0,1
222458,-90.9090909090909,4,1,0,100,0,1
223358,-83.3333333333333,4,1,0,100,0,1
223658,-80,4,1,0,100,0,1
224258,-76.9230769230769,4,1,0,100,0,1
224858,-83.3333333333333,4,1,0,100,0,1
226058,-90.9090909090909,4,1,0,100,0,1
226658,-83.3333333333333,4,1,0,100,0,1
227258,-76.9230769230769,4,1,0,100,0,1
228158,-83.3333333333333,4,1,0,100,0,1
228458,-86.9565217391304,4,1,0,100,0,1
229058,-90.9090909090909,4,1,0,100,0,1
229658,-83.3333333333333,4,1,0,100,0,1
230558,-76.9230769230769,4,1,0,100,0,1
230858,-80,4,1,0,100,0,1
231458,-83.3333333333333,4,1,0,100,0,1
232358,-90.9090909090909,4,1,0,100,0,1
232658,-95.2380952380952,4,1,0,100,0,1
233858,-100,4,1,0,100,0,1
236258,-100,4,1,0,100,0,0
262658,-133.333333333333,4,1,0,40,0,0
272258,-100,4,1,0,100,0,1
293858,-100,4,1,0,100,0,0

[HitObjects]
256,192,8558,12,0,10508,0:0:0:0:
168,96,10658,5,0,0:0:0:0:
180,72,10958,1,0,0:0:0:0:
168,96,11258,1,0,0:0:0:0:
368,220,11408,1,8,0:0:0:0:
160,96,11558,1,0,0:0:0:0:
136,96,11708,1,0,0:0:0:0:
348,240,11858,1,8,0:0:0:0:
376,268,12008,1,8,0:0:0:0:
376,268,12083,1,8,0:0:0:0:
168,136,12158,1,0,0:0:0:0:
156,100,12308,1,0,0:0:0:0:
364,276,12458,1,8,0:0:0:0:
144,124,12608,1,0,0:0:0:0:
148,88,12758,1,0,0:0:0:0:
324,236,12908,1,8,0:0:0:0:
136,76,13058,5,0,0:0:0:0:
132,44,13358,1,0,0:0:0:0:
132,44,13658,1,0,0:0:0:0:
372,248,13808,1,8,0:0:0:0:
168,88,13958,1,0,0:0:0:0:
392,224,14108,1,8,0:0:0:0:
392,224,14258,1,8,0:0:0:0:
168,88,14408,1,0,0:0:0:0:
400,216,14558,1,8,0:0:0:0:
400,216,14708,1,8,0:0:0:0:
180,96,14858,1,0,0:0:0:0:
180,96,15008,1,0,0:0:0:0:
352,204,15158,1,8,0:0:0:0:
352,204,15308,1,8,0:0:0:0:
168,80,15458,5,0,0:0:0:0:
160,88,15758,1,0,0:0:0:0:
148,100,16058,1,0,0:0:0:0:
384,248,16208,1,8,0:0:0:0:
168,104,16358,1,0,0:0:0:0:
168,104,16508,1,0,0:0:0:0:
368,232,16658,1,8,0:0:0:0:
168,100,16808,1,0,0:0:0:0:
320,196,16883,1,8,0:0:0:0:
152,80,16958,1,0,0:0:0:0:
140,80,17108,1,0,0:0:0:0:
344,192,17258,1,8,0:0:0:0:
344,192,17408,1,8,0:0:0:0:
156,80,17558,1,0,0:0:0:0:
372,220,17708,1,8,0:0:0:0:
144,80,17858,5,0,0:0:0:0:
144,80,18008,1,0,0:0:0:0:
372,220,18158,1,8,0:0:0:0:
120,96,18308,1,0,0:0:0:0:
344,248,18458,1,8,0:0:0:0:
344,248,18608,1,8,0:0:0:0:
160,76,18758,1,0,0:0:0:0:
384,256,18908,1,8,0:0:0:0:
152,104,19058,1,0,0:0:0:0:
400,276,19208,1,8,0:0:0:0:
152,112,19283,1,0,0:0:0:0:
152,112,19358,1,0,0:0:0:0:
172,84,19508,1,0,0:0:0:0:
172,84,19583,1,0,0:0:0:0:
388,260,19658,1,8,0:0:0:0:
388,260,19808,1,8,0:0:0:0:
184,92,19883,1,0,0:0:0:0:
396,284,19958,1,8,0:0:0:0:
400,292,20033,1,8,0:0:0:0:
168,88,20108,1,0,0:0:0:0:
168,88,20183,1,0,0:0:0:0:
396,320,20258,5,8,0:0:0:0:
420,260,20558,1,8,0:0:0:0:
188,104,20708,1,0,0:0:0:0:
392,260,20858,1,8,0:0:0:0:
392,260,21008,1,8,0:0:0:0:
408,256,21158,1,8,0:0:0:0:
184,96,21308,1,0,0:0:0:0:
368,248,21458,1,8,0:0:0:0:
396,252,21608,1,8,0:0:0:0:
396,252,21683,1,8,0:0:0:0:
188,104,21758,1,0,0:0:0:0:
168,84,21908,1,0,0:0:0:0:
340,244,22058,1,8,0:0:0:0:
176,100,22208,1,0,0:0:0:0:
336,256,22358,1,8,0:0:0:0:
376,276,22508,1,8,0:0:0:0:
160,80,22658,1,0,0:0:0:0:
376,276,22958,1,8,0:0:0:0:
152,88,23108,1,0,0:0:0:0:
152,72,23258,1,0,0:0:0:0:
304,232,23408,1,8,0:0:0:0:
344,256,23558,1,8,0:0:0:0:
172,116,23708,1,0,0:0:0:0:
356,264,23858,1,8,0:0:0:0:
176,112,24008,1,0,0:0:0:0:
344,256,24158,1,8,0:0:0:0:
344,256,24308,1,8,0:0:0:0:
172,116,24458,1,0,0:0:0:0:
368,272,24533,1,8,0:0:0:0:
132,72,24608,1,0,0:0:0:0:
372,272,24758,1,8,0:0:0:0:
356,260,24908,1,8,0:0:0:0:
164,140,25058,5,0,0:0:0:0:
420,260,25358,1,8,0:0:0:0:
188,104,25508,1,0,0:0:0:0:
168,96,25658,1,0,0:0:0:0:
432,280,25808,1,8,0:0:0:0:
384,312,25958,1,8,0:0:0:0:
184,96,26108,1,0,0:0:0:0:
368,248,26258,1,8,0:0:0:0:
396,252,26408,1,8,0:0:0:0:
396,252,26483,1,8,0:0:0:0:
188,104,26558,1,0,0:0:0:0:
168,84,26708,1,0,0:0:0:0:
340,244,26858,1,8,0:0:0:0:
176,100,27008,1,0,0:0:0:0:
192,116,27158,1,0,0:0:0:0:
376,276,27308,1,8,0:0:0:0:
160,80,27458,5,0,0:0:0:0:
184,76,27608,1,0,0:0:0:0:
364,268,27758,1,8,0:0:0:0:
136,84,27908,1,0,0:0:0:0:
136,84,28058,1,0,0:0:0:0:
136,84,28208,1,0,0:0:0:0:
376,252,28358,1,8,0:0:0:0:
356,244,28508,1,8,0:0:0:0:
176,96,28658,5,0,0:0:0:0:
176,96,28808,1,0,0:0:0:0:
336,212,28958,1,8,0:0:0:0:
352,240,29108,1,8,0:0:0:0:
144,88,29258,1,0,0:0:0:0:
360,248,29408,1,8,0:0:0:0:
360,248,29483,1,8,0:0:0:0:
144,88,29558,1,0,0:0:0:0:
328,208,29708,1,8,0:0:0:0:
168,276,29858,5,4,0:0:0:0:
364,248,30158,1,8,0:0:0:0:
180,104,30308,1,0,0:0:0:0:
180,104,30458,1,0,0:0:0:0:
332,236,30608,1,8,0:0:0:0:
356,240,30758,1,8,0:0:0:0:
196,104,30908,1,0,0:0:0:0:
364,248,31058,1,8,0:0:0:0:
192,104,31208,1,0,0:0:0:0:
348,224,31283,1,8,0:0:0:0:
164,112,31358,1,0,0:0:0:0:
164,112,31508,1,0,0:0:0:0:
424,228,31658,1,8,0:0:0:0:
192,112,31808,1,0,0:0:0:0:
412,216,31958,1,8,0:0:0:0:
412,216,32108,1,8,0:0:0:0:
172,100,32258,5,0,0:0:0:0:
368,212,32558,1,8,0:0:0:0:
176,84,32708,1,0,0:0:0:0:
180,96,32858,1,0,0:0:0:0:
192,88,33008,1,0,0:0:0:0:
368,212,33158,1,8,0:0:0:0:
368,212,33308,1,8,0:0:0:0:
172,112,33458,1,0,0:0:0:0:
176,56,33608,1,0,0:0:0:0:
320,172,33758,1,8,0:0:0:0:
320,172,33908,1,8,0:0:0:0:
336,196,34058,1,8,0:0:0:0:
336,196,34133,1,8,0:0:0:0:
136,84,34208,1,0,0:0:0:0:
136,84,34283,1,0,0:0:0:0:
352,228,34358,5,8,0:0:0:0:
168,88,34508,1,0,0:0:0:0:
364,256,34658,1,8,0:0:0:0:
332,248,34958,1,8,0:0:0:0:
144,96,35108,1,0,0:0:0:0:
144,96,35258,1,0,0:0:0:0:
352,256,35408,1,8,0:0:0:0:
356,248,35558,1,8,0:0:0:0:
188,104,35708,1,0,0:0:0:0:
320,228,35858,1,8,0:0:0:0:
180,104,36008,1,0,0:0:0:0:
292,256,36083,1,8,0:0:0:0:
168,88,36158,1,0,0:0:0:0:
184,88,36308,1,0,0:0:0:0:
308,212,36458,1,8,0:0:0:0:
188,80,36608,1,0,0:0:0:0:
188,80,36758,1,0,0:0:0:0:
340,260,36908,1,8,0:0:0:0:
168,76,37058,5,0,0:0:0:0:
168,76,37208,1,0,0:0:0:0:
184,76,37283,1,0,0:0:0:0:
320,228,37358,1,8,0:0:0:0:
152,88,37508,1,0,0:0:0:0:
180,52,37658,1,0,0:0:0:0:
188,80,37808,1,0,0:0:0:0:
184,80,37883,1,0,0:0:0:0:
324,240,37958,1,8,0:0:0:0:
356,220,38108,1,8,0:0:0:0:
152,88,38258,1,0,0:0:0:0:
184,80,38408,1,0,0:0:0:0:
184,80,38483,1,0,0:0:0:0:
324,196,38558,1,8,0:0:0:0:
352,244,38708,5,8,0:0:0:0:
184,88,38858,1,0,0:0:0:0:
344,256,39008,1,8,0:0:0:0:
344,256,39083,1,8,0:0:0:0:
176,88,39158,1,0,0:0:0:0:
176,88,39233,1,0,0:0:0:0:
176,88,39308,1,0,0:0:0:0:
176,88,39458,5,0,0:0:0:0:
368,260,39758,1,8,0:0:0:0:
156,88,40058,1,0,0:0:0:0:
376,288,40208,1,8,0:0:0:0:
356,256,40358,1,8,0:0:0:0:
160,124,40508,5,0,0:0:0:0:
168,112,40658,1,0,0:0:0:0:
180,132,40733,1,0,0:0:0:0:
168,124,40808,1,0,0:0:0:0:
356,256,40958,1,8,0:0:0:0:
356,284,41108,1,8,0:0:0:0:
136,100,41258,1,0,0:0:0:0:
136,100,41333,1,0,0:0:0:0:
136,100,41408,1,0,0:0:0:0:
328,264,41558,1,8,0:0:0:0:
336,264,41708,1,8,0:0:0:0:
160,100,41858,5,0,0:0:0:0:
360,284,42158,1,8,0:0:0:0:
160,100,42458,1,0,0:0:0:0:
160,100,42608,1,0,0:0:0:0:
340,224,42758,1,8,0:0:0:0:
372,248,42908,1,8,0:0:0:0:
136,108,43058,1,0,0:0:0:0:
136,108,43133,1,0,0:0:0:0:
136,108,43208,1,0,0:0:0:0:
364,224,43358,1,8,0:0:0:0:
364,224,43508,1,8,0:0:0:0:
156,96,43658,1,0,0:0:0:0:
136,108,43733,1,0,0:0:0:0:
156,96,43808,1,0,0:0:0:0:
156,96,43883,1,0,0:0:0:0:
388,264,43958,1,8,0:0:0:0:
184,100,44258,5,0,0:0:0:0:
368,260,44558,1,8,0:0:0:0:
156,88,44858,1,0,0:0:0:0:
376,288,45008,1,8,0:0:0:0:
356,256,45158,1,8,0:0:0:0:
160,124,45308,5,0,0:0:0:0:
168,112,45458,1,0,0:0:0:0:
180,132,45533,1,0,0:0:0:0:
168,124,45608,1,0,0:0:0:0:
356,256,45758,1,8,0:0:0:0:
356,284,45908,1,8,0:0:0:0:
136,100,46058,1,0,0:0:0:0:
136,100,46133,1,0,0:0:0:0:
136,100,46208,1,0,0:0:0:0:
328,264,46358,1,8,0:0:0:0:
336,264,46508,1,8,0:0:0:0:
160,100,46658,5,0,0:0:0:0:
312,240,46808,1,8,0:0:0:0:
104,112,46883,1,0,0:0:0:0:
320,252,46958,1,8,0:0:0:0:
408,288,47033,1,8,0:0:0:0:
136,100,47108,1,0,0:0:0:0:
340,264,47258,1,8,0:0:0:0:
336,264,47408,1,8,0:0:0:0:
336,264,47483,1,8,0:0:0:0:
104,112,47558,1,0,0:0:0:0:
376,264,47858,5,12,0:0:0:0:
376,264,48158,1,12,0:0:0:0:
376,264,48458,1,12,0:0:0:0:
376,264,48758,1,12,0:0:0:0:
164,292,49058,5,4,0:0:0:0:
368,260,49358,1,8,0:0:0:0:
156,88,49658,1,0,0:0:0:0:
376,288,49808,1,8,0:0:0:0:
356,256,49958,1,8,0:0:0:0:
160,124,50108,5,0,0:0:0:0:
168,112,50258,1,0,0:0:0:0:
180,132,50333,1,0,0:0:0:0:
168,124,50408,1,0,0:0:0:0:
356,256,50558,1,8,0:0:0:0:
356,284,50708,1,8,0:0:0:0:
136,100,50858,1,0,0:0:0:0:
136,100,50933,1,0,0:0:0:0:
136,100,51008,1,0,0:0:0:0:
328,264,51158,1,8,0:0:0:0:
336,264,51308,1,8,0:0:0:0:
160,100,51458,5,0,0:0:0:0:
360,284,51758,1,8,0:0:0:0:
160,100,52058,1,0,0:0:0:0:
160,100,52208,1,0,0:0:0:0:
340,224,52358,1,8,0:0:0:0:
372,248,52508,1,8,0:0:0:0:
136,108,52658,1,0,0:0:0:0:
136,108,52733,1,0,0:0:0:0:
136,108,52808,1,0,0:0:0:0:
364,224,52958,1,8,0:0:0:0:
364,224,53108,1,8,0:0:0:0:
156,96,53258,1,0,0:0:0:0:
156,96,53333,1,0,0:0:0:0:
156,96,53408,1,0,0:0:0:0:
388,264,53558,1,8,0:0:0:0:
184,100,53858,5,4,0:0:0:0:
368,260,54158,1,8,0:0:0:0:
156,88,54458,1,0,0:0:0:0:
376,288,54608,1,8,0:0:0:0:
356,256,54758,1,8,0:0:0:0:
160,124,54908,5,0,0:0:0:0:
168,112,55058,1,0,0:0:0:0:
180,132,55133,1,0,0:0:0:0:
168,124,55208,1,0,0:0:0:0:
356,256,55358,1,8,0:0:0:0:
356,284,55508,1,8,0:0:0:0:
136,100,55658,1,0,0:0:0:0:
136,100,55733,1,0,0:0:0:0:
136,100,55808,1,0,0:0:0:0:
328,264,55958,1,8,0:0:0:0:
336,264,56108,1,8,0:0:0:0:
160,100,56258,5,0,0:0:0:0:
312,240,56408,1,8,0:0:0:0:
104,112,56483,1,0,0:0:0:0:
320,252,56558,1,8,0:0:0:0:
408,288,56633,1,8,0:0:0:0:
136,100,56708,1,0,0:0:0:0:
152,84,56783,1,0,0:0:0:0:
340,264,56858,1,8,0:0:0:0:
336,264,57008,1,8,0:0:0:0:
336,264,57083,5,8,0:0:0:0:
104,112,57158,1,0,0:0:0:0:
176,124,57308,1,0,0:0:0:0:
384,248,57458,5,12,0:0:0:0:
384,248,57608,1,12,0:0:0:0:
384,248,57908,1,12,0:0:0:0:
384,248,58208,1,12,0:0:0:0:
384,248,58508,1,12,0:0:0:0:
384,248,58658,5,12,0:0:0:0:
112,120,58958,1,0,0:0:0:0:
160,108,59258,1,0,0:0:0:0:
124,96,59558,1,0,0:0:0:0:
124,96,59858,1,0,0:0:0:0:
144,112,60008,1,0,0:0:0:0:
144,112,60083,1,0,0:0:0:0:
124,96,60158,1,0,0:0:0:0:
124,96,60458,1,0,0:0:0:0:
148,88,60608,1,0,0:0:0:0:
148,88,60658,1,0,0:0:0:0:
148,88,60708,1,0,0:0:0:0:
332,312,60758,1,8,0:0:0:0:
144,120,61058,5,0,0:0:0:0:
148,116,61133,1,0,0:0:0:0:
144,120,61208,1,0,0:0:0:0:
144,120,61283,1,0,0:0:0:0:
384,300,61358,1,8,0:0:0:0:
380,288,61433,1,8,0:0:0:0:
152,116,61508,1,0,0:0:0:0:
152,116,61583,1,0,0:0:0:0:
152,116,61658,1,0,0:0:0:0:
152,116,61733,1,0,0:0:0:0:
152,116,61808,1,0,0:0:0:0:
152,116,61883,1,0,0:0:0:0:
376,276,61958,1,8,0:0:0:0:
376,276,62033,1,8,0:0:0:0:
184,120,62108,1,0,0:0:0:0:
184,120,62183,1,0,0:0:0:0:
184,120,62258,1,0,0:0:0:0:
184,120,62333,1,0,0:0:0:0:
184,120,62408,1,0,0:0:0:0:
184,120,62483,1,0,0:0:0:0:
396,296,62558,1,8,0:0:0:0:
396,296,62633,1,8,0:0:0:0:
396,296,62708,1,8,0:0:0:0:
376,284,62783,1,8,0:0:0:0:
192,104,62858,1,0,0:0:0:0:
192,104,62933,1,0,0:0:0:0:
192,104,63008,1,0,0:0:0:0:
192,104,63083,1,0,0:0:0:0:
356,264,63158,1,8,0:0:0:0:
128,88,63233,1,0,0:0:0:0:
368,272,63308,1,8,0:0:0:0:
368,272,63383,1,8,0:0:0:0:
120,96,63458,5,0,0:0:0:0:
120,96,63758,1,0,0:0:0:0:
120,96,64058,1,0,0:0:0:0:
120,96,64358,1,0,0:0:0:0:
120,96,64658,1,0,0:0:0:0:
120,96,64958,1,0,0:0:0:0:
120,96,65258,1,0,0:0:0:0:
364,272,65333,1,8,0:0:0:0:
136,96,65408,1,0,0:0:0:0:
136,96,65483,1,0,0:0:0:0:
388,276,65558,1,8,0:0:0:0:
144,120,65858,5,0,0:0:0:0:
148,116,65933,1,0,0:0:0:0:
144,120,66008,1,0,0:0:0:0:
144,120,66083,1,0,0:0:0:0:
384,300,66158,1,8,0:0:0:0:
380,288,66233,1,8,0:0:0:0:
152,116,66308,1,0,0:0:0:0:
152,116,66383,1,0,0:0:0:0:
152,116,66458,1,0,0:0:0:0:
152,116,66533,1,0,0:0:0:0:
152,116,66608,1,0,0:0:0:0:
152,116,66683,1,0,0:0:0:0:
376,276,66758,1,8,0:0:0:0:
376,276,66833,1,8,0:0:0:0:
184,120,66908,1,0,0:0:0:0:
184,120,66983,1,0,0:0:0:0:
184,120,67058,1,0,0:0:0:0:
184,120,67133,1,0,0:0:0:0:
364,268,67208,1,8,0:0:0:0:
364,268,67283,1,8,0:0:0:0:
396,296,67358,1,8,0:0:0:0:
396,296,67433,1,8,0:0:0:0:
184,120,67508,1,0,0:0:0:0:
192,104,67583,1,0,0:0:0:0:
336,300,67658,1,8,0:0:0:0:
364,296,67733,1,8,0:0:0:0:
192,104,67808,1,0,0:0:0:0:
192,104,67883,1,0,0:0:0:0:
356,264,67958,1,8,0:0:0:0:
128,88,68033,1,0,0:0:0:0:
368,272,68108,1,8,0:0:0:0:
368,272,68183,1,8,0:0:0:0:
176,88,68258,5,0,0:0:0:0:
368,260,68558,1,8,0:0:0:0:
156,88,68858,1,0,0:0:0:0:
376,288,69008,1,8,0:0:0:0:
356,256,69158,1,8,0:0:0:0:
160,124,69308,5,0,0:0:0:0:
168,112,69458,1,0,0:0:0:0:
180,132,69533,1,0,0:0:0:0:
168,124,69608,1,0,0:0:0:0:
356,256,69758,1,8,0:0:0:0:
356,284,69908,1,8,0:0:0:0:
136,100,70058,1,0,0:0:0:0:
136,100,70133,1,0,0:0:0:0:
136,100,70208,1,0,0:0:0:0:
328,264,70358,1,8,0:0:0:0:
336,264,70508,1,8,0:0:0:0:
160,100,70658,5,0,0:0:0:0:
360,284,70958,1,8,0:0:0:0:
160,100,71258,1,0,0:0:0:0:
160,100,71408,1,0,0:0:0:0:
340,224,71558,1,8,0:0:0:0:
372,248,71708,1,8,0:0:0:0:
136,108,71858,1,0,0:0:0:0:
136,108,72008,1,0,0:0:0:0:
136,108,72083,1,0,0:0:0:0:
364,224,72158,1,8,0:0:0:0:
364,224,72308,1,8,0:0:0:0:
156,96,72458,1,4,0:0:0:0:
368,280,72608,1,12,0:0:0:0:
388,264,72758,1,12,0:0:0:0:
344,284,72908,1,12,0:0:0:0:
184,100,73058,5,4,0:0:0:0:
368,260,73358,1,8,0:0:0:0:
156,88,73658,1,0,0:0:0:0:
376,288,73808,1,8,0:0:0:0:
356,256,73958,1,8,0:0:0:0:
160,124,74108,5,0,0:0:0:0:
168,112,74258,1,0,0:0:0:0:
180,132,74333,1,0,0:0:0:0:
168,124,74408,1,0,0:0:0:0:
356,256,74558,1,8,0:0:0:0:
356,284,74708,1,8,0:0:0:0:
136,100,74858,1,0,0:0:0:0:
136,100,74933,1,0,0:0:0:0:
136,100,75008,1,0,0:0:0:0:
328,264,75158,1,8,0:0:0:0:
336,264,75308,1,8,0:0:0:0:
160,100,75458,5,0,0:0:0:0:
312,240,75608,1,8,0:0:0:0:
104,112,75683,1,0,0:0:0:0:
320,252,75758,1,8,0:0:0:0:
408,288,75833,1,8,0:0:0:0:
136,100,75908,1,0,0:0:0:0:
340,264,76058,1,8,0:0:0:0:
336,264,76208,1,8,0:0:0:0:
336,264,76283,5,8,0:0:0:0:
104,112,76358,1,0,0:0:0:0:
356,260,76658,5,12,0:0:0:0:
392,288,76958,1,12,0:0:0:0:
392,288,77258,1,12,0:0:0:0:
392,288,77408,1,12,0:0:0:0:
392,288,77558,1,12,0:0:0:0:
164,92,77858,5,4,0:0:0:0:
376,256,78158,1,8,0:0:0:0:
176,96,78308,1,0,0:0:0:0:
176,96,78458,1,0,0:0:0:0:
384,264,78608,1,8,0:0:0:0:
180,92,78758,1,0,0:0:0:0:
400,276,78908,1,8,0:0:0:0:
376,280,78983,1,8,0:0:0:0:
176,96,79058,1,0,0:0:0:0:
176,96,79208,1,0,0:0:0:0:
388,292,79358,1,8,0:0:0:0:
184,100,79508,1,0,0:0:0:0:
184,100,79808,1,0,0:0:0:0:
380,284,79958,1,8,0:0:0:0:
396,272,80033,1,8,0:0:0:0:
212,124,80108,1,0,0:0:0:0:
376,268,80258,5,8,0:0:0:0:
380,284,80558,1,8,0:0:0:0:
168,88,80708,1,0,0:0:0:0:
168,88,80858,1,0,0:0:0:0:
332,240,81008,1,8,0:0:0:0:
204,112,81158,1,0,0:0:0:0:
204,112,81233,1,0,0:0:0:0:
204,112,81308,1,0,0:0:0:0:
360,280,81458,1,8,0:0:0:0:
384,296,81608,1,8,0:0:0:0:
384,296,81683,1,8,0:0:0:0:
208,132,81758,1,0,0:0:0:0:
360,280,81908,1,8,0:0:0:0:
168,128,82208,1,0,0:0:0:0:
168,128,82283,1,0,0:0:0:0:
368,272,82358,1,8,0:0:0:0:
184,116,82508,1,0,0:0:0:0:
356,276,82658,1,8,0:0:0:0:
368,272,82958,1,8,0:0:0:0:
220,144,83108,1,0,0:0:0:0:
220,144,83258,1,0,0:0:0:0:
376,288,83408,1,8,0:0:0:0:
200,140,83558,1,0,0:0:0:0:
200,140,83633,1,0,0:0:0:0:
200,140,83708,1,0,0:0:0:0:
384,304,83858,1,8,0:0:0:0:
380,280,83933,1,8,0:0:0:0:
376,288,84008,1,8,0:0:0:0:
208,136,84158,1,0,0:0:0:0:
384,304,84308,1,8,0:0:0:0:
416,328,84458,1,8,0:0:0:0:
384,304,84608,1,8,0:0:0:0:
384,304,84683,1,8,0:0:0:0:
208,152,84758,1,0,0:0:0:0:
200,132,84908,1,0,0:0:0:0:
200,112,85058,5,0,0:0:0:0:
384,264,85208,1,8,0:0:0:0:
168,104,85283,1,0,0:0:0:0:
368,244,85358,1,8,0:0:0:0:
368,248,85433,1,8,0:0:0:0:
204,132,85508,1,0,0:0:0:0:
380,248,85658,1,8,0:0:0:0:
184,128,85808,1,0,0:0:0:0:
184,128,85883,1,0,0:0:0:0:
344,272,85958,1,8,0:0:0:0:
408,296,86258,5,12,0:0:0:0:
408,296,86408,1,12,0:0:0:0:
408,296,86708,1,12,0:0:0:0:
408,296,87008,1,12,0:0:0:0:
424,248,87308,1,12,0:0:0:0:
424,248,87458,1,12,0:0:0:0:
176,128,87758,1,0,0:0:0:0:
176,128,88058,1,0,0:0:0:0:
176,128,88358,1,0,0:0:0:0:
176,124,88658,1,0,0:0:0:0:
176,128,88958,1,0,0:0:0:0:
176,128,89258,1,0,0:0:0:0:
176,124,89558,1,0,0:0:0:0:
176,128,89858,1,0,0:0:0:0:
176,128,90158,1,0,0:0:0:0:
176,124,90458,1,0,0:0:0:0:
176,128,90758,1,0,0:0:0:0:
176,128,91058,1,0,0:0:0:0:
176,124,91358,1,0,0:0:0:0:
176,128,91658,1,0,0:0:0:0:
176,128,91958,1,0,0:0:0:0:
176,124,92258,5,0,0:0:0:0:
188,132,92408,1,0,0:0:0:0:
376,288,92558,1,8,0:0:0:0:
160,120,92708,1,0,0:0:0:0:
160,120,92858,1,0,0:0:0:0:
160,120,93008,1,0,0:0:0:0:
388,292,93158,1,8,0:0:0:0:
388,292,93233,1,8,0:0:0:0:
368,272,93308,1,8,0:0:0:0:
368,272,93383,1,8,0:0:0:0:
352,280,93458,1,0,0:0:0:0:
152,120,93608,1,0,0:0:0:0:
388,280,93758,1,8,0:0:0:0:
140,152,93908,1,0,0:0:0:0:
136,152,94058,1,0,0:0:0:0:
168,124,94208,1,0,0:0:0:0:
364,264,94358,1,8,0:0:0:0:
164,140,94508,1,0,0:0:0:0:
164,140,94583,1,0,0:0:0:0:
304,248,94658,1,8,0:0:0:0:
344,256,94808,1,8,0:0:0:0:
344,256,94883,1,8,0:0:0:0:
168,124,94958,1,0,0:0:0:0:
168,124,95033,1,0,0:0:0:0:
348,264,95108,1,8,0:0:0:0:
176,136,95258,1,0,0:0:0:0:
176,136,95333,1,0,0:0:0:0:
344,248,95408,1,8,0:0:0:0:
148,128,95483,1,0,0:0:0:0:
348,268,95558,1,8,0:0:0:0:
356,272,95708,1,8,0:0:0:0:
356,272,95783,1,8,0:0:0:0:
356,272,95858,1,8,0:0:0:0:
356,272,96008,1,8,0:0:0:0:
356,272,96083,1,8,0:0:0:0:
176,136,96158,1,0,0:0:0:0:
176,136,96233,1,0,0:0:0:0:
176,136,96308,1,0,0:0:0:0:
172,132,96383,1,0,0:0:0:0:
360,264,96458,1,8,0:0:0:0:
188,148,96608,1,0,0:0:0:0:
188,148,96683,1,0,0:0:0:0:
424,324,96758,1,8,0:0:0:0:
160,116,96908,1,0,0:0:0:0:
188,124,97058,5,4,0:0:0:0:
80,132,97208,1,0,0:0:0:0:
80,132,97283,1,0,0:0:0:0:
364,308,97358,1,8,0:0:0:0:
364,308,97508,1,8,0:0:0:0:
136,104,97658,1,0,0:0:0:0:
136,108,97808,1,0,0:0:0:0:
144,104,97958,1,0,0:0:0:0:
144,104,98033,1,0,0:0:0:0:
344,268,98108,1,8,0:0:0:0:
372,304,98258,1,8,0:0:0:0:
372,304,98333,1,8,0:0:0:0:
200,156,98408,1,0,0:0:0:0:
200,156,98558,1,0,0:0:0:0:
360,288,98708,1,8,0:0:0:0:
360,288,98783,1,8,0:0:0:0:
184,156,98858,1,0,0:0:0:0:
180,152,99008,1,0,0:0:0:0:
388,276,99158,1,8,0:0:0:0:
140,120,99233,1,0,0:0:0:0:
188,160,99308,1,0,0:0:0:0:
376,272,99458,1,8,0:0:0:0:
376,272,99533,1,8,0:0:0:0:
164,140,99608,1,0,0:0:0:0:
164,140,99683,1,0,0:0:0:0:
396,300,99758,1,8,0:0:0:0:
200,148,99908,1,0,0:0:0:0:
364,252,100058,1,8,0:0:0:0:
192,140,100208,1,0,0:0:0:0:
192,140,100283,1,0,0:0:0:0:
368,272,100358,1,8,0:0:0:0:
172,140,100508,1,0,0:0:0:0:
392,280,100658,1,8,0:0:0:0:
360,264,100733,1,8,0:0:0:0:
224,156,100808,1,0,0:0:0:0:
192,140,100958,1,0,0:0:0:0:
360,252,101108,1,8,0:0:0:0:
360,252,101183,1,8,0:0:0:0:
360,252,101258,1,8,0:0:0:0:
184,140,101408,1,0,0:0:0:0:
184,140,101483,1,0,0:0:0:0:
360,256,101558,1,8,0:0:0:0:
360,256,101633,1,8,0:0:0:0:
360,256,101708,1,8,0:0:0:0:
364,264,101858,5,8,0:0:0:0:
344,240,101933,1,8,0:0:0:0:
184,144,102008,1,0,0:0:0:0:
308,224,102158,1,8,0:0:0:0:
308,224,102308,1,8,0:0:0:0:
148,96,102383,1,0,0:0:0:0:
160,116,102458,1,0,0:0:0:0:
148,96,102608,1,0,0:0:0:0:
168,120,102758,1,0,0:0:0:0:
168,104,102833,1,0,0:0:0:0:
308,224,102908,1,8,0:0:0:0:
344,260,103058,1,8,0:0:0:0:
344,260,103133,1,8,0:0:0:0:
184,128,103208,1,0,0:0:0:0:
352,248,103358,1,8,0:0:0:0:
332,288,103508,1,8,0:0:0:0:
332,288,103583,1,8,0:0:0:0:
332,288,103658,1,8,0:0:0:0:
148,108,103808,1,0,0:0:0:0:
264,204,103958,1,8,0:0:0:0:
352,292,104033,1,8,0:0:0:0:
140,104,104108,1,0,0:0:0:0:
360,256,104258,5,8,0:0:0:0:
164,100,104333,1,0,0:0:0:0:
160,104,104408,1,0,0:0:0:0:
276,268,104558,1,8,0:0:0:0:
276,268,104633,1,8,0:0:0:0:
172,176,104708,1,0,0:0:0:0:
160,100,104783,1,0,0:0:0:0:
304,204,104858,1,8,0:0:0:0:
160,140,105008,1,0,0:0:0:0:
160,140,105083,1,0,0:0:0:0:
360,272,105158,1,8,0:0:0:0:
152,112,105308,1,0,0:0:0:0:
352,256,105458,1,8,0:0:0:0:
360,272,105533,1,8,0:0:0:0:
160,116,105608,1,0,0:0:0:0:
160,132,105758,1,0,0:0:0:0:
160,132,105833,1,0,0:0:0:0:
384,280,105908,1,8,0:0:0:0:
384,280,105983,1,8,0:0:0:0:
392,296,106058,1,8,0:0:0:0:
368,288,106133,1,8,0:0:0:0:
184,148,106208,1,0,0:0:0:0:
384,280,106358,1,8,0:0:0:0:
156,96,106433,1,0,0:0:0:0:
384,280,106508,1,8,0:0:0:0:
384,280,106583,1,8,0:0:0:0:
192,112,106658,5,0,0:0:0:0:
80,132,106808,1,0,0:0:0:0:
80,132,106883,1,0,0:0:0:0:
364,308,106958,1,8,0:0:0:0:
364,308,107108,1,8,0:0:0:0:
136,104,107258,1,0,0:0:0:0:
136,108,107408,1,0,0:0:0:0:
144,104,107558,1,0,0:0:0:0:
144,104,107633,1,0,0:0:0:0:
344,268,107708,1,8,0:0:0:0:
372,304,107858,1,8,0:0:0:0:
372,304,107933,1,8,0:0:0:0:
200,156,108008,1,0,0:0:0:0:
200,156,108158,1,0,0:0:0:0:
360,288,108308,1,8,0:0:0:0:
360,288,108383,1,8,0:0:0:0:
184,156,108458,1,0,0:0:0:0:
180,152,108608,1,0,0:0:0:0:
388,276,108758,1,8,0:0:0:0:
140,120,108833,1,0,0:0:0:0:
188,160,108908,1,0,0:0:0:0:
376,272,109058,1,8,0:0:0:0:
376,272,109133,1,8,0:0:0:0:
164,140,109208,1,0,0:0:0:0:
364,252,109358,1,8,0:0:0:0:
396,300,109508,1,8,0:0:0:0:
368,272,109583,1,8,0:0:0:0:
196,112,109658,1,0,0:0:0:0:
192,140,109808,1,0,0:0:0:0:
368,272,109958,1,8,0:0:0:0:
220,160,110033,5,0,0:0:0:0:
172,140,110108,1,0,0:0:0:0:
392,280,110258,1,8,0:0:0:0:
360,264,110333,1,8,0:0:0:0:
224,156,110408,1,0,0:0:0:0:
160,124,110483,1,0,0:0:0:0:
364,252,110558,1,8,0:0:0:0:
360,252,110708,1,8,0:0:0:0:
156,96,110858,1,0,0:0:0:0:
184,140,111008,1,0,0:0:0:0:
360,256,111158,1,8,0:0:0:0:
360,256,111233,1,8,0:0:0:0:
180,120,111308,1,0,0:0:0:0:
364,264,111458,5,8,0:0:0:0:
180,120,111533,1,0,0:0:0:0:
184,144,111608,1,0,0:0:0:0:
308,224,111758,1,8,0:0:0:0:
308,224,111908,1,8,0:0:0:0:
332,240,111983,1,8,0:0:0:0:
160,116,112058,1,0,0:0:0:0:
148,96,112208,1,0,0:0:0:0:
168,120,112358,1,0,0:0:0:0:
168,104,112433,1,0,0:0:0:0:
308,224,112508,1,8,0:0:0:0:
344,260,112658,1,8,0:0:0:0:
344,260,112733,1,8,0:0:0:0:
184,128,112808,1,0,0:0:0:0:
352,248,112958,1,8,0:0:0:0:
332,288,113108,1,8,0:0:0:0:
332,288,113183,1,8,0:0:0:0:
332,288,113258,1,8,0:0:0:0:
148,108,113408,1,0,0:0:0:0:
264,204,113558,1,8,0:0:0:0:
352,292,113633,1,8,0:0:0:0:
140,104,113708,1,0,0:0:0:0:
360,256,113858,5,8,0:0:0:0:
340,248,114008,1,8,0:0:0:0:
340,248,114083,1,8,0:0:0:0:
172,176,114158,1,0,0:0:0:0:
164,128,114233,1,0,0:0:0:0:
276,268,114308,1,8,0:0:0:0:
132,96,114458,1,0,0:0:0:0:
312,240,114533,1,8,0:0:0:0:
160,140,114608,1,0,0:0:0:0:
160,140,114683,1,0,0:0:0:0:
360,272,114758,1,8,0:0:0:0:
340,256,114908,1,8,0:0:0:0:
344,256,114983,1,8,0:0:0:0:
168,104,115058,1,0,0:0:0:0:
360,272,115208,1,8,0:0:0:0:
160,140,115283,1,0,0:0:0:0:
160,132,115358,1,0,0:0:0:0:
384,280,115508,1,8,0:0:0:0:
392,296,115658,1,8,0:0:0:0:
368,288,115733,1,8,0:0:0:0:
184,148,115808,1,0,0:0:0:0:
384,280,115958,1,8,0:0:0:0:
384,280,116108,1,8,0:0:0:0:
384,280,116183,1,8,0:0:0:0:
192,112,116258,5,0,0:0:0:0:
349,265,116408,1,8,0:0:0:0:
174,129,116558,1,0,0:0:0:0:
174,129,116633,1,0,0:0:0:0:
330,257,116708,1,8,0:0:0:0:
189,138,116858,1,0,0:0:0:0:
343,283,117008,1,8,0:0:0:0:
201,148,117083,1,0,0:0:0:0:
192,142,117233,1,0,0:0:0:0:
322,255,117308,1,8,0:0:0:0:
195,142,117458,1,0,0:0:0:0:
342,284,117608,1,8,0:0:0:0:
342,284,117683,1,8,0:0:0:0:
181,162,117758,1,0,0:0:0:0:
181,162,117833,1,0,0:0:0:0:
332,254,117908,1,8,0:0:0:0:
201,148,118058,1,0,0:0:0:0:
309,253,118208,1,8,0:0:0:0:
322,255,118283,1,8,0:0:0:0:
169,132,118358,1,0,0:0:0:0:
280,252,118508,1,8,0:0:0:0:
180,89,118583,1,0,0:0:0:0:
155,88,118658,5,0,0:0:0:0:
349,265,118808,1,8,0:0:0:0:
174,129,118958,1,0,0:0:0:0:
174,129,119033,1,0,0:0:0:0:
330,257,119108,1,8,0:0:0:0:
189,138,119258,1,0,0:0:0:0:
343,283,119408,1,8,0:0:0:0:
201,148,119483,1,0,0:0:0:0:
192,142,119633,1,0,0:0:0:0:
322,255,119708,1,8,0:0:0:0:
195,142,119858,1,0,0:0:0:0:
342,284,120008,1,8,0:0:0:0:
342,284,120083,1,8,0:0:0:0:
181,162,120158,1,0,0:0:0:0:
181,162,120233,1,0,0:0:0:0:
332,254,120308,1,8,0:0:0:0:
201,148,120458,1,0,0:0:0:0:
166,84,120533,1,0,0:0:0:0:
309,253,120608,1,8,0:0:0:0:
169,132,120683,1,0,0:0:0:0:
322,255,120758,1,8,0:0:0:0:
174,124,120833,1,0,0:0:0:0:
280,252,120908,1,8,0:0:0:0:
338,237,120983,1,8,0:0:0:0:
155,88,121058,5,0,0:0:0:0:
349,265,121208,1,8,0:0:0:0:
174,129,121358,1,0,0:0:0:0:
174,129,121433,1,0,0:0:0:0:
330,257,121508,1,8,0:0:0:0:
189,138,121658,1,0,0:0:0:0:
343,283,121808,1,8,0:0:0:0:
201,148,121883,1,0,0:0:0:0:
192,142,122033,1,0,0:0:0:0:
322,255,122108,1,8,0:0:0:0:
195,142,122258,1,0,0:0:0:0:
342,284,122408,1,8,0:0:0:0:
342,284,122483,1,8,0:0:0:0:
181,162,122558,1,0,0:0:0:0:
181,162,122633,1,0,0:0:0:0:
332,254,122708,1,8,0:0:0:0:
201,148,122858,1,0,0:0:0:0:
309,253,123008,1,8,0:0:0:0:
322,255,123083,1,8,0:0:0:0:
169,132,123158,1,0,0:0:0:0:
280,252,123308,1,8,0:0:0:0:
180,89,123383,1,0,0:0:0:0:
155,88,123458,5,0,0:0:0:0:
376,300,123608,1,8,0:0:0:0:
193,156,123758,1,0,0:0:0:0:
193,156,123833,1,0,0:0:0:0:
360,277,123908,1,8,0:0:0:0:
176,133,124058,1,0,0:0:0:0:
357,270,124208,1,8,0:0:0:0:
193,156,124358,1,0,0:0:0:0:
193,156,124433,1,0,0:0:0:0:
392,313,124508,1,8,0:0:0:0:
167,121,124583,1,0,0:0:0:0:
382,288,124658,1,8,0:0:0:0:
215,121,124808,1,0,0:0:0:0:
215,121,124883,1,0,0:0:0:0:
397,295,124958,1,8,0:0:0:0:
343,290,125033,1,8,0:0:0:0:
147,89,125108,1,0,0:0:0:0:
343,281,125258,1,8,0:0:0:0:
343,281,125333,1,8,0:0:0:0:
343,281,125408,1,8,0:0:0:0:
343,281,125483,1,8,0:0:0:0:
150,103,125558,1,0,0:0:0:0:
150,103,125633,1,0,0:0:0:0:
150,103,125708,1,0,0:0:0:0:
150,103,125783,1,0,0:0:0:0:
157,111,125858,5,0,0:0:0:0:
170,126,126008,1,0,0:0:0:0:
358,277,126158,1,8,0:0:0:0:
179,136,126308,1,0,0:0:0:0:
179,136,126383,1,0,0:0:0:0:
339,238,126458,1,8,0:0:0:0:
204,140,126608,1,0,0:0:0:0:
341,250,126758,1,8,0:0:0:0:
341,250,126833,1,8,0:0:0:0:
170,126,126908,1,0,0:0:0:0:
170,126,126983,1,0,0:0:0:0:
310,202,127058,1,8,0:0:0:0:
156,97,127208,1,0,0:0:0:0:
292,224,127358,1,8,0:0:0:0:
197,123,127508,1,0,0:0:0:0:
197,123,127583,1,0,0:0:0:0:
341,250,127658,1,8,0:0:0:0:
188,121,127808,1,0,0:0:0:0:
340,273,127958,1,12,0:0:0:0:
160,125,128108,1,0,0:0:0:0:
368,284,128258,1,12,0:0:0:0:
184,120,128408,1,0,0:0:0:0:
318,282,128558,1,8,0:0:0:0:
188,121,128708,1,0,0:0:0:0:
189,119,128783,1,0,0:0:0:0:
339,300,128858,1,8,0:0:0:0:
188,168,129008,1,0,0:0:0:0:
331,293,129158,1,8,0:0:0:0:
331,293,129233,1,8,0:0:0:0:
191,150,129308,1,0,0:0:0:0:
191,150,129383,1,0,0:0:0:0:
301,255,129458,1,8,0:0:0:0:
187,142,129608,1,0,0:0:0:0:
354,312,129758,1,8,0:0:0:0:
219,135,129908,1,0,0:0:0:0:
219,135,129983,1,0,0:0:0:0:
349,279,130058,1,8,0:0:0:0:
197,130,130208,1,0,0:0:0:0:
354,312,130358,1,8,0:0:0:0:
204,132,130508,1,0,0:0:0:0:
204,132,130583,1,0,0:0:0:0:
298,256,130658,1,8,0:0:0:0:
181,132,130808,1,0,0:0:0:0:
181,132,130883,1,0,0:0:0:0:
180,133,130958,1,0,0:0:0:0:
352,295,131108,1,8,0:0:0:0:
211,146,131258,1,0,0:0:0:0:
211,146,131333,1,0,0:0:0:0:
211,146,131408,1,0,0:0:0:0:
211,146,131483,1,0,0:0:0:0:
352,295,131558,1,8,0:0:0:0:
213,156,131708,1,0,0:0:0:0:
212,156,131783,1,0,0:0:0:0:
301,237,131858,1,8,0:0:0:0:
182,145,132008,1,0,0:0:0:0:
182,145,132083,1,0,0:0:0:0:
182,145,132158,1,0,0:0:0:0:
354,267,132308,1,8,0:0:0:0:
193,125,132458,1,0,0:0:0:0:
193,125,132533,1,0,0:0:0:0:
193,125,132608,1,0,0:0:0:0:
193,125,132683,1,0,0:0:0:0:
303,254,132758,1,8,0:0:0:0:
201,144,132908,1,0,0:0:0:0:
201,144,132983,1,0,0:0:0:0:
328,266,133058,5,8,0:0:0:0:
205,120,133208,1,0,0:0:0:0:
153,102,133358,1,0,0:0:0:0:
369,315,133508,1,8,0:0:0:0:
171,102,133658,1,0,0:0:0:0:
171,116,133808,1,0,0:0:0:0:
348,264,133958,1,8,0:0:0:0:
164,123,134108,1,0,0:0:0:0:
376,286,134258,1,8,0:0:0:0:
159,147,134408,1,0,0:0:0:0:
159,147,134558,1,0,0:0:0:0:
183,149,134708,1,0,0:0:0:0:
183,150,134783,1,0,0:0:0:0:
305,261,134858,1,8,0:0:0:0:
164,264,135458,5,4,0:0:0:0:
391,131,136058,1,12,0:0:0:0:
196,109,136958,1,4,0:0:0:0:
370,143,137258,1,12,0:0:0:0:
416,135,137858,1,12,0:0:0:0:
103,300,138458,1,4,0:0:0:0:
376,120,139358,1,12,0:0:0:0:
182,238,139658,1,4,0:0:0:0:
164,260,140258,1,4,0:0:0:0:
396,117,140858,1,12,0:0:0:0:
386,120,141758,1,12,0:0:0:0:
386,120,142058,1,12,0:0:0:0:
148,288,142658,1,4,0:0:0:0:
383,113,143258,1,12,0:0:0:0:
383,113,143708,1,12,0:0:0:0:
383,113,144008,1,12,0:0:0:0:
383,113,144158,1,12,0:0:0:0:
378,127,144458,1,12,0:0:0:0:
148,220,145058,5,4,0:0:0:0:
366,285,145658,1,12,0:0:0:0:
152,141,145808,1,0,0:0:0:0:
157,130,146108,1,4,0:0:0:0:
375,269,146558,1,12,0:0:0:0:
375,269,146858,1,12,0:0:0:0:
158,133,147458,1,4,0:0:0:0:
341,278,148058,1,12,0:0:0:0:
120,116,148208,1,0,0:0:0:0:
120,116,148508,1,4,0:0:0:0:
347,270,148958,1,12,0:0:0:0:
135,111,149258,1,4,0:0:0:0:
108,114,149858,1,4,0:0:0:0:
336,240,150308,1,8,0:0:0:0:
336,240,150758,1,8,0:0:0:0:
126,120,151058,1,4,0:0:0:0:
126,120,151358,1,4,0:0:0:0:
356,290,151658,1,12,0:0:0:0:
348,291,151958,1,12,0:0:0:0:
141,145,152258,1,4,0:0:0:0:
160,107,152708,1,0,0:0:0:0:
151,105,152783,1,0,0:0:0:0:
392,279,152858,1,8,0:0:0:0:
333,248,153158,1,8,0:0:0:0:
138,106,153458,1,4,0:0:0:0:
131,97,153758,1,4,0:0:0:0:
365,273,154058,1,12,0:0:0:0:
365,273,154208,1,12,0:0:0:0:
164,139,154658,5,4,0:0:0:0:
174,113,155258,1,0,0:0:0:0:
174,113,155408,1,0,0:0:0:0:
174,113,155708,1,0,0:0:0:0:
338,276,155858,1,8,0:0:0:0:
178,134,156008,1,0,0:0:0:0:
178,134,156158,1,0,0:0:0:0:
330,251,156308,1,8,0:0:0:0:
134,116,156458,1,0,0:0:0:0:
352,287,156758,1,12,0:0:0:0:
145,98,157058,1,4,0:0:0:0:
145,98,157508,1,0,0:0:0:0:
145,98,157583,1,0,0:0:0:0:
335,209,157658,1,8,0:0:0:0:
147,88,157808,1,0,0:0:0:0:
153,89,158108,1,0,0:0:0:0:
383,276,158408,1,8,0:0:0:0:
383,276,158483,1,8,0:0:0:0:
136,103,158558,1,0,0:0:0:0:
362,268,158708,1,8,0:0:0:0:
362,268,158858,1,8,0:0:0:0:
195,121,159008,1,0,0:0:0:0:
150,116,159158,1,0,0:0:0:0:
312,217,159308,1,8,0:0:0:0:
158,105,159458,5,4,0:0:0:0:
420,260,159758,1,8,0:0:0:0:
188,104,159908,1,0,0:0:0:0:
392,260,160058,1,8,0:0:0:0:
392,260,160208,1,8,0:0:0:0:
408,256,160358,1,8,0:0:0:0:
184,96,160508,1,0,0:0:0:0:
368,248,160658,1,8,0:0:0:0:
396,252,160808,1,8,0:0:0:0:
396,252,160883,1,8,0:0:0:0:
188,104,160958,1,0,0:0:0:0:
168,84,161108,1,0,0:0:0:0:
340,244,161258,1,8,0:0:0:0:
176,100,161408,1,0,0:0:0:0:
336,256,161558,1,8,0:0:0:0:
376,276,161708,1,8,0:0:0:0:
160,80,161858,1,0,0:0:0:0:
376,276,162158,1,8,0:0:0:0:
152,88,162308,1,0,0:0:0:0:
152,72,162458,1,0,0:0:0:0:
304,232,162608,1,8,0:0:0:0:
344,256,162758,1,8,0:0:0:0:
172,116,162908,1,0,0:0:0:0:
356,264,163058,1,8,0:0:0:0:
176,112,163208,1,0,0:0:0:0:
344,256,163358,1,8,0:0:0:0:
344,256,163508,1,8,0:0:0:0:
172,116,163658,1,0,0:0:0:0:
368,272,163733,1,8,0:0:0:0:
132,72,163808,1,0,0:0:0:0:
372,272,163958,1,8,0:0:0:0:
356,260,164108,1,8,0:0:0:0:
164,140,164258,5,0,0:0:0:0:
420,260,164558,1,8,0:0:0:0:
188,104,164708,1,0,0:0:0:0:
168,96,164858,1,0,0:0:0:0:
432,280,165008,1,8,0:0:0:0:
384,312,165158,1,8,0:0:0:0:
184,96,165308,1,0,0:0:0:0:
368,248,165458,1,8,0:0:0:0:
396,252,165608,1,8,0:0:0:0:
396,252,165683,1,8,0:0:0:0:
188,104,165758,1,0,0:0:0:0:
168,84,165908,1,0,0:0:0:0:
340,244,166058,1,8,0:0:0:0:
176,100,166208,1,0,0:0:0:0:
192,116,166358,1,0,0:0:0:0:
376,276,166508,1,8,0:0:0:0:
160,80,166658,5,0,0:0:0:0:
184,76,166808,1,0,0:0:0:0:
364,268,166958,1,8,0:0:0:0:
136,84,167108,1,0,0:0:0:0:
136,84,167258,1,0,0:0:0:0:
136,84,167408,1,0,0:0:0:0:
376,252,167558,1,8,0:0:0:0:
356,244,167708,1,8,0:0:0:0:
176,96,167858,5,0,0:0:0:0:
176,96,168008,1,0,0:0:0:0:
336,212,168158,1,8,0:0:0:0:
352,240,168308,1,8,0:0:0:0:
144,88,168458,1,0,0:0:0:0:
360,248,168608,1,8,0:0:0:0:
360,248,168683,1,8,0:0:0:0:
144,88,168758,1,0,0:0:0:0:
328,208,168908,1,8,0:0:0:0:
168,276,169058,5,4,0:0:0:0:
364,248,169358,1,8,0:0:0:0:
180,104,169508,1,0,0:0:0:0:
180,104,169658,1,0,0:0:0:0:
332,236,169808,1,8,0:0:0:0:
356,240,169958,1,8,0:0:0:0:
196,104,170108,1,0,0:0:0:0:
364,248,170258,1,8,0:0:0:0:
192,104,170408,1,0,0:0:0:0:
348,224,170483,1,8,0:0:0:0:
164,112,170558,1,0,0:0:0:0:
164,112,170708,1,0,0:0:0:0:
424,228,170858,1,8,0:0:0:0:
192,112,171008,1,0,0:0:0:0:
412,216,171158,1,8,0:0:0:0:
412,216,171308,1,8,0:0:0:0:
172,100,171458,5,0,0:0:0:0:
368,212,171758,1,8,0:0:0:0:
176,84,171908,1,0,0:0:0:0:
180,96,172058,1,0,0:0:0:0:
192,88,172208,1,0,0:0:0:0:
368,212,172358,1,8,0:0:0:0:
368,212,172508,1,8,0:0:0:0:
172,112,172658,1,0,0:0:0:0:
176,56,172808,1,0,0:0:0:0:
320,172,172958,1,8,0:0:0:0:
320,172,173108,1,8,0:0:0:0:
336,196,173258,1,8,0:0:0:0:
336,196,173333,1,8,0:0:0:0:
136,84,173408,1,0,0:0:0:0:
136,84,173483,1,0,0:0:0:0:
352,228,173558,5,8,0:0:0:0:
168,88,173708,1,0,0:0:0:0:
364,256,173858,1,8,0:0:0:0:
332,248,174158,1,8,0:0:0:0:
144,96,174308,1,0,0:0:0:0:
144,96,174458,1,0,0:0:0:0:
352,256,174608,1,8,0:0:0:0:
356,248,174758,1,8,0:0:0:0:
188,104,174908,1,0,0:0:0:0:
320,228,175058,1,8,0:0:0:0:
180,104,175208,1,0,0:0:0:0:
292,256,175283,1,8,0:0:0:0:
168,88,175358,1,0,0:0:0:0:
184,88,175508,1,0,0:0:0:0:
308,212,175658,1,8,0:0:0:0:
188,80,175808,1,0,0:0:0:0:
188,80,175958,1,0,0:0:0:0:
340,260,176108,1,8,0:0:0:0:
168,76,176258,5,0,0:0:0:0:
168,76,176408,1,0,0:0:0:0:
184,76,176483,1,0,0:0:0:0:
320,228,176558,1,8,0:0:0:0:
152,88,176708,1,0,0:0:0:0:
180,52,176858,1,0,0:0:0:0:
188,80,177008,1,0,0:0:0:0:
184,80,177083,1,0,0:0:0:0:
324,240,177158,1,8,0:0:0:0:
356,220,177308,1,8,0:0:0:0:
152,88,177458,1,0,0:0:0:0:
184,80,177608,1,0,0:0:0:0:
184,80,177683,1,0,0:0:0:0:
324,196,177758,1,8,0:0:0:0:
352,244,177908,5,8,0:0:0:0:
184,88,178058,1,0,0:0:0:0:
344,256,178208,1,8,0:0:0:0:
344,256,178283,1,8,0:0:0:0:
176,88,178358,1,0,0:0:0:0:
176,88,178433,1,0,0:0:0:0:
176,88,178508,1,0,0:0:0:0:
176,88,178658,5,0,0:0:0:0:
146,110,178808,1,0,0:0:0:0:
338,241,178958,1,8,0:0:0:0:
146,110,179258,1,0,0:0:0:0:
341,251,179558,1,8,0:0:0:0:
146,110,179858,1,0,0:0:0:0:
172,124,180008,1,0,0:0:0:0:
341,251,180158,1,8,0:0:0:0:
146,110,180458,1,0,0:0:0:0:
341,251,180758,1,8,0:0:0:0:
146,110,181058,1,0,0:0:0:0:
146,110,181208,1,0,0:0:0:0:
341,251,181358,1,8,0:0:0:0:
146,110,181658,1,0,0:0:0:0:
341,251,181958,1,8,0:0:0:0:
146,110,182258,1,0,0:0:0:0:
346,264,182558,1,8,0:0:0:0:
346,264,182708,1,8,0:0:0:0:
164,101,182858,1,0,0:0:0:0:
164,101,183008,1,0,0:0:0:0:
135,260,183158,5,12,0:0:0:0:
141,132,183458,1,4,0:0:0:0:
151,119,183608,1,0,0:0:0:0:
382,288,183758,1,8,0:0:0:0:
179,90,184058,1,0,0:0:0:0:
355,237,184358,1,8,0:0:0:0:
190,98,184658,1,0,0:0:0:0:
190,98,184808,1,0,0:0:0:0:
365,249,184958,1,8,0:0:0:0:
190,98,185258,1,0,0:0:0:0:
346,230,185558,1,8,0:0:0:0:
154,96,185858,1,0,0:0:0:0:
154,96,186008,1,0,0:0:0:0:
383,261,186158,1,8,0:0:0:0:
175,123,186308,1,0,0:0:0:0:
172,120,186608,1,0,0:0:0:0:
356,258,186758,1,8,0:0:0:0:
185,100,186908,1,0,0:0:0:0:
185,100,187058,1,0,0:0:0:0:
339,266,187358,1,8,0:0:0:0:
154,117,187508,1,0,0:0:0:0:
159,120,187808,1,0,0:0:0:0:
346,279,187958,1,12,0:0:0:0:
200,127,188258,5,4,0:0:0:0:
184,108,188408,1,0,0:0:0:0:
368,254,188558,1,8,0:0:0:0:
176,103,188858,1,0,0:0:0:0:
354,244,189158,1,8,0:0:0:0:
175,121,189458,1,0,0:0:0:0:
175,121,189608,1,0,0:0:0:0:
354,244,189758,1,8,0:0:0:0:
168,101,190058,1,0,0:0:0:0:
338,230,190208,1,8,0:0:0:0:
367,267,190358,1,8,0:0:0:0:
170,101,190658,1,0,0:0:0:0:
170,93,190808,1,0,0:0:0:0:
425,288,190958,1,8,0:0:0:0:
189,99,191258,1,0,0:0:0:0:
376,250,191558,1,8,0:0:0:0:
185,106,191858,1,0,0:0:0:0:
185,106,192008,1,0,0:0:0:0:
363,249,192158,1,8,0:0:0:0:
316,231,192458,1,0,0:0:0:0:
316,231,192608,1,0,0:0:0:0:
355,267,192758,1,12,0:0:0:0:
171,97,192908,1,0,0:0:0:0:
171,97,193058,5,4,0:0:0:0:
233,108,193208,1,0,0:0:0:0:
355,267,193358,1,8,0:0:0:0:
171,97,193658,1,0,0:0:0:0:
342,252,193958,1,8,0:0:0:0:
193,98,194258,1,0,0:0:0:0:
193,98,194408,1,0,0:0:0:0:
341,237,194558,1,8,0:0:0:0:
186,118,194858,1,0,0:0:0:0:
352,245,195158,1,8,0:0:0:0:
186,118,195458,1,0,0:0:0:0:
186,118,195608,1,0,0:0:0:0:
352,229,195758,1,8,0:0:0:0:
186,107,195908,1,0,0:0:0:0:
176,94,196208,1,0,0:0:0:0:
373,252,196358,1,8,0:0:0:0:
194,132,196508,5,0,0:0:0:0:
370,271,196658,1,12,0:0:0:0:
370,271,196808,1,12,0:0:0:0:
370,271,197108,1,12,0:0:0:0:
370,271,197408,1,12,0:0:0:0:
370,271,197708,1,12,0:0:0:0:
178,100,197858,5,4,0:0:0:0:
136,96,198008,1,0,0:0:0:0:
368,230,198158,1,8,0:0:0:0:
184,127,198308,1,0,0:0:0:0:
183,135,198608,1,0,0:0:0:0:
319,262,198758,1,8,0:0:0:0:
183,163,199058,1,0,0:0:0:0:
359,292,199358,1,8,0:0:0:0:
190,153,199508,1,0,0:0:0:0:
145,149,199658,1,0,0:0:0:0:
180,106,199808,1,0,0:0:0:0:
371,274,199958,1,8,0:0:0:0:
111,272,200258,5,4,0:0:0:0:
155,105,200408,1,0,0:0:0:0:
382,273,200558,1,8,0:0:0:0:
156,105,200708,1,0,0:0:0:0:
174,120,201008,1,0,0:0:0:0:
305,245,201158,1,8,0:0:0:0:
200,146,201458,1,0,0:0:0:0:
359,275,201758,1,8,0:0:0:0:
193,133,202058,1,0,0:0:0:0:
193,133,202208,1,0,0:0:0:0:
352,256,202358,1,8,0:0:0:0:
163,253,202658,1,4,0:0:0:0:
184,104,202808,1,0,0:0:0:0:
340,257,202958,1,8,0:0:0:0:
178,126,203108,1,0,0:0:0:0:
168,118,203408,1,0,0:0:0:0:
324,239,203558,1,8,0:0:0:0:
180,116,203858,1,0,0:0:0:0:
408,313,204158,1,8,0:0:0:0:
184,155,204308,1,0,0:0:0:0:
184,155,204608,1,0,0:0:0:0:
184,155,204683,1,0,0:0:0:0:
384,302,204758,1,8,0:0:0:0:
184,253,205058,5,4,0:0:0:0:
171,102,205208,1,0,0:0:0:0:
346,264,205358,1,8,0:0:0:0:
190,106,205658,1,0,0:0:0:0:
190,106,205808,1,0,0:0:0:0:
365,276,205958,1,8,0:0:0:0:
365,276,206108,1,8,0:0:0:0:
170,124,206258,1,0,0:0:0:0:
173,108,206333,1,0,0:0:0:0:
173,108,206408,1,0,0:0:0:0:
151,108,206483,1,0,0:0:0:0:
118,93,206558,1,0,0:0:0:0:
355,258,206708,1,8,0:0:0:0:
368,253,206783,1,8,0:0:0:0:
368,253,206858,1,8,0:0:0:0:
369,253,206933,1,8,0:0:0:0:
337,236,207008,1,8,0:0:0:0:
337,236,207158,1,8,0:0:0:0:
187,111,207308,1,0,0:0:0:0:
192,218,207458,5,4,0:0:0:0:
183,108,207608,1,0,0:0:0:0:
354,269,207758,1,8,0:0:0:0:
193,113,207908,1,0,0:0:0:0:
193,113,207983,1,0,0:0:0:0:
318,232,208058,1,8,0:0:0:0:
196,120,208208,1,0,0:0:0:0:
318,232,208358,1,8,0:0:0:0:
311,236,208433,1,8,0:0:0:0:
206,142,208508,1,0,0:0:0:0:
206,142,208583,1,0,0:0:0:0:
372,262,208658,1,8,0:0:0:0:
174,123,208808,1,0,0:0:0:0:
372,262,208958,1,8,0:0:0:0:
198,110,209108,1,0,0:0:0:0:
198,110,209183,1,0,0:0:0:0:
359,261,209258,1,8,0:0:0:0:
155,129,209408,1,0,0:0:0:0:
335,232,209558,1,8,0:0:0:0:
361,274,209633,1,8,0:0:0:0:
184,124,209708,1,0,0:0:0:0:
184,124,209783,1,0,0:0:0:0:
308,211,209858,1,8,0:0:0:0:
237,140,210008,1,0,0:0:0:0:
359,261,210158,1,8,0:0:0:0:
196,120,210308,1,0,0:0:0:0:
196,120,210383,1,0,0:0:0:0:
353,245,210458,1,8,0:0:0:0:
200,121,210608,1,0,0:0:0:0:
355,254,210758,1,8,0:0:0:0:
352,250,210833,1,8,0:0:0:0:
168,83,210908,1,0,0:0:0:0:
319,252,210983,1,8,0:0:0:0:
318,252,211058,1,8,0:0:0:0:
185,119,211208,1,0,0:0:0:0:
327,229,211358,1,8,0:0:0:0:
190,126,211508,1,0,0:0:0:0:
291,209,211583,1,8,0:0:0:0:
291,209,211658,1,8,0:0:0:0:
212,132,211808,1,0,0:0:0:0:
304,246,211958,1,8,0:0:0:0:
140,97,212108,1,0,0:0:0:0:
350,256,212258,5,8,0:0:0:0:
343,267,212333,1,8,0:0:0:0:
163,125,212408,1,0,0:0:0:0:
163,125,212483,1,0,0:0:0:0:
163,125,212558,1,0,0:0:0:0:
340,239,212708,1,8,0:0:0:0:
158,103,212783,1,0,0:0:0:0:
158,102,212858,1,0,0:0:0:0:
158,102,212933,1,0,0:0:0:0:
158,102,213008,1,0,0:0:0:0:
340,264,213158,1,8,0:0:0:0:
336,262,213233,1,8,0:0:0:0:
174,115,213308,1,0,0:0:0:0:
370,267,213458,1,8,0:0:0:0:
370,267,213533,1,8,0:0:0:0:
144,107,213608,1,0,0:0:0:0:
144,106,213683,1,0,0:0:0:0:
144,106,213758,1,0,0:0:0:0:
362,276,213908,1,8,0:0:0:0:
117,94,213983,1,0,0:0:0:0:
117,92,214058,1,0,0:0:0:0:
117,92,214133,1,0,0:0:0:0:
117,92,214208,1,0,0:0:0:0:
356,254,214358,1,8,0:0:0:0:
354,254,214433,1,8,0:0:0:0:
99,77,214508,1,0,0:0:0:0:
380,257,214658,1,8,0:0:0:0:
345,257,214733,1,8,0:0:0:0:
96,97,214808,1,0,0:0:0:0:
136,97,214883,1,0,0:0:0:0:
137,97,214958,1,0,0:0:0:0:
137,97,215033,1,0,0:0:0:0:
356,254,215108,1,8,0:0:0:0:
356,254,215183,1,8,0:0:0:0:
140,118,215258,1,0,0:0:0:0:
140,118,215333,1,0,0:0:0:0:
140,118,215408,1,0,0:0:0:0:
140,118,215483,1,0,0:0:0:0:
310,240,215558,1,8,0:0:0:0:
186,117,215708,1,0,0:0:0:0:
341,252,215858,5,12,0:0:0:0:
152,92,216058,1,4,0:0:0:0:
150,112,216258,1,4,0:0:0:0:
151,112,216458,1,4,0:0:0:0:
164,264,217058,5,4,0:0:0:0:
391,131,217658,1,12,0:0:0:0:
196,109,218558,1,4,0:0:0:0:
370,143,218858,1,12,0:0:0:0:
416,135,219458,1,12,0:0:0:0:
103,300,220058,1,4,0:0:0:0:
376,120,220958,1,12,0:0:0:0:
182,238,221258,1,4,0:0:0:0:
164,260,221858,1,4,0:0:0:0:
396,117,222458,1,12,0:0:0:0:
386,120,223358,1,12,0:0:0:0:
386,120,223658,1,12,0:0:0:0:
148,288,224258,1,4,0:0:0:0:
383,113,224858,1,12,0:0:0:0:
383,113,225308,1,12,0:0:0:0:
383,113,225608,1,12,0:0:0:0:
383,113,225758,1,12,0:0:0:0:
378,127,226058,1,12,0:0:0:0:
148,220,226658,5,4,0:0:0:0:
366,285,227258,1,12,0:0:0:0:
152,141,227408,1,0,0:0:0:0:
157,130,227708,1,4,0:0:0:0:
375,269,228158,1,12,0:0:0:0:
375,269,228458,1,12,0:0:0:0:
158,133,229058,1,4,0:0:0:0:
341,278,229658,1,12,0:0:0:0:
120,116,229808,1,0,0:0:0:0:
120,116,230108,1,4,0:0:0:0:
347,270,230558,1,12,0:0:0:0:
135,111,230858,1,4,0:0:0:0:
108,114,231458,1,4,0:0:0:0:
336,240,231908,1,8,0:0:0:0:
336,240,232358,1,8,0:0:0:0:
126,120,232658,1,4,0:0:0:0:
126,120,232958,1,4,0:0:0:0:
356,290,233258,1,12,0:0:0:0:
348,291,233558,1,12,0:0:0:0:
141,145,233858,1,4,0:0:0:0:
160,107,234308,1,0,0:0:0:0:
151,105,234383,1,0,0:0:0:0:
392,279,234458,1,8,0:0:0:0:
333,248,234758,1,8,0:0:0:0:
138,106,235058,1,4,0:0:0:0:
131,97,235358,1,4,0:0:0:0:
365,273,235658,1,12,0:0:0:0:
365,273,235808,1,12,0:0:0:0:
176,92,235958,1,0,0:0:0:0:
176,92,236108,1,0,0:0:0:0:
164,139,236258,5,4,0:0:0:0:
180,112,236408,1,0,0:0:0:0:
180,112,236558,1,0,0:0:0:0:
180,112,236708,1,0,0:0:0:0:
368,236,236858,1,8,0:0:0:0:
180,104,237158,1,0,0:0:0:0:
332,264,237308,1,8,0:0:0:0:
160,112,237458,1,0,0:0:0:0:
160,112,237608,1,0,0:0:0:0:
160,112,237758,1,0,0:0:0:0:
160,112,237908,1,0,0:0:0:0:
356,276,238058,1,8,0:0:0:0:
356,264,238358,1,8,0:0:0:0:
356,264,238508,1,8,0:0:0:0:
144,116,238658,1,0,0:0:0:0:
144,116,238808,1,0,0:0:0:0:
144,116,238958,1,0,0:0:0:0:
144,116,239108,1,0,0:0:0:0:
356,252,239258,1,8,0:0:0:0:
144,88,239558,1,0,0:0:0:0:
340,244,239708,1,8,0:0:0:0:
112,72,239858,1,0,0:0:0:0:
112,72,240008,1,0,0:0:0:0:
112,72,240158,1,0,0:0:0:0:
112,72,240308,1,0,0:0:0:0:
332,232,240458,1,8,0:0:0:0:
344,240,240758,1,8,0:0:0:0:
344,240,240908,1,8,0:0:0:0:
344,240,241058,1,8,0:0:0:0:
148,96,241208,1,0,0:0:0:0:
148,96,241358,1,0,0:0:0:0:
148,96,241508,1,0,0:0:0:0:
340,272,241658,1,8,0:0:0:0:
176,112,241958,1,0,0:0:0:0:
344,232,242108,1,8,0:0:0:0:
368,288,242258,1,8,0:0:0:0:
340,248,242408,1,8,0:0:0:0:
176,112,242558,1,0,0:0:0:0:
388,268,242858,1,8,0:0:0:0:
348,264,243158,1,8,0:0:0:0:
348,264,243308,1,8,0:0:0:0:
196,128,243458,1,0,0:0:0:0:
196,128,243608,1,0,0:0:0:0:
168,120,243758,1,0,0:0:0:0:
168,120,243908,1,0,0:0:0:0:
356,264,244058,1,8,0:0:0:0:
196,88,244358,1,0,0:0:0:0:
372,276,244508,1,8,0:0:0:0:
144,100,244658,1,0,0:0:0:0:
168,120,244958,1,0,0:0:0:0:
164,116,245108,1,0,0:0:0:0:
356,248,245258,1,8,0:0:0:0:
208,136,245408,1,0,0:0:0:0:
372,272,245558,1,8,0:0:0:0:
372,272,245708,1,8,0:0:0:0:
112,284,245858,5,4,0:0:0:0:
184,76,246008,1,0,0:0:0:0:
408,148,246458,1,12,0:0:0:0:
184,76,246608,1,0,0:0:0:0:
168,236,246908,1,4,0:0:0:0:
160,208,247358,1,4,0:0:0:0:
384,264,247658,1,12,0:0:0:0:
152,224,248258,1,4,0:0:0:0:
152,224,248408,1,0,0:0:0:0:
380,248,248858,1,12,0:0:0:0:
160,224,249308,1,4,0:0:0:0:
160,224,249758,1,4,0:0:0:0:
348,244,250058,1,12,0:0:0:0:
188,212,250658,1,4,0:0:0:0:
176,204,251108,1,0,0:0:0:0:
372,272,251258,1,8,0:0:0:0:
368,240,251558,1,8,0:0:0:0:
156,216,251858,1,4,0:0:0:0:
168,108,252308,1,0,0:0:0:0:
392,252,252458,1,8,0:0:0:0:
196,216,252758,1,4,0:0:0:0:
196,216,253058,1,4,0:0:0:0:
144,88,253508,1,0,0:0:0:0:
408,252,253658,1,8,0:0:0:0:
176,248,254258,1,4,0:0:0:0:
176,248,254708,1,4,0:0:0:0:
364,260,255158,1,8,0:0:0:0:
168,240,255458,1,4,0:0:0:0:
172,120,255908,1,0,0:0:0:0:
336,264,256058,1,8,0:0:0:0:
160,196,256658,1,4,0:0:0:0:
360,276,257058,1,12,0:0:0:0:
156,104,257458,1,4,0:0:0:0:
176,240,257858,5,12,0:0:0:0:
176,76,262658,5,0,0:0:0:0:
384,256,262958,1,8,0:0:0:0:
188,136,263258,1,0,0:0:0:0:
356,280,263858,1,8,0:0:0:0:
88,124,264158,1,0,0:0:0:0:
352,268,264258,1,8,0:0:0:0:
352,268,264358,1,8,0:0:0:0:
188,116,264458,1,0,0:0:0:0:
372,292,264758,1,8,0:0:0:0:
160,140,265058,1,0,0:0:0:0:
376,288,265358,1,8,0:0:0:0:
160,140,265658,1,0,0:0:0:0:
160,140,266258,1,0,0:0:0:0:
160,140,266558,1,0,0:0:0:0:
356,280,266858,1,8,0:0:0:0:
160,128,267158,1,0,0:0:0:0:
160,128,267458,1,0,0:0:0:0:
312,248,267758,1,8,0:0:0:0:
140,136,268058,1,0,0:0:0:0:
328,296,268658,1,8,0:0:0:0:
352,272,268958,1,8,0:0:0:0:
352,272,269058,1,8,0:0:0:0:
352,272,269158,1,8,0:0:0:0:
172,148,269258,1,0,0:0:0:0:
172,148,269558,1,0,0:0:0:0:
172,148,269858,1,0,0:0:0:0:
360,296,270308,1,8,0:0:0:0:
348,280,270758,1,8,0:0:0:0:
160,108,271058,1,0,0:0:0:0:
176,88,272258,5,0,0:0:0:0:
166,87,272408,1,0,0:0:0:0:
338,241,272558,1,8,0:0:0:0:
146,110,272708,1,0,0:0:0:0:
181,124,272783,1,0,0:0:0:0:
146,110,272858,1,0,0:0:0:0:
134,93,273008,1,0,0:0:0:0:
341,251,273158,1,8,0:0:0:0:
321,240,273308,1,8,0:0:0:0:
321,240,273383,1,8,0:0:0:0:
146,110,273458,1,0,0:0:0:0:
172,124,273608,1,0,0:0:0:0:
341,251,273758,1,8,0:0:0:0:
177,111,273833,1,8,0:0:0:0:
333,243,273908,1,8,0:0:0:0:
146,110,274058,1,0,0:0:0:0:
149,101,274208,1,0,0:0:0:0:
149,101,274283,1,0,0:0:0:0:
341,251,274358,1,8,0:0:0:0:
131,108,274433,1,0,0:0:0:0:
341,251,274508,1,8,0:0:0:0:
321,285,274583,1,8,0:0:0:0:
146,110,274658,1,0,0:0:0:0:
341,251,274958,1,8,0:0:0:0:
346,265,275108,1,8,0:0:0:0:
146,110,275258,1,0,0:0:0:0:
146,96,275408,1,0,0:0:0:0:
143,97,275483,1,0,0:0:0:0:
341,251,275558,1,8,0:0:0:0:
143,100,275708,1,0,0:0:0:0:
146,110,275858,1,0,0:0:0:0:
164,118,276008,1,0,0:0:0:0:
164,118,276083,1,0,0:0:0:0:
346,264,276158,1,8,0:0:0:0:
346,264,276308,1,8,0:0:0:0:
164,101,276458,1,0,0:0:0:0:
167,97,276533,1,0,0:0:0:0:
164,101,276608,1,0,0:0:0:0:
167,97,276683,1,0,0:0:0:0:
135,260,276758,5,8,0:0:0:0:
358,273,276833,1,8,0:0:0:0:
143,58,276908,1,0,0:0:0:0:
141,132,277058,1,0,0:0:0:0:
382,288,277358,1,8,0:0:0:0:
293,285,277508,1,8,0:0:0:0:
179,90,277658,1,0,0:0:0:0:
173,97,277733,1,0,0:0:0:0:
173,97,277808,1,0,0:0:0:0:
173,97,277883,1,0,0:0:0:0:
355,237,277958,1,8,0:0:0:0:
359,251,278108,1,8,0:0:0:0:
190,98,278258,1,0,0:0:0:0:
190,98,278408,1,0,0:0:0:0:
365,249,278558,1,8,0:0:0:0:
330,247,278633,1,8,0:0:0:0:
330,247,278708,1,8,0:0:0:0:
190,98,278858,1,0,0:0:0:0:
190,98,279008,1,0,0:0:0:0:
190,98,279083,1,0,0:0:0:0:
346,230,279158,1,8,0:0:0:0:
365,249,279308,1,8,0:0:0:0:
154,96,279458,1,0,0:0:0:0:
185,115,279533,1,0,0:0:0:0:
154,96,279608,1,0,0:0:0:0:
185,115,279683,1,0,0:0:0:0:
383,261,279758,1,8,0:0:0:0:
175,123,279908,1,0,0:0:0:0:
172,120,280208,1,0,0:0:0:0:
185,114,280283,1,0,0:0:0:0:
356,258,280358,1,8,0:0:0:0:
185,100,280508,1,0,0:0:0:0:
185,100,280658,1,0,0:0:0:0:
185,114,280808,1,0,0:0:0:0:
185,114,280883,1,0,0:0:0:0:
339,266,280958,1,8,0:0:0:0:
154,117,281108,1,0,0:0:0:0:
373,268,281258,1,8,0:0:0:0:
373,268,281333,1,8,0:0:0:0:
159,120,281408,1,0,0:0:0:0:
185,100,281483,1,0,0:0:0:0:
346,279,281558,1,8,0:0:0:0:
338,252,281633,1,8,0:0:0:0:
177,101,281708,1,0,0:0:0:0:
160,102,281783,1,0,0:0:0:0:
176,88,281858,5,0,0:0:0:0:
166,87,282008,1,0,0:0:0:0:
338,241,282158,1,8,0:0:0:0:
146,110,282308,1,0,0:0:0:0:
181,124,282383,1,0,0:0:0:0:
146,110,282458,1,0,0:0:0:0:
134,93,282608,1,0,0:0:0:0:
341,251,282758,1,8,0:0:0:0:
321,240,282908,1,8,0:0:0:0:
321,240,282983,1,8,0:0:0:0:
146,110,283058,1,0,0:0:0:0:
172,124,283208,1,0,0:0:0:0:
341,251,283358,1,8,0:0:0:0:
328,223,283433,1,8,0:0:0:0:
333,243,283508,1,8,0:0:0:0:
146,110,283658,1,0,0:0:0:0:
149,101,283808,1,0,0:0:0:0:
149,101,283883,1,0,0:0:0:0:
341,251,283958,1,8,0:0:0:0:
186,95,284033,1,0,0:0:0:0:
341,251,284108,1,8,0:0:0:0:
322,223,284183,1,8,0:0:0:0:
146,110,284258,1,0,0:0:0:0:
341,251,284558,1,8,0:0:0:0:
346,265,284708,1,8,0:0:0:0:
146,110,284858,1,0,0:0:0:0:
146,96,285008,1,0,0:0:0:0:
143,97,285083,1,0,0:0:0:0:
341,251,285158,1,8,0:0:0:0:
143,100,285308,1,0,0:0:0:0:
146,110,285458,1,0,0:0:0:0:
164,118,285608,1,0,0:0:0:0:
164,118,285683,1,0,0:0:0:0:
346,264,285758,1,8,0:0:0:0:
346,264,285908,1,8,0:0:0:0:
164,101,286058,1,0,0:0:0:0:
167,97,286133,1,0,0:0:0:0:
164,101,286208,1,0,0:0:0:0:
167,97,286283,1,0,0:0:0:0:
135,260,286358,5,8,0:0:0:0:
336,241,286433,1,8,0:0:0:0:
143,58,286508,1,0,0:0:0:0:
141,132,286658,1,0,0:0:0:0:
382,288,286958,1,8,0:0:0:0:
293,285,287108,1,8,0:0:0:0:
179,90,287258,1,0,0:0:0:0:
173,97,287333,1,0,0:0:0:0:
173,97,287408,1,0,0:0:0:0:
173,97,287483,1,0,0:0:0:0:
355,237,287558,1,8,0:0:0:0:
359,251,287708,1,8,0:0:0:0:
190,98,287858,1,0,0:0:0:0:
190,98,288008,1,0,0:0:0:0:
365,249,288158,1,8,0:0:0:0:
330,247,288233,1,8,0:0:0:0:
330,247,288308,1,8,0:0:0:0:
190,98,288458,1,0,0:0:0:0:
190,98,288608,1,0,0:0:0:0:
190,98,288683,1,0,0:0:0:0:
346,230,288758,1,8,0:0:0:0:
365,249,288908,1,8,0:0:0:0:
154,96,289058,1,0,0:0:0:0:
185,115,289133,1,0,0:0:0:0:
154,96,289208,1,0,0:0:0:0:
185,115,289283,1,0,0:0:0:0:
383,261,289358,1,8,0:0:0:0:
175,123,289508,1,0,0:0:0:0:
172,120,289808,1,0,0:0:0:0:
185,114,289883,1,0,0:0:0:0:
356,258,289958,1,8,0:0:0:0:
185,100,290108,1,0,0:0:0:0:
185,100,290258,5,0,0:0:0:0:
185,114,290408,1,0,0:0:0:0:
185,114,290483,1,0,0:0:0:0:
339,266,290558,1,8,0:0:0:0:
154,117,290708,1,0,0:0:0:0:
373,268,290858,1,8,0:0:0:0:
373,268,290933,1,8,0:0:0:0:
159,120,291008,1,0,0:0:0:0:
346,279,291158,1,8,0:0:0:0:
338,252,291233,1,8,0:0:0:0:
177,101,291308,1,0,0:0:0:0:
160,102,291383,1,0,0:0:0:0:
373,237,291458,1,8,0:0:0:0:
142,98,291608,1,0,0:0:0:0:
382,256,291758,1,8,0:0:0:0:
369,283,291833,1,8,0:0:0:0:
382,256,291908,1,8,0:0:0:0:
212,137,292058,1,0,0:0:0:0:
394,270,292208,1,8,0:0:0:0:
361,225,292283,1,8,0:0:0:0:
367,262,292358,1,8,0:0:0:0:
361,226,292433,1,8,0:0:0:0:
188,131,292508,1,0,0:0:0:0:
350,268,292658,1,8,0:0:0:0:
403,265,292808,1,8,0:0:0:0:
403,265,292883,1,8,0:0:0:0:
403,265,292958,1,8,0:0:0:0:
361,225,293033,1,8,0:0:0:0:
188,131,293108,1,0,0:0:0:0:
317,230,293258,1,8,0:0:0:0:
361,225,293333,1,8,0:0:0:0:
340,223,293408,1,8,0:0:0:0:
340,223,293483,1,8,0:0:0:0:
157,141,293558,1,0,0:0:0:0:
195,162,293633,1,0,0:0:0:0:
156,140,293708,1,0,0:0:0:0:
158,105,293858,5,4,0:0:0:0:
420,260,294158,1,8,0:0:0:0:
188,104,294308,1,0,0:0:0:0:
392,260,294458,1,8,0:0:0:0:
392,260,294608,1,8,0:0:0:0:
493,268,294683,1,8,0:0:0:0:
408,256,294758,1,8,0:0:0:0:
184,96,294908,1,0,0:0:0:0:
368,248,295058,1,8,0:0:0:0:
396,252,295208,1,8,0:0:0:0:
396,252,295283,1,8,0:0:0:0:
188,104,295358,1,0,0:0:0:0:
168,84,295508,1,0,0:0:0:0:
340,244,295658,1,8,0:0:0:0:
176,100,295808,1,0,0:0:0:0:
336,256,295958,1,8,0:0:0:0:
188,104,296033,1,0,0:0:0:0:
376,276,296108,1,8,0:0:0:0:
362,281,296183,1,8,0:0:0:0:
160,80,296258,1,0,0:0:0:0:
376,276,296558,1,8,0:0:0:0:
152,88,296708,1,0,0:0:0:0:
152,72,296858,1,0,0:0:0:0:
336,267,296933,1,8,0:0:0:0:
304,232,297008,1,8,0:0:0:0:
344,256,297158,1,8,0:0:0:0:
172,116,297308,1,0,0:0:0:0:
356,264,297458,1,8,0:0:0:0:
336,267,297533,1,8,0:0:0:0:
176,112,297608,1,0,0:0:0:0:
344,256,297758,1,8,0:0:0:0:
344,256,297908,1,8,0:0:0:0:
172,116,298058,1,0,0:0:0:0:
368,272,298133,1,8,0:0:0:0:
132,72,298208,1,0,0:0:0:0:
172,116,298283,1,0,0:0:0:0:
372,272,298358,1,8,0:0:0:0:
356,260,298508,1,8,0:0:0:0:
164,140,298658,5,0,0:0:0:0:
420,260,298958,1,8,0:0:0:0:
188,104,299108,1,0,0:0:0:0:
168,96,299258,1,0,0:0:0:0:
169,111,299333,1,0,0:0:0:0:
432,280,299408,1,8,0:0:0:0:
384,312,299558,1,8,0:0:0:0:
184,96,299708,1,0,0:0:0:0:
368,248,299858,1,8,0:0:0:0:
396,252,300008,1,8,0:0:0:0:
396,252,300083,1,8,0:0:0:0:
188,104,300158,1,0,0:0:0:0:
168,84,300308,1,0,0:0:0:0:
340,244,300458,1,8,0:0:0:0:
176,100,300608,1,0,0:0:0:0:
192,116,300758,1,0,0:0:0:0:
376,276,300908,1,8,0:0:0:0:
160,80,301058,5,0,0:0:0:0:
184,76,301208,1,0,0:0:0:0:
169,111,301283,1,0,0:0:0:0:
364,268,301358,1,8,0:0:0:0:
136,84,301508,1,0,0:0:0:0:
136,84,301658,1,0,0:0:0:0:
136,84,301808,1,0,0:0:0:0:
169,111,301883,1,0,0:0:0:0:
376,252,301958,1,8,0:0:0:0:
356,244,302108,1,8,0:0:0:0:
176,96,302258,5,0,0:0:0:0:
176,96,302408,1,0,0:0:0:0:
336,212,302558,1,8,0:0:0:0:
352,240,302708,1,8,0:0:0:0:
144,88,302858,1,0,0:0:0:0:
360,248,303008,1,8,0:0:0:0:
360,248,303083,1,8,0:0:0:0:
144,88,303158,1,0,0:0:0:0:
190,120,303233,1,0,0:0:0:0:
328,208,303308,1,8,0:0:0:0:
168,276,303458,5,4,0:0:0:0:
364,248,303758,1,8,0:0:0:0:
180,104,303908,1,0,0:0:0:0:
180,104,304058,1,0,0:0:0:0:
174,107,304133,1,0,0:0:0:0:
332,236,304208,1,8,0:0:0:0:
356,240,304358,1,8,0:0:0:0:
196,104,304508,1,0,0:0:0:0:
128,112,304583,1,0,0:0:0:0:
364,248,304658,1,8,0:0:0:0:
192,104,304808,1,0,0:0:0:0:
348,224,304883,1,8,0:0:0:0:
164,112,304958,1,0,0:0:0:0:
164,112,305108,1,0,0:0:0:0:
424,228,305258,1,8,0:0:0:0:
375,246,305333,1,8,0:0:0:0:
192,112,305408,1,0,0:0:0:0:
412,216,305558,1,8,0:0:0:0:
412,216,305708,1,8,0:0:0:0:
172,100,305858,5,0,0:0:0:0:
368,212,306158,1,8,0:0:0:0:
176,84,306308,1,0,0:0:0:0:
180,96,306458,1,0,0:0:0:0:
352,245,306533,1,8,0:0:0:0:
192,88,306608,1,0,0:0:0:0:
368,212,306758,1,8,0:0:0:0:
368,212,306908,1,8,0:0:0:0:
172,112,307058,1,0,0:0:0:0:
176,56,307208,1,0,0:0:0:0:
142,81,307283,1,0,0:0:0:0:
320,172,307358,1,8,0:0:0:0:
320,172,307508,1,8,0:0:0:0:
336,196,307658,1,8,0:0:0:0:
336,196,307733,1,8,0:0:0:0:
136,84,307808,1,0,0:0:0:0:
136,84,307883,1,0,0:0:0:0:
352,228,307958,5,8,0:0:0:0:
168,88,308108,1,0,0:0:0:0:
364,256,308258,1,8,0:0:0:0:
332,248,308558,1,8,0:0:0:0:
144,96,308708,1,0,0:0:0:0:
144,96,308858,1,0,0:0:0:0:
139,79,308933,1,0,0:0:0:0:
352,256,309008,1,8,0:0:0:0:
356,248,309158,1,8,0:0:0:0:
188,104,309308,1,0,0:0:0:0:
320,228,309458,1,8,0:0:0:0:
180,104,309608,1,0,0:0:0:0:
292,256,309683,1,8,0:0:0:0:
168,88,309758,1,0,0:0:0:0:
184,88,309908,1,0,0:0:0:0:
308,212,310058,1,8,0:0:0:0:
188,80,310208,1,0,0:0:0:0:
188,80,310358,1,0,0:0:0:0:
340,260,310508,1,8,0:0:0:0:
168,76,310658,5,0,0:0:0:0:
173,108,310808,1,0,0:0:0:0:
352,253,310958,1,8,0:0:0:0:
161,92,311108,1,0,0:0:0:0:
132,117,311183,1,0,0:0:0:0:
331,247,311258,1,8,0:0:0:0:
122,118,311408,1,0,0:0:0:0:
364,273,311558,1,8,0:0:0:0:
131,117,311708,1,0,0:0:0:0:
364,273,311858,1,8,0:0:0:0:
351,265,311933,1,8,0:0:0:0:
177,146,312008,1,0,0:0:0:0:
177,146,312083,1,0,0:0:0:0:
364,273,312158,1,8,0:0:0:0:
229,160,312233,1,0,0:0:0:0:
229,160,312308,1,0,0:0:0:0:
229,160,312383,1,0,0:0:0:0:
301,222,312458,1,8,0:0:0:0:
207,119,312608,1,0,0:0:0:0:
207,119,312683,1,0,0:0:0:0:
339,230,312758,1,8,0:0:0:0:
165,92,312833,1,0,0:0:0:0:
323,219,312908,1,8,0:0:0:0:
323,219,312983,1,8,0:0:0:0:
323,219,313058,1,8,0:0:0:0:
192,101,313208,1,0,0:0:0:0:
327,219,313358,1,8,0:0:0:0:
183,108,313508,1,0,0:0:0:0:
184,108,313583,1,0,0:0:0:0:
305,222,313658,1,8,0:0:0:0:
165,92,313808,1,0,0:0:0:0:
168,91,313883,1,0,0:0:0:0:
309,223,313958,1,8,0:0:0:0:
210,116,314033,1,0,0:0:0:0:
310,218,314108,1,8,0:0:0:0:
311,219,314183,1,8,0:0:0:0:
160,118,314258,5,0,0:0:0:0:
393,283,314408,1,12,0:0:0:0:
349,252,314708,1,12,0:0:0:0:
349,252,315008,1,12,0:0:0:0:
349,252,315308,1,12,0:0:0:0:
158,109,315458,1,0,0:0:0:0:
360,268,315608,1,8,0:0:0:0:
360,268,315758,1,8,0:0:0:0:
360,268,315908,1,8,0:0:0:0:
174,105,316058,1,0,0:0:0:0:
174,105,316208,1,0,0:0:0:0:
308,239,316358,1,8,0:0:0:0:
308,239,316508,1,8,0:0:0:0:
165,120,316658,5,4,0:0:0:0:
