osu file format v14

[General]
AudioFilename: audio.mp3
AudioLeadIn: 0
PreviewTime: 258830
Countdown: 0
SampleSet: Soft
StackLeniency: 0.6
Mode: 0
LetterboxInBreaks: 0
WidescreenStoryboard: 0

[Editor]
Bookmarks: 22580,34580,47330,72080,86330,110330,123080,135080,147080,173330,194330,206330,230330,258830,288830,311418
DistanceSpacing: 2.9
BeatDivisor: 4
GridSize: 32
TimelineZoom: 1.5

[Metadata]
Title:Snuffel
TitleUnicode:Snüffel
Artist:Equilibrium
ArtistUnicode:Equilibrium
Creator:yezplz
Version:Equipoise
Source:
Tags:marathon
BeatmapID:1217340
BeatmapSetID:574780

[Difficulty]
HPDrainRate:4
CircleSize:4
OverallDifficulty:8
ApproachRate:9.7
SliderMultiplier:2.7
SliderTickRate:1

[Events]
//Background and Video events
0,0,"bg.PNG",0,0
//Break Periods
//Storyboard Layer 0 (Background)
//Storyboard Layer 1 (Fail)
//Storyboard Layer 2 (Pass)
//Storyboard Layer 3 (Foreground)
//Storyboard Sound Samples

[TimingPoints]
80,375,4,2,1,100,1,0
80,-200,4,2,1,75,0,0
1392,-200,4,2,1,100,0,0
13580,-133.333333333333,4,2,1,100,0,0
22580,-100,4,2,1,100,0,0
47330,-100,4,2,1,100,0,1
72080,-200,4,2,1,100,0,0
83330,-100,4,2,1,100,0,0
86330,-50,4,2,1,75,0,1
95330,-100,4,2,1,100,0,0
98330,-50,4,2,1,75,0,1
108642,-100,4,2,1,100,0,0
110705,-83.3333333333333,4,2,1,100,0,0
123080,-100,4,2,1,100,0,0
147080,-133.333333333333,4,2,1,100,0,0
159080,-66.6666666666667,4,2,1,100,0,1
171830,-100,4,2,1,100,0,0
173330,-66.6666666666667,4,2,1,100,0,1
182330,-100,4,2,1,100,0,0
185330,-66.6666666666667,4,2,1,100,0,1
190205,-133.333333333333,4,2,1,100,0,1
191330,-100,4,2,1,100,0,1
194330,-200,4,2,1,75,0,0
200330,-100,4,2,1,75,0,0
203330,-100,4,2,1,100,0,0
229830,-303.030303030303,4,2,1,100,0,0
230330,-166.666666666667,4,2,1,75,0,1
242580,-125,4,2,1,75,0,1
258830,-50,4,2,1,75,0,0
267830,-100,4,2,1,100,0,0
270830,-66.6666666666667,4,2,1,100,0,1
275705,-133.333333333333,4,2,1,100,0,1
276830,-66.6666666666667,4,2,1,100,0,1
285455,-100,4,2,1,100,0,1
285830,-200,4,2,1,100,0,0
287330,-100,4,2,1,100,0,0
288830,352.941176470588,4,2,1,100,1,1
311418,375,4,2,1,100,1,0
311418,-100,4,2,1,75,0,0
323418,-83.3333333333333,4,2,1,100,0,0
334293,-83.3333333333333,4,2,1,75,0,0

[HitObjects]
106,173,80,5,4,0:0:0:0:
108,177,455,1,4,0:0:0:0:
110,181,830,1,4,0:0:0:0:
112,185,1205,1,4,0:0:0:0:
218,127,1392,5,2,0:0:0:0:
218,127,1486,1,2,0:0:0:0:
218,127,1580,2,0,P|243:98|257:62,1,67.5,8|0,0:0|0:0,0:0:0:0:
284,162,1955,2,0,P|315:140|338:109,1,67.5,8|0,0:0|0:0,0:0:0:0:
333,218,2330,2,0,P|369:205|399:181,1,67.5,8|0,0:0|0:0,0:0:0:0:
372,281,2705,2,0,P|410:278|445:262,1,67.5,8|2,0:0|0:0,0:0:0:0:
464,247,2986,1,2,0:0:0:0:
477,215,3080,6,0,P|479:178|464:132,1,67.5,8|0,0:0|0:0,0:0:0:0:
283,110,3455,2,0,P|299:143|335:175,1,67.5,8|0,0:0|0:0,0:0:0:0:
403,184,3830,2,0,P|395:147|368:107,1,67.5,8|0,0:0|0:0,0:0:0:0:
186,125,4205,2,0,P|210:152|253:174,1,67.5,8|2,0:0|0:0,0:0:0:0:
268,180,4486,1,2,0:0:0:0:
300,188,4580,6,0,P|327:204|359:242,1,67.5,8|0,0:0|0:0,0:0:0:0:
200,219,4955,2,0,P|230:227|270:255,1,67.5,8|0,0:0|0:0,0:0:0:0:
103,271,5330,2,0,P|134:271|181:288,1,67.5,8|0,0:0|0:0,0:0:0:0:
31,347,5705,2,0,P|61:339|110:343,1,67.5,8|2,0:0|0:0,0:0:0:0:
130,346,5986,1,2,0:0:0:0:
162,353,6080,6,0,P|203:350|248:325,1,67.5,8|0,0:0|0:0,0:0:0:0:
269,143,6455,2,0,P|234:166|208:210,1,67.5,8|0,0:0|0:0,0:0:0:0:
202,273,6830,2,0,P|240:259|277:223,1,67.5,8|0,0:0|0:0,0:0:0:0:
247,46,7205,2,0,P|220:77|205:126,1,67.5,8|2,0:0|0:0,0:0:0:0:
205,134,7486,1,2,0:0:0:0:
198,167,7580,6,0,P|166:199|124:218,1,67.5,4|0,0:0|0:0,0:0:0:0:
285,213,7955,2,0,P|246:236|200:243,1,67.5,8|0,0:0|0:0,0:0:0:0:
354,281,8330,2,0,P|310:293|264:288,1,67.5,8|0,0:0|0:0,0:0:0:0:
404,365,8705,2,0,P|359:365|315:348,1,67.5,8|2,0:0|0:0,0:0:0:0:
303,360,8986,1,2,0:0:0:0:
269,360,9080,6,0,P|236:369|174:363,1,67.5,4|0,0:0|0:0,0:0:0:0:
111,197,9455,2,0,P|144:205|194:241,1,67.5,8|0,0:0|0:0,0:0:0:0:
212,297,9830,2,0,P|177:297|119:275,1,67.5,8|0,0:0|0:0,0:0:0:0:
101,98,10205,2,0,P|131:115|155:138,1,67.5,8|8,0:0|0:3,0:3:0:0:
176,165,10486,1,4,0:3:0:0:
194,156,10580,5,8,0:3:0:0:
213,152,10673,1,8,0:3:0:0:
233,151,10767,1,8,0:3:0:0:
252,154,10861,1,8,0:3:0:0:
271,160,10955,1,8,0:3:0:0:
290,164,11048,1,8,0:3:0:0:
310,162,11142,1,8,0:3:0:0:
328,154,11236,1,8,0:3:0:0:
379,110,11330,5,2,0:3:0:0:
398,128,11423,1,8,0:3:0:0:
413,150,11517,1,8,0:3:0:0:
453,153,11611,1,2,0:3:0:0:
465,184,11705,1,8,0:3:0:0:
466,217,11798,1,8,0:3:0:0:
435,277,11892,5,2,0:3:0:0:
394,279,11986,1,8,0:3:0:0:
351,331,12080,5,2,0:3:0:0:
330,331,12173,1,8,0:3:0:0:
309,327,12267,1,8,0:3:0:0:
291,316,12361,1,8,0:3:0:0:
278,300,12455,1,8,0:3:0:0:
265,284,12548,1,8,0:3:0:0:
250,270,12642,1,8,0:3:0:0:
231,261,12736,1,8,0:3:0:0:
164,250,12830,5,2,0:3:0:0:
146,229,12923,1,8,0:3:0:0:
136,203,13017,1,8,0:3:0:0:
95,196,13111,1,2,0:3:0:0:
91,162,13205,1,8,0:3:0:0:
100,129,13298,1,8,0:3:0:0:
113,62,13392,5,10,0:0:0:0:
173,31,13486,1,2,0:0:0:0:
241,22,13580,2,0,P|307:33|357:57,1,101.250003862381,4|0,0:0|0:0,0:0:0:0:
228,273,13955,2,0,P|162:262|97:229,1,101.250003862381,8|0,0:0|0:0,0:0:0:0:
278,126,14330,2,0,P|329:168|359:216,1,101.250003862381,8|0,0:0|0:0,0:0:0:0:
149,206,14705,2,0,P|111:176|64:111,1,101.250003862381,8|2,0:0|0:0,0:0:0:0:
59,87,14986,1,2,0:0:0:0:
42,135,15080,6,0,P|35:185|43:240,1,101.250003862381,4|0,0:0|0:0,0:0:0:0:
295,315,15455,2,0,P|289:264|267:213,1,101.250003862381,8|0,0:0|0:0,0:0:0:0:
100,183,15830,2,0,P|118:229|153:273,1,101.250003862381,8|0,0:0|0:0,0:0:0:0:
309,267,16205,2,0,P|278:226|234:193,1,101.250003862381,8|2,0:0|0:0,0:0:0:0:
202,159,16486,1,2,0:0:0:0:
245,133,16580,6,0,P|288:116|375:113,1,101.250003862381,4|0,0:0|0:0,0:0:0:0:
208,219,16955,2,0,P|165:236|78:239,1,101.250003862381,8|0,0:0|0:0,0:0:0:0:
210,76,17330,2,0,P|255:81|331:123,1,101.250003862381,8|0,0:0|0:0,0:0:0:0:
144,209,17705,2,0,P|94:201|48:180,1,101.250003862381,8|2,0:0|0:0,0:0:0:0:
14,143,17986,1,2,0:0:0:0:
8,193,18080,6,0,P|11:237|35:299,1,101.250003862381,4|0,0:0|0:0,0:0:0:0:
147,123,18455,2,0,P|122:86|70:44,1,101.250003862381,8|0,0:0|0:0,0:0:0:0:
63,235,18830,2,0,P|102:254|168:264,1,101.250003862381,8|0,0:0|0:0,0:0:0:0:
247,32,19205,2,0,P|203:35|141:59,1,101.250003862381,8|2,0:0|0:0,0:0:0:0:
108,84,19486,1,2,0:0:0:0:
154,103,19580,6,0,P|192:131|234:187,1,101.250003862381,4|0,0:0|0:0,0:0:0:0:
221,359,19955,2,0,P|202:315|193:246,1,101.250003862381,8|0,0:0|0:0,0:0:0:0:
320,150,20330,2,0,P|314:196|287:261,1,101.250003862381,8|0,0:0|0:0,0:0:0:0:
60,266,20705,2,0,P|88:228|143:186,1,101.250003862381,8|2,0:0|0:0,0:0:0:0:
177,176,20986,1,2,0:0:0:0:
226,163,21080,6,0,P|202:114|147:59,1,101.250003862381,4|0,0:0|0:0,0:0:0:0:
281,217,21455,2,0,P|316:258|384:297,1,101.250003862381,8|0,0:0|0:0,0:0:0:0:
297,146,21830,2,0,P|242:142|167:162,1,101.250003862381,8|0,0:0|0:0,0:0:0:0:
107,257,22205,2,0,P|160:246|227:207,1,101.250003862381,8|0,0:0|0:0,0:0:0:0:
351,76,22580,5,6,0:3:0:0:
383,68,22673,1,2,0:3:0:0:
363,95,22767,1,2,0:3:0:0:
396,92,22861,1,2,0:3:0:0:
369,112,22955,1,2,0:3:0:0:
402,112,23048,1,2,0:3:0:0:
372,129,23142,1,2,0:3:0:0:
405,129,23236,1,2,0:3:0:0:
374,143,23330,1,2,0:3:0:0:
407,145,23423,1,2,0:3:0:0:
375,157,23517,1,2,0:3:0:0:
408,161,23611,1,2,0:3:0:0:
376,172,23705,1,2,0:3:0:0:
409,176,23798,2,0,P|437:193|484:200,1,67.5,2|0,0:0|0:0,0:0:0:0:
359,272,23986,6,0,P|369:304|369:337,1,67.5,2|2,0:0|0:3,0:0:0:0:
350,239,24173,1,2,0:3:0:0:
344,270,24267,1,2,0:3:0:0:
332,237,24361,1,2,0:3:0:0:
327,270,24455,1,2,0:3:0:0:
319,237,24548,1,2,0:3:0:0:
311,270,24642,1,2,0:3:0:0:
306,236,24736,1,2,0:3:0:0:
294,267,24830,6,0,P|292:300|302:332,2,67.5,10|8|8,0:0|0:0|0:0,0:0:0:0:
223,252,25111,2,0,P|212:283|213:317,1,67.5,10|0,0:0|0:0,0:0:0:0:
224,179,25298,2,0,P|246:154|276:139,2,67.5,10|0|0,0:0|0:0|0:0,0:0:0:0:
160,213,25580,2,0,P|141:241|134:273,2,67.5,4|0|2,0:0|0:0|0:3,0:0:0:0:
156,186,25861,1,2,0:3:0:0:
150,159,25955,5,2,0:3:0:0:
168,178,26048,1,2,0:3:0:0:
164,151,26142,1,2,0:3:0:0:
183,169,26236,1,2,0:3:0:0:
177,142,26330,1,2,0:3:0:0:
195,161,26423,1,2,0:3:0:0:
191,134,26517,1,2,0:3:0:0:
207,155,26611,1,2,0:3:0:0:
206,127,26705,1,2,0:3:0:0:
220,149,26798,2,0,P|236:178|244:210,1,67.5,2|0,0:0|0:0,0:0:0:0:
279,76,26986,6,0,P|278:110|289:158,1,67.5,2|2,0:0|0:3,0:0:0:0:
287,47,27173,1,2,0:3:0:0:
295,75,27267,1,2,0:3:0:0:
305,45,27361,1,2,0:3:0:0:
311,71,27455,1,2,0:3:0:0:
320,46,27548,1,2,0:3:0:0:
324,72,27642,1,2,0:3:0:0:
335,47,27736,1,2,0:3:0:0:
392,83,27830,5,10,0:3:0:0:
432,136,27923,2,0,P|406:150|348:160,1,67.5,10|8,0:0|0:0,0:0:0:0:
424,224,28111,2,0,P|387:232|337:230,1,67.5,10|0,0:0|0:0,0:0:0:0:
296,156,28298,2,0,P|287:189|284:224,2,67.5,10|8|8,0:0|0:0|0:0,0:0:0:0:
395,304,28580,6,0,P|323:306|250:286,1,135,4|0,0:0|0:0,0:0:0:0:
66,37,28955,2,0,P|138:35|211:55,1,135,8|0,0:0|0:0,0:0:0:0:
324,244,29330,2,0,P|252:246|179:226,1,135,8|0,0:0|0:0,0:0:0:0:
224,106,29705,2,0,P|256:101|290:102,2,67.5,8|2|0,0:0|0:0|0:0,0:0:0:0:
163,148,29986,1,2,0:0:0:0:
156,222,30080,6,0,P|187:294|236:355,1,135,4|0,0:0|0:0,0:0:0:0:
348,232,30455,2,0,P|317:160|268:99,1,135,8|0,0:0|0:0,0:0:0:0:
53,194,30830,2,0,P|54:233|69:278,2,67.5,10|0|0,0:0|0:0|0:0,0:0:0:0:
125,222,31111,2,0,P|136:259|162:298,1,67.5,2|8,0:0|0:0,0:0:0:0:
200,228,31298,2,0,P|220:261|255:292,2,67.5,2|0|0,0:0|0:0|0:0,0:0:0:0:
279,219,31580,6,0,P|330:258|403:282,1,135,4|0,0:0|0:0,0:0:0:0:
261,145,31955,2,0,P|210:106|137:82,1,135,8|0,0:0|0:0,0:0:0:0:
336,166,32330,2,0,P|399:157|468:122,1,135,8|0,0:0|0:0,0:0:0:0:
208,198,32705,2,0,P|177:209|143:232,2,67.5,8|2|0,0:0|0:0|0:0,0:0:0:0:
214,291,33080,5,8,0:3:0:0:
293,301,33173,1,8,0:3:0:0:
353,257,33267,1,8,0:3:0:0:
366,190,33361,1,8,0:3:0:0:
392,142,33455,5,4,0:3:0:0:
430,129,33548,1,4,0:3:0:0:
456,132,33642,1,4,0:3:0:0:
467,138,33736,2,0,P|487:169|477:209,2,67.5,2|0|2,0:0|0:0|0:0,0:0:0:0:
478,99,34017,5,8,0:3:0:0:
475,58,34111,2,0,P|461:22|423:-1,1,67.5,2|0,0:0|0:0,0:0:0:0:
429,57,34298,5,2,0:0:0:0:
397,43,34392,1,8,0:3:0:0:
363,47,34486,1,8,0:3:0:0:
331,37,34580,2,0,P|290:31|255:9,2,67.5,4|0|8,0:0|0:0|0:0,0:0:0:0:
387,126,34955,5,0,0:0:0:0:
403,190,35048,1,0,0:0:0:0:
401,257,35142,1,8,0:0:0:0:
312,179,35330,1,0,0:0:0:0:
310,244,35423,1,0,0:0:0:0:
291,309,35517,1,8,0:0:0:0:
225,208,35705,6,0,P|220:238|203:274,2,67.5,2|0|8,0:0|0:0|0:0,0:0:0:0:
169,148,35986,1,0,0:0:0:0:
132,74,36080,2,0,P|145:44|170:15,2,67.5,2|0|8,0:0|0:0|0:0,0:0:0:0:
251,76,36455,1,0,0:0:0:0:
316,61,36548,1,0,0:0:0:0:
383,67,36642,1,8,0:0:0:0:
303,153,36830,6,0,P|334:151|377:157,2,67.5,2|0|8,0:0|0:0|0:0,0:0:0:0:
222,164,37111,2,0,P|192:174|156:197,2,67.5,2|0|0,0:0|0:0|0:0,0:0:0:0:
331,241,37392,2,0,P|361:247|401:264,1,67.5,10|0,0:0|0:0,0:0:0:0:
285,322,37580,2,0,P|257:308|222:281,2,67.5,4|0|8,0:0|0:0|0:0,0:0:0:0:
401,328,37955,5,0,0:0:0:0:
432,268,38048,1,0,0:0:0:0:
447,202,38142,1,8,0:0:0:0:
321,246,38330,1,0,0:0:0:0:
335,180,38423,1,0,0:0:0:0:
332,112,38517,1,8,0:0:0:0:
221,190,38705,6,0,P|222:154|209:104,2,67.5,2|0|8,0:0|0:0|0:0,0:0:0:0:
244,267,38986,1,0,0:0:0:0:
310,312,39080,2,0,P|346:326|375:354,2,67.5,2|0|8,0:0|0:0|0:0,0:0:0:0:
200,334,39455,5,0,0:0:0:0:
133,322,39548,1,0,0:0:0:0:
74,287,39642,1,8,0:0:0:0:
39,213,39736,1,2,0:0:0:0:
34,131,39830,2,0,P|30:87|35:46,1,67.5,0|2,0:0|0:0,0:0:0:0:
144,159,40017,5,8,0:0:0:0:
161,93,40111,2,0,P|179:52|204:19,1,67.5,2|0,0:0|0:0,0:0:0:0:
245,209,40298,1,2,0:0:0:0:
291,159,40392,2,0,P|327:133|365:117,1,67.5,8|0,0:0|0:0,0:0:0:0:
337,277,40580,2,0,P|381:273|422:278,2,67.5,4|0|8,0:0|0:0|0:0,0:0:0:0:
225,289,40955,5,0,0:0:0:0:
160,272,41048,1,0,0:0:0:0:
107,229,41142,1,8,0:0:0:0:
219,174,41330,1,0,0:0:0:0:
160,140,41423,1,0,0:0:0:0:
120,85,41517,1,8,0:0:0:0:
248,66,41705,5,2,0:0:0:0:
310,42,41798,2,0,P|344:35|395:40,1,67.5,0|8,0:0|0:0,0:0:0:0:
313,133,41986,1,0,0:0:0:0:
379,123,42080,2,0,P|413:125|461:143,2,67.5,2|0|8,0:0|0:0|0:0,0:0:0:0:
248,66,42455,1,0,0:0:0:0:
181,75,42548,1,0,0:0:0:0:
123,111,42642,1,8,0:0:0:0:
230,179,42830,6,0,P|197:189|163:212,2,67.5,2|0|8,0:0|0:0|0:0,0:0:0:0:
304,147,43111,2,0,P|333:129|373:119,2,67.5,2|0|0,0:0|0:0|0:0,0:0:0:0:
359,206,43392,2,0,P|393:205|432:216,1,67.5,10|0,0:0|0:0,0:0:0:0:
386,285,43580,2,0,P|419:293|454:314,2,67.5,4|0|8,0:0|0:0|0:0,0:0:0:0:
470,202,43955,5,0,0:0:0:0:
466,135,44048,1,0,0:0:0:0:
447,69,44142,1,8,0:0:0:0:
358,219,44330,1,0,0:0:0:0:
336,155,44423,1,0,0:0:0:0:
301,96,44517,1,8,0:0:0:0:
256,270,44705,5,2,0:0:0:0:
219,213,44798,2,0,P|197:186|151:155,1,67.5,0|8,0:0|0:0,0:0:0:0:
295,201,44987,1,0,0:0:0:0:
265,140,45080,2,0,P|246:111|205:74,2,67.5,2|0|8,0:0|0:0|0:0,0:0:0:0:
340,252,45455,5,0,0:0:0:0:
403,231,45548,1,0,0:0:0:0:
448,180,45642,1,8,0:0:0:0:
457,99,45736,1,2,0:0:0:0:
440,18,45830,2,0,P|471:7|504:7,1,67.5,0|2,0:0|0:0,0:0:0:0:
364,49,46017,5,8,0:0:0:0:
283,57,46111,2,0,P|247:49|216:54,1,67.5,2|0,0:0|0:0,0:0:0:0:
245,129,46298,2,0,P|245:162|256:194,2,67.5,2|8|0,0:0|0:0|0:0,0:0:0:0:
165,123,46580,5,10,0:0:0:0:
84,122,46673,2,0,P|39:128|-2:156,1,67.5,8|8,0:0|0:0,0:0:0:0:
140,218,46861,1,10,0:0:0:0:
61,236,46955,2,0,P|20:254|-14:291,1,67.5,0|8,0:0|0:0,0:0:0:0:
188,304,47142,2,0,P|153:331|130:377,1,67.5,10|8,0:0|0:0,0:0:0:0:
309,331,47330,5,4,0:0:0:0:
341,172,47517,1,8,0:0:0:0:
397,267,47705,1,0,0:0:0:0:
367,12,47892,1,8,0:0:0:0:
246,118,48080,1,0,0:0:0:0:
452,171,48267,1,8,0:0:0:0:
177,205,48455,1,2,0:0:0:0:
341,172,48642,1,8,0:0:0:0:
117,88,48830,5,2,0:0:0:0:
152,338,49017,1,8,0:0:0:0:
203,118,49205,1,0,0:0:0:0:
68,189,49392,1,8,0:0:0:0:
341,172,49580,1,0,0:0:0:0:
171,229,49767,1,8,0:0:0:0:
317,259,49955,1,0,0:0:0:0:
152,338,50142,1,8,0:0:0:0:
404,238,50330,5,4,0:0:0:0:
261,353,50517,1,8,0:0:0:0:
221,249,50705,1,0,0:0:0:0:
372,345,50892,1,8,0:0:0:0:
308,182,51080,1,0,0:0:0:0:
152,338,51267,1,8,0:0:0:0:
296,71,51455,1,2,0:0:0:0:
221,249,51642,1,8,0:0:0:0:
108,96,51830,5,2,0:0:0:0:
308,182,52017,1,8,0:0:0:0:
133,310,52205,1,0,0:0:0:0:
108,96,52392,1,8,0:0:0:0:
319,51,52580,1,2,0:0:0:0:
170,162,52767,1,10,0:0:0:0:
434,148,52955,1,2,0:0:0:0:
198,248,53142,1,10,0:0:0:0:
467,296,53330,5,4,0:0:0:0:
323,338,53517,1,8,0:0:0:0:
355,191,53705,1,0,0:0:0:0:
410,366,53892,1,8,0:0:0:0:
278,237,54080,1,0,0:0:0:0:
196,364,54267,1,8,0:0:0:0:
124,228,54455,1,2,0:0:0:0:
47,359,54642,1,8,0:0:0:0:
25,113,54830,5,2,0:0:0:0:
218,170,55018,1,8,0:0:0:0:
400,83,55205,1,0,0:0:0:0:
273,51,55392,1,8,0:0:0:0:
306,351,55580,1,0,0:0:0:0:
172,333,55767,1,8,0:0:0:0:
315,154,55955,1,0,0:0:0:0:
361,280,56142,1,8,0:0:0:0:
445,179,56330,5,4,0:0:0:0:
306,351,56517,1,8,0:0:0:0:
105,119,56705,1,0,0:0:0:0:
172,333,56892,1,8,0:0:0:0:
236,197,57080,1,0,0:0:0:0:
44,258,57267,1,8,0:0:0:0:
234,384,57455,1,2,0:0:0:0:
440,284,57642,1,8,0:0:0:0:
195,315,57830,5,2,0:0:0:0:
219,181,58018,1,8,0:0:0:0:
345,133,58205,1,0,0:0:0:0:
321,267,58392,1,8,0:0:0:0:
149,237,58580,1,2,0:0:0:0:
421,216,58768,1,10,0:0:0:0:
120,131,58955,1,2,0:0:0:0:
434,65,59142,1,10,0:0:0:0:
161,28,59330,5,4,0:0:0:0:
112,150,59517,1,8,0:0:0:0:
133,18,59705,1,0,0:0:0:0:
226,214,59892,1,8,0:0:0:0:
399,83,60080,1,0,0:0:0:0:
427,296,60267,1,8,0:0:0:0:
183,134,60455,1,2,0:0:0:0:
394,174,60642,1,8,0:0:0:0:
266,349,60830,5,2,0:0:0:0:
182,150,61017,1,8,0:0:0:0:
51,322,61205,1,0,0:0:0:0:
265,337,61392,1,8,0:0:0:0:
171,141,61580,1,0,0:0:0:0:
365,48,61767,1,8,0:0:0:0:
455,244,61955,1,0,0:0:0:0:
257,328,62142,1,8,0:0:0:0:
279,117,62330,5,4,0:0:0:0:
232,220,62517,1,8,0:0:0:0:
198,41,62705,1,0,0:0:0:0:
291,316,62892,1,8,0:0:0:0:
388,136,63080,1,0,0:0:0:0:
170,127,63267,1,8,0:0:0:0:
181,319,63455,1,2,0:0:0:0:
257,109,63642,1,8,0:0:0:0:
48,34,63830,5,2,0:0:0:0:
87,229,64017,1,8,0:0:0:0:
198,41,64205,1,0,0:0:0:0:
298,211,64392,1,8,0:0:0:0:
489,33,64580,1,2,0:0:0:0:
257,109,64767,1,10,0:0:0:0:
448,176,64955,1,2,0:0:0:0:
190,196,65142,1,10,0:0:0:0:
296,368,65330,5,4,0:0:0:0:
298,211,65517,1,8,0:0:0:0:
125,287,65705,1,0,0:0:0:0:
286,288,65892,1,8,0:0:0:0:
167,109,66080,1,2,0:0:0:0:
168,270,66267,1,8,0:0:0:0:
385,77,66455,1,2,0:0:0:0:
183,79,66642,1,8,0:0:0:0:
183,295,66830,5,2,0:0:0:0:
184,160,67017,1,8,0:0:0:0:
356,304,67205,1,0,0:0:0:0:
194,306,67392,1,8,0:0:0:0:
279,101,67580,1,2,0:0:0:0:
427,220,67767,1,8,0:0:0:0:
115,120,67955,1,0,0:0:0:0:
404,14,68142,1,10,0:0:0:0:
294,347,68330,5,6,0:0:0:0:
183,79,68517,1,8,0:0:0:0:
106,212,68705,1,2,0:0:0:0:
256,214,68892,1,8,0:0:0:0:
319,17,69080,1,2,0:0:0:0:
460,161,69267,1,8,0:0:0:0:
263,124,69455,1,2,0:0:0:0:
183,345,69642,1,8,0:0:0:0:
102,122,69830,5,2,0:0:0:0:
376,61,70017,1,8,0:0:0:0:
307,336,70205,1,0,0:0:0:0:
183,44,70392,1,8,0:0:0:0:
56,298,70580,1,2,0:0:0:0:
360,240,70767,1,10,0:0:0:0:
17,194,70955,1,2,0:0:0:0:
403,139,71142,1,10,0:0:0:0:
256,192,71236,12,0,71986,0:0:0:0:
148,60,72080,6,0,L|221:68,1,67.5,2|8,0:1|0:0,0:1:0:0:
364,324,72455,2,0,L|291:316,1,67.5,2|8,0:1|0:0,0:1:0:0:
64,96,72830,2,0,L|56:169,1,67.5,2|8,0:1|0:0,0:1:0:0:
448,288,73205,2,0,L|456:215,1,67.5,2|8,0:1|0:0,0:1:0:0:
416,64,73580,6,0,L|343:82,1,67.5,2|8,0:1|0:0,0:1:0:0:
96,320,73955,2,0,L|169:302,1,67.5,2|8,0:1|0:0,0:1:0:0:
267,30,74330,2,0,L|285:103,1,67.5,2|8,0:1|0:0,0:1:0:0:
245,354,74705,2,0,L|227:281,1,67.5,2|8,0:1|0:0,0:1:0:0:
60,40,75080,6,0,L|106:93,1,67.5,2|8,0:1|0:0,0:1:0:0:
452,344,75455,2,0,L|406:291,1,67.5,2|8,0:1|0:0,0:1:0:0:
416,64,75830,2,0,L|363:110,1,67.5,2|8,0:1|0:0,0:1:0:0:
96,320,76205,2,0,L|149:274,1,67.5,2|8,0:1|0:0,0:1:0:0:
256,86,76580,6,0,L|256:-10,1,67.5,2|8,0:1|0:0,0:1:0:0:
256,298,76955,2,0,L|256:394,1,67.5,2|8,0:1|0:0,0:1:0:0:
416,192,77330,2,0,L|512:192,1,67.5,2|8,0:1|0:0,0:1:0:0:
96,192,77705,2,0,L|0:192,1,67.5,2|8,0:1|0:0,0:1:0:0:
352,64,78080,6,0,L|443:48,1,67.5,2|8,0:1|0:0,0:1:0:0:
160,320,78455,2,0,L|69:336,1,67.5,2|8,0:1|0:0,0:1:0:0:
96,96,78830,2,0,L|187:112,1,67.5,2|8,0:1|0:0,0:1:0:0:
416,288,79205,2,0,L|325:272,1,67.5,2|8,0:1|0:0,0:1:0:0:
196,49,79580,6,0,L|150:128,1,67.5,2|8,0:1|0:0,0:1:0:0:
316,335,79955,2,0,L|362:256,1,67.5,2|8,0:1|0:0,0:1:0:0:
472,136,80330,2,0,L|399:184,1,67.5,2|8,0:1|0:0,0:1:0:0:
40,248,80705,2,0,L|113:200,1,67.5,2|8,0:1|0:0,0:1:0:0:
384,32,81080,6,0,L|361:112,1,67.5,2|8,0:1|0:0,0:1:0:0:
128,352,81455,2,0,L|151:272,1,67.5,2|8,0:1|0:0,0:1:0:0:
133,26,81830,2,0,L|156:106,1,67.5,2|8,0:1|0:0,0:1:0:0:
379,358,82205,2,0,L|356:278,1,67.5,2|8,0:1|0:0,0:1:0:0:
32,160,82580,6,0,L|111:204,1,67.5,2|8,0:1|0:0,0:1:0:0:
480,224,82955,2,0,L|401:180,1,67.5,2|8,0:1|0:0,0:1:0:0:
197,44,83330,6,0,P|164:52|118:86,2,67.5,2|2|0,0:0|0:0|0:0,0:0:0:0:
222,108,83611,1,2,0:0:0:0:
288,84,83705,2,0,P|318:75|378:82,2,67.5,2|2|0,0:0|0:0|0:0,0:0:0:0:
276,152,83986,1,2,0:0:0:0:
345,144,84080,2,0,P|376:143|432:165,2,67.5,2|2|0,0:0|0:0|0:0,0:0:0:0:
318,208,84361,1,2,0:0:0:0:
387,218,84455,2,0,P|417:225|465:261,2,67.5,2|2|0,0:0|0:0|0:0,0:0:0:0:
227,93,84830,5,2,0:0:0:0:
149,70,84923,2,0,P|119:62|74:61,2,67.5,8|0|2,0:0|0:0|0:0,0:0:0:0:
263,168,85205,5,2,0:0:0:0:
181,165,85298,2,0,P|149:165|106:175,2,67.5,8|0|2,0:0|0:0|0:0,0:0:0:0:
219,239,85580,5,2,0:0:0:0:
139,257,85673,2,0,P|109:265|69:286,2,67.5,8|0|2,0:0|0:0|0:0,0:0:0:0:
263,168,85955,5,2,0:0:0:0:
341,150,86048,2,0,B|368:144|389:155|389:155|366:177|366:177|399:195|436:180,1,135,8|0,0:0|0:0,0:0:0:0:
371,323,86330,6,0,P|461:238|510:80,1,270,4|0,0:0|0:0,0:0:0:0:
242,323,86705,2,0,P|152:238|103:80,1,270,8|8,0:0|0:0,0:0:0:0:
50,262,87080,2,0,P|158:203|247:63,1,270,0|8,0:0|0:0,0:0:0:0:
462,122,87455,2,0,P|353:180|264:320,1,270,8|8,0:0|0:0,0:0:0:0:
459,304,87830,6,0,P|385:182|234:85,1,270,12|0,0:0|0:0,0:0:0:0:
53,80,88205,2,0,P|127:202|278:299,1,270,8|8,0:0|0:0,0:0:0:0:
459,80,88580,2,0,P|385:202|234:299,1,270,0|8,0:0|0:0,0:0:0:0:
53,304,88955,2,0,P|127:182|278:85,1,270,0|8,0:0|0:0,0:0:0:0:
232,334,89330,6,0,P|194:193|83:66,1,270,12|0,0:0|0:0,0:0:0:0:
280,50,89705,2,0,P|318:191|429:318,1,270,8|8,0:0|0:0,0:0:0:0:
474,148,90080,2,0,P|290:228|260:291,1,270,0|8,0:0|0:0,0:0:0:0:
38,236,90455,2,0,P|222:156|252:93,1,270,8|8,0:0|0:0,0:0:0:0:
66,74,90830,6,0,P|149:190|165:362,1,270,12|0,0:0|0:0,0:0:0:0:
248,307,91205,2,0,P|244:145|188:11,1,270,8|8,0:0|0:0,0:0:0:0:
372,45,91580,2,0,P|330:172|331:307,1,270,0|8,0:0|0:0,0:0:0:0:
408,313,91955,2,0,P|433:181|512:73,1,270,8|8,0:0|0:0,0:0:0:0:
297,111,92330,6,0,P|380:100|431:102,2,135,12|0|0,0:0|0:0|0:0,0:0:0:0:
299,184,92611,2,0,P|382:195|431:210,2,135,8|8|0,0:0|0:0|0:0,0:0:0:0:
293,256,92892,2,0,P|370:288|414:315,1,135,8|0,0:0|0:0,0:0:0:0:
218,256,93080,6,0,P|155:281|97:315,1,135,4|0,0:0|0:0,0:0:0:0:
212,184,93267,2,0,P|145:192|80:210,2,135,8|0|8,0:0|0:0|0:0,0:0:0:0:
214,111,93548,2,0,P|147:101|79:101,2,135,0|8|0,0:0|0:0|0:0,0:0:0:0:
407,272,93830,6,8,P|352:32|107:58,1,540,12|8,0:0|0:0,0:0:0:0:
95,144,94580,6,0,P|216:193|352:152,1,270,4|8,0:0|0:0,0:0:0:0:
452,85,94955,2,0,P|401:205|275:272,1,270,12|8,0:0|0:0,0:0:0:0:
187,276,95330,5,4,0:3:0:0:
213,276,95423,1,4,0:3:0:0:
239,273,95517,1,4,0:3:0:0:
273,251,95611,1,8,0:3:0:0:
296,218,95705,2,0,P|302:178|288:128,1,67.5,2|0,0:0|0:0,0:0:0:0:
199,183,95892,5,8,0:3:0:0:
145,177,95986,1,4,0:3:0:0:
93,159,96080,2,0,P|69:135|49:92,2,67.5,8|0|4,0:3|0:0|0:3,0:0:0:0:
98,212,96361,1,8,0:3:0:0:
89,244,96455,2,0,P|71:275|44:302,1,67.5,2|0,0:0|0:0,0:0:0:0:
182,273,96642,5,4,0:3:0:0:
215,280,96736,1,8,0:3:0:0:
269,283,96830,1,4,0:3:0:0:
302,281,96923,1,8,0:3:0:0:
355,271,97017,1,4,0:3:0:0:
385,255,97111,1,8,0:3:0:0:
421,214,97205,2,0,P|433:160|430:116,1,67.5,2|0,0:0|0:0,0:0:0:0:
320,132,97392,5,8,0:3:0:0:
269,112,97486,1,8,0:3:0:0:
217,95,97580,2,0,P|171:82|125:77,1,67.5,8|0,0:3|0:0,0:0:0:0:
119,210,97767,2,0,P|71:209|25:216,1,67.5,2|0,0:0|0:0,0:0:0:0:
111,334,97955,2,0,P|64:345|22:364,2,67.5,2|0|0,0:0|0:0|0:0,0:0:0:0:
144,329,98236,1,0,0:0:0:0:
177,330,98330,6,0,P|315:254|371:142,1,270,4|0,0:0|0:0,0:0:0:0:
463,328,98705,2,0,P|305:317|188:234,1,270
49,56,99080,2,0,P|207:67|324:150,1,270
451,30,99455,2,0,P|313:106|257:218,1,270,2|2,0:0|0:0,0:0:0:0:
477,298,99830,6,0,P|440:170|346:76,1,270,6|0,0:0|0:0,0:0:0:0:
34,85,100205,2,0,P|71:213|166:308,1,270
59,324,100580,2,0,P|136:184|244:124,1,270
453,60,100955,2,0,P|376:200|268:260,1,270,2|2,0:0|0:0,0:0:0:0:
73,132,101330,6,0,P|178:211|238:368,1,270,6|0,0:0|0:0,0:0:0:0:
439,252,101705,2,0,P|334:173|274:16,1,270
293,254,102080,2,0,P|373:147|495:92,1,270
219,130,102455,2,0,P|138:236|16:291,1,270,0|2,0:0|0:0,0:0:0:0:
185,346,102830,6,0,P|137:191|52:111,1,270,6|0,0:0|0:0,0:0:0:0:
216,244,103205,2,0,P|266:201|304:127,2,135
327,38,103580,2,0,P|375:193|460:273,1,270,2|0,0:0|0:0,0:0:0:0:
463,119,103955,2,0,P|332:128|179:183,1,270,2|0,0:0|0:0,0:0:0:0:
300,263,104330,5,6,0:0:0:0:
172,305,104517,2,0,P|66:193|94:82,2,270
438,344,105080,2,0,P|357:198|272:148,1,270
74,40,105455,2,0,P|155:186|240:236,1,270,2|2,0:0|0:0,0:0:0:0:
314,321,105830,2,0,P|350:189|442:79,1,270,2|0,0:0|0:0,0:0:0:0:
256,192,106111,12,0,106861,0:0:0:0:
198,321,106955,6,0,P|162:189|70:79,1,270,8|0,0:0|0:0,0:0:0:0:
314,63,107330,2,0,P|350:195|442:305,1,270,8|0,0:0|0:0,0:0:0:0:
289,203,108642,6,4,P|332:191|352:172,2,67.5,4|4|4,0:3|0:3|0:3,0:3:0:0:
255,201,108923,1,8,0:3:0:0:
221,194,109017,1,8,0:3:0:0:
191,176,109111,1,8,0:3:0:0:
158,166,109205,5,8,0:3:0:0:
116,200,109298,1,8,0:3:0:0:
101,252,109392,1,8,0:3:0:0:
113,304,109486,1,8,0:3:0:0:
151,342,109580,5,8,0:3:0:0:
217,344,109673,1,8,0:3:0:0:
279,318,109767,1,8,0:3:0:0:
314,260,109861,1,8,0:3:0:0:
321,192,109955,1,8,0:3:0:0:
335,126,110048,1,8,0:3:0:0:
382,78,110142,1,8,0:3:0:0:
449,71,110236,1,8,0:3:0:0:
506,106,110330,2,0,P|520:137|508:189,2,67.5,4|0|8,0:0|0:0|0:0,0:0:0:0:
353,74,110705,5,0,0:0:0:0:
275,52,110798,1,0,0:0:0:0:
193,53,110892,1,8,0:0:0:0:
284,167,111080,1,0,0:0:0:0:
202,165,111173,1,0,0:0:0:0:
124,188,111267,1,8,0:0:0:0:
241,273,111455,6,0,P|201:278|152:297,2,80.9999975280763,2|0|8,0:0|0:0|0:0,0:0:0:0:
321,281,111736,1,0,0:0:0:0:
398,255,111830,2,0,P|424:220|436:153,2,80.9999975280763,2|0|8,0:0|0:0|0:0,0:0:0:0:
455,353,112205,1,0,0:0:0:0:
489,280,112298,1,0,0:0:0:0:
485,198,112392,1,8,0:0:0:0:
376,271,112580,5,2,0:0:0:0:
389,191,112673,2,0,P|381:149|360:106,1,80.9999975280763,0|8,0:0|0:0,0:0:0:0:
268,129,112861,2,0,P|250:90|218:54,1,80.9999975280763,2|0,0:0|0:0,0:0:0:0:
188,212,113048,2,0,P|196:251|193:291,2,80.9999975280763,2|8|0,0:0|0:0|0:0,0:0:0:0:
137,108,113330,2,0,P|110:75|69:49,2,80.9999975280763,4|0|8,0:0|0:0|0:0,0:0:0:0:
108,257,113705,5,0,0:0:0:0:
182,286,113798,1,0,0:0:0:0:
243,339,113892,1,8,0:0:0:0:
173,116,114080,1,0,0:0:0:0:
236,163,114173,1,0,0:0:0:0:
282,230,114267,1,8,0:0:0:0:
346,134,114455,6,0,P|335:95|303:51,2,80.9999975280763,2|0|8,0:0|0:0|0:0,0:0:0:0:
360,213,114736,1,0,0:0:0:0:
409,277,114830,2,0,P|440:290|518:276,2,80.9999975280763,2|0|8,0:0|0:0|0:0,0:0:0:0:
355,377,115205,5,0,0:0:0:0:
275,367,115298,1,0,0:0:0:0:
205,325,115392,1,8,0:0:0:0:
144,248,115486,1,2,0:0:0:0:
104,159,115580,2,0,P|90:117|91:52,1,80.9999975280763,0|2,0:0|0:0,0:0:0:0:
231,179,115767,5,8,0:0:0:0:
212,99,115861,2,0,P|220:55|254:0,1,80.9999975280763,2|0,0:0|0:0,0:0:0:0:
305,177,116048,1,2,0:0:0:0:
331,100,116142,2,0,P|360:66|417:35,1,80.9999975280763,8|0,0:0|0:0,0:0:0:0:
370,216,116330,2,0,P|412:201|477:203,2,80.9999975280763,4|0|8,0:0|0:0|0:0,0:0:0:0:
260,128,116705,5,0,0:0:0:0:
226,201,116798,1,0,0:0:0:0:
222,282,116892,1,8,0:0:0:0:
147,115,117080,1,0,0:0:0:0:
95,176,117173,1,0,0:0:0:0:
70,253,117267,1,8,0:0:0:0:
74,27,117455,6,0,P|39:45|5:74,2,80.9999975280763,2|0|8,0:0|0:0|0:0,0:0:0:0:
153,44,117736,1,0,0:0:0:0:
232,62,117830,2,0,P|266:43|300:14,2,80.9999975280763,2|0|8,0:0|0:0|0:0,0:0:0:0:
246,174,118205,1,0,0:0:0:0:
318,138,118298,1,0,0:0:0:0:
370,76,118392,1,8,0:0:0:0:
331,252,118580,6,0,P|376:249|428:224,2,80.9999975280763,2|0|8,0:0|0:0|0:0,0:0:0:0:
356,162,118861,2,0,P|399:148|443:110,1,80.9999975280763,2|0,0:0|0:0,0:0:0:0:
355,69,119048,2,0,P|392:44|425:-3,2,80.9999975280763,2|8|0,0:0|0:0|0:0,0:0:0:0:
271,32,119330,2,0,P|233:56|200:104,2,80.9999975280763,4|0|8,0:0|0:0|0:0,0:0:0:0:
99,60,119705,5,0,0:0:0:0:
55,127,119798,1,0,0:0:0:0:
42,207,119892,1,8,0:0:0:0:
165,153,120080,1,0,0:0:0:0:
139,229,120173,1,0,0:0:0:0:
147,309,120267,1,8,0:0:0:0:
253,226,120455,6,0,P|248:266|259:317,2,80.9999975280763,2|0|8,0:0|0:0|0:0,0:0:0:0:
286,151,120736,1,0,0:0:0:0:
279,70,120830,2,0,P|250:35|206:13,2,80.9999975280763,2|0|8,0:0|0:0|0:0,0:0:0:0:
389,101,121205,5,0,0:0:0:0:
463,132,121298,1,0,0:0:0:0:
497,205,121392,1,8,0:0:0:0:
474,299,121486,1,2,0:0:0:0:
386,342,121580,2,0,P|339:341|295:322,1,80.9999975280763,0|2,0:0|0:0,0:0:0:0:
358,253,121767,5,8,0:0:0:0:
282,229,121861,2,0,P|241:204|213:166,1,80.9999975280763,2|0,0:0|0:0,0:0:0:0:
306,136,122048,2,0,P|283:94|277:47,2,80.9999975280763,2|8|0,0:0|0:0|0:0,0:0:0:0:
392,59,122330,6,0,P|439:60|483:78,2,80.9999975280763,10|8|8,0:0|0:0|0:0,0:0:0:0:
418,172,122611,2,0,P|463:185|500:214,2,80.9999975280763,10|0|8,0:0|0:0|0:0,0:0:0:0:
411,286,122892,2,0,P|451:310|479:348,1,80.9999975280763,10|8,0:0|0:0,0:0:0:0:
272,363,123080,2,0,P|239:346|209:308,2,67.5,4|0|8,0:0|0:0|0:0,0:0:0:0:
294,272,123455,5,0,0:0:0:0:
290,232,123548,1,0,0:0:0:0:
280,192,123642,1,10,0:0:0:0:
265,154,123736,1,0,0:0:0:0:
248,117,123830,2,0,P|213:78|180:63,2,67.5,2|0|8,0:0|0:0|0:0,0:0:0:0:
320,96,124111,2,0,P|296:49|268:26,2,67.5,2|0|0,0:0|0:0|0:0,0:0:0:0:
395,93,124392,2,0,P|384:41|363:12,1,67.5,10|0,0:0|0:0,0:0:0:0:
467,109,124580,2,0,P|469:56|457:22,2,67.5,2|0|8,0:0|0:0|0:0,0:0:0:0:
463,149,124861,1,2,0:0:0:0:
452,188,124955,5,0,0:0:0:0:
437,225,125048,1,0,0:0:0:0:
418,261,125142,1,10,0:0:0:0:
391,291,125236,1,0,0:0:0:0:
362,320,125330,2,0,P|330:340|280:350,2,67.5,2|0|8,0:0|0:0|0:0,0:0:0:0:
297,256,125611,2,0,P|260:267|210:263,2,67.5,2|0|0,0:0|0:0|0:0,0:0:0:0:
250,175,125892,5,10,0:0:0:0:
196,179,125986,1,2,0:0:0:0:
144,196,126080,2,0,P|117:212|91:239,2,67.5,2|0|8,0:0|0:0|0:0,0:0:0:0:
173,224,126361,1,2,0:0:0:0:
204,249,126455,5,0,0:0:0:0:
240,266,126548,1,0,0:0:0:0:
279,274,126642,1,10,0:0:0:0:
319,274,126736,1,0,0:0:0:0:
359,268,126830,2,0,P|392:260|429:229,2,67.5,2|0|8,0:0|0:0|0:0,0:0:0:0:
353,177,127111,2,0,P|382:160|410:121,2,67.5,2|0|0,0:0|0:0|0:0,0:0:0:0:
323,90,127392,2,0,P|347:66|364:21,1,67.5,10|0,0:0|0:0,0:0:0:0:
233,115,127580,6,0,P|200:107|163:75,2,67.5,2|0|8,0:0|0:0|0:0,0:0:0:0:
170,181,127861,2,0,P|136:181|92:161,2,67.5,2|0|0,0:0|0:0|0:0,0:0:0:0:
124,261,128142,2,0,P|91:270|43:262,1,67.5,10|0,0:0|0:0,0:0:0:0:
219,281,128330,6,0,P|242:305|287:322,2,67.5,2|0|8,0:0|0:0|0:0,0:0:0:0:
268,169,128611,2,0,P|276:202|296:230,2,67.5,2|0|0,0:0|0:0|0:0,0:0:0:0:
369,99,128892,2,0,P|360:131|363:165,1,67.5,10|0,0:0|0:0,0:0:0:0:
490,85,129080,2,0,P|466:108|452:139,2,67.5,6|0|8,0:0|0:0|0:0,0:0:0:0:
459,59,129361,1,2,0:0:0:0:
422,41,129455,5,0,0:0:0:0:
382,31,129548,1,0,0:0:0:0:
341,27,129642,1,10,0:0:0:0:
300,28,129736,1,0,0:0:0:0:
260,38,129830,2,0,P|220:25|182:24,2,67.5,2|0|8,0:0|0:0|0:0,0:0:0:0:
209,111,130111,2,0,P|168:109|130:117,2,67.5,2|0|0,0:0|0:0|0:0,0:0:0:0:
178,194,130392,2,0,P|138:202|104:221,1,67.5,10|0,0:0|0:0,0:0:0:0:
170,282,130580,2,0,P|133:301|105:327,2,67.5,2|0|8,0:0|0:0|0:0,0:0:0:0:
205,262,130861,1,2,0:0:0:0:
236,236,130955,5,0,0:0:0:0:
271,216,131048,1,0,0:0:0:0:
310,206,131142,1,10,0:0:0:0:
350,203,131236,1,0,0:0:0:0:
391,195,131330,2,0,P|430:186|478:189,2,67.5,2|0|8,0:0|0:0|0:0,0:0:0:0:
439,277,131611,2,0,P|479:278|524:293,2,67.5,2|0|0,0:0|0:0|0:0,0:0:0:0:
460,368,131892,5,10,0:0:0:0:
405,368,131986,1,2,0:0:0:0:
352,356,132080,2,0,P|320:341|285:301,2,67.5,2|0|8,0:0|0:0|0:0,0:0:0:0:
387,336,132361,1,2,0:0:0:0:
417,308,132455,5,0,0:0:0:0:
439,277,132548,1,0,0:0:0:0:
456,240,132642,1,10,0:0:0:0:
467,200,132736,1,0,0:0:0:0:
470,159,132830,2,0,P|470:112|460:71,2,67.5,2|0|8,0:0|0:0|0:0,0:0:0:0:
378,100,133111,2,0,P|365:54|345:17,2,67.5,2|0|0,0:0|0:0|0:0,0:0:0:0:
273,75,133392,2,0,P|249:34|220:3,1,67.5,10|0,0:0|0:0,0:0:0:0:
178,121,133580,6,0,P|154:80|142:39,2,67.5,2|0|8,0:0|0:0|0:0,0:0:0:0:
94,192,133861,2,0,P|84:160|81:127,2,67.5,2|0|0,0:0|0:0|0:0,0:0:0:0:
0,247,134142,2,0,P|-1:213|3:180,1,67.5,10|0,0:0|0:0,0:0:0:0:
86,287,134330,6,0,P|78:319|65:350,2,67.5,2|0|8,0:0|0:0|0:0,0:0:0:0:
177,261,134611,2,0,P|178:294|173:328,2,67.5,2|4|0,0:0|0:0|0:0,0:0:0:0:
257,209,134892,2,0,P|266:241|270:274,1,67.5,10|0,0:0|0:0,0:0:0:0:
319,139,135080,6,0,P|336:167|349:198,2,67.5,4|0|0,0:0|0:0|0:0,0:0:0:0:
279,102,135361,1,0,0:0:0:0:
228,81,135455,1,8,0:0:0:0:
174,80,135548,1,0,0:0:0:0:
121,94,135642,1,0,0:0:0:0:
82,131,135736,1,0,0:0:0:0:
60,180,135830,2,0,P|39:208|26:265,1,67.5,10|0,0:1|0:0,0:0:0:0:
151,191,136017,5,0,0:0:0:0:
142,244,136111,2,0,P|128:276|131:334,1,67.5,10|8,0:1|0:0,0:0:0:0:
234,232,136298,1,0,0:0:0:0:
239,285,136392,2,0,P|234:319|252:375,1,67.5,10|0,0:1|0:0,0:0:0:0:
342,288,136580,6,0,P|346:322|378:372,2,67.5,10|0|0,0:1|0:0|0:0,0:0:0:0:
340,233,136861,1,0,0:0:0:0:
356,181,136955,1,8,0:0:0:0:
406,200,137048,1,0,0:0:0:0:
456,180,137142,1,0,0:0:0:0:
479,131,137236,1,0,0:0:0:0:
463,79,137330,2,0,P|452:37|457:5,1,67.5,10|0,0:1|0:0,0:0:0:0:
405,126,137517,1,0,0:0:0:0:
431,173,137611,2,0,P|442:215|437:247,2,67.5,10|8|0,0:1|0:0|0:0,0:0:0:0:
348,215,137892,5,10,0:1:0:0:
342,268,137986,1,2,0:1:0:0:
316,315,138080,2,0,P|299:334|257:347,2,67.5,10|0|0,0:1|0:0|0:0,0:0:0:0:
318,260,138361,1,0,0:0:0:0:
298,209,138455,5,8,0:0:0:0:
329,165,138548,1,0,0:0:0:0:
322,111,138642,1,0,0:0:0:0:
279,77,138736,1,0,0:0:0:0:
225,82,138830,2,0,P|196:104|185:146,1,67.5,10|0,0:1|0:0,0:0:0:0:
133,60,139017,5,0,0:0:0:0:
81,75,139111,2,0,P|41:75|11:61,1,67.5,10|8,0:1|0:0,0:0:0:0:
35,155,139298,1,0,0:0:0:0:
88,164,139392,2,0,P|123:174|161:196,1,67.5,10|0,0:1|0:0,0:0:0:0:
186,276,139580,2,0,P|219:256|236:215,1,67.5,10|0,0:1|0:0,0:0:0:0:
231,140,139767,5,0,0:0:0:0:
272,105,139861,2,0,P|304:87|346:79,1,67.5,10|8,0:1|0:0,0:0:0:0:
310,191,140048,1,0,0:0:0:0:
358,167,140142,2,0,P|393:157|436:161,1,67.5,10|0,0:1|0:0,0:0:0:0:
377,256,140330,2,0,P|413:256|454:270,1,67.5,10|0,0:1|0:0,0:0:0:0:
396,348,140517,5,8,0:0:0:0:
349,375,140611,2,0,P|313:384|270:380,1,67.5,10|8,0:1|0:0,0:0:0:0:
305,291,140798,1,0,0:0:0:0:
250,289,140892,2,0,P|214:279|179:255,1,67.5,10|0,0:1|0:0,0:0:0:0:
256,195,141080,2,0,P|228:170|208:132,2,67.5,6|0|0,0:1|0:0|0:0,0:0:0:0:
306,215,141361,1,0,0:0:0:0:
358,202,141455,5,8,0:0:0:0:
387,156,141548,1,0,0:0:0:0:
382,102,141642,1,0,0:0:0:0:
342,65,141736,1,0,0:0:0:0:
288,58,141830,2,0,P|254:73|227:115,1,67.5,10|0,0:1|0:0,0:0:0:0:
101,158,142017,5,0,0:0:0:0:
154,148,142111,2,0,P|186:157|209:180,1,67.5,10|8,0:1|0:0,0:0:0:0:
136,55,142298,1,0,0:0:0:0:
189,59,142392,2,0,P|217:76|234:105,1,67.5,10|0,0:1|0:0,0:0:0:0:
308,52,142580,2,0,P|324:81|324:114,2,67.5,10|0|0,0:1|0:0|0:0,0:0:0:0:
256,34,142861,1,0,0:0:0:0:
222,76,142955,5,8,0:0:0:0:
232,128,143048,1,0,0:0:0:0:
261,172,143142,1,0,0:0:0:0:
302,207,143236,1,0,0:0:0:0:
354,221,143330,2,0,P|399:223|438:201,1,67.5,10|0,0:1|0:0,0:0:0:0:
206,231,143517,5,0,0:0:0:0:
243,268,143611,2,0,P|280:292|325:292,2,67.5,10|8|0,0:1|0:0|0:0,0:0:0:0:
112,202,143892,5,10,0:1:0:0:
108,256,143986,1,2,0:1:0:0:
121,308,144080,2,0,P|134:334|180:366,2,67.5,10|0|0,0:1|0:0|0:0,0:0:0:0:
142,258,144361,1,0,0:0:0:0:
185,226,144455,5,8,0:0:0:0:
238,223,144548,1,0,0:0:0:0:
283,251,144642,1,0,0:0:0:0:
337,253,144736,1,0,0:0:0:0:
388,235,144830,2,0,P|421:222|472:219,1,67.5,10|0,0:1|0:0,0:0:0:0:
333,161,145017,5,0,0:0:0:0:
366,119,145111,2,0,P|388:91|430:63,1,67.5,10|8,0:1|0:0,0:0:0:0:
240,134,145298,1,0,0:0:0:0:
248,82,145392,2,0,P|253:46|276:1,1,67.5,10|0,0:1|0:0,0:0:0:0:
140,93,145580,2,0,P|127:60|124:8,1,67.5,10|0,0:1|0:0,0:0:0:0:
95,172,145767,5,0,0:0:0:0:
85,222,145861,2,0,P|79:257|56:302,1,67.5,10|8,0:1|0:0,0:0:0:0:
220,174,146048,1,0,0:0:0:0:
197,219,146142,2,0,P|182:251|148:288,1,67.5,10|0,0:1|0:0,0:0:0:0:
329,225,146330,2,0,P|306:252|263:279,1,67.5,10|0,0:1|0:0,0:0:0:0:
394,296,146517,5,8,0:3:0:0:
450,258,146611,1,8,0:3:0:0:
484,199,146705,1,8,0:3:0:0:
492,132,146798,1,8,0:3:0:0:
468,68,146892,1,8,0:3:0:0:
416,24,146986,1,8,0:3:0:0:
348,12,147080,6,0,L|322:74,1,50.6250019311906,4|0,0:0|0:0,0:0:0:0:
345,242,147267,2,0,L|352:192,1,50.6250019311906,8|0,0:0|0:0,0:0:0:0:
254,35,147455,2,0,L|262:102,1,50.6250019311906,0|0,0:0|0:0,0:0:0:0:
366,236,147642,2,0,L|347:189,1,50.6250019311906,8|0,0:0|0:0,0:0:0:0:
168,144,147830,2,0,L|221:185,1,50.6250019311906,0|0,0:0|0:0,0:0:0:0:
389,206,148017,2,0,L|342:186,1,50.6250019311906,8|0,0:0|0:0,0:0:0:0:
216,316,148205,2,0,L|278:290,1,50.6250019311906,2|0,0:0|0:0,0:0:0:0:
379,155,148392,2,0,L|338:185,1,50.6250019311906,8|0,0:0|0:0,0:0:0:0:
300,323,148580,6,0,L|246:282,1,50.6250019311906,2|0,0:0|0:0,0:0:0:0:
182,125,148767,2,0,L|213:164,1,50.6250019311906,8|0,0:0|0:0,0:0:0:0:
207,350,148955,2,0,L|180:287,1,50.6250019311906,0|0,0:0|0:0,0:0:0:0:
203,120,149142,2,0,L|210:170,1,50.6250019311906,8|0,0:0|0:0,0:0:0:0:
78,298,149330,2,0,L|103:235,1,50.6250019311906
238,134,149517,2,0,L|207:174,1,50.6250019311906,8|0,0:0|0:0,0:0:0:0:
33,125,149705,2,0,L|99:116,1,50.6250019311906,0|0,0:0|0:0,0:0:0:0:
255,183,149892,2,0,L|204:177,1,50.6250019311906,8|0,0:0|0:0,0:0:0:0:
189,7,150080,6,0,L|197:73,1,50.6250019311906,4|0,0:0|0:0,0:0:0:0:
140,234,150267,2,0,L|173:184,1,50.6250019311906,8|0,0:0|0:0,0:0:0:0:
323,7,150455,2,0,L|315:73,1,50.6250019311906,0|0,0:0|0:0,0:0:0:0:
372,234,150642,2,0,L|339:184,1,50.6250019311906,8|0,0:0|0:0,0:0:0:0:
146,110,150830,2,0,L|208:136,1,50.6250019311906,0|0,0:0|0:0,0:0:0:0:
366,110,151017,2,0,L|304:136,1,50.6250019311906,8|0,0:0|0:0,0:0:0:0:
121,261,151205,2,0,L|174:243,1,50.6250019311906,2|0,0:0|0:0,0:0:0:0:
391,261,151392,2,0,L|338:243,1,50.6250019311906,8|0,0:0|0:0,0:0:0:0:
162,296,151580,6,0,L|235:242,1,50.6250019311906,2|0,0:0|0:0,0:0:0:0:
197,74,151767,2,0,L|250:147,1,50.6250019311906,8|0,0:0|0:0,0:0:0:0:
383,331,151955,2,0,L|329:257,1,50.6250019311906,0|0,0:0|0:0,0:0:0:0:
418,109,152142,2,0,L|344:162,1,50.6250019311906,8|0,0:0|0:0,0:0:0:0:
264,359,152330,2,0,L|279:269,1,50.6250019311906,2|0,0:0|0:0,0:0:0:0:
133,178,152517,2,0,L|222:192,1,50.6250019311906,10|0,0:0|0:0,0:0:0:0:
315,45,152705,2,0,L|300:135,1,50.6250019311906,2|0,0:0|0:0,0:0:0:0:
446,226,152892,2,0,L|357:212,1,50.6250019311906,10|0,0:0|0:0,0:0:0:0:
96,320,153080,6,0,L|87:268,1,50.6250019311906,4|0,0:0|0:0,0:0:0:0:
176,64,153267,2,0,L|185:116,1,50.6250019311906,8|0,0:0|0:0,0:0:0:0:
206,339,153455,2,0,L|172:298,1,50.6250019311906,0|0,0:0|0:0,0:0:0:0:
80,110,153642,2,0,L|113:150,1,50.6250019311906,8|0,0:0|0:0,0:0:0:0:
310,300,153830,2,0,L|260:281,1,50.6250019311906,2|0,0:0|0:0,0:0:0:0:
380,214,154017,2,0,L|328:222,1,50.6250019311906,8|0,0:0|0:0,0:0:0:0:
397,104,154205,2,0,L|356:137,1,50.6250019311906,2|0,0:0|0:0,0:0:0:0:
482,95,154392,2,0,L|463:144,1,50.6250019311906,8|0,0:0|0:0,0:0:0:0:
416,320,154580,6,0,L|425:268,1,50.6250019311906,2|0,0:0|0:0,0:0:0:0:
336,64,154767,2,0,L|327:116,1,50.6250019311906,8|0,0:0|0:0,0:0:0:0:
306,339,154955,2,0,L|339:298,1,50.6250019311906,0|0,0:0|0:0,0:0:0:0:
432,110,155142,2,0,L|398:150,1,50.6250019311906,8|0,0:0|0:0,0:0:0:0:
202,300,155330,2,0,L|251:281,1,50.6250019311906,2|0,0:0|0:0,0:0:0:0:
132,214,155517,2,0,L|183:222,1,50.6250019311906,8|0,0:0|0:0,0:0:0:0:
115,104,155705,2,0,L|155:137,1,50.6250019311906,0|0,0:0|0:0,0:0:0:0:
30,95,155892,2,0,L|48:144,1,50.6250019311906,10|2,0:0|0:0,0:0:0:0:
256,352,156080,6,0,L|224:288,1,50.6250019311906,4|0,0:0|0:0,0:0:0:0:
256,32,156267,2,0,L|288:96,1,50.6250019311906,8|0,0:0|0:0,0:0:0:0:
142,305,156455,2,0,L|165:237,1,50.6250019311906,2|0,0:0|0:0,0:0:0:0:
369,78,156642,2,0,L|346:146,1,50.6250019311906,8|0,0:0|0:0,0:0:0:0:
369,305,156830,2,0,L|346:237,1,50.6250019311906,2|0,0:0|0:0,0:0:0:0:
142,78,157017,2,0,L|165:146,1,50.6250019311906,8|0,0:0|0:0,0:0:0:0:
415,191,157205,2,0,L|352:159,1,50.6250019311906,2|0,0:0|0:0,0:0:0:0:
95,191,157392,2,0,L|159:223,1,50.6250019311906,8|0,0:0|0:0,0:0:0:0:
278,306,157580,6,0,L|256:352,1,50.6250019311906,2|0,0:0|0:0,0:0:0:0:
233,77,157767,2,0,L|256:32,1,50.6250019311906,8|0,0:0|0:0,0:0:0:0:
370,169,157955,2,0,L|415:191,1,50.6250019311906,0|0,0:0|0:0,0:0:0:0:
141,214,158142,2,0,L|95:191,1,50.6250019311906,8|0,0:0|0:0,0:0:0:0:
369,305,158330,2,0,L|346:237,1,50.6250019311906,2|8,0:0|0:0,0:0:0:0:
142,78,158517,2,0,L|165:146,1,50.6250019311906,10|8,0:0|0:0,0:0:0:0:
142,305,158705,2,0,L|210:282,1,50.6250019311906,2|8,0:0|0:0,0:0:0:0:
369,78,158892,2,0,L|301:101,1,50.6250019311906,10|8,0:0|0:0,0:0:0:0:
352,288,159080,6,0,P|397:253|426:198,1,101.250003862381,6|0,0:1|0:0,0:0:0:0:
197,15,159267,2,0,P|159:49|132:106,1,101.250003862381,8|0,0:0|0:0,0:0:0:0:
160,288,159455,2,0,P|115:253|86:198,1,101.250003862381,2|0,0:1|0:0,0:0:0:0:
315,15,159642,2,0,P|353:49|380:106,1,101.250003862381,8|0,0:0|0:0,0:0:0:0:
411,205,159830,2,0,P|353:205|311:221,1,101.250003862381,2|0,0:1|0:0,0:0:0:0:
59,317,160017,2,0,P|117:317|159:301,1,101.250003862381,8|0,0:0|0:0,0:0:0:0:
292,89,160205,2,0,P|250:130|232:171,1,101.250003862381,2|0,0:1|0:0,0:0:0:0:
435,362,160392,2,0,P|393:320|352:302,1,101.250003862381,8|0,0:0|0:0,0:0:0:0:
75,42,160580,6,0,P|100:95|107:147,1,101.250003862381,2|0,0:1|0:0,0:0:0:0:
75,342,160767,2,0,P|100:289|107:237,1,101.250003862381,8|0,0:0|0:0,0:0:0:0:
202,45,160955,2,0,P|212:102|205:154,1,101.250003862381,2|0,0:1|0:1,0:1:0:0:
202,339,161142,2,0,P|212:281|205:229,1,101.250003862381,8|0,0:0|0:0,0:0:0:0:
340,89,161330,2,0,P|386:107|423:154,1,101.250003862381,2|0,0:1|0:1,0:1:0:0:
168,164,161517,2,0,P|137:125|128:66,1,101.250003862381,8|0,0:0|0:0,0:0:0:0:
329,196,161705,2,0,P|336:244|314:300,1,101.250003862381,2|0,0:1|0:1,0:1:0:0:
235,79,161892,2,0,P|253:33|300:-4,1,101.250003862381,8|0,0:0|0:0,0:0:0:0:
389,240,162080,6,0,P|439:247|494:278,1,101.250003862381,6|0,0:1|0:1,0:1:0:0:
207,240,162267,2,0,P|157:247|102:278,1,101.250003862381,8|0,0:0|0:0,0:0:0:0:
374,128,162455,2,0,P|420:109|483:108,1,101.250003862381,2|0,0:1|0:1,0:1:0:0:
222,128,162642,2,0,P|175:109|112:108,1,101.250003862381,8|0,0:0|0:0,0:0:0:0:
234,350,162830,2,0,P|273:318|305:264,1,101.250003862381,2|0,0:1|0:1,0:1:0:0:
288,53,163017,2,0,P|248:84|216:138,1,101.250003862381,8|0,0:0|0:0,0:0:0:0:
418,247,163205,2,0,P|410:197|379:142,1,101.250003862381,2|0,0:1|0:1,0:1:0:0:
204,256,163392,2,0,P|250:274|313:274,1,101.250003862381,8|0,0:0|0:0,0:0:0:0:
321,178,163580,6,0,P|318:228|300:275,1,101.250003862381,2|0,0:1|0:1,0:1:0:0:
271,100,163767,2,0,P|321:102|368:120,1,101.250003862381,8|0,0:0|0:0,0:0:0:0:
193,150,163955,2,0,P|195:99|213:52,1,101.250003862381,2|0,0:1|0:1,0:1:0:0:
243,228,164142,2,0,P|192:225|145:207,1,101.250003862381,8|0,0:0|0:0,0:0:0:0:
291,2,164330,2,0,P|288:52|270:99,1,101.250003862381,2|0,0:1|0:1,0:1:0:0:
418,198,164517,2,0,P|367:195|320:177,1,101.250003862381,10|0,0:1|0:0,0:0:0:0:
222,325,164705,2,0,P|224:274|242:227,1,101.250003862381,2|0,0:1|0:1,0:1:0:0:
95,129,164892,2,0,P|145:131|192:149,1,101.250003862381,10|0,0:1|0:0,0:0:0:0:
482,322,165080,6,0,P|436:302|399:268,1,101.250003862381,6|0,0:1|0:1,0:1:0:0:
184,45,165267,2,0,P|231:64|268:98,1,101.250003862381,8|0,0:0|0:0,0:0:0:0:
495,102,165455,2,0,P|446:108|401:131,1,101.250003862381,2|0,0:1|0:1,0:1:0:0:
136,292,165642,2,0,P|186:285|231:262,1,101.250003862381,8|0,0:0|0:0,0:0:0:0:
459,199,165830,2,0,P|409:205|360:194,1,101.250003862381,2|0,0:1|0:1,0:1:0:0:
54,174,166017,2,0,P|104:170|153:183,1,101.250003862381,8|0,0:0|0:0,0:0:0:0:
387,303,166205,2,0,P|342:280|307:245,1,101.250003862381,2|0,0:1|0:1,0:1:0:0:
116,53,166392,2,0,P|161:77|194:114,1,101.250003862381,8|0,0:0|0:0,0:0:0:0:
334,127,166580,6,0,P|357:82|369:33,1,101.250003862381,2|0,0:1|0:1,0:1:0:0:
257,237,166767,2,0,P|247:286|248:336,1,101.250003862381,8|0,0:0|0:0,0:0:0:0:
245,98,166955,2,0,P|218:55|182:20,1,101.250003862381,2|0,0:1|0:1,0:1:0:0:
331,207,167142,2,0,P|369:240|413:265,1,101.250003862381,8|0,0:0|0:0,0:0:0:0:
45,201,167330,2,0,P|96:183|149:182,1,101.250003862381,2|0,0:1|0:1,0:1:0:0:
430,151,167517,2,0,P|386:181|335:196,1,101.250003862381,8|0,0:0|0:0,0:0:0:0:
165,333,167705,2,0,P|175:279|201:233,1,101.250003862381,2|0,0:1|0:1,0:1:0:0:
325,14,167892,2,0,P|330:67|317:119,1,101.250003862381,8|0,0:0|0:0,0:0:0:0:
277,329,168080,6,0,P|323:298|359:246,1,101.250003862381,2|0,0:1|0:1,0:1:0:0:
260,62,168267,2,0,P|224:103|203:163,1,101.250003862381,8|8,0:0|0:0,0:0:0:0:
322,159,168455,2,0,P|378:162|435:189,1,101.250003862381,10|0,0:1|0:1,0:1:0:0:
238,238,168642,2,0,P|183:234|126:207,1,101.250003862381,8|0,0:0|0:0,0:0:0:0:
371,247,168830,2,0,P|417:278|453:330,1,101.250003862381,2|0,0:1|0:1,0:1:0:0:
239,160,169017,2,0,P|186:153|116:175,1,101.250003862381,8|8,0:0|0:0,0:0:0:0:
247,318,169205,2,0,P|277:274|292:211,1,101.250003862381,10|0,0:1|0:1,0:1:0:0:
182,31,169392,2,0,P|187:77|217:131,1,101.250003862381,8|0,0:0|0:0,0:0:0:0:
98,323,169580,6,0,P|117:270|156:223,1,101.250003862381,2|0,0:1|0:1,0:1:0:0:
277,53,169767,2,0,P|258:105|220:152,1,101.250003862381,8|8,0:0|0:0,0:0:0:0:
62,304,169955,2,0,P|95:257|144:222,1,101.250003862381,10|0,0:1|0:1,0:1:0:0:
436,128,170142,2,0,P|394:164|336:185,1,101.250003862381,8|8,0:0|0:0,0:0:0:0:
122,118,170330,2,0,P|180:118|248:138,1,101.250003862381,10|0,0:1|0:1,0:1:0:0:
427,294,170517,2,0,P|371:278|311:242,1,101.250003862381,2|8,0:1|0:0,0:0:0:0:
64,254,170705,2,0,P|124:243|184:208,1,101.250003862381,10|0,0:1|0:1,0:1:0:0:
396,43,170892,2,0,P|354:70|319:106,1,101.250003862381,2|8,0:1|0:0,0:0:0:0:
256,192,171080,12,8,171736,0:0:0:0:
309,151,171830,5,8,0:0:0:0:
381,115,171923,2,0,P|409:93|441:50,2,67.5,2|0|8,0:0|0:0|0:0,0:0:0:0:
287,237,172205,5,8,0:0:0:0:
366,221,172298,2,0,P|399:207|441:174,2,67.5,2|0|8,0:0|0:0|0:0,0:0:0:0:
344,311,172580,5,8,0:0:0:0:
424,315,172673,2,0,P|459:310|508:289,2,67.5,2|0|8,0:0|0:0|0:0,0:0:0:0:
252,324,172955,5,12,0:0:0:0:
176,296,173048,2,0,B|149:287|136:267|136:267|167:260|167:260|148:228|108:222,1,135,2|0,0:0|0:0,0:0:0:0:
108,350,173330,6,0,B|42:305|25:208|79:147|79:147|174:130|207:43|207:43|224:104|195:178|195:178|256:217|317:178|317:178|288:104|305:43|305:43|338:130|433:147|433:147|487:208|470:305|404:350,1,1215.00004634857,4|2,0:0|0:0,0:0:0:0:
256,270,174642,1,2,0:0:0:0:
133,218,174830,6,0,B|138:271|185:284|185:284|201:362|311:362|327:284|327:284|374:271|379:218|379:218|381:204|380:193|380:193|372:182|361:181|361:181|340:204|303:214|303:214|276:191|234:191|206:215|206:215|203:177|174:157|174:157|194:146|208:131|208:131|256:117|304:131|304:131|293:97|310:55|344:39|344:39|286:32|256:2|256:2|226:32|168:39|168:39|182:50|194:64|194:64|226:53|261:57,1,1215.00004634857,4|2,0:0|0:0,0:0:0:0:
376,109,176142,1,2,0:0:0:0:
417,44,176330,6,0,B|448:60|463:102|450:133|450:133|486:246|417:364|321:354|321:354|310:339|297:330|297:330|344:288|336:248|336:248|288:260|288:260|272:280|272:280|240:280|240:280|224:260|224:260|176:248|176:248|168:288|215:330|215:330|202:339|191:354|191:354|95:364|26:246|62:133,1,1113.75004248619,4|0,0:0|0:0,0:0:0:0:
68,90,177455,6,0,B|111:94|139:142|128:187|128:187|169:164|212:182|212:182|218:137|216:81,1,303.750011587143,8|0,0:0|0:0,0:0:0:0:
295,93,177830,2,0,B|294:137|300:182|300:182|343:164|384:187|384:187|373:142|401:94|443:91,1,303.750011587143,8|0,0:0|0:0,0:0:0:0:
458,163,178205,6,0,P|457:217|394:256,1,101.250003862381,2|0,0:0|0:0,0:0:0:0:
354,275,178392,2,0,P|353:226|384:187,1,101.250003862381,2|0,0:0|0:0,0:0:0:0:
414,322,178580,6,0,B|367:381|273:344|278:268|278:268|217:257|155:280,1,303.750011587143,8|0,0:0|0:0,0:0:0:0:
111,322,178955,2,0,B|158:381|252:344|247:268|247:268|308:257|370:280,1,303.750011587143,8|0,0:0|0:0,0:0:0:0:
414,322,179330,6,0,B|366:384|248:359|243:226|339:197|339:197|320:146|319:91|319:91|226:110|165:218|174:304|174:304|119:351|63:355|63:355|50:180|130:45|236:2,1,1215.00004634857,4|2,0:0|0:0,0:0:0:0:
326,0,180642,1,2,0:0:0:0:
395,75,180830,6,0,B|420:174|419:272|419:272|486:285|486:285|493:217|477:151|477:151|367:193|276:149|266:48|319:-38|412:-43|474:29,1,810.000030899049,4|0,0:0|0:0,0:0:0:0:
459,17,181955,1,2,0:0:0:0:
313,49,182142,1,2,0:0:0:0:
399,170,182330,5,4,0:3:0:0:
375,194,182423,1,4,0:3:0:0:
344,207,182517,1,4,0:3:0:0:
289,205,182611,1,8,0:3:0:0:
234,203,182705,2,0,P|186:218|158:249,1,67.5,2|0,0:0|0:0,0:0:0:0:
263,339,182892,5,8,0:3:0:0:
313,319,182986,1,4,0:3:0:0:
346,273,183080,2,0,P|349:234|330:176,2,67.5,8|0|4,0:3|0:0|0:3,0:0:0:0:
371,320,183361,1,8,0:3:0:0:
410,346,183455,1,2,0:0:0:0:
449,341,183548,1,4,0:3:0:0:
470,314,183642,1,4,0:3:0:0:
469,286,183736,1,4,0:3:0:0:
456,270,183830,5,8,0:3:0:0:
440,248,183923,1,8,0:3:0:0:
426,216,184017,1,8,0:3:0:0:
427,175,184111,1,8,0:3:0:0:
455,136,184205,1,2,0:0:0:0:
478,87,184298,1,8,0:3:0:0:
459,28,184392,1,8,0:3:0:0:
392,14,184486,1,8,0:3:0:0:
327,50,184580,5,8,0:3:0:0:
291,122,184673,1,8,0:3:0:0:
284,202,184767,1,2,0:0:0:0:
251,276,184861,1,8,0:3:0:0:
172,298,184955,1,2,0:0:0:0:
98,266,185048,1,8,0:3:0:0:
74,188,185142,1,8,0:3:0:0:
102,111,185236,1,8,0:3:0:0:
169,64,185330,6,0,B|256:21|343:64|343:64|254:175|290:261|323:257|323:257|368:253|381:168|299:134|299:134|232:108|121:168|103:230|103:230|161:244|211:218|211:218|228:328|312:349|375:320,1,1113.75004248619,4|0,0:0|0:0,0:0:0:0:
406,295,186455,6,0,P|430:244|426:174,1,101.250003862381,2|0,0:0|0:0,0:0:0:0:
507,198,186642,2,0,P|502:141|466:82,1,101.250003862381,2|0,0:0|0:0,0:0:0:0:
175,78,186830,6,0,P|291:80|397:122,1,202.500007724762,8|0,0:0|0:0,0:0:0:0:
122,168,187205,2,0,P|221:147|320:165,1,202.500007724762,8|0,0:0|0:0,0:0:0:0:
96,273,187580,2,0,P|184:225|284:231,1,202.500007724762,8|0,0:0|0:0,0:0:0:0:
115,362,187955,6,0,P|153:322|211:296,1,101.250003862381,2|0,0:0|0:0,0:0:0:0:
147,131,188142,2,0,P|162:183|156:247,1,101.250003862381,2|0,0:0|0:0,0:0:0:0:
330,275,188330,6,0,B|271:268|238:238|238:238|246:191|229:132,1,202.500007724762,8|0,0:0|0:0,0:0:0:0:
274,33,188705,2,0,B|311:112|317:194|317:194|330:200|351:202,1,202.500007724762,8|0,0:0|0:0,0:0:0:0:
407,292,189080,2,0,B|412:268|405:251|405:251|433:217|430:159|384:138|384:138|372:89,1,202.500007724762,8|0,0:0|0:0,0:0:0:0:
343,18,189455,6,0,P|305:98|209:63,1,202.500007724762,8|0,0:0|0:0,0:0:0:0:
274,33,189830,2,0,B|284:52|300:66|300:66|281:84|275:104|275:104|305:149|312:219,1,202.500007724762,8|0,0:0|0:0,0:0:0:0:
334,341,190205,6,0,P|350:321|360:298,1,50.6250019311906,2|0,0:0|0:0,0:0:0:0:
297,341,190392,2,0,P|314:321|325:299,1,50.6250019311906,2|0,0:0|0:0,0:0:0:0:
260,339,190580,2,0,P|278:320|290:298,1,50.6250019311906,2|0,0:0|0:0,0:0:0:0:
223,335,190767,2,0,P|241:317|255:296,1,50.6250019311906,2|0,0:0|0:0,0:0:0:0:
103,339,190955,2,0,P|86:360|78:383,1,50.6250019311906,4|0,0:0|0:0,0:0:0:0:
71,231,191142,2,0,P|60:206|44:187,1,50.6250019311906,2|0,0:0|0:0,0:0:0:0:
177,256,191330,6,0,B|222:268|286:240|290:191|290:191|261:195|261:195|239:184|239:184|215:188|215:188|193:177|193:177|170:182|170:182|136:58|276:12|394:56|399:173|349:237,1,675,4|0,0:0|0:0,0:0:0:0:
269,319,192455,2,0,P|191:334|113:309,1,135,8|0,0:0|0:0,0:0:0:0:
356,333,192830,5,8,0:3:0:0:
386,318,192923,1,8,0:3:0:0:
411,295,193017,1,8,0:3:0:0:
429,266,193111,1,8,0:3:0:0:
444,228,193205,1,8,0:3:0:0:
446,187,193298,1,8,0:3:0:0:
442,146,193392,1,8,0:3:0:0:
422,110,193486,1,8,0:3:0:0:
379,76,193580,5,8,0:3:0:0:
325,69,193673,1,8,0:3:0:0:
275,91,193767,1,8,0:3:0:0:
253,140,193861,1,8,0:3:0:0:
266,199,193955,1,8,0:3:0:0:
318,227,194048,1,8,0:3:0:0:
376,210,194142,1,8,0:3:0:0:
399,153,194236,1,8,0:3:0:0:
369,98,194330,6,0,L|281:122,1,67.5,4|0,0:0|0:0,0:0:0:0:
43,189,194705,1,8,0:0:0:0:
376,119,195080,6,0,L|286:138,1,67.5,4|0,0:0|0:0,0:0:0:0:
46,193,195455,1,8,0:0:0:0:
383,139,195830,6,0,L|292:153,1,67.5,4|0,0:0|0:0,0:0:0:0:
49,196,196205,1,8,0:0:0:0:
388,160,196580,6,0,L|297:169,1,67.5,4|0,0:0|0:0,0:0:0:0:
52,200,196955,6,0,L|119:192,1,67.5,8|0,0:0|0:0,0:0:0:0:
455,151,197330,5,4,0:0:0:0:
386,355,197705,1,8,0:0:0:0:
447,131,198080,5,4,0:0:0:0:
399,342,198455,1,8,0:0:0:0:
437,113,198830,5,4,0:0:0:0:
412,327,199205,1,8,0:0:0:0:
426,96,199580,5,4,0:0:0:0:
423,311,199955,2,0,L|424:228,1,67.5,8|0,0:0|0:0,0:0:0:0:
212,106,200330,6,0,P|172:84|209:110,1,135,4|0,0:0|0:0,0:0:0:0:
322,295,200705,2,0,P|343:334|317:297,1,135,4|0,0:0|0:0,0:0:0:0:
342,128,201080,2,0,P|374:96|345:131,1,135,4|0,0:0|0:0,0:0:0:0:
146,299,201455,2,0,P|113:330|142:295,1,135,4|0,0:0|0:0,0:0:0:0:
58,97,201830,6,0,P|25:65|54:100,1,135,4|0,0:0|0:0,0:0:0:0:
257,179,202205,2,0,P|298:161|259:183,1,135,4|0,0:0|0:0,0:0:0:0:
428,76,202580,2,0,P|427:30|423:76,1,135,4|0,0:0|0:0,0:0:0:0:
431,298,202955,2,0,P|413:339|435:300,1,135,4|0,0:0|0:0,0:0:0:0:
474,172,203330,6,0,P|465:226|451:258,1,90,4|0,0:0|0:0,0:0:0:0:
370,207,203580,1,2,0:3:0:0:
370,207,203705,2,0,P|331:233|274:248,1,90,2|0,0:3|0:3,0:3:0:0:
290,335,203955,1,2,0:3:0:0:
290,335,204080,2,0,P|230:338|179:315,1,90,2|0,0:3|0:3,0:3:0:0:
118,293,204330,1,2,0:3:0:0:
118,293,204455,2,0,P|151:253|192:238,1,90,2|0,0:3|0:3,0:3:0:0:
273,216,204705,5,4,0:3:0:0:
273,216,204767,1,4,0:3:0:0:
273,216,204830,1,4,0:3:0:0:
238,132,204955,1,8,0:3:0:0:
161,85,205080,1,8,0:3:0:0:
366,216,205205,5,4,0:3:0:0:
355,126,205330,1,8,0:3:0:0:
308,49,205455,1,8,0:3:0:0:
447,254,205580,5,4,0:0:0:0:
394,69,205705,1,4,0:0:0:0:
444,220,205830,1,4,0:0:0:0:
405,101,205955,1,4,0:0:0:0:
438,187,206080,1,4,0:0:0:0:
418,130,206205,1,4,0:0:0:0:
298,186,206330,5,4,0:0:0:0:
415,290,206580,2,0,P|381:271|302:254,1,90,2|8,0:0|0:0,0:0:0:0:
406,276,206955,2,0,P|370:260|289:252,1,90,2|8,0:0|0:0,0:0:0:0:
395,263,207330,2,0,P|357:251|276:251,1,90,2|8,0:0|0:0,0:0:0:0:
383,251,207705,2,0,P|344:243|264:251,1,90,2|8,0:0|0:0,0:0:0:0:
369,240,208080,2,0,P|330:236|251:253,1,90,2|8,0:0|0:0,0:0:0:0:
153,232,208455,1,2,0:0:0:0:
353,230,208580,6,0,P|314:230|237:255,2,90,10|0|0,0:0|0:0|0:0,0:0:0:0:
169,55,208955,2,0,P|192:88|215:161,1,90,10|0,0:0|0:0,0:0:0:0:
153,232,209205,1,2,0:0:0:0:
253,246,209330,1,4,0:0:0:0:
61,198,209580,6,0,P|109:205|157:236,1,90,2|8,0:0|0:0,0:0:0:0:
55,183,209955,2,0,P|102:194|146:230,1,90,2|8,0:0|0:0,0:0:0:0:
50,166,210330,2,0,P|95:182|136:223,1,90,2|8,0:0|0:0,0:0:0:0:
47,150,210705,2,0,P|90:171|126:215,1,90,2|8,0:0|0:0,0:0:0:0:
45,132,211080,2,0,P|86:157|117:205,1,90,2|8,0:0|0:0,0:0:0:0:
193,270,211455,1,2,0:0:0:0:
45,114,211580,6,0,P|83:144|109:194,2,90,10|0|0,0:0|0:0|0:0,0:0:0:0:
301,116,211955,2,0,P|259:130|222:155,1,90,10|0,0:0|0:0,0:0:0:0:
307,238,212205,1,2,0:0:0:0:
193,270,212330,1,4,0:0:0:0:
391,258,212580,6,0,P|344:233|282:233,1,90,2|8,0:0|0:0,0:0:0:0:
399,226,212955,2,0,P|347:214|287:230,1,90,2|8,0:0|0:0,0:0:0:0:
400,194,213330,2,0,P|346:195|293:226,1,90,2|8,0:0|0:0,0:0:0:0:
395,163,213705,2,0,P|344:178|300:222,1,90,2|8,0:0|0:0,0:0:0:0:
386,135,214080,2,0,P|340:163|309:216,1,90,2|8,0:0|0:0,0:0:0:0:
238,250,214455,1,2,0:0:0:0:
371,110,214580,6,0,P|334:148|318:208,2,90,10|0|0,0:0|0:0|0:0,0:0:0:0:
126,144,214955,2,0,P|171:142|215:152,1,90,8|0,0:0|0:0,0:0:0:0:
245,241,215205,1,2,0:0:0:0:
406,202,215330,6,0,P|367:180|323:175,1,90,10|0,0:0|0:0,0:0:0:0:
255,321,215580,2,0,P|242:277|246:233,2,90,2|8|0,0:0|0:0|0:0,0:0:0:0:
170,351,215955,1,2,0:0:0:0:
154,216,216080,2,0,P|135:256|104:288,2,90,10|0|0,0:0|0:0|0:0,0:0:0:0:
140,43,216455,2,0,P|163:81|171:126,1,90,10|0,0:0|0:0,0:0:0:0:
171,126,216705,1,2,0:0:0:0:
81,117,216830,5,10,0:0:0:0:
70,206,216955,1,2,0:0:0:0:
104,288,217080,1,10,0:0:0:0:
154,216,217205,1,10,0:0:0:0:
240,191,217330,1,2,0:0:0:0:
321,229,217455,1,10,0:0:0:0:
251,286,217580,2,0,P|295:319|346:319,1,90,10|0,0:0|0:0,0:0:0:0:
251,286,217830,1,6,0:0:0:0:
251,286,218330,6,0,P|295:319|346:319,1,90,4|0,0:0|0:0,0:0:0:0:
500,289,218580,2,0,P|462:312|418:321,1,90,2|8,0:0|0:0,0:0:0:0:
496,270,218955,2,0,P|460:297|417:309,1,90,2|8,0:0|0:0,0:0:0:0:
489,250,219330,2,0,P|456:280|415:297,1,90,2|8,0:0|0:0,0:0:0:0:
480,231,219705,2,0,P|450:264|411:286,1,90,2|8,0:0|0:0,0:0:0:0:
469,213,220080,2,0,P|443:249|406:275,1,90,2|8,0:0|0:0,0:0:0:0:
333,342,220455,1,2,0:0:0:0:
456,196,220580,6,0,P|434:235|400:264,2,90,10|0|0,0:0|0:0|0:0,0:0:0:0:
383,36,220955,2,0,P|418:63|442:101,1,90,10|0,0:0|0:0,0:0:0:0:
368,159,221205,1,2,0:0:0:0:
456,196,221330,1,4,0:0:0:0:
288,199,221580,6,0,P|325:174|368:159,1,90,2|8,0:0|0:0,0:0:0:0:
274,195,221955,2,0,P|313:174|357:163,1,90,2|8,0:0|0:0,0:0:0:0:
260,189,222330,2,0,P|301:172|346:166,1,90,2|8,0:0|0:0,0:0:0:0:
247,182,222705,2,0,P|290:170|335:168,1,90,2|8,0:0|0:0,0:0:0:0:
234,173,223080,2,0,P|278:165|323:168,1,90,2|8,0:0|0:0,0:0:0:0:
418,205,223455,1,2,0:0:0:0:
222,162,223580,6,0,P|266:159|311:167,2,90,10|0|0,0:0|0:0|0:0,0:0:0:0:
103,282,223955,2,0,P|116:239|142:203,1,90,10|0,0:0|0:0,0:0:0:0:
141,112,224205,1,2,0:0:0:0:
222,162,224330,1,4,0:0:0:0:
86,41,224580,6,0,P|113:65|142:117,1,90,2|8,0:0|0:0,0:0:0:0:
116,23,224955,2,0,P|135:53|150:110,1,90,2|8,0:0|0:0,0:0:0:0:
149,14,225330,2,0,P|160:48|159:107,1,90,2|8,0:0|0:0,0:0:0:0:
183,14,225705,2,0,P|185:50|168:107,1,90,2|8,0:0|0:0,0:0:0:0:
217,22,226080,2,0,P|209:57|179:108,1,90,2|8,0:0|0:0,0:0:0:0:
162,208,226455,1,2,0:0:0:0:
247,38,226580,6,0,P|230:70|188:111,2,90,10|0|0,0:0|0:0|0:0,0:0:0:0:
389,111,226955,2,0,P|357:80|336:41,1,90,10|0,0:0|0:0,0:0:0:0:
288,164,227205,1,2,0:0:0:0:
366,297,227330,2,0,P|375:254|363:210,1,90,10|0,0:0|0:0,0:0:0:0:
208,211,227580,2,0,P|241:244|286:257,2,90,2|8|0,0:0|0:0|0:0,0:0:0:0:
118,212,227955,1,2,0:0:0:0:
48,269,228080,2,0,P|48:315|25:356,2,90,10|0|0,0:0|0:0|0:0,0:0:0:0:
28,94,228455,2,0,P|48:134|48:179,1,90,10|0,0:0|0:0,0:0:0:0:
129,125,228705,5,2,0:3:0:0:
129,125,228767,1,2,0:3:0:0:
129,125,228830,1,2,0:3:0:0:
186,55,228955,1,2,0:3:0:0:
274,38,229080,1,2,0:3:0:0:
250,124,229205,1,2,0:3:0:0:
281,208,229330,1,2,0:3:0:0:
368,228,229455,1,2,0:3:0:0:
451,194,229580,6,0,P|427:156|386:140,1,90,4|0,0:0|0:0,0:0:0:0:
282,231,229830,6,0,P|343:237|388:211,1,89.0999997280884,4|0,0:0|0:0,0:0:0:0:
138,225,230330,1,8,0:0:0:0:
196,91,230580,5,8,0:0:0:0:
200,144,230705,1,4,0:0:0:0:
234,294,230955,5,8,0:0:0:0:
237,240,231080,1,8,0:0:0:0:
293,51,231330,5,8,0:0:0:0:
295,104,231455,1,4,0:0:0:0:
329,286,231705,5,8,0:0:0:0:
330,232,231830,1,8,0:0:0:0:
393,20,232080,5,8,0:0:0:0:
392,73,232205,1,4,0:0:0:0:
426,270,232455,5,8,0:0:0:0:
426,216,232580,2,0,L|426:291,1,53.9999983520508,4|0,0:0|0:0,0:0:0:0:
253,317,232830,5,8,0:0:0:0:
299,344,232955,2,0,L|234:306,1,53.9999983520508,4|0,0:0|0:0,0:0:0:0:
294,128,233205,5,8,0:0:0:0:
247,155,233330,2,0,L|311:117,1,53.9999983520508,4|0,0:0|0:0,0:0:0:0:
55,78,233580,5,8,0:0:0:0:
92,115,233705,1,4,0:0:0:0:
232,79,233955,5,8,0:0:0:0:
187,110,234080,1,8,0:0:0:0:
35,169,234330,5,8,0:0:0:0:
80,195,234455,1,4,0:0:0:0:
165,36,234705,5,8,0:0:0:0:
123,72,234830,1,8,0:0:0:0:
39,262,235080,5,8,0:0:0:0:
89,275,235205,1,4,0:0:0:0:
93,0,235455,5,8,0:0:0:0:
55,39,235580,2,0,L|95:-3,1,53.9999983520508,4|0,0:0|0:0,0:0:0:0:
260,76,235830,5,8,0:0:0:0:
245,23,235955,2,0,L|261:78,1,53.9999983520508,4|0,0:0|0:0,0:0:0:0:
99,182,236205,5,8,0:0:0:0:
152,195,236330,2,0,L|95:181,1,53.9999983520508,4|0,0:0|0:0,0:0:0:0:
372,122,236580,5,8,0:0:0:0:
335,158,236705,1,4,0:0:0:0:
151,274,236955,5,8,0:0:0:0:
203,258,237080,1,8,0:0:0:0:
425,140,237330,5,8,0:0:0:0:
398,184,237455,1,4,0:0:0:0:
238,328,237705,5,8,0:0:0:0:
275,288,237830,1,8,0:0:0:0:
479,147,238080,5,8,0:0:0:0:
464,196,238205,1,4,0:0:0:0:
342,333,238455,5,8,0:0:0:0:
354,280,238580,2,0,L|338:349,1,53.9999983520508,4|0,0:0|0:0,0:0:0:0:
490,168,238830,5,8,0:0:0:0:
438,184,238955,2,0,L|505:163,1,53.9999983520508,4|0,0:0|0:0,0:0:0:0:
266,114,239205,5,8,0:0:0:0:
305,151,239330,2,0,L|253:102,1,53.9999983520508,4|0,0:0|0:0,0:0:0:0:
111,154,239580,5,8,0:0:0:0:
98,204,239705,1,4,0:0:0:0:
381,138,239955,5,8,0:0:0:0:
354,93,240080,1,8,0:0:0:0:
170,197,240330,5,8,0:0:0:0:
176,249,240455,1,4,0:0:0:0:
442,91,240705,5,8,0:0:0:0:
457,142,240830,1,8,0:0:0:0:
243,212,241080,5,8,0:0:0:0:
262,262,241205,2,0,L|241:209,1,53.9999983520508,8|0,0:0|0:0,0:0:0:0:
112,152,241455,2,0,L|98:204,2,53.9999983520508,4|0|0,0:0|0:0|0:0,0:0:0:0:
174,195,241830,1,4,0:3:0:0:
184,120,241955,5,8,0:3:0:0:
244,165,242080,1,8,0:3:0:0:
316,143,242205,1,8,0:3:0:0:
333,69,242330,2,0,L|267:78,1,53.9999983520508,4|0,0:0|0:0,0:0:0:0:
369,320,242580,5,8,0:0:0:0:
410,260,242705,1,4,0:0:0:0:
103,268,242955,5,8,0:0:0:0:
150,323,243080,1,8,0:0:0:0:
222,24,243330,5,8,0:0:0:0:
156,56,243455,1,4,0:0:0:0:
426,202,243705,5,8,0:0:0:0:
412,131,243830,1,8,0:0:0:0:
201,353,244080,5,8,0:0:0:0:
274,359,244205,1,4,0:0:0:0:
114,98,244455,5,8,0:0:0:0:
89,166,244580,2,0,L|118:88,1,72,4|0,0:0|0:0,0:0:0:0:
255,237,244830,5,8,0:0:0:0:
241,167,244955,2,0,L|256:248,1,72,4|0,0:0|0:0,0:0:0:0:
403,96,245205,5,8,0:0:0:0:
416,167,245330,2,0,L|401:85,1,72,4|0,0:0|0:0,0:0:0:0:
128,79,245580,5,8,0:0:0:0:
187,37,245705,1,4,0:0:0:0:
179,344,245955,5,8,0:0:0:0:
124,297,246080,1,8,0:0:0:0:
423,225,246330,5,8,0:0:0:0:
391,291,246455,1,4,0:0:0:0:
245,21,246705,5,8,0:0:0:0:
316,35,246830,1,8,0:0:0:0:
94,246,247080,5,8,0:0:0:0:
88,173,247205,1,4,0:0:0:0:
350,334,247455,5,8,0:0:0:0:
281,358,247580,2,0,L|361:331,1,72,4|0,0:0|0:0,0:0:0:0:
179,196,247830,5,8,0:0:0:0:
249,209,247955,2,0,L|166:194,1,72,4|0,0:0|0:0,0:0:0:0:
347,47,248205,5,8,0:0:0:0:
276,60,248330,2,0,L|359:45,1,72,4|0,0:0|0:0,0:0:0:0:
410,288,248580,5,8,0:0:0:0:
378,223,248705,1,4,0:0:0:0:
82,139,248955,5,8,0:0:0:0:
130,193,249080,1,8,0:0:0:0:
437,198,249330,5,8,0:0:0:0:
377,157,249455,1,4,0:0:0:0:
79,233,249705,5,8,0:0:0:0:
147,256,249830,1,8,0:0:0:0:
416,106,250080,5,8,0:0:0:0:
343,101,250205,1,4,0:0:0:0:
123,315,250455,5,8,0:0:0:0:
194,301,250580,2,0,L|112:318,1,72,4|0,0:0|0:0,0:0:0:0:
263,94,250830,5,8,0:0:0:0:
240,163,250955,2,0,L|267:83,1,72,4|0,0:0|0:0,0:0:0:0:
388,329,251205,5,8,0:0:0:0:
340,274,251330,2,0,L|395:337,1,72,4|0,0:0|0:0,0:0:0:0:
147,284,251580,5,8,0:0:0:0:
208,246,251705,1,4,0:0:0:0:
381,188,251955,5,8,0:0:0:0:
450,209,252080,1,8,0:0:0:0:
164,160,252330,5,8,0:0:0:0:
92,163,252455,1,4,0:0:0:0:
435,77,252705,5,8,0:0:0:0:
364,92,252830,1,4,0:0:0:0:
136,37,253080,5,8,0:0:0:0:
200,69,253205,2,0,L|116:26,1,72,4|0,0:0|0:0,0:0:0:0:
130,122,253455,1,8,0:3:0:0:
198,174,253580,5,8,0:3:0:0:
267,122,253705,1,8,0:3:0:0:
352,135,253830,1,8,0:3:0:0:
403,204,253955,1,4,0:3:0:0:
392,289,254080,1,4,0:3:0:0:
328,347,254205,1,4,0:3:0:0:
181,300,254330,6,0,L|240:340,1,72,4|0,0:0|0:0,0:0:0:0:
109,251,254580,1,8,0:0:0:0:
260,200,254705,2,0,L|191:221,1,72,4|0,0:0|0:0,0:0:0:0:
109,251,254955,1,4,0:3:0:0:
160,320,255080,5,8,0:3:0:0:
239,353,255205,1,8,0:3:0:0:
324,344,255330,1,8,0:3:0:0:
395,295,255455,1,8,0:3:0:0:
434,218,255580,1,8,0:3:0:0:
431,131,255705,1,8,0:3:0:0:
324,15,255830,6,0,L|384:56,1,72,4|0,0:0|0:0,0:0:0:0:
266,79,256080,1,8,0:0:0:0:
162,20,256205,2,0,L|231:0,1,72,4|0,0:0|0:0,0:0:0:0:
266,79,256455,1,8,0:0:0:0:
209,144,256580,6,0,L|150:104,1,72,4|0,0:0|0:0,0:0:0:0:
266,79,256830,1,8,0:0:0:0:
370,139,256955,2,0,L|300:159,1,72,4|0,0:0|0:0,0:0:0:0:
266,79,257205,1,8,0:0:0:0:
373,91,257330,5,8,0:1:0:0:
287,156,257455,1,8,0:1:0:0:
394,168,257580,1,8,0:1:0:0:
308,233,257705,1,8,0:1:0:0:
415,245,257830,1,8,0:1:0:0:
329,310,257955,1,8,0:1:0:0:
436,322,258080,2,0,P|488:215|489:111,1,216,4|0,0:0|0:0,0:0:0:0:
186,360,258830,6,0,B|194:216|95:70,1,270,6|0,0:0|0:0,0:0:0:0:
326,24,259205,2,0,B|314:162|398:302,1,270
455,76,259580,2,0,B|319:122|170:53,1,270
57,308,259955,2,0,B|194:263|342:331,1,270,2|2,0:0|0:0,0:0:0:0:
122,22,260330,6,0,B|139:154|235:264,1,270,6|0,0:0|0:0,0:0:0:0:
390,362,260705,2,0,B|379:229|277:120,1,270
390,22,261080,2,0,B|378:158|277:264,1,270
122,362,261455,2,0,B|130:226|235:120,1,270,2|2,0:0|0:0,0:0:0:0:
296,268,261830,6,0,B|160:238|2:306,1,270,6|0,0:0|0:0,0:0:0:0:
215,116,262205,2,0,B|351:148|509:78,1,270
297,368,262580,2,0,B|310:231|417:114,1,270
215,16,262955,2,0,B|200:155|95:270,1,270,2|0,0:0|0:0,0:0:0:0:
412,278,263330,6,0,B|345:162|343:20,1,270,6|0,0:0|0:0,0:0:0:0:
308,332,263705,2,0,B|272:202|272:66,1,270,2|2,0:0|0:0,0:0:0:0:
52,276,264080,2,0,B|119:159|119:18,1,270,6|0,0:0|0:0,0:0:0:0:
157,330,264455,2,0,B|193:200|194:53,1,270,2|0,0:0|0:0,0:0:0:0:
330,329,264830,6,0,B|269:356|171:356,2,135,6|0|0,0:0|0:0|0:0,0:0:0:0:
253,241,265111,2,0,B|186:233|101:184,2,135,0|4|0,0:0|0:0|0:0,0:0:0:0:
220,133,265392,2,0,B|166:93|117:8,1,135
370,133,265580,6,0,B|423:93|463:30,1,135,4|0,0:0|0:0,0:0:0:0:
337,241,265767,2,0,B|403:233|468:197,2,135,0|0|6,0:0|0:0|0:0,0:0:0:0:
260,329,266048,2,0,B|321:356|397:355,2,135,0|2|0,0:0|0:0|0:0,0:0:0:0:
105,41,266330,6,0,P|144:286|434:317,1,540,6|8,0:0|0:0,0:0:0:0:
410,223,267080,6,0,B|328:113|165:86,1,270,2|0,0:0|0:0,0:0:0:0:
11,90,267455,2,0,B|88:201|245:236,1,270,10|2,0:0|0:0,0:0:0:0:
335,256,267830,5,4,0:3:0:0:
301,251,267923,1,4,0:3:0:0:
267,251,268017,1,4,0:3:0:0:
214,262,268111,1,8,0:3:0:0:
165,286,268205,2,0,P|138:305|107:342,1,67.5,2|0,0:0|0:0,0:0:0:0:
56,227,268392,5,8,0:3:0:0:
79,178,268486,1,4,0:3:0:0:
93,125,268580,2,0,P|95:85|86:37,2,67.5,8|0|4,0:3|0:0|0:3,0:0:0:0:
114,174,268861,1,8,0:3:0:0:
148,215,268955,2,0,P|184:239|230:249,1,67.5,2|0,0:0|0:0,0:0:0:0:
225,123,269142,5,4,0:3:0:0:
263,134,269236,1,8,0:3:0:0:
303,170,269330,1,4,0:3:0:0:
341,181,269424,1,8,0:3:0:0:
392,167,269517,1,4,0:3:0:0:
430,178,269611,1,8,0:3:0:0:
464,220,269705,2,0,P|472:255|466:309,1,67.5,2|0,0:0|0:0,0:0:0:0:
333,331,269892,5,8,0:3:0:0:
279,323,269986,1,8,0:3:0:0:
225,314,270080,2,0,P|188:306|155:293,1,67.5,8|0,0:3|0:0,0:0:0:0:
171,194,270267,2,0,P|137:179|104:158,1,67.5,2|0,0:0|0:0,0:0:0:0:
149,64,270455,2,0,P|120:39|93:12,2,67.5,2|0|0,0:0|0:0|0:0,0:0:0:0:
193,94,270736,1,0,0:0:0:0:
243,96,270830,6,0,B|344:103|445:62|445:62|377:124|352:234|352:234|312:228|272:231|272:231|276:205|284:178|284:178|212:181|169:164|159:91|159:91|119:83|67:62|67:62|63:172|127:238|183:250|183:250|145:260|112:300,1,1113.75004248619,4|0,0:0|0:0,0:0:0:0:
195,323,271955,6,0,P|144:358|85:367,1,101.250003862381,2|0,0:0|0:0,0:0:0:0:
274,296,272142,2,0,P|276:345|248:388,1,101.250003862381,2|0,0:0|0:0,0:0:0:0:
212,240,272330,6,0,P|325:226|350:326,1,202.500007724762,8|0,0:0|0:0,0:0:0:0:
204,154,272705,2,0,P|294:131|419:175,1,202.500007724762,8|0,0:0|0:0,0:0:0:0:
184,80,273080,2,0,P|278:33|394:17,1,202.500007724762,8|0,0:0|0:0,0:0:0:0:
106,111,273455,6,0,P|109:45|144:7,1,101.250003862381,2|0,0:0|0:0,0:0:0:0:
176,163,273642,2,0,P|141:191|69:187,1,101.250003862381,2|0,0:0|0:0,0:0:0:0:
221,229,273830,6,0,P|255:140|182:78,1,202.500007724762,8|0,0:0|0:0,0:0:0:0:
312,281,274205,2,0,B|285:271|285:271|235:334|150:302|145:240,1,202.500007724762,8|0,0:0|0:0,0:0:0:0:
334,148,274580,2,0,B|337:177|329:208|329:208|381:224|407:279|368:333,1,202.500007724762,8|0,0:0|0:0,0:0:0:0:
408,154,274955,6,0,B|408:95|359:64|311:78|311:78|287:44|259:29,1,202.500007724762,8|0,0:0|0:0,0:0:0:0:
154,154,275330,2,0,B|214:132|245:111|245:111|281:159|333:147,1,202.500007724762,8|0,0:0|0:0,0:0:0:0:
139,48,275705,6,0,P|106:50|74:58,1,50.6250019311906,2|0,0:0|0:0,0:0:0:0:
132,78,275892,2,0,P|100:88|71:104,1,50.6250019311906,2|0,0:0|0:0,0:0:0:0:
129,108,276080,2,0,P|101:126|77:149,1,50.6250019311906,2|0,0:0|0:0,0:0:0:0:
134,141,276267,2,0,P|112:165|95:194,1,50.6250019311906,2|0,0:0|0:0,0:0:0:0:
202,209,276455,2,0,P|170:219|141:235,1,50.6250019311906,4|0,0:0|0:0,0:0:0:0:
225,304,276642,2,0,P|192:297|159:296,1,50.6250019311906,2|0,0:0|0:0,0:0:0:0:
298,365,276830,6,0,B|436:342|503:153|419:42|419:42|318:123|331:325|408:382|466:356|466:356|472:259|324:255|192:286,1,1113.75004248619,4|0,0:0|0:0,0:0:0:0:
189,361,277955,2,0,B|220:252|210:165|210:165|141:148|139:62,1,303.750011587143,8|0,0:0|0:0,0:0:0:0:
223,86,278330,2,0,B|217:196|79:229|-11:98|67:-8|177:22|177:22|94:88|146:228|323:215|347:66|263:17|263:17|395:29|448:127,1,1012.50003862381,4|2,0:0|0:0,0:0:0:0:
455,154,279361,1,2,0:0:0:0:
461,204,279455,6,0,P|413:309|310:364,1,202.500007724762,8|0,0:0|0:0,0:0:0:0:
79,202,279830,2,0,P|127:307|230:362,1,202.500007724762,8|4,0:0|0:3,0:0:0:0:
246,364,280111,1,4,0:3:0:0:
296,363,280205,1,4,0:3:0:0:
237,234,280392,5,4,0:3:0:0:
262,166,280486,1,4,0:3:0:0:
309,221,280580,1,4,0:3:0:0:
451,292,280767,5,2,0:0:0:0:
451,231,280861,1,2,0:0:0:0:
438,171,280955,2,0,P|374:86|277:35,1,202.500007724762,8|0,0:0|0:0,0:0:0:0:
85,323,281330,2,0,P|59:239|70:116,1,202.500007724762,8|8,0:0|0:3,0:0:0:0:
95,72,281611,1,8,0:3:0:0:
141,32,281705,1,8,0:3:0:0:
213,220,281892,5,8,0:3:0:0:
293,263,281986,1,8,0:3:0:0:
290,171,282080,1,8,0:3:0:0:
393,47,282267,5,2,0:0:0:0:
447,92,282361,1,2,0:0:0:0:
472,158,282455,2,0,P|454:286|372:360,1,202.500007724762,8|0,0:0|0:0,0:0:0:0:
109,277,282830,1,4,0:0:0:0:
343,216,283017,5,8,0:0:0:0:
343,216,283111,1,8,0:0:0:0:
343,216,283205,1,8,0:0:0:0:
162,53,283392,5,8,0:0:0:0:
162,53,283486,1,8,0:0:0:0:
162,53,283580,2,0,P|169:101|166:177,1,101.250003862381,10|0,0:1|0:1,0:1:0:0:
124,318,283767,2,0,P|129:269|152:197,1,101.250003862381,2|0,0:1|0:1,0:1:0:0:
284,59,283955,2,0,P|266:104|225:168,1,101.250003862381,10|0,0:1|0:1,0:1:0:0:
33,241,284142,2,0,P|61:202|117:150,1,101.250003862381,2|0,0:1|0:1,0:1:0:0:
388,122,284330,2,0,P|349:152|282:187,1,101.250003862381,10|0,0:1|0:1,0:1:0:0:
246,285,284517,5,8,0:0:0:0:
246,285,284611,1,8,0:0:0:0:
246,285,284705,1,8,0:0:0:0:
154,60,284892,5,8,0:0:0:0:
154,60,284986,1,8,0:0:0:0:
154,60,285080,2,0,B|229:58|277:75|383:71,1,202.500007724762,2|0,0:1|0:1,0:1:0:0:
175,142,285455,6,0,B|223:140|269:153|322:151,1,135,2|0,0:1|0:1,0:1:0:0:
174,221,285830,6,0,B|215:216|258:231|307:228|307:228|259:264|231:271|189:294|189:294|227:288|261:301|328:296,1,405,2|0,0:1|0:0,0:1:0:0:
392,318,287330,5,8,0:3:0:0:
424,259,287423,1,8,0:3:0:0:
437,192,287517,1,8,0:3:0:0:
443,124,287611,1,8,0:3:0:0:
421,59,287705,5,4,0:3:0:0:
401,85,287798,1,4,0:3:0:0:
388,116,287892,5,8,0:3:0:0:
320,119,287986,1,8,0:3:0:0:
252,110,288080,1,8,0:3:0:0:
188,88,288173,1,8,0:3:0:0:
135,44,288267,5,4,0:3:0:0:
101,102,288361,1,4,0:3:0:0:
88,168,288455,1,4,0:3:0:0:
86,221,288548,1,4,0:3:0:0:
92,261,288642,1,4,0:3:0:0:
100,285,288736,1,4,0:3:0:0:
109,305,288830,6,0,P|72:322|45:349,4,67.5,2|0|8|0|0,0:0|0:0|0:0|0:0|0:0,0:0:0:0:
156,332,289271,1,0,0:0:0:0:
209,340,289359,1,8,0:0:0:0:
262,336,289447,1,0,0:0:0:0:
315,326,289535,1,0,0:0:0:0:
351,285,289624,1,0,0:0:0:0:
364,232,289712,1,10,0:0:0:0:
347,180,289800,1,0,0:0:0:0:
309,141,289888,1,2,0:0:0:0:
297,87,289977,1,0,0:0:0:0:
319,37,290065,1,10,0:0:0:0:
368,16,290153,1,0,0:0:0:0:
417,36,290241,6,0,P|394:58|354:73,1,67.5,2|0,0:0|0:0,0:0:0:0:
436,117,290418,2,0,P|401:136|358:144,1,67.5,8|0,0:0|0:0,0:0:0:0:
424,206,290594,2,0,P|379:216|339:211,1,67.5,0|0,0:0|0:0,0:0:0:0:
367,289,290771,2,0,P|321:280|299:257,1,67.5,8|0,0:0|0:0,0:0:0:0:
282,342,290947,2,0,P|248:313|235:273,1,67.5,0|0,0:0|0:0,0:0:0:0:
184,358,291124,2,0,P|170:324|167:283,1,67.5,10|0,0:0|0:0,0:0:0:0:
81,355,291300,5,2,0:0:0:0:
89,288,291388,1,0,0:0:0:0:
123,229,291477,2,0,P|157:177|62:13,1,270,10|8,0:0|0:0,0:0:0:0:
27,68,291918,1,0,0:0:0:0:
30,135,292006,2,0,P|59:135|114:98,1,67.5,0|0,0:0|0:0,0:0:0:0:
25,233,292182,2,0,P|53:225|96:175,1,67.5,8|0,0:0|0:0,0:0:0:0:
13,328,292359,5,0,0:0:0:0:
64,371,292447,1,0,0:0:0:0:
131,371,292535,2,0,P|176:360|217:322,1,67.5,10|0,0:0|0:0,0:0:0:0:
311,371,292712,2,0,P|278:337|225:321,1,67.5,2|0,0:0|0:0,0:0:0:0:
221,215,292888,6,0,P|208:259|220:313,3,67.5,10|0|0|0,0:0|0:0|0:0|0:0,0:0:0:0:
288,260,293241,2,0,P|333:248|374:211,3,67.5,10|0|0|0,0:0|0:0|0:0|0:0,0:0:0:0:
238,140,293594,6,0,P|267:157|289:183,1,67.5,10|0,0:0|0:0,0:0:0:0:
418,198,293771,2,0,P|397:172|367:160,1,67.5,2|0,0:0|0:0,0:0:0:0:
260,60,293947,2,0,P|290:75|317:96,1,67.5,10|0,0:0|0:0,0:0:0:0:
457,115,294124,2,0,P|429:96|398:85,1,67.5,2|0,0:0|0:0,0:0:0:0:
397,84,294300,1,10,0:0:0:0:
397,84,294388,1,8,0:0:0:0:
321,53,294477,6,0,P|319:86|325:120,2,67.5,6|0|8,0:0|0:0|0:0,0:0:0:0:
347,48,294741,1,0,0:0:0:0:
374,51,294830,1,0,0:0:0:0:
399,60,294918,1,0,0:0:0:0:
420,76,295006,1,8,0:0:0:0:
389,326,295182,5,0,0:0:0:0:
403,295,295271,1,0,0:0:0:0:
409,261,295359,1,10,0:0:0:0:
400,116,295535,1,2,0:0:0:0:
342,228,295712,1,10,0:0:0:0:
308,28,295888,1,2,0:0:0:0:
469,222,296065,1,8,0:0:0:0:
486,21,296241,1,0,0:0:0:0:
413,317,296418,1,8,0:0:0:0:
400,116,296594,5,0,0:0:0:0:
413,146,296682,1,0,0:0:0:0:
422,178,296771,1,10,0:0:0:0:
427,211,296859,1,0,0:0:0:0:
427,244,296947,1,2,0:0:0:0:
296,138,297124,1,10,0:0:0:0:
401,351,297300,1,2,0:0:0:0:
503,139,297477,1,8,0:0:0:0:
413,242,297653,5,0,0:0:0:0:
378,236,297741,1,0,0:0:0:0:
373,202,297830,1,8,0:0:0:0:
404,187,297918,1,0,0:0:0:0:
427,211,298006,5,0,0:0:0:0:
450,235,298094,1,0,0:0:0:0:
481,220,298182,1,10,0:0:0:0:
476,186,298271,1,0,0:0:0:0:
441,180,298358,5,2,0:0:0:0:
436,146,298447,1,0,0:0:0:0:
467,131,298535,5,10,0:0:0:0:
453,99,298624,1,0,0:0:0:0:
479,76,298711,5,2,0:0:0:0:
457,48,298800,1,0,0:0:0:0:
426,34,298888,2,0,P|389:26|353:41,1,67.5,8|0,0:0|0:0,0:0:0:0:
458,136,299065,5,0,0:0:0:0:
429,114,299154,1,0,0:0:0:0:
395,109,299241,2,0,P|357:110|326:134,1,67.5,10|0,0:0|0:0,0:0:0:0:
453,199,299417,5,0,0:0:0:0:
419,185,299506,1,0,0:0:0:0:
385,189,299594,2,0,P|348:200|325:231,1,67.5,10|0,0:0|0:0,0:0:0:0:
464,261,299770,5,0,0:0:0:0:
428,256,299859,1,0,0:0:0:0:
396,269,299947,2,0,P|364:289|349:325,1,67.5,10|8,0:0|0:0,0:0:0:0:
220,352,300124,5,6,0:0:0:0:
189,316,300212,1,0,0:0:0:0:
188,268,300300,1,8,0:0:0:0:
217,231,300388,1,0,0:0:0:0:
212,183,300477,1,0,0:0:0:0:
177,150,300565,1,0,0:0:0:0:
172,103,300653,1,8,0:0:0:0:
198,63,300741,1,0,0:0:0:0:
183,17,300830,1,0,0:0:0:0:
138,2,300918,1,0,0:0:0:0:
91,5,301006,1,10,0:0:0:0:
45,15,301094,1,0,0:0:0:0:
4,39,301182,5,2,0:0:0:0:
10,86,301271,1,0,0:0:0:0:
35,125,301359,1,10,0:0:0:0:
77,144,301447,1,0,0:0:0:0:
123,148,301535,1,2,0:0:0:0:
117,202,301624,1,0,0:0:0:0:
94,251,301712,1,8,0:0:0:0:
57,290,301800,1,0,0:0:0:0:
16,325,301888,5,0,0:0:0:0:
45,353,301977,1,0,0:0:0:0:
77,362,302065,1,8,0:0:0:0:
103,359,302153,1,0,0:0:0:0:
122,352,302241,2,0,P|110:315|80:286,1,67.5
136,346,302418,2,0,P|133:307|112:271,1,67.5,10|0,0:0|0:0,0:0:0:0:
148,343,302594,2,0,P|156:304|144:264,1,67.5,2|0,0:0|0:0,0:0:0:0:
160,346,302771,2,0,P|177:311|176:269,1,67.5,10|0,0:0|0:0,0:0:0:0:
174,351,302947,6,0,P|214:277|207:210,1,135,6|8,0:0|0:0,0:0:0:0:
196,190,303212,1,0,0:0:0:0:
156,181,303300,1,0,0:0:0:0:
123,205,303388,1,0,0:0:0:0:
84,219,303477,1,8,0:0:0:0:
44,210,303565,1,0,0:0:0:0:
16,180,303653,2,0,P|6:147|8:114,1,67.5
30,141,303830,2,0,P|32:93|54:56,1,67.5,10|0,0:0|0:0,0:0:0:0:
199,120,304006,5,2,0:0:0:0:
85,52,304182,1,10,0:0:0:0:
160,274,304359,1,2,0:0:0:0:
126,116,304535,1,8,0:0:0:0:
97,369,304712,5,0,0:0:0:0:
62,327,304800,1,0,0:0:0:0:
53,273,304888,1,10,0:0:0:0:
63,219,304977,1,0,0:0:0:0:
49,166,305065,2,0,P|88:207|100:304,1,135,0|10,0:0|0:0,0:0:0:0:
123,332,305330,1,0,0:0:0:0:
140,281,305418,2,0,P|135:214|102:127,1,135,0|10,0:0|0:0,0:0:0:0:
303,337,305771,5,2,0:0:0:0:
355,349,305859,1,0,0:0:0:0:
408,349,305947,1,8,0:0:0:0:
460,338,306035,1,0,0:0:0:0:
487,291,306124,1,0,0:0:0:0:
445,256,306212,1,0,0:0:0:0:
391,248,306300,1,8,0:0:0:0:
338,258,306388,1,0,0:0:0:0:
287,237,306477,5,0,0:0:0:0:
316,192,306565,1,0,0:0:0:0:
366,173,306653,1,10,0:0:0:0:
419,170,306741,1,0,0:0:0:0:
468,146,306830,1,2,0:0:0:0:
434,104,306918,1,0,0:0:0:0:
381,93,307006,1,10,0:0:0:0:
327,99,307094,1,0,0:0:0:0:
273,95,307182,5,2,0:0:0:0:
304,34,307271,1,0,0:0:0:0:
370,23,307359,1,8,0:0:0:0:
425,61,307447,1,0,0:0:0:0:
430,128,307535,1,0,0:0:0:0:
380,174,307624,1,0,0:0:0:0:
314,188,307712,1,8,0:0:0:0:
247,178,307800,1,0,0:0:0:0:
187,208,307888,5,0,0:0:0:0:
180,275,307977,1,0,0:0:0:0:
228,321,308065,1,10,0:0:0:0:
294,311,308153,1,0,0:0:0:0:
329,253,308241,1,2,0:0:0:0:
388,219,308330,1,0,0:0:0:0:
450,243,308418,1,10,0:0:0:0:
462,309,308506,1,0,0:0:0:0:
416,358,308594,5,6,0:0:0:0:
346,332,308682,1,0,0:0:0:0:
271,322,308771,1,8,0:0:0:0:
197,333,308859,1,0,0:0:0:0:
125,312,308947,1,0,0:0:0:0:
93,244,309035,1,0,0:0:0:0:
102,169,309124,1,8,0:0:0:0:
157,120,309212,1,0,0:0:0:0:
160,46,309300,1,0,0:0:0:0:
95,10,309388,1,0,0:0:0:0:
25,37,309477,1,10,0:0:0:0:
15,110,309565,1,0,0:0:0:0:
66,163,309653,2,0,B|117:177|149:145|221:157,1,135,2|10,0:0|0:0,0:0:0:0:
297,57,310006,5,6,0:0:0:0:
351,17,310094,1,0,0:0:0:0:
418,16,310182,1,8,0:0:0:0:
476,51,310271,1,0,0:0:0:0:
494,115,310359,1,0,0:0:0:0:
479,180,310447,1,0,0:0:0:0:
423,217,310535,1,10,0:0:0:0:
355,225,310624,1,0,0:0:0:0:
304,269,310712,5,0,0:0:0:0:
333,336,310800,1,0,0:0:0:0:
406,326,310888,1,10,0:0:0:0:
417,251,310977,1,0,0:0:0:0:
372,192,311065,1,0,0:0:0:0:
303,164,311153,1,0,0:0:0:0:
228,161,311241,1,10,0:0:0:0:
154,174,311330,1,0,0:0:0:0:
90,209,311418,6,0,L|137:258,23,67.5,6|0|0|0|4|0|0|0|4|0|0|0|4|0|0|0|4|0|0|0|4|0|0|0,0:0|0:0|0:0|0:0|0:0|0:0|0:0|0:0|0:0|0:0|0:0|0:0|0:0|0:0|0:0|0:0|0:0|0:0|0:0|0:0|0:0|0:0|0:0|0:0,0:0:0:0:
167,183,313668,1,6,0:0:0:0:
118,119,313761,2,0,L|200:98,1,67.5,2|0,0:0|0:0,0:0:0:0:
246,173,313949,2,0,L|227:237,1,67.5,2|4,0:0|0:0,0:0:0:0:
276,302,314136,2,0,L|257:366,2,67.5,2|0|0,0:0|0:0|0:0,0:0:0:0:
328,238,314418,5,6,0:0:0:0:
377,301,314511,2,0,L|395:365,1,67.5,2|0,0:0|0:0,0:0:0:0:
463,320,314699,2,0,L|493:239,1,67.5,2|4,0:0|0:0,0:0:0:0:
409,221,314886,2,0,L|439:140,2,67.5,2|0|0,0:0|0:0|0:0,0:0:0:0:
328,238,315168,2,0,L|358:319,2,67.5,6|0|0,0:0|0:0|0:0,0:0:0:0:
289,166,315449,2,0,L|356:164,1,67.5,2|4,0:0|0:0,0:0:0:0:
321,90,315636,2,0,L|381:18,2,67.5,2|0|0,0:0|0:0|0:0,0:0:0:0:
239,100,315918,5,6,0:0:0:0:
158,92,316011,2,0,L|90:85,1,67.5,2|0,0:0|0:0,0:0:0:0:
112,164,316199,2,0,L|81:235,2,67.5,2|4|0,0:0|0:0|0:0,0:0:0:0:
201,265,316480,1,2,0:0:0:0:
332,295,316668,1,6,0:0:0:0:
281,215,316855,1,2,0:0:0:0:
416,217,317043,1,6,0:0:0:0:
185,152,317230,1,2,0:0:0:0:
311,103,317418,5,6,0:0:0:0:
391,105,317511,2,0,L|464:109,1,67.5,2|0,0:0|0:0,0:0:0:0:
421,181,317699,2,0,L|482:220,1,67.5,2|4,0:0|0:0,0:0:0:0:
409,261,317886,2,0,L|442:326,2,67.5,2|0|0,0:0|0:0|0:0,0:0:0:0:
345,209,318168,2,0,L|341:136,2,67.5,6|0|0,0:0|0:0|0:0,0:0:0:0:
334,289,318449,2,0,L|330:362,1,67.5,2|4,0:0|0:0,0:0:0:0:
255,323,318636,2,0,L|215:384,2,67.5,2|0|0,0:0|0:0|0:0,0:0:0:0:
266,241,318918,5,6,0:0:0:0:
193,274,319011,1,2,0:0:0:0:
111,273,319105,1,2,0:0:0:0:
54,214,319199,2,0,L|22:129,2,67.5,2|4|0,0:0|0:0|0:0,0:0:0:0:
133,196,319480,2,0,L|181:118,1,67.5,2|0,0:0|0:0,0:0:0:0:
212,209,319668,2,0,L|185:296,1,67.5,6|0,0:0|0:0,0:0:0:0:
132,219,319855,2,0,L|134:127,1,67.5,2|0,0:0|0:0,0:0:0:0:
207,191,320043,2,0,L|228:280,1,67.5,6|0,0:0|0:0,0:0:0:0:
143,237,320230,2,0,L|99:156,1,67.5,2|0,0:0|0:0,0:0:0:0:
194,175,320418,5,6,0:0:0:0:
273,186,320511,2,0,L|302:120,1,67.5,2|0,0:0|0:0,0:0:0:0:
353,205,320699,2,0,L|398:148,1,67.5,2|4,0:0|0:0,0:0:0:0:
420,252,320886,2,0,L|478:209,2,67.5,2|0|0,0:0|0:0|0:0,0:0:0:0:
378,323,321168,2,0,L|449:333,2,67.5,6|0|0,0:0|0:0|0:0,0:0:0:0:
296,321,321449,2,0,L|222:357,1,67.5,2|4,0:0|0:0,0:0:0:0:
233,269,321636,2,0,L|152:239,2,67.5,2|0|0,0:0|0:0|0:0,0:0:0:0:
310,241,321918,5,6,0:0:0:0:
346,169,322011,2,0,L|351:80,1,67.5,2|0,0:0|0:0,0:0:0:0:
423,138,322199,2,0,L|450:53,2,67.5,2|4|0,0:0|0:0|0:0,0:0:0:0:
417,219,322480,1,2,0:0:0:0:
350,336,322668,1,6,0:0:0:0:
262,233,322855,1,2,0:0:0:0:
127,216,323043,5,8,0:3:0:0:
176,170,323136,1,8,0:3:0:0:
234,136,323230,1,8,0:3:0:0:
298,115,323324,1,8,0:3:0:0:
364,99,323418,2,0,P|397:82|452:71,2,80.9999975280763,6|0|8,0:0|0:0|0:0,0:0:0:0:
293,221,323793,5,0,0:0:0:0:
273,298,323886,1,0,0:0:0:0:
291,376,323980,1,8,0:0:0:0:
228,156,324168,1,0,0:0:0:0:
172,212,324261,1,0,0:0:0:0:
149,290,324355,1,8,0:0:0:0:
184,75,324543,6,0,P|145:78|104:95,2,80.9999975280763,2|0|8,0:0|0:0|0:0,0:0:0:0:
264,85,324824,1,0,0:0:0:0:
345,86,324918,2,0,P|375:63|403:27,2,80.9999975280763,2|0|8,0:0|0:0|0:0,0:0:0:0:
216,150,325293,1,0,0:0:0:0:
270,209,325386,1,0,0:0:0:0:
348,229,325480,1,8,0:0:0:0:
192,230,325668,6,0,P|204:266|237:309,2,80.9999975280763,2|0|8,0:0|0:0|0:0,0:0:0:0:
109,193,325949,2,0,P|102:230|109:283,1,80.9999975280763,2|0,0:0|0:0,0:0:0:0:
64,114,326136,2,0,P|39:142|19:192,2,80.9999975280763,2|8|0,0:0|0:0|0:0,0:0:0:0:
174,52,326418,2,0,P|139:36|85:30,2,80.9999975280763,4|0|8,0:0|0:0|0:0,0:0:0:0:
192,230,326793,5,0,0:0:0:0:
265,198,326886,1,0,0:0:0:0:
306,127,326980,1,8,0:0:0:0:
305,346,327168,1,0,0:0:0:0:
353,282,327261,1,0,0:0:0:0:
352,199,327355,1,8,0:0:0:0:
419,333,327543,6,0,P|453:341|503:336,2,80.9999975280763,2|0|8,0:0|0:0|0:0,0:0:0:0:
353,282,327824,1,0,0:0:0:0:
281,242,327918,2,0,P|239:238|189:248,2,80.9999975280763,2|0|8,0:0|0:0|0:0,0:0:0:0:
429,255,328293,5,0,0:0:0:0:
411,176,328386,1,0,0:0:0:0:
360,112,328480,1,8,0:0:0:0:
281,53,328574,1,2,0:0:0:0:
184,38,328668,2,0,P|135:38|88:53,2,80.9999975280763,0|2|8,0:0|0:0|0:0,0:0:0:0:
155,140,328949,2,0,P|98:157|64:179,1,80.9999975280763,2|0,0:0|0:0,0:0:0:0:
150,247,329136,2,0,P|114:265|83:295,2,80.9999975280763,2|8|0,0:0|0:0|0:0,0:0:0:0:
259,231,329418,2,0,P|292:235|344:265,2,80.9999975280763,4|0|8,0:0|0:0|0:0,0:0:0:0:
135,356,329793,5,0,0:0:0:0:
66,314,329886,1,0,0:0:0:0:
22,245,329980,1,8,0:0:0:0:
156,243,330168,1,0,0:0:0:0:
117,172,330261,1,0,0:0:0:0:
113,90,330355,1,8,0:0:0:0:
232,162,330543,5,2,0:0:0:0:
233,81,330636,2,0,P|249:37|279:0,1,80.9999975280763,0|8,0:0|0:0,0:0:0:0:
337,130,330824,1,0,0:0:0:0:
378,60,330917,2,0,P|413:30|459:13,2,80.9999975280763,2|0|8,0:0|0:0|0:0,0:0:0:0:
466,165,331293,1,0,0:0:0:0:
498,238,331386,1,0,0:0:0:0:
500,319,331480,1,8,0:0:0:0:
392,192,331668,5,2,0:0:0:0:
337,130,331761,2,0,P|309:108|267:90,1,80.9999975280763,0|8,0:0|0:0,0:0:0:0:
260,186,331949,2,0,P|228:172|182:165,1,80.9999975280763,2|0,0:0|0:0,0:0:0:0:
200,260,332136,2,0,P|165:254|119:260,2,80.9999975280763,2|8|0,0:0|0:0|0:0,0:0:0:0:
213,352,332418,2,0,P|178:367|114:368,2,80.9999975280763,4|0|0,0:0|0:0|0:0,0:0:0:0:
346,349,332793,5,8,0:0:0:0:
327,270,332886,1,0,0:0:0:0:
275,207,332980,1,0,0:0:0:0:
488,280,333168,1,8,0:0:0:0:
432,221,333261,1,0,0:0:0:0:
355,192,333355,1,0,0:0:0:0:
512,119,333543,5,10,0:0:0:0:
434,95,333636,2,0,P|387:97|342:114,1,80.9999975280763
442,207,333824,1,0,0:0:0:0:
360,204,333918,2,0,P|325:214|272:252,2,80.9999975280763,10|0|0,0:0|0:0|0:0,0:0:0:0:
505,257,334293,5,8,0:0:0:0:
450,316,334386,1,0,0:0:0:0:
375,349,334480,1,0,0:0:0:0:
279,368,334574,1,2,0:0:0:0:
182,355,334668,2,0,P|124:346|82:320,1,80.9999975280763,8|10,0:0|0:0,0:0:0:0:
215,266,334855,5,8,0:0:0:0:
124,230,334949,2,0,P|78:193|54:149,1,80.9999975280763,6|0,0:0|0:0,0:0:0:0:
184,155,335136,1,10,0:0:0:0:
122,76,335230,2,0,P|100:21|102:-28,1,80.9999975280763,8|8,0:0|0:0,0:0:0:0:
281,159,335418,5,6,0:0:0:0:
343,80,335511,2,0,P|364:25|362:-24,1,80.9999975280763,8|8,0:0|0:0,0:0:0:0:
268,255,335699,1,6,0:0:0:0:
361,217,335793,2,0,P|406:180|430:136,1,80.9999975280763,0|8,0:0|0:0,0:0:0:0:
207,333,335980,5,10,0:0:0:0:
306,346,336074,1,8,0:0:0:0:
400,312,336168,2,0,P|447:277|473:235,2,80.9999975280763,6|8|8,0:0|0:0|0:0,0:0:0:0:
118,277,336449,2,0,P|70:311|44:353,2,80.9999975280763,6|0|8,0:0|0:0|0:0,0:0:0:0:
327,249,336730,2,0,P|381:269|417:304,1,80.9999975280763,10|8,0:0|0:0,0:0:0:0:
144,181,336918,2,0,P|85:186|42:210,2,80.9999975280763,6|8|8,0:0|0:0|0:0,0:0:0:0:
358,99,337199,6,0,P|415:89|463:101,2,80.9999975280763,6|0|8,0:0|0:0|0:0,0:0:0:0:
168,50,337480,2,8,P|114:25|65:24,1,80.9999975280763,10|8,0:0|0:0,0:0:0:0:
353,258,337668,1,4,0:0:0:0:
