osu file format v14

[General]
AudioFilename: audio.mp3
AudioLeadIn: 0
PreviewTime: 34735
Countdown: 1
SampleSet: Normal
StackLeniency: 0.7
Mode: 0
LetterboxInBreaks: 0
WidescreenStoryboard: 0

[Editor]
Bookmarks: 305944,307355,308767
DistanceSpacing: 0.8
BeatDivisor: 4
GridSize: 8
TimelineZoom: 5.099998

[Metadata]
Title:Snuffel
TitleUnicode:Snuffel
Artist:Equilibrium
ArtistUnicode:Equilibrium
Creator:TheLeviathan
Version:Blut und Wein
Source:
Tags:
BeatmapID:1206335
BeatmapSetID:568999

[Difficulty]
HPDrainRate:5.5
CircleSize:4
OverallDifficulty:8
ApproachRate:9.4
SliderMultiplier:1.4
SliderTickRate:1

[Events]
//Background and Video events
0,0,"Fantasy-wallpapers-HD.jpg",0,0
//Break Periods
//Storyboard Layer 0 (Background)
//Storyboard Layer 1 (Fail)
//Storyboard Layer 2 (Pass)
//Storyboard Layer 3 (Foreground)
//Storyboard Sound Samples

[TimingPoints]
199,375,4,1,1,55,1,0
1547,375,4,1,1,55,1,0
1735,375,4,1,1,55,1,0
24985,-66.6666666666667,4,1,1,55,0,0
25453,-100,4,1,1,55,0,0
27985,-66.6666666666667,4,1,1,55,0,0
28735,-100,4,1,1,55,0,0
35860,-71.4285714285714,4,1,1,55,0,0
36235,-100,4,1,1,55,0,0
47485,-71.4285714285714,4,1,1,55,0,0
86485,-50,4,1,1,55,0,1
86766,-50,4,1,1,15,0,1
86860,-50,4,1,1,55,0,1
87141,-50,4,1,1,15,0,1
87235,-50,4,1,1,55,0,1
87516,-50,4,1,1,15,0,1
87610,-50,4,1,1,55,0,1
88266,-50,4,1,1,15,0,1
88360,-50,4,1,1,55,0,1
88641,-50,4,1,1,15,0,1
88735,-50,4,1,1,55,0,1
89016,-50,4,1,1,15,0,1
89110,-50,4,1,1,55,0,1
89766,-50,4,1,1,15,0,1
89860,-50,4,1,1,55,0,1
90141,-50,4,1,1,15,0,1
90235,-50,4,1,1,55,0,1
90516,-50,4,1,1,15,0,1
90610,-50,4,1,1,55,0,1
91266,-50,4,1,1,15,0,1
91360,-50,4,1,1,55,0,1
92016,-50,4,1,1,15,0,1
92110,-50,4,1,1,55,0,1
95485,-71.4285714285714,4,1,1,55,0,1
96047,-100,4,1,1,55,0,1
96141,-71.4285714285714,4,1,1,55,0,1
96797,-100,4,1,1,55,0,1
96891,-71.4285714285714,4,1,1,55,0,1
97547,-100,4,1,1,55,0,1
97641,-71.4285714285714,4,1,1,55,0,1
98485,-50,4,1,1,55,0,1
98766,-50,4,1,1,15,0,1
98860,-50,4,1,1,55,0,1
99141,-50,4,1,1,15,0,1
99235,-50,4,1,1,55,0,1
99516,-50,4,1,1,15,0,1
99610,-50,4,1,1,55,0,1
108797,-71.4285714285714,4,1,1,55,0,0
173297,-71.4285714285714,4,1,1,15,0,0
173485,-50,4,1,1,55,0,1
173766,-50,4,1,1,15,0,1
173860,-50,4,1,1,55,0,1
174141,-50,4,1,1,15,0,1
174235,-50,4,1,1,55,0,1
174516,-50,4,1,1,15,0,1
174610,-50,4,1,1,55,0,1
175266,-50,4,1,1,15,0,1
175360,-50,4,1,1,55,0,1
175641,-50,4,1,1,15,0,1
175735,-50,4,1,1,55,0,1
176016,-50,4,1,1,15,0,1
176110,-50,4,1,1,55,0,1
176766,-50,4,1,1,15,0,1
176860,-50,4,1,1,55,0,1
177141,-50,4,1,1,15,0,1
177235,-50,4,1,1,55,0,1
177516,-50,4,1,1,15,0,1
177610,-50,4,1,1,55,0,1
178266,-50,4,1,1,15,0,1
178360,-50,4,1,1,55,0,1
179016,-50,4,1,1,15,0,1
179110,-50,4,1,1,55,0,1
182485,-71.4285714285714,4,1,1,55,0,1
183047,-100,4,1,1,55,0,1
183141,-71.4285714285714,4,1,1,55,0,1
183797,-100,4,1,1,55,0,1
183891,-71.4285714285714,4,1,1,55,0,1
184547,-100,4,1,1,55,0,1
184641,-71.4285714285714,4,1,1,55,0,1
185485,-50,4,1,1,55,0,1
185766,-50,4,1,1,15,0,1
185860,-50,4,1,1,55,0,1
186141,-50,4,1,1,15,0,1
186235,-50,4,1,1,55,0,1
186516,-50,4,1,1,15,0,1
186610,-50,4,1,1,55,0,1
192985,-71.4285714285714,4,1,1,55,0,1
194485,-71.4285714285714,4,1,1,55,0,0
206485,-71.4285714285714,4,1,1,55,0,0
206672,-71.4285714285714,4,1,1,25,0,0
206860,-71.4285714285714,4,1,1,55,0,0
207047,-71.4285714285714,4,1,1,25,0,0
207235,-71.4285714285714,4,1,1,55,0,0
207422,-71.4285714285714,4,1,1,25,0,0
207610,-71.4285714285714,4,1,1,55,0,0
207797,-71.4285714285714,4,1,1,25,0,0
207985,-71.4285714285714,4,1,1,55,0,0
208172,-71.4285714285714,4,1,1,25,0,0
208360,-71.4285714285714,4,1,1,55,0,0
208547,-71.4285714285714,4,1,1,25,0,0
208641,-71.4285714285714,4,1,1,55,0,0
209016,-71.4285714285714,4,1,1,25,0,0
209110,-71.4285714285714,4,1,1,55,0,0
209391,-71.4285714285714,4,1,1,25,0,0
209485,-71.4285714285714,4,1,1,55,0,0
209672,-71.4285714285714,4,1,1,25,0,0
209860,-71.4285714285714,4,1,1,55,0,0
210047,-71.4285714285714,4,1,1,25,0,0
210235,-71.4285714285714,4,1,1,55,0,0
210422,-71.4285714285714,4,1,1,25,0,0
210610,-71.4285714285714,4,1,1,55,0,0
210797,-71.4285714285714,4,1,1,25,0,0
210985,-71.4285714285714,4,1,1,55,0,0
211172,-71.4285714285714,4,1,1,25,0,0
211360,-71.4285714285714,4,1,1,55,0,0
211547,-71.4285714285714,4,1,1,25,0,0
211641,-71.4285714285714,4,1,1,55,0,0
212016,-71.4285714285714,4,1,1,25,0,0
212110,-71.4285714285714,4,1,1,55,0,0
212297,-71.4285714285714,4,1,1,25,0,0
212391,-71.4285714285714,4,1,1,55,0,0
212672,-71.4285714285714,4,1,1,25,0,0
212860,-71.4285714285714,4,1,1,55,0,0
213047,-71.4285714285714,4,1,1,25,0,0
213235,-71.4285714285714,4,1,1,55,0,0
213422,-71.4285714285714,4,1,1,25,0,0
213610,-71.4285714285714,4,1,1,55,0,0
213797,-71.4285714285714,4,1,1,25,0,0
213985,-71.4285714285714,4,1,1,55,0,0
214172,-71.4285714285714,4,1,1,25,0,0
214360,-71.4285714285714,4,1,1,55,0,0
214547,-71.4285714285714,4,1,1,25,0,0
214641,-71.4285714285714,4,1,1,55,0,0
215016,-71.4285714285714,4,1,1,25,0,0
215110,-71.4285714285714,4,1,1,55,0,0
215391,-71.4285714285714,4,1,1,25,0,0
215485,-71.4285714285714,4,1,1,55,0,0
215766,-71.4285714285714,4,1,1,25,0,0
215860,-71.4285714285714,4,1,1,55,0,0
216235,-71.4285714285714,4,1,1,55,0,0
216516,-71.4285714285714,4,1,1,25,0,0
216610,-71.4285714285714,4,1,1,55,0,0
218360,-71.4285714285714,4,1,1,25,0,0
218485,-71.4285714285714,4,1,1,55,0,0
218672,-71.4285714285714,4,1,1,25,0,0
218860,-71.4285714285714,4,1,1,55,0,0
219047,-71.4285714285714,4,1,1,25,0,0
219235,-71.4285714285714,4,1,1,55,0,0
219422,-71.4285714285714,4,1,1,25,0,0
219610,-71.4285714285714,4,1,1,55,0,0
219797,-71.4285714285714,4,1,1,25,0,0
219985,-71.4285714285714,4,1,1,55,0,0
220172,-71.4285714285714,4,1,1,25,0,0
220360,-71.4285714285714,4,1,1,55,0,0
220547,-71.4285714285714,4,1,1,25,0,0
220641,-71.4285714285714,4,1,1,55,0,0
221016,-71.4285714285714,4,1,1,25,0,0
221110,-71.4285714285714,4,1,1,55,0,0
221391,-71.4285714285714,4,1,1,25,0,0
221485,-71.4285714285714,4,1,1,55,0,0
221672,-71.4285714285714,4,1,1,25,0,0
221860,-71.4285714285714,4,1,1,55,0,0
222047,-71.4285714285714,4,1,1,25,0,0
222235,-71.4285714285714,4,1,1,55,0,0
222422,-71.4285714285714,4,1,1,25,0,0
222610,-71.4285714285714,4,1,1,55,0,0
222797,-71.4285714285714,4,1,1,25,0,0
222985,-71.4285714285714,4,1,1,55,0,0
223172,-71.4285714285714,4,1,1,25,0,0
223360,-71.4285714285714,4,1,1,55,0,0
223547,-71.4285714285714,4,1,1,25,0,0
223641,-71.4285714285714,4,1,1,55,0,0
224016,-71.4285714285714,4,1,1,25,0,0
224110,-71.4285714285714,4,1,1,55,0,0
224297,-71.4285714285714,4,1,1,25,0,0
224485,-71.4285714285714,4,1,1,55,0,0
224672,-71.4285714285714,4,1,1,25,0,0
224860,-71.4285714285714,4,1,1,55,0,0
225047,-71.4285714285714,4,1,1,25,0,0
225235,-71.4285714285714,4,1,1,55,0,0
225422,-71.4285714285714,4,1,1,25,0,0
225610,-71.4285714285714,4,1,1,55,0,0
225797,-71.4285714285714,4,1,1,25,0,0
225985,-71.4285714285714,4,1,1,55,0,0
226172,-71.4285714285714,4,1,1,25,0,0
226360,-71.4285714285714,4,1,1,55,0,0
226547,-71.4285714285714,4,1,1,25,0,0
226641,-71.4285714285714,4,1,1,55,0,0
227016,-71.4285714285714,4,1,1,25,0,0
227110,-71.4285714285714,4,1,1,55,0,0
227297,-71.4285714285714,4,1,1,25,0,0
227485,-71.4285714285714,4,1,1,55,0,0
227766,-71.4285714285714,4,1,1,25,0,0
227860,-71.4285714285714,4,1,1,55,0,0
228516,-71.4285714285714,4,1,1,25,0,0
228610,-71.4285714285714,4,1,1,55,0,0
230297,-71.4285714285714,4,1,1,15,0,0
230485,-71.4285714285714,4,1,1,55,0,0
243735,-71.4285714285714,4,1,1,5,0,0
243860,-71.4285714285714,4,1,1,55,0,0
245985,-71.4285714285714,4,1,1,5,0,0
246110,-71.4285714285714,4,1,1,55,0,0
247485,-71.4285714285714,4,1,1,5,0,0
247610,-71.4285714285714,4,1,1,55,0,0
248985,-71.4285714285714,4,1,1,5,0,0
249110,-71.4285714285714,4,1,1,55,0,0
250485,-71.4285714285714,4,1,1,5,0,0
250610,-71.4285714285714,4,1,1,55,0,0
258985,-50,4,1,1,55,0,1
259266,-50,4,1,1,25,0,1
259360,-50,4,1,1,55,0,1
259641,-50,4,1,1,25,0,1
259735,-50,4,1,1,55,0,1
260016,-50,4,1,1,25,0,1
260110,-50,4,1,1,55,0,1
260766,-50,4,1,1,25,0,1
260860,-50,4,1,1,55,0,1
261141,-50,4,1,1,25,0,1
261235,-50,4,1,1,55,0,1
261516,-50,4,1,1,25,0,1
261610,-50,4,1,1,55,0,1
261985,-50,4,1,1,55,0,1
262266,-50,4,1,1,25,0,1
262360,-50,4,1,1,55,0,1
262641,-50,4,1,1,25,0,1
262735,-50,4,1,1,55,0,1
267985,-71.4285714285714,4,1,1,55,0,1
268547,-100,4,1,1,55,0,1
268641,-71.4285714285714,4,1,1,55,0,1
269297,-100,4,1,1,55,0,1
269391,-71.4285714285714,4,1,1,55,0,1
270047,-100,4,1,1,55,0,1
270141,-71.4285714285714,4,1,1,55,0,1
270797,-100,4,1,1,55,0,1
270891,-71.4285714285714,4,1,1,55,0,1
270985,-50,4,1,1,55,0,1
271266,-50,4,1,1,25,0,1
271360,-50,4,1,1,55,0,1
271641,-50,4,1,1,25,0,1
271735,-50,4,1,1,55,0,1
272016,-50,4,1,1,25,0,1
272110,-50,4,1,1,55,0,1
274266,-50,4,1,1,25,0,1
274360,-50,4,1,1,55,0,1
282985,-71.4285714285714,4,1,1,55,0,1
285516,-71.4285714285714,4,1,1,15,0,1
285610,-71.4285714285714,4,1,1,55,0,1
285985,-71.4285714285714,4,1,1,55,0,0
288997,352.941176470588,4,1,1,55,1,0
288997,-83.3333333333333,4,1,1,55,0,0
311585,375,4,1,1,100,1,0
311585,-100,4,1,1,55,0,0
315991,-83.3333333333333,4,1,1,25,0,0
316085,-83.3333333333333,4,1,1,55,0,0
322085,-83.3333333333333,4,1,1,25,0,0
322178,-83.3333333333333,4,1,1,55,0,0
323585,-71.4285714285714,4,1,1,55,0,0

[Colours]
Combo1 : 223,168,0
Combo2 : 0,155,0
Combo3 : 187,99,11
Combo4 : 226,72,6

[HitObjects]
272,176,199,5,0,0:0:0:0:
256,192,574,1,0,0:0:0:0:
240,208,949,1,0,0:0:0:0:
224,224,1324,1,0,0:0:0:0:
320,320,1547,5,0,0:0:0:0:
320,320,1641,1,0,0:0:0:0:
320,320,1735,5,0,0:0:0:0:
334,303,2110,1,0,0:0:0:0:
350,290,2485,1,0,0:0:0:0:
367,278,2860,1,0,0:0:0:0:
424,160,3047,5,0,0:0:0:0:
424,160,3141,1,0,0:0:0:0:
424,160,3235,5,0,0:0:0:0:
405,144,3610,1,0,0:0:0:0:
390,130,3985,1,0,0:0:0:0:
371,114,4360,1,0,0:0:0:0:
209,103,4547,5,0,0:0:0:0:
209,103,4641,1,0,0:0:0:0:
209,103,4735,5,0,0:0:0:0:
222,119,5110,1,0,0:0:0:0:
236,138,5485,1,0,0:0:0:0:
250,157,5860,1,0,0:0:0:0:
373,237,6047,5,0,0:0:0:0:
373,237,6141,1,0,0:0:0:0:
373,237,6235,5,0,0:0:0:0:
352,241,6610,1,0,0:0:0:0:
327,245,6985,1,0,0:0:0:0:
303,249,7360,1,0,0:0:0:0:
196,332,7547,5,0,0:0:0:0:
196,332,7641,1,0,0:0:0:0:
196,332,7735,5,0,0:0:0:0:
167,294,8110,1,0,0:0:0:0:
147,250,8485,1,0,0:0:0:0:
132,206,8860,1,0,0:0:0:0:
124,61,9047,5,0,0:0:0:0:
124,61,9141,1,0,0:0:0:0:
124,61,9235,5,0,0:0:0:0:
198,87,9610,1,0,0:0:0:0:
265,129,9985,1,0,0:0:0:0:
317,187,10360,1,0,0:0:0:0:
401,301,10547,5,0,0:0:0:0:
401,301,10641,1,0,0:0:0:0:
401,301,10735,5,0,0:0:0:0:
373,301,10828,1,0,0:0:0:0:
344,301,10922,1,0,0:0:0:0:
316,296,11016,1,0,0:0:0:0:
291,298,11110,5,0,0:0:0:0:
266,310,11203,1,0,0:0:0:0:
238,315,11297,2,0,L|193:319,1,35
88,271,11485,6,0,L|143:273,1,46.6666666666667
215,182,11672,2,0,L|163:186,1,46.6666666666667
39,129,11860,2,0,L|107:126,2,46.6666666666667
161,37,12235,5,0,0:0:0:0:
188,37,12328,1,0,0:0:0:0:
215,44,12422,1,0,0:0:0:0:
241,53,12516,1,0,0:0:0:0:
269,57,12610,5,0,0:0:0:0:
296,50,12703,1,0,0:0:0:0:
323,46,12797,2,0,L|364:41,1,35
467,114,12985,6,0,L|416:124,1,46.6666666666667
305,191,13172,2,0,L|373:189,1,46.6666666666667
441,268,13360,2,0,L|485:250,2,46.6666666666667
391,291,13672,1,0,0:0:0:0:
339,312,13734,5,0,0:0:0:0:
236,337,14110,1,0,0:0:0:0:
136,285,14485,1,0,0:0:0:0:
88,183,14860,1,0,0:0:0:0:
183,208,15047,5,0,0:0:0:0:
183,208,15141,1,0,0:0:0:0:
183,208,15235,5,0,0:0:0:0:
294,196,15610,1,0,0:0:0:0:
390,138,15985,1,0,0:0:0:0:
439,37,16360,1,0,0:0:0:0:
337,53,16547,5,0,0:0:0:0:
337,53,16641,1,0,0:0:0:0:
337,53,16735,5,0,0:0:0:0:
242,136,17110,1,0,0:0:0:0:
122,174,17485,1,0,0:0:0:0:
2,149,17860,1,0,0:0:0:0:
86,59,18047,5,0,0:0:0:0:
86,59,18141,1,0,0:0:0:0:
86,59,18235,5,0,0:0:0:0:
224,80,18610,1,0,0:0:0:0:
347,145,18985,1,0,0:0:0:0:
449,240,19360,1,0,0:0:0:0:
301,235,19547,5,0,0:0:0:0:
301,235,19641,1,0,0:0:0:0:
301,235,19735,5,0,0:0:0:0:
136,267,20110,1,0,0:0:0:0:
294,322,20485,1,0,0:0:0:0:
115,366,20860,1,0,0:0:0:0:
242,248,21047,5,0,0:0:0:0:
242,248,21141,1,0,0:0:0:0:
242,248,21235,5,0,0:0:0:0:
416,197,21610,1,0,0:0:0:0:
232,132,21985,1,0,0:0:0:0:
436,101,22360,2,0,L|361:115,1,70
201,137,22735,1,0,0:0:0:0:
61,206,22922,5,0,0:0:0:0:
78,209,23016,1,0,0:0:0:0:
95,212,23110,1,0,0:0:0:0:
111,216,23203,1,0,0:0:0:0:
128,219,23297,1,0,0:0:0:0:
144,223,23391,1,0,0:0:0:0:
160,227,23485,1,0,0:0:0:0:
176,231,23578,1,0,0:0:0:0:
192,236,23672,1,0,0:0:0:0:
208,240,23766,1,0,0:0:0:0:
224,246,23860,1,0,0:0:0:0:
240,250,23953,6,0,B|263:297|263:297|293:314,1,70
308,320,24235,1,0,0:0:0:0:
319,310,24328,5,0,0:0:0:0:
332,299,24422,1,0,0:0:0:0:
345,288,24516,1,0,0:0:0:0:
359,277,24610,1,0,0:0:0:0:
371,265,24703,1,0,0:0:0:0:
383,253,24797,1,0,0:0:0:0:
396,241,24891,1,0,0:0:0:0:
415,228,24985,6,0,L|471:224,2,52.5000020027161
402,156,25266,2,0,L|346:142,1,52.5000020027161
453,99,25453,6,0,B|421:70|421:70|365:51,1,70
278,46,25735,1,0,0:0:0:0:
261,51,25828,5,0,0:0:0:0:
244,57,25922,1,0,0:0:0:0:
227,63,26016,1,0,0:0:0:0:
210,69,26110,1,0,0:0:0:0:
193,75,26203,1,0,0:0:0:0:
183,89,26297,1,0,0:0:0:0:
174,104,26391,1,0,0:0:0:0:
166,119,26485,1,0,0:0:0:0:
156,133,26578,1,0,0:0:0:0:
146,147,26672,1,0,0:0:0:0:
137,162,26766,1,0,0:0:0:0:
129,173,26860,1,0,0:0:0:0:
124,186,26953,6,0,B|151:224|151:224|165:263,1,70
182,276,27235,5,0,0:0:0:0:
196,265,27328,1,0,0:0:0:0:
210,255,27422,1,0,0:0:0:0:
223,244,27516,1,0,0:0:0:0:
227,226,27610,1,0,0:0:0:0:
228,208,27703,1,0,0:0:0:0:
228,190,27797,1,0,0:0:0:0:
227,172,27891,1,0,0:0:0:0:
226,152,27985,6,0,L|197:101,2,52.5000020027161
313,169,28266,2,0,L|295:119,1,52.5000020027161
279,27,28453,2,0,B|336:45|336:45|395:86,1,105.000004005432
456,139,28735,6,0,L|431:185,2,35
483,244,29110,2,0,L|445:269,2,35
477,343,29485,2,0,L|430:351,2,35
282,240,29860,5,0,0:0:0:0:
282,240,29953,1,0,0:0:0:0:
282,240,30047,1,0,0:0:0:0:
129,329,30235,6,0,L|164:323,2,35
72,243,30610,2,0,L|107:247,2,35
37,108,30985,6,0,L|96:144,1,70
201,151,31266,2,0,L|157:101,1,35
220,18,31453,2,0,L|283:77,1,70
443,47,31735,6,0,L|451:10,2,35
325,122,32110,2,0,L|282:80,2,35
329,265,32485,2,0,L|288:287,2,35
135,319,32860,5,0,0:0:0:0:
184,310,32953,1,0,0:0:0:0:
234,301,33047,2,0,L|281:288,1,35
444,212,33235,5,0,0:0:0:0:
395,197,33328,1,0,0:0:0:0:
347,180,33422,1,0,0:0:0:0:
300,160,33516,1,0,0:0:0:0:
255,141,33610,2,0,L|210:124,1,35
79,91,33797,5,0,0:0:0:0:
79,91,33891,1,0,0:0:0:0:
79,91,33985,2,0,L|112:143,2,35
51,206,34266,1,0,0:0:0:0:
51,206,34360,2,0,L|18:150,2,35
174,44,34735,5,0,0:0:0:0:
215,45,34828,1,0,0:0:0:0:
248,69,34922,1,0,0:0:0:0:
269,104,35016,1,0,0:0:0:0:
269,146,35110,1,0,0:0:0:0:
252,184,35203,1,0,0:0:0:0:
242,224,35297,1,0,0:0:0:0:
246,265,35391,1,0,0:0:0:0:
270,299,35485,5,0,0:0:0:0:
306,319,35578,1,0,0:0:0:0:
347,323,35672,1,0,0:0:0:0:
384,303,35766,1,0,0:0:0:0:
410,272,35860,6,0,B|407:221|407:221|377:196,1,48.9999985046387
326,155,36047,2,0,L|271:248,1,97.9999970092774
152,314,36328,5,0,0:0:0:0:
151,275,36422,1,0,0:0:0:0:
163,234,36516,1,0,0:0:0:0:
192,204,36610,1,0,0:0:0:0:
202,163,36703,1,0,0:0:0:0:
188,123,36797,1,0,0:0:0:0:
155,96,36891,1,0,0:0:0:0:
119,73,36985,6,0,L|55:40,1,70
196,39,37266,2,0,L|227:65,1,35
352,96,37453,2,0,L|288:48,1,70
148,43,37735,5,0,0:0:0:0:
119,73,37828,1,0,0:0:0:0:
110,114,37922,1,0,0:0:0:0:
110,156,38016,1,0,0:0:0:0:
123,196,38110,1,0,0:0:0:0:
150,227,38203,1,0,0:0:0:0:
187,245,38297,1,0,0:0:0:0:
228,253,38391,1,0,0:0:0:0:
269,247,38485,5,0,0:0:0:0:
305,227,38578,1,0,0:0:0:0:
334,196,38672,1,0,0:0:0:0:
350,157,38766,1,0,0:0:0:0:
331,128,38860,6,0,P|310:127|269:123,1,35
219,58,39047,2,0,L|146:111,1,70
123,253,39328,5,0,0:0:0:0:
154,281,39422,1,0,0:0:0:0:
191,300,39516,1,0,0:0:0:0:
232,306,39610,1,0,0:0:0:0:
273,307,39703,1,0,0:0:0:0:
314,298,39797,1,0,0:0:0:0:
350,277,39891,1,0,0:0:0:0:
368,241,39985,6,0,L|318:185,1,70
350,113,40266,2,0,L|383:150,1,35
468,183,40453,2,0,B|464:137|464:137|456:98,1,70
328,32,40735,5,0,0:0:0:0:
312,70,40828,1,0,0:0:0:0:
295,108,40922,1,0,0:0:0:0:
276,145,41016,1,0,0:0:0:0:
260,184,41110,1,0,0:0:0:0:
244,222,41203,1,0,0:0:0:0:
227,260,41297,1,0,0:0:0:0:
211,299,41391,1,0,0:0:0:0:
192,261,41485,5,0,0:0:0:0:
176,223,41578,1,0,0:0:0:0:
159,185,41672,1,0,0:0:0:0:
140,148,41766,1,0,0:0:0:0:
124,108,41860,6,0,L|114:169,1,35
22,164,42047,2,0,L|41:258,1,70
116,295,42328,5,0,0:0:0:0:
137,258,42422,1,0,0:0:0:0:
157,221,42516,1,0,0:0:0:0:
179,185,42610,1,0,0:0:0:0:
200,149,42703,1,0,0:0:0:0:
220,112,42797,1,0,0:0:0:0:
241,75,42891,1,0,0:0:0:0:
261,38,42985,6,0,L|301:105,1,70
385,125,43266,2,0,L|381:81,1,35
488,48,43453,2,0,L|477:127,1,70
451,273,43735,5,0,0:0:0:0:
414,293,43828,1,0,0:0:0:0:
372,296,43922,1,0,0:0:0:0:
337,271,44016,1,0,0:0:0:0:
324,230,44110,1,0,0:0:0:0:
327,188,44203,1,0,0:0:0:0:
353,155,44297,1,0,0:0:0:0:
394,145,44391,1,0,0:0:0:0:
435,154,44485,5,0,0:0:0:0:
396,170,44578,1,0,0:0:0:0:
353,155,44672,1,0,0:0:0:0:
327,121,44766,1,0,0:0:0:0:
317,79,44860,2,0,L|316:34,2,35
266,216,45235,5,0,0:0:0:0:
238,247,45328,1,0,0:0:0:0:
199,264,45422,1,0,0:0:0:0:
157,260,45516,1,0,0:0:0:0:
126,230,45610,1,0,0:0:0:0:
116,189,45703,1,0,0:0:0:0:
119,147,45797,1,0,0:0:0:0:
139,110,45891,1,0,0:0:0:0:
173,85,45985,6,0,L|205:60,1,35
270,130,46172,2,0,L|309:98,1,35
467,158,46360,2,0,L|434:168,2,35
362,291,46735,6,0,L|328:319,1,35
254,245,46922,1,0,0:0:0:0:
254,245,47016,2,0,L|215:257,1,35
95,176,47203,2,0,L|33:176,2,35
189,69,47485,6,0,L|224:105,1,48.9999985046387
363,241,47672,2,0,L|328:205,1,48.9999985046387
166,84,47860,2,0,L|207:112,1,48.9999985046387
370,219,48047,2,0,L|329:191,1,48.9999985046387
241,51,48235,6,0,L|260:98,1,48.9999985046387
335,278,48422,2,0,L|316:231,1,48.9999985046387
215,56,48610,2,0,L|242:99,1,48.9999985046387
350,261,48797,2,0,L|323:218,1,48.9999985046387
98,151,48985,6,0,L|148:152,1,48.9999985046387
391,153,49172,2,0,L|340:151,1,48.9999985046387
93,181,49360,2,0,L|142:173,1,48.9999985046387
381,127,49547,2,0,L|331:135,1,48.9999985046387
97,232,49735,6,0,L|171:183,1,48.9999985046387
356,71,49922,1,0,0:0:0:0:
356,71,50016,1,0,0:0:0:0:
356,71,50110,2,0,L|401:43,2,48.9999985046387
182,96,50485,6,0,L|142:56,1,48.9999985046387
301,213,50672,2,0,L|341:253,1,48.9999985046387
201,83,50860,2,0,L|170:36,1,48.9999985046387
296,221,51047,2,0,L|327:268,1,48.9999985046387
149,132,51235,6,0,L|97:111,1,48.9999985046387
304,194,51422,2,0,L|357:215,1,48.9999985046387
163,113,51610,2,0,L|115:82,1,48.9999985046387
304,203,51797,2,0,L|351:233,1,48.9999985046387
270,60,51985,6,0,L|269:3,1,48.9999985046387
273,250,52172,2,0,L|273:306,1,48.9999985046387
292,64,52360,2,0,L|301:8,1,48.9999985046387
263,252,52547,2,0,L|253:307,1,48.9999985046387
372,49,52735,6,0,L|352:105,1,48.9999985046387
196,166,52922,2,0,L|263:156,1,48.9999985046387
380,240,53110,2,0,L|340:190,2,48.9999985046387
256,88,53485,5,0,0:0:0:0:
168,280,53672,1,0,0:0:0:0:
352,168,53860,1,0,0:0:0:0:
128,168,54047,1,0,0:0:0:0:
336,88,54235,5,0,0:0:0:0:
336,88,54328,1,0,0:0:0:0:
336,88,54422,2,0,L|352:144,1,48.9999985046387
408,320,54610,2,0,L|410:262,1,48.9999985046387
424,80,54797,1,0,0:0:0:0:
288,275,54985,5,0,0:0:0:0:
468,189,55172,1,0,0:0:0:0:
232,184,55360,1,0,0:0:0:0:
455,273,55547,1,0,0:0:0:0:
302,102,55735,5,0,0:0:0:0:
493,119,55922,1,0,0:0:0:0:
287,97,56110,1,0,0:0:0:0:
511,121,56297,1,0,0:0:0:0:
313,279,56485,5,0,0:0:0:0:
313,279,56578,1,0,0:0:0:0:
313,279,56672,2,0,P|288:237|266:202,1,48.9999985046387
207,108,56860,1,0,0:0:0:0:
199,302,57047,1,0,0:0:0:0:
311,115,57235,5,0,0:0:0:0:
112,193,57422,1,0,0:0:0:0:
351,210,57610,1,0,0:0:0:0:
154,47,57797,1,0,0:0:0:0:
383,52,57985,6,0,L|316:52,1,48.9999985046387
180,129,58172,2,0,L|241:127,1,48.9999985046387
388,41,58360,2,0,L|321:41,1,48.9999985046387
178,140,58547,2,0,L|239:138,1,48.9999985046387
351,136,58735,5,0,0:0:0:0:
392,150,58828,1,0,0:0:0:0:
433,163,58922,1,0,0:0:0:0:
474,178,59016,1,0,0:0:0:0:
432,230,59110,5,0,0:0:0:0:
379,274,59235,1,0,0:0:0:0:
327,318,59360,1,0,0:0:0:0:
122,326,59485,6,0,L|115:269,1,48.9999985046387
327,318,59672,2,0,L|321:263,1,48.9999985046387
232,248,59860,2,0,L|223:196,1,48.9999985046387
48,256,60047,1,0,0:0:0:0:
229,117,60235,6,0,L|229:179,1,48.9999985046387
33,100,60422,2,0,L|31:156,1,48.9999985046387
272,48,60610,2,0,L|272:105,1,48.9999985046387
88,40,60797,1,0,0:0:0:0:
216,263,60985,5,0,0:0:0:0:
389,132,61172,1,0,0:0:0:0:
168,125,61360,1,0,0:0:0:0:
375,240,61547,1,0,0:0:0:0:
280,33,61735,1,0,0:0:0:0:
282,258,61922,1,0,0:0:0:0:
381,43,62110,1,0,0:0:0:0:
193,200,62297,1,0,0:0:0:0:
454,169,62485,5,0,0:0:0:0:
454,169,62578,1,0,0:0:0:0:
454,169,62672,2,0,L|388:177,1,48.9999985046387
271,192,62860,2,0,L|209:200,2,48.9999985046387
399,315,63235,5,0,0:0:0:0:
399,315,63328,1,0,0:0:0:0:
399,315,63422,1,0,0:0:0:0:
319,98,63610,5,0,0:0:0:0:
319,98,63703,1,0,0:0:0:0:
319,98,63797,1,0,0:0:0:0:
155,254,63985,5,0,0:0:0:0:
364,196,64172,1,0,0:0:0:0:
230,341,64360,1,0,0:0:0:0:
200,97,64547,1,0,0:0:0:0:
369,283,64735,1,0,0:0:0:0:
154,173,64922,1,0,0:0:0:0:
379,201,65110,2,0,L|432:206,2,48.9999985046387
84,165,65485,5,0,0:0:0:0:
336,123,65672,1,0,0:0:0:0:
82,198,65860,1,0,0:0:0:0:
321,109,66047,1,0,0:0:0:0:
295,362,66235,5,0,0:0:0:0:
162,144,66422,1,0,0:0:0:0:
327,351,66610,1,0,0:0:0:0:
154,163,66797,1,0,0:0:0:0:
282,287,66985,5,0,0:0:0:0:
282,287,67078,1,0,0:0:0:0:
282,287,67172,2,0,L|281:222,1,48.9999985046387
375,190,67360,2,0,L|375:132,1,48.9999985046387
285,90,67547,2,0,L|288:40,1,48.9999985046387
436,21,67735,6,0,L|437:74,1,48.9999985046387
501,155,67922,2,0,L|501:208,1,48.9999985046387
375,141,68110,2,0,L|376:197,1,48.9999985046387
443,274,68297,1,0,0:0:0:0:
261,158,68485,5,0,0:0:0:0:
354,336,68672,1,0,0:0:0:0:
267,159,68860,1,0,0:0:0:0:
324,352,69047,1,0,0:0:0:0:
273,162,69235,5,0,0:0:0:0:
292,362,69422,1,0,0:0:0:0:
278,166,69610,1,0,0:0:0:0:
259,366,69797,1,0,0:0:0:0:
141,162,69985,5,0,0:0:0:0:
141,162,70078,1,0,0:0:0:0:
141,162,70172,2,0,L|181:199,1,48.9999985046387
298,310,70360,2,0,L|329:358,2,48.9999985046387
205,74,70735,5,0,0:0:0:0:
248,79,70828,1,0,0:0:0:0:
292,82,70922,1,0,0:0:0:0:
335,88,71016,1,0,0:0:0:0:
378,92,71110,5,0,0:0:0:0:
367,149,71203,1,0,0:0:0:0:
392,201,71297,1,0,0:0:0:0:
433,243,71391,1,0,0:0:0:0:
388,238,71485,5,0,0:0:0:0:
345,246,71578,1,0,0:0:0:0:
305,265,71672,1,0,0:0:0:0:
264,282,71766,1,0,0:0:0:0:
219,277,71860,5,0,0:0:0:0:
164,255,71953,1,0,0:0:0:0:
129,207,72047,1,0,0:0:0:0:
130,148,72141,1,0,0:0:0:0:
193,167,72235,6,0,P|247:199|293:208,1,97.9999970092774
353,193,72516,1,0,0:0:0:0:
357,121,72610,2,0,P|303:89|257:80,1,97.9999970092774
197,64,72891,1,0,0:0:0:0:
128,77,72985,6,0,P|88:123|79:165,1,97.9999970092774
58,228,73266,1,0,0:0:0:0:
42,298,73360,2,0,P|88:325|146:327,1,97.9999970092774
177,271,73641,1,0,0:0:0:0:
230,225,73735,6,0,P|288:205|330:202,1,97.9999970092774
381,248,74016,1,0,0:0:0:0:
369,317,74110,2,0,P|302:338|258:337,1,97.9999970092774
204,315,74391,1,0,0:0:0:0:
166,252,74485,6,0,P|176:192|209:160,1,97.9999970092774
271,173,74766,1,0,0:0:0:0:
342,179,74860,2,0,P|387:147|411:97,1,97.9999970092774
360,53,75141,1,0,0:0:0:0:
286,58,75235,6,0,P|222:67|165:64,1,97.9999970092774
116,51,75516,1,0,0:0:0:0:
45,73,75610,2,0,P|44:129|51:183,1,97.9999970092774
62,239,75891,1,0,0:0:0:0:
121,203,75985,6,0,P|172:179|208:151,1,97.9999970092774
256,100,76266,1,0,0:0:0:0:
316,57,76360,2,0,P|354:90|389:142,1,97.9999970092774
432,181,76641,1,0,0:0:0:0:
476,239,76735,6,0,P|456:298|429:331,1,97.9999970092774
364,348,77016,1,0,0:0:0:0:
290,352,77110,2,0,P|235:348|189:328,1,97.9999970092774
122,324,77391,1,0,0:0:0:0:
87,259,77485,6,0,P|89:184|102:144,1,97.9999970092774
155,119,77766,1,0,0:0:0:0:
222,88,77860,2,0,P|219:154|200:191,1,97.9999970092774
182,23,78235,6,0,P|243:1|287:0,1,97.9999970092774
390,33,78610,1,0,0:0:0:0:
390,33,78703,1,0,0:0:0:0:
390,33,78797,1,0,0:0:0:0:
479,152,78985,6,0,P|418:174|374:175,1,97.9999970092774
271,142,79360,1,0,0:0:0:0:
271,142,79453,1,0,0:0:0:0:
271,142,79547,1,0,0:0:0:0:
126,45,79735,6,0,L|121:154,1,97.9999970092774
115,298,80110,1,0,0:0:0:0:
115,298,80203,1,0,0:0:0:0:
115,298,80297,1,0,0:0:0:0:
274,369,80485,6,0,L|279:260,1,97.9999970092774
285,116,80860,1,0,0:0:0:0:
285,116,80953,1,0,0:0:0:0:
285,116,81047,1,0,0:0:0:0:
479,37,81235,5,0,0:0:0:0:
344,224,81516,1,0,0:0:0:0:
261,18,81797,1,0,0:0:0:0:
261,18,81985,1,0,0:0:0:0:
360,240,82266,1,0,0:0:0:0:
488,58,82547,1,0,0:0:0:0:
308,153,82735,5,0,0:0:0:0:
274,181,82828,1,0,0:0:0:0:
238,207,82922,1,0,0:0:0:0:
203,234,83016,1,0,0:0:0:0:
166,258,83110,2,0,B|228:286|228:286|287:289,1,97.9999970092774
398,277,83391,1,0,0:0:0:0:
398,277,83485,6,0,P|433:238|441:183,1,97.9999970092774
377,154,83766,1,0,0:0:0:0:
303,116,83860,2,0,P|352:79|442:104,1,146.999995513916
457,163,84235,1,0,0:0:0:0:
449,234,84328,2,0,P|397:270|340:270,1,97.9999970092774
298,240,84610,1,0,0:0:0:0:
230,207,84703,2,0,L|183:190,2,48.9999985046387
223,275,84985,6,0,P|265:315|315:320,1,97.9999970092774
394,325,85266,1,0,0:0:0:0:
453,268,85360,6,0,L|469:218,2,48.9999985046387
453,268,85641,1,0,0:0:0:0:
372,221,85735,2,0,L|348:282,2,48.9999985046387
372,221,86016,1,0,0:0:0:0:
411,135,86110,6,0,P|416:79|352:56,1,97.9999970092774
90,129,86485,6,0,P|103:236|189:182,1,210
289,152,86860,2,0,P|371:141|368:245,1,210
263,339,87235,2,0,P|157:317|217:229,1,210
289,152,87610,2,0,P|313:73|221:63,1,140
91,188,87985,6,0,B|153:230|153:230|224:219|224:219|294:242,1,210
409,352,88360,2,0,B|347:310|347:310|276:321|276:321|206:298,1,210
60,258,88735,2,0,P|15:189|93:110,1,210
142,231,89110,2,0,P|127:318|76:343,1,140
188,128,89485,6,0,B|329:69|329:69|301:121,1,210
195,206,89860,2,0,P|115:164|146:58,1,210
280,168,90235,2,0,P|277:260|158:287,1,210
87,262,90610,2,0,P|97:341|155:383,1,140
341,353,90985,6,0,B|440:343|440:343|471:277|471:277|429:251,1,210
301,193,91360,2,0,P|328:267|368:240,1,140
316,48,91735,2,0,B|183:110|183:110|249:136,1,210
210,237,92110,2,0,L|348:287,1,140
56,258,92485,6,0,L|189:305,1,140
261,328,92766,1,0,0:0:0:0:
337,340,92860,2,0,B|415:335|415:335|439:278,1,140
295,167,93235,6,0,P|271:95|315:83,2,140
196,256,93797,1,0,0:0:0:0:
92,344,93985,2,0,B|38:269|38:269|76:221,1,140
97,208,94266,2,0,L|179:208,1,70
55,100,94547,1,0,0:0:0:0:
55,100,94735,6,0,L|206:82,1,140
429,114,95110,2,0,L|262:136,1,140
61,205,95485,5,0,0:0:0:0:
99,207,95578,1,0,0:0:0:0:
138,207,95672,1,0,0:0:0:0:
177,209,95766,1,0,0:0:0:0:
216,210,95860,1,0,0:0:0:0:
405,216,96047,2,0,L|384:255,1,35
180,323,96235,5,0,0:0:0:0:
141,315,96328,1,0,0:0:0:0:
107,295,96422,1,0,0:0:0:0:
78,268,96516,1,0,0:0:0:0:
61,232,96610,1,0,0:0:0:0:
57,75,96797,2,0,L|112:52,1,35
264,37,96985,5,0,0:0:0:0:
302,42,97078,1,0,0:0:0:0:
339,53,97172,1,0,0:0:0:0:
374,69,97266,1,0,0:0:0:0:
404,93,97360,1,0,0:0:0:0:
457,250,97547,2,0,L|408:253,1,35
271,252,97735,5,0,0:0:0:0:
232,253,97828,1,0,0:0:0:0:
192,255,97922,1,0,0:0:0:0:
152,258,98016,1,0,0:0:0:0:
112,262,98110,1,0,0:0:0:0:
195,22,98485,6,0,B|209:101|209:101|262:153|262:153|295:212,1,210
290,373,98860,2,0,B|276:294|276:294|223:242|223:242|190:183,1,210
311,52,99235,2,0,P|378:94|317:187,1,210
155,186,99610,2,0,P|94:258|146:308,1,140
254,147,99985,6,0,P|202:91|121:94,1,140
311,217,100360,2,0,P|347:148|321:83,2,140
102,311,100922,1,0,0:0:0:0:
102,311,101016,1,0,0:0:0:0:
102,311,101110,1,0,0:0:0:0:
4,149,101485,6,0,L|4:7,1,140
3,224,101860,2,0,L|3:368,1,140
216,93,102235,2,0,L|84:176,1,140
267,153,102610,2,0,L|386:76,1,140
234,240,102985,6,0,P|176:182|171:118,1,140
170,306,103360,2,0,P|261:321|311:294,2,140
223,60,103922,1,0,0:0:0:0:
223,60,104016,1,0,0:0:0:0:
223,60,104110,2,0,B|251:128|251:128|327:137,1,140
451,172,104485,5,0,0:0:0:0:
427,186,104578,1,0,0:0:0:0:
404,199,104672,1,0,0:0:0:0:
379,212,104766,1,0,0:0:0:0:
354,225,104860,1,0,0:0:0:0:
159,234,105047,1,0,0:0:0:0:
119,91,105235,6,0,P|223:107|262:125,2,140
28,211,105797,1,0,0:0:0:0:
309,193,105985,5,0,0:0:0:0:
19,67,106172,1,0,0:0:0:0:
19,67,106266,1,0,0:0:0:0:
19,67,106360,1,0,0:0:0:0:
272,129,106547,5,0,0:0:0:0:
272,129,106641,1,0,0:0:0:0:
272,129,106735,1,0,0:0:0:0:
19,183,106922,5,0,0:0:0:0:
19,183,107016,1,0,0:0:0:0:
19,183,107110,1,0,0:0:0:0:
104,336,107485,5,0,0:0:0:0:
419,325,108797,5,0,0:0:0:0:
419,325,108891,1,0,0:0:0:0:
419,325,108985,5,0,0:0:0:0:
380,331,109078,1,0,0:0:0:0:
341,339,109172,1,0,0:0:0:0:
302,333,109266,1,0,0:0:0:0:
273,306,109360,1,0,0:0:0:0:
260,269,109453,1,0,0:0:0:0:
258,229,109547,1,0,0:0:0:0:
280,196,109641,1,0,0:0:0:0:
317,183,109735,5,0,0:0:0:0:
354,191,109828,1,0,0:0:0:0:
376,223,109922,1,0,0:0:0:0:
352,254,110016,1,0,0:0:0:0:
312,251,110110,1,0,0:0:0:0:
285,222,110203,1,0,0:0:0:0:
285,182,110297,1,0,0:0:0:0:
296,144,110391,1,0,0:0:0:0:
397,93,110485,5,0,0:0:0:0:
433,111,110578,1,0,0:0:0:0:
456,142,110672,1,0,0:0:0:0:
464,180,110766,1,0,0:0:0:0:
459,219,110860,1,0,0:0:0:0:
432,247,110953,1,0,0:0:0:0:
394,257,111047,1,0,0:0:0:0:
356,246,111141,1,0,0:0:0:0:
325,221,111235,5,0,0:0:0:0:
287,209,111328,1,0,0:0:0:0:
247,213,111422,1,0,0:0:0:0:
217,239,111516,1,0,0:0:0:0:
205,276,111610,2,0,P|215:331|277:372,1,130.666662679037
353,335,111985,5,0,0:0:0:0:
365,298,112078,1,0,0:0:0:0:
349,261,112172,1,0,0:0:0:0:
314,241,112266,1,0,0:0:0:0:
286,212,112360,1,0,0:0:0:0:
277,173,112453,1,0,0:0:0:0:
282,134,112547,1,0,0:0:0:0:
306,103,112641,1,0,0:0:0:0:
340,84,112735,6,0,L|401:77,2,48.9999985046387
236,36,113016,2,0,L|181:38,1,48.9999985046387
44,83,113203,2,0,B|77:105|77:105|164:115,1,97.9999970092774
333,99,113485,5,0,0:0:0:0:
303,74,113578,1,0,0:0:0:0:
265,62,113672,1,0,0:0:0:0:
223,69,113766,1,0,0:0:0:0:
190,91,113860,1,0,0:0:0:0:
175,127,113953,1,0,0:0:0:0:
159,162,114047,1,0,0:0:0:0:
129,188,114141,1,0,0:0:0:0:
91,198,114235,5,0,0:0:0:0:
54,186,114328,1,0,0:0:0:0:
35,151,114422,1,0,0:0:0:0:
40,112,114516,1,0,0:0:0:0:
60,78,114610,2,0,P|103:51|183:63,1,130.666662679037
263,148,114985,5,0,0:0:0:0:
250,184,115078,1,0,0:0:0:0:
223,213,115172,1,0,0:0:0:0:
185,225,115266,1,0,0:0:0:0:
145,227,115360,1,0,0:0:0:0:
111,245,115453,1,0,0:0:0:0:
82,272,115547,1,0,0:0:0:0:
74,310,115641,1,0,0:0:0:0:
79,348,115735,6,0,L|185:349,1,97.9999970092774
291,346,116016,2,0,L|232:347,1,48.9999985046387
319,268,116203,2,0,P|362:294|380:343,1,97.9999970092774
230,270,116485,5,0,0:0:0:0:
238,232,116578,1,0,0:0:0:0:
265,203,116672,1,0,0:0:0:0:
300,186,116766,1,0,0:0:0:0:
339,187,116860,1,0,0:0:0:0:
374,202,116953,1,0,0:0:0:0:
403,227,117047,1,0,0:0:0:0:
430,255,117141,1,0,0:0:0:0:
439,216,117235,5,0,0:0:0:0:
446,177,117328,1,0,0:0:0:0:
453,138,117422,1,0,0:0:0:0:
461,99,117516,1,0,0:0:0:0:
467,60,117610,2,0,B|421:99|421:99|337:100,1,130.666662679037
253,12,117985,5,0,0:0:0:0:
214,13,118078,1,0,0:0:0:0:
176,23,118172,1,0,0:0:0:0:
139,38,118266,1,0,0:0:0:0:
106,59,118360,1,0,0:0:0:0:
78,86,118453,1,0,0:0:0:0:
57,119,118547,1,0,0:0:0:0:
51,157,118641,1,0,0:0:0:0:
51,196,118735,6,0,L|52:266,2,48.9999985046387
133,152,119016,2,0,L|188:121,1,48.9999985046387
129,258,119203,2,0,P|96:308|59:322,1,97.9999970092774
197,208,119485,5,0,0:0:0:0:
231,226,119578,1,0,0:0:0:0:
259,252,119672,1,0,0:0:0:0:
269,289,119766,1,0,0:0:0:0:
253,325,119860,1,0,0:0:0:0:
215,336,119953,1,0,0:0:0:0:
180,316,120047,1,0,0:0:0:0:
176,276,120141,1,0,0:0:0:0:
198,244,120235,5,0,0:0:0:0:
231,226,120328,1,0,0:0:0:0:
270,225,120422,1,0,0:0:0:0:
307,236,120516,1,0,0:0:0:0:
344,247,120610,2,0,P|406:255|479:232,1,130.666662679037
497,128,120985,5,0,0:0:0:0:
458,124,121078,1,0,0:0:0:0:
421,139,121172,1,0,0:0:0:0:
413,177,121266,1,0,0:0:0:0:
434,209,121360,1,0,0:0:0:0:
472,213,121453,1,0,0:0:0:0:
500,186,121547,1,0,0:0:0:0:
491,147,121641,1,0,0:0:0:0:
458,124,121735,6,0,L|371:57,1,97.9999970092774
274,77,122016,2,0,L|333:123,1,48.9999985046387
195,99,122203,2,0,P|208:25|246:-1,1,97.9999970092774
96,251,122485,5,0,0:0:0:0:
96,251,122578,1,0,0:0:0:0:
96,251,122672,2,0,L|159:253,2,48.9999985046387
236,256,122953,1,0,0:0:0:0:
236,256,123047,1,0,0:0:0:0:
86,87,123235,5,0,0:0:0:0:
124,92,123328,1,0,0:0:0:0:
163,96,123422,1,0,0:0:0:0:
202,100,123516,1,0,0:0:0:0:
240,105,123610,1,0,0:0:0:0:
278,111,123703,1,0,0:0:0:0:
317,115,123797,1,0,0:0:0:0:
453,229,123985,5,0,0:0:0:0:
208,303,124172,1,0,0:0:0:0:
208,303,124266,1,0,0:0:0:0:
358,195,124547,1,0,0:0:0:0:
131,246,124735,5,0,0:0:0:0:
119,208,124828,1,0,0:0:0:0:
103,171,124922,1,0,0:0:0:0:
87,134,125016,1,0,0:0:0:0:
73,97,125110,1,0,0:0:0:0:
57,61,125203,1,0,0:0:0:0:
40,25,125297,1,0,0:0:0:0:
238,45,125485,5,0,0:0:0:0:
131,246,125672,1,0,0:0:0:0:
131,246,125766,1,0,0:0:0:0:
40,25,126047,1,0,0:0:0:0:
40,25,126141,1,0,0:0:0:0:
40,25,126235,5,0,0:0:0:0:
78,23,126328,1,0,0:0:0:0:
117,22,126422,1,0,0:0:0:0:
156,22,126516,1,0,0:0:0:0:
195,19,126610,1,0,0:0:0:0:
233,20,126703,1,0,0:0:0:0:
272,16,126797,1,0,0:0:0:0:
445,89,126985,5,0,0:0:0:0:
228,166,127172,1,0,0:0:0:0:
228,166,127266,1,0,0:0:0:0:
478,219,127547,1,0,0:0:0:0:
243,143,127735,5,0,0:0:0:0:
411,290,127922,1,0,0:0:0:0:
411,290,128016,1,0,0:0:0:0:
348,88,128297,1,0,0:0:0:0:
400,307,128485,5,0,0:0:0:0:
432,90,128672,1,0,0:0:0:0:
432,90,128766,1,0,0:0:0:0:
266,231,129047,1,0,0:0:0:0:
463,198,129235,5,0,0:0:0:0:
425,188,129328,1,0,0:0:0:0:
386,178,129422,1,0,0:0:0:0:
348,167,129516,1,0,0:0:0:0:
310,155,129610,1,0,0:0:0:0:
272,145,129703,1,0,0:0:0:0:
234,132,129797,1,0,0:0:0:0:
54,78,129985,5,0,0:0:0:0:
254,36,130172,1,0,0:0:0:0:
254,36,130266,1,0,0:0:0:0:
63,153,130547,1,0,0:0:0:0:
274,259,130735,5,0,0:0:0:0:
307,278,130828,1,0,0:0:0:0:
339,299,130922,1,0,0:0:0:0:
374,316,131016,1,0,0:0:0:0:
405,292,131110,1,0,0:0:0:0:
433,265,131203,1,0,0:0:0:0:
459,236,131297,1,0,0:0:0:0:
485,48,131485,5,0,0:0:0:0:
500,252,131672,1,0,0:0:0:0:
500,252,131766,1,0,0:0:0:0:
470,48,132047,1,0,0:0:0:0:
291,139,132235,5,0,0:0:0:0:
258,160,132328,1,0,0:0:0:0:
224,181,132422,1,0,0:0:0:0:
191,202,132516,1,0,0:0:0:0:
157,222,132610,1,0,0:0:0:0:
124,243,132703,1,0,0:0:0:0:
90,262,132797,1,0,0:0:0:0:
309,311,132985,5,0,0:0:0:0:
29,309,133172,1,0,0:0:0:0:
29,309,133266,1,0,0:0:0:0:
307,323,133547,1,0,0:0:0:0:
64,237,133735,5,0,0:0:0:0:
278,368,133922,1,0,0:0:0:0:
278,368,134016,1,0,0:0:0:0:
71,222,134297,1,0,0:0:0:0:
238,379,134485,5,0,0:0:0:0:
148,165,134672,1,0,0:0:0:0:
148,165,134766,1,0,0:0:0:0:
221,381,135047,1,0,0:0:0:0:
71,222,135235,5,0,0:0:0:0:
65,168,135328,1,0,0:0:0:0:
80,116,135422,1,0,0:0:0:0:
126,88,135516,1,0,0:0:0:0:
180,86,135610,1,0,0:0:0:0:
223,116,135703,1,0,0:0:0:0:
275,130,135797,1,0,0:0:0:0:
328,121,135891,1,0,0:0:0:0:
367,84,135985,6,0,L|400:43,1,48.9999985046387
368,242,136266,2,0,L|315:248,1,48.9999985046387
121,268,136547,1,0,0:0:0:0:
367,324,136735,5,0,0:0:0:0:
419,315,136828,1,0,0:0:0:0:
460,279,136922,1,0,0:0:0:0:
469,225,137016,1,0,0:0:0:0:
432,184,137110,1,0,0:0:0:0:
406,136,137203,1,0,0:0:0:0:
415,82,137297,1,0,0:0:0:0:
455,45,137391,1,0,0:0:0:0:
509,43,137485,6,0,L|508:105,1,48.9999985046387
388,246,137766,2,0,L|355:199,1,48.9999985046387
267,61,138047,2,0,L|234:14,2,48.9999985046387
295,106,138328,5,0,0:0:0:0:
304,159,138422,1,0,0:0:0:0:
281,208,138516,1,0,0:0:0:0:
230,228,138610,1,0,0:0:0:0:
182,203,138703,1,0,0:0:0:0:
162,152,138797,1,0,0:0:0:0:
183,102,138891,1,0,0:0:0:0:
235,88,138985,6,0,L|309:88,1,48.9999985046387
93,112,139266,2,0,L|30:113,1,48.9999985046387
303,163,139547,1,0,0:0:0:0:
31,201,139735,6,0,L|106:201,1,48.9999985046387
352,243,140016,2,0,L|287:244,1,48.9999985046387
34,290,140297,1,0,0:0:0:0:
355,327,140485,6,0,L|421:324,1,48.9999985046387
18,362,140766,2,0,L|77:362,1,48.9999985046387
423,370,141047,1,0,0:0:0:0:
183,296,141235,5,0,0:0:0:0:
144,259,141328,1,0,0:0:0:0:
134,205,141422,1,0,0:0:0:0:
159,157,141516,1,0,0:0:0:0:
206,131,141610,1,0,0:0:0:0:
251,103,141703,1,0,0:0:0:0:
281,58,141797,1,0,0:0:0:0:
284,4,141891,1,0,0:0:0:0:
284,4,141985,6,0,L|343:59,1,48.9999985046387
482,156,142266,2,0,L|430:115,1,48.9999985046387
203,7,142547,1,0,0:0:0:0:
59,143,142735,5,0,0:0:0:0:
67,195,142828,1,0,0:0:0:0:
104,233,142922,1,0,0:0:0:0:
157,237,143016,1,0,0:0:0:0:
203,208,143110,1,0,0:0:0:0:
252,187,143203,1,0,0:0:0:0:
305,193,143297,1,0,0:0:0:0:
352,219,143391,1,0,0:0:0:0:
372,269,143485,6,0,L|373:327,1,48.9999985046387
196,332,143766,2,0,L|195:279,1,48.9999985046387
476,234,144047,2,0,L|501:278,2,48.9999985046387
447,187,144328,5,0,0:0:0:0:
397,164,144422,1,0,0:0:0:0:
344,177,144516,1,0,0:0:0:0:
298,206,144610,1,0,0:0:0:0:
246,220,144703,1,0,0:0:0:0:
191,221,144797,1,0,0:0:0:0:
144,193,144891,1,0,0:0:0:0:
118,145,144985,6,0,L|111:76,1,48.9999985046387
44,260,145266,2,0,L|49:320,1,48.9999985046387
226,125,145547,1,0,0:0:0:0:
111,334,145735,5,0,0:0:0:0:
44,110,145922,1,0,0:0:0:0:
44,110,146016,1,0,0:0:0:0:
229,290,146297,1,0,0:0:0:0:
171,85,146485,6,0,L|175:22,2,48.9999985046387
226,153,146766,1,0,0:0:0:0:
294,213,146860,2,0,L|314:264,2,48.9999985046387
356,56,147235,6,0,L|413:56,1,48.9999985046387
385,210,147422,2,0,L|442:210,1,48.9999985046387
271,58,147610,2,0,L|328:58,1,48.9999985046387
294,213,147797,1,0,0:0:0:0:
44,206,147985,6,0,L|64:143,1,48.9999985046387
189,267,148172,2,0,L|204:221,1,48.9999985046387
6,340,148360,2,0,L|21:294,1,48.9999985046387
162,358,148547,1,0,0:0:0:0:
256,153,148735,5,0,0:0:0:0:
92,265,148922,1,0,0:0:0:0:
313,228,149110,1,0,0:0:0:0:
93,143,149297,1,0,0:0:0:0:
277,304,149485,1,0,0:0:0:0:
213,87,149672,1,0,0:0:0:0:
190,302,149860,1,0,0:0:0:0:
300,118,150047,1,0,0:0:0:0:
393,306,150235,5,0,0:0:0:0:
393,306,150328,1,0,0:0:0:0:
393,306,150422,1,0,0:0:0:0:
273,119,150610,1,0,0:0:0:0:
459,251,150797,1,0,0:0:0:0:
216,187,150985,2,0,L|273:187,1,48.9999985046387
451,160,151172,2,0,L|380:159,1,48.9999985046387
186,217,151360,2,0,L|261:222,1,48.9999985046387
470,147,151547,1,0,0:0:0:0:
245,37,151735,5,0,0:0:0:0:
245,37,151828,1,0,0:0:0:0:
245,37,151922,1,0,0:0:0:0:
51,109,152110,2,0,L|116:85,1,48.9999985046387
279,24,152297,1,0,0:0:0:0:
169,214,152485,6,0,L|210:153,1,48.9999985046387
300,277,152672,2,0,L|341:216,1,48.9999985046387
131,270,152860,2,0,L|172:209,1,48.9999985046387
262,333,153047,1,0,0:0:0:0:
429,209,153235,6,0,L|489:207,2,48.9999985046387
201,206,153610,1,0,0:0:0:0:
355,209,153797,1,0,0:0:0:0:
124,207,153985,1,0,0:0:0:0:
283,209,154172,1,0,0:0:0:0:
76,206,154360,2,0,L|21:205,2,48.9999985046387
286,128,154735,5,0,0:0:0:0:
368,298,154922,1,0,0:0:0:0:
268,92,155110,1,0,0:0:0:0:
352,264,155297,1,0,0:0:0:0:
250,53,155485,2,0,L|276:108,2,48.9999985046387
451,202,155860,2,0,L|364:201,1,48.9999985046387
288,200,156047,2,0,L|232:200,1,48.9999985046387
189,289,156235,6,0,L|248:288,1,48.9999985046387
113,138,156422,2,0,L|175:137,1,48.9999985046387
206,260,156610,2,0,L|263:260,1,48.9999985046387
86,106,156797,2,0,L|149:105,1,48.9999985046387
227,226,156985,2,0,L|287:224,1,48.9999985046387
71,74,157172,2,0,L|131:73,1,48.9999985046387
311,237,157360,2,0,L|377:235,2,48.9999985046387
100,180,157735,6,0,L|49:152,1,48.9999985046387
266,271,157922,2,0,L|322:304,1,48.9999985046387
57,186,158110,2,0,L|5:162,2,48.9999985046387
284,297,158485,5,0,0:0:0:0:
322,288,158578,1,0,0:0:0:0:
355,267,158672,1,0,0:0:0:0:
381,238,158766,1,0,0:0:0:0:
391,200,158860,1,0,0:0:0:0:
391,152,158953,6,0,L|383:80,2,48.9999985046387
254,88,159235,6,0,L|216:58,1,48.9999985046387
99,163,159422,2,0,L|79:217,1,48.9999985046387
263,72,159610,2,0,L|225:42,1,48.9999985046387
73,185,159797,2,0,L|53:239,1,48.9999985046387
267,186,159985,6,0,L|285:132,1,48.9999985046387
108,280,160172,2,0,L|82:224,1,48.9999985046387
306,160,160360,2,0,L|324:106,1,48.9999985046387
89,303,160547,1,0,0:0:0:0:
374,304,160735,5,0,0:0:0:0:
168,215,160922,1,0,0:0:0:0:
451,220,161110,1,0,0:0:0:0:
176,295,161297,1,0,0:0:0:0:
396,311,161485,1,0,0:0:0:0:
160,280,161672,1,0,0:0:0:0:
442,331,161860,1,0,0:0:0:0:
144,264,162047,1,0,0:0:0:0:
428,167,162235,5,0,0:0:0:0:
428,167,162328,1,0,0:0:0:0:
428,167,162422,1,0,0:0:0:0:
178,90,162610,2,0,L|114:65,2,48.9999985046387
67,177,162985,2,0,L|11:178,1,48.9999985046387
136,264,163172,2,0,L|192:264,1,48.9999985046387
46,328,163360,2,0,L|-8:358,2,48.9999985046387
257,261,163735,6,0,L|319:253,1,48.9999985046387
365,338,163922,2,0,L|430:346,1,48.9999985046387
422,207,164110,2,0,L|495:168,2,48.9999985046387
347,69,164485,2,0,L|378:16,1,48.9999985046387
299,129,164672,2,0,L|273:175,1,48.9999985046387
192,44,164860,2,0,L|162:0,2,48.9999985046387
180,267,165235,5,0,0:0:0:0:
180,267,165328,1,0,0:0:0:0:
180,267,165422,1,0,0:0:0:0:
330,112,165610,2,0,L|288:156,2,48.9999985046387
78,91,165985,5,0,0:0:0:0:
78,91,166078,1,0,0:0:0:0:
78,91,166172,1,0,0:0:0:0:
323,248,166360,2,0,L|284:220,2,48.9999985046387
41,256,166735,5,0,0:0:0:0:
41,256,166828,1,0,0:0:0:0:
41,256,166922,1,0,0:0:0:0:
378,251,167110,2,0,L|330:253,2,48.9999985046387
193,27,167485,5,0,0:0:0:0:
193,27,167578,1,0,0:0:0:0:
193,27,167672,1,0,0:0:0:0:
299,319,167860,2,0,L|274:248,2,48.9999985046387
218,103,168235,5,0,0:0:0:0:
34,358,168422,1,0,0:0:0:0:
34,358,168516,1,0,0:0:0:0:
34,358,168610,1,0,0:0:0:0:
278,318,168797,1,0,0:0:0:0:
278,318,168985,1,0,0:0:0:0:
72,206,169172,2,0,L|25:179,2,48.9999985046387
338,192,169547,5,0,0:0:0:0:
139,282,169735,1,0,0:0:0:0:
139,282,169828,1,0,0:0:0:0:
139,282,169922,1,0,0:0:0:0:
307,364,170110,1,0,0:0:0:0:
442,272,170297,5,0,0:0:0:0:
442,272,170391,1,0,0:0:0:0:
442,272,170485,2,0,P|465:212|458:167,1,97.9999970092774
416,117,170766,1,0,0:0:0:0:
355,71,170860,2,0,P|279:68|232:77,1,97.9999970092774
216,131,171141,1,0,0:0:0:0:
151,76,171235,2,0,L|93:68,2,48.9999985046387
185,57,171516,1,0,0:0:0:0:
221,43,171610,1,0,0:0:0:0:
259,34,171703,1,0,0:0:0:0:
298,31,171797,1,0,0:0:0:0:
337,31,171891,1,0,0:0:0:0:
381,42,171985,5,0,0:0:0:0:
381,42,172078,2,0,P|356:95|313:122,1,97.9999970092774
353,198,172360,1,0,0:0:0:0:
353,198,172453,2,0,P|285:193|244:162,1,97.9999970092774
210,241,172735,1,0,0:0:0:0:
210,241,172828,2,0,P|177:188|184:136,1,97.9999970092774
95,125,173110,1,0,0:0:0:0:
95,125,173203,2,0,P|130:86|164:69,1,48.9999985046387
385,267,173485,6,0,P|392:174|299:177,1,210
185,244,173860,2,0,P|92:245|102:153,1,210
212,56,174235,2,0,P|305:58|298:151,1,210
186,243,174610,2,0,P|155:300|199:349,1,140
382,339,174985,6,0,P|452:283|393:196,1,210
268,157,175360,2,0,B|312:93|312:93|395:91|475:90,1,210
358,191,175735,2,0,P|296:246|185:199,1,210
268,157,176110,2,0,P|312:112|419:116,1,140
287,267,176485,6,0,B|146:326|146:326|173:275,1,210
280,189,176860,2,0,P|363:239|335:332,1,210
195,227,177235,2,0,P|202:128|297:99,1,210
388,133,177610,2,0,P|383:64|334:16,1,140
134,42,177985,6,0,B|35:52|35:52|4:118|4:118|35:137,1,210
173,203,178360,2,0,P|174:140|112:144,1,140
159,347,178735,2,0,B|292:285|292:285|233:261,1,210
265,158,179110,2,0,L|133:110,1,140
419,137,179485,6,0,L|286:90,1,140
215,60,179766,1,0,0:0:0:0:
137,55,179860,2,0,B|59:60|59:60|35:117,1,140
180,228,180235,6,0,B|104:264|104:264|40:264,2,140
279,139,180797,1,0,0:0:0:0:
417,66,180985,2,0,B|480:128|480:128|504:192,2,140
420,295,181547,1,0,0:0:0:0:
420,295,181735,6,0,L|280:311,1,140
46,281,182110,2,0,L|184:262,1,140
407,149,182485,5,0,0:0:0:0:
368,154,182578,1,0,0:0:0:0:
329,161,182672,1,0,0:0:0:0:
290,168,182766,1,0,0:0:0:0:
251,176,182860,1,0,0:0:0:0:
70,220,183047,2,0,L|129:253,1,35
328,293,183235,5,0,0:0:0:0:
363,277,183328,1,0,0:0:0:0:
395,254,183422,1,0,0:0:0:0:
420,224,183516,1,0,0:0:0:0:
437,189,183610,1,0,0:0:0:0:
431,25,183797,2,0,L|381:20,1,35
193,24,183985,5,0,0:0:0:0:
177,59,184078,1,0,0:0:0:0:
178,98,184172,1,0,0:0:0:0:
193,134,184266,1,0,0:0:0:0:
218,164,184360,1,0,0:0:0:0:
357,235,184547,2,0,L|318:248,1,35
133,306,184735,5,0,0:0:0:0:
170,294,184828,1,0,0:0:0:0:
207,282,184922,1,0,0:0:0:0:
244,270,185016,1,0,0:0:0:0:
281,258,185110,1,0,0:0:0:0:
401,136,185297,5,0,0:0:0:0:
401,136,185391,1,0,0:0:0:0:
401,136,185485,6,0,P|304:172|287:85,1,210
168,126,185860,2,0,P|132:39|49:83,1,210
187,233,186235,2,0,B|275:232|275:232|325:197|325:197|394:184,1,210
290,308,186610,2,0,B|202:309|202:309|152:344|152:344|113:354,1,140
95,150,186985,6,0,P|128:70|190:62,1,140
55,240,187360,2,0,P|-1:176|0:111,2,140
266,266,187922,1,0,0:0:0:0:
266,266,188016,1,0,0:0:0:0:
266,266,188110,1,0,0:0:0:0:
493,161,188485,6,0,B|495:89|495:89|506:21,1,140
392,151,188860,2,0,P|422:227|482:256,1,140
298,149,189235,2,0,P|346:65|402:56,1,140
201,129,189610,2,0,P|237:221|306:248,1,140
418,296,189985,5,0,0:0:0:0:
418,296,190078,1,0,0:0:0:0:
418,296,190172,1,0,0:0:0:0:
243,320,190360,2,0,L|99:343,2,140
62,348,190922,1,0,0:0:0:0:
62,348,191016,1,0,0:0:0:0:
62,348,191110,1,0,0:0:0:0:
38,113,191297,5,0,0:0:0:0:
233,204,191485,1,0,0:0:0:0:
233,204,191578,1,0,0:0:0:0:
233,204,191672,1,0,0:0:0:0:
16,208,191860,2,0,L|166:206,2,140
176,297,192422,1,0,0:0:0:0:
176,297,192516,1,0,0:0:0:0:
176,297,192610,1,0,0:0:0:0:
341,296,192797,1,0,0:0:0:0:
452,176,192985,5,0,0:0:0:0:
417,157,193078,1,0,0:0:0:0:
379,145,193172,1,0,0:0:0:0:
339,140,193266,1,0,0:0:0:0:
324,176,193360,5,0,0:0:0:0:
293,200,193453,1,0,0:0:0:0:
257,216,193547,1,0,0:0:0:0:
217,214,193641,1,0,0:0:0:0:
202,250,193735,5,0,0:0:0:0:
170,272,193828,1,0,0:0:0:0:
131,278,193922,1,0,0:0:0:0:
93,267,194016,1,0,0:0:0:0:
64,240,194110,1,0,0:0:0:0:
31,86,194485,5,0,0:0:0:0:
261,57,194860,1,0,0:0:0:0:
43,125,195235,5,0,0:0:0:0:
352,119,195610,1,0,0:0:0:0:
57,164,195985,5,0,0:0:0:0:
450,220,196360,1,0,0:0:0:0:
26,328,196735,5,0,0:0:0:0:
512,331,197110,5,0,0:0:0:0:
388,334,197297,1,0,0:0:0:0:
272,336,197485,5,0,0:0:0:0:
30,162,197860,1,0,0:0:0:0:
250,349,198235,5,0,0:0:0:0:
104,71,198610,1,0,0:0:0:0:
223,352,198985,5,0,0:0:0:0:
212,27,199360,1,0,0:0:0:0:
197,351,199735,5,0,0:0:0:0:
330,25,200110,1,0,0:0:0:0:
409,103,200297,1,0,0:0:0:0:
489,172,200485,5,0,0:0:0:0:
189,59,200860,1,0,0:0:0:0:
496,196,201235,5,0,0:0:0:0:
126,159,201610,1,0,0:0:0:0:
500,223,201985,5,0,0:0:0:0:
91,261,202360,1,0,0:0:0:0:
503,248,202735,5,0,0:0:0:0:
50,353,203110,1,0,0:0:0:0:
169,342,203297,1,0,0:0:0:0:
288,327,203485,5,0,0:0:0:0:
458,146,203860,1,0,0:0:0:0:
266,333,204235,5,0,0:0:0:0:
382,70,204610,1,0,0:0:0:0:
159,71,204860,6,0,L|157:29,2,32.6666656697591
160,115,205110,1,0,0:0:0:0:
161,160,205235,1,0,0:0:0:0:
109,227,205360,5,0,0:0:0:0:
146,253,205485,1,0,0:0:0:0:
189,267,205610,1,0,0:0:0:0:
190,355,205735,5,0,0:0:0:0:
234,345,205860,1,0,0:0:0:0:
270,317,205985,1,0,0:0:0:0:
358,334,206110,5,0,0:0:0:0:
368,289,206235,1,0,0:0:0:0:
365,243,206360,1,0,0:0:0:0:
131,157,206485,6,0,L|246:126,1,97.9999970092774
457,33,206860,2,0,L|346:26,1,97.9999970092774
306,172,207235,2,0,L|413:188,1,97.9999970092774
278,24,207610,6,0,L|173:24,1,97.9999970092774
135,182,207985,2,0,L|239:175,1,97.9999970092774
106,31,208360,2,0,L|-4:54,1,97.9999970092774
24,183,208641,1,0,0:0:0:0:
24,183,208735,6,0,P|83:205|180:207,1,146.999995513916
247,103,209110,2,0,P|336:131|397:164,1,146.999995513916
384,280,209485,6,0,P|328:256|296:208,1,97.9999970092774
200,256,209860,2,0,P|200:184|224:144,1,97.9999970092774
104,287,210235,2,0,P|144:335|200:351,1,97.9999970092774
120,124,210610,6,0,P|169:84|221:69,1,97.9999970092774
51,187,210985,2,0,P|26:129|30:68,1,97.9999970092774
134,232,211360,2,0,P|83:273|35:279,1,97.9999970092774
147,149,211641,1,0,0:0:0:0:
147,149,211735,6,0,P|201:132|317:137,1,146.999995513916
216,52,212110,2,0,P|299:52|346:71,1,97.9999970092774
432,134,212391,1,0,0:0:0:0:
432,134,212485,6,0,L|431:253,1,97.9999970092774
304,342,212860,2,0,L|305:234,1,97.9999970092774
166,350,213235,2,0,L|169:236,1,97.9999970092774
6,358,213610,6,0,L|11:251,1,97.9999970092774
163,68,213985,2,0,L|160:177,1,97.9999970092774
5,110,214360,2,0,L|10:4,1,97.9999970092774
4,137,214641,1,0,0:0:0:0:
4,137,214735,6,0,P|29:199|131:234,1,146.999995513916
52,327,215110,2,0,P|141:324|201:280,1,146.999995513916
203,192,215485,6,0,B|202:124|202:124|251:112|251:112|286:142,1,146.999995513916
345,229,215860,1,0,0:0:0:0:
165,333,216047,5,0,0:0:0:0:
165,333,216235,2,0,B|263:318|263:318|299:283,1,146.999995513916
376,178,216610,1,0,0:0:0:0:
142,127,216797,1,0,0:0:0:0:
142,127,216985,5,0,0:0:0:0:
201,86,217110,1,0,0:0:0:0:
271,98,217235,1,0,0:0:0:0:
311,157,217360,1,0,0:0:0:0:
370,197,217485,1,0,0:0:0:0:
439,178,217610,1,0,0:0:0:0:
440,103,217735,6,0,L|438:23,1,65.3333313395183
442,221,217985,2,0,B|429:275|372:303|313:232|271:240|228:266,1,195.999994018555
90,309,218485,6,0,L|196:330,1,97.9999970092774
40,198,218860,2,0,L|148:232,1,97.9999970092774
21,73,219235,2,0,L|106:141,1,97.9999970092774
243,115,219610,6,0,L|189:32,1,97.9999970092774
330,144,219985,2,0,L|317:38,1,97.9999970092774
401,205,220360,2,0,L|416:101,1,97.9999970092774
394,238,220641,1,0,0:0:0:0:
394,238,220735,6,0,B|387:299|387:299|323:321|321:321|321:321|287:285,1,146.999995513916
370,383,221110,2,0,B|449:354|449:354|469:262,1,146.999995513916
476,126,221485,6,0,L|470:233,1,97.9999970092774
375,58,221860,2,0,L|401:165,1,97.9999970092774
242,42,222235,2,0,L|321:123,1,97.9999970092774
185,94,222610,6,0,L|78:57,1,97.9999970092774
230,167,222985,2,0,L|117:169,1,97.9999970092774
297,217,223360,2,0,L|202:268,1,97.9999970092774
106,315,223641,1,0,0:0:0:0:
106,315,223735,6,0,B|174:344|174:344|215:340|215:340|254:338,1,146.999995513916
179,256,224110,2,0,P|102:224|46:235,1,97.9999970092774
307,317,224485,6,0,P|347:278|357:223,1,97.9999970092774
446,260,224860,2,0,P|431:189|389:148,1,97.9999970092774
502,125,225235,2,0,P|446:81|398:73,1,97.9999970092774
257,83,225610,6,0,P|259:142|286:186,1,97.9999970092774
166,88,225985,2,0,P|188:32|215:4,1,97.9999970092774
123,162,226360,2,0,P|84:101|85:62,1,97.9999970092774
213,5,226641,1,0,0:0:0:0:
213,5,226735,6,0,P|271:35|310:111,1,146.999995513916
336,211,227110,2,0,P|399:154|420:107,1,97.9999970092774
392,303,227485,6,0,P|293:307|243:267,1,146.999995513916
207,181,227860,1,0,0:0:0:0:
72,241,228047,5,0,0:0:0:0:
72,241,228235,2,0,P|69:129|96:90,1,146.999995513916
233,38,228610,1,0,0:0:0:0:
233,38,228860,5,0,0:0:0:0:
290,81,228985,1,0,0:0:0:0:
301,151,229110,1,0,0:0:0:0:
255,206,229235,1,0,0:0:0:0:
201,253,229360,1,0,0:0:0:0:
214,323,229485,1,0,0:0:0:0:
278,355,229610,1,0,0:0:0:0:
367,288,229735,5,0,0:0:0:0:
143,149,229985,2,0,B|202:202|209:192|306:151|354:212,1,195.999994018555
106,260,230485,5,0,0:0:0:0:
339,274,230735,1,0,0:0:0:0:
339,274,230860,1,0,0:0:0:0:
196,91,231110,1,0,0:0:0:0:
196,91,231235,1,0,0:0:0:0:
235,329,231485,1,0,0:0:0:0:
235,329,231610,1,0,0:0:0:0:
24,141,231860,5,0,0:0:0:0:
24,141,231985,1,0,0:0:0:0:
302,256,232235,1,0,0:0:0:0:
302,256,232360,1,0,0:0:0:0:
22,297,232610,1,0,0:0:0:0:
22,297,232735,2,0,P|59:244|118:216,1,130.666662679037
206,205,233110,1,0,0:0:0:0:
347,36,233485,5,0,0:0:0:0:
96,152,233735,1,0,0:0:0:0:
96,152,233860,1,0,0:0:0:0:
398,203,234110,1,0,0:0:0:0:
398,203,234235,1,0,0:0:0:0:
160,287,234485,1,0,0:0:0:0:
160,287,234610,1,0,0:0:0:0:
334,73,234860,5,0,0:0:0:0:
334,73,234985,1,0,0:0:0:0:
401,301,235235,1,0,0:0:0:0:
401,301,235360,1,0,0:0:0:0:
94,228,235610,1,0,0:0:0:0:
94,228,235735,2,0,P|170:206|224:219,1,130.666662679037
307,252,236110,1,0,0:0:0:0:
70,301,236485,5,0,0:0:0:0:
236,74,236735,1,0,0:0:0:0:
236,74,236860,1,0,0:0:0:0:
430,300,237110,1,0,0:0:0:0:
430,300,237235,1,0,0:0:0:0:
129,130,237485,1,0,0:0:0:0:
129,130,237610,1,0,0:0:0:0:
282,340,237860,5,0,0:0:0:0:
282,340,237985,1,0,0:0:0:0:
384,81,238235,1,0,0:0:0:0:
384,81,238360,1,0,0:0:0:0:
124,170,238610,1,0,0:0:0:0:
124,170,238735,1,0,0:0:0:0:
436,199,238985,1,0,0:0:0:0:
436,199,239110,1,0,0:0:0:0:
195,203,239360,5,0,0:0:0:0:
105,295,239485,1,0,0:0:0:0:
365,194,239735,1,0,0:0:0:0:
279,99,239860,1,0,0:0:0:0:
341,338,240110,5,0,0:0:0:0:
341,338,240235,1,0,0:0:0:0:
156,186,240485,1,0,0:0:0:0:
156,186,240610,1,0,0:0:0:0:
7,251,240860,1,0,0:0:0:0:
7,251,240985,2,0,P|45:193|126:186,1,130.666662679037
219,213,241360,1,0,0:0:0:0:
219,213,241610,1,0,0:0:0:0:
429,259,241985,5,0,0:0:0:0:
421,180,242110,1,0,0:0:0:0:
385,109,242235,1,0,0:0:0:0:
327,55,242360,1,0,0:0:0:0:
258,19,242485,5,0,0:0:0:0:
329,255,242735,1,0,0:0:0:0:
329,255,242860,1,0,0:0:0:0:
51,317,243110,1,0,0:0:0:0:
51,317,243235,1,0,0:0:0:0:
262,175,243485,1,0,0:0:0:0:
262,175,243610,2,0,L|191:187,2,65.3333313395183
326,331,243985,1,0,0:0:0:0:
143,195,244235,5,0,0:0:0:0:
143,195,244360,1,0,0:0:0:0:
402,81,244610,1,0,0:0:0:0:
402,81,244735,2,0,L|320:93,1,65.3333313395183
234,107,244985,1,0,0:0:0:0:
234,107,245110,1,0,0:0:0:0:
453,156,245485,5,0,0:0:0:0:
208,180,245735,1,0,0:0:0:0:
208,180,245860,2,0,L|276:211,2,65.3333313395183
112,142,246235,1,0,0:0:0:0:
361,80,246485,5,0,0:0:0:0:
361,80,246610,1,0,0:0:0:0:
242,272,246860,1,0,0:0:0:0:
242,272,246985,1,0,0:0:0:0:
74,77,247235,1,0,0:0:0:0:
74,77,247360,2,0,L|113:137,2,65.3333313395183
165,16,247735,2,0,P|222:34|292:91,1,130.666662679037
296,173,248110,1,0,0:0:0:0:
408,319,248485,5,0,0:0:0:0:
445,110,248735,1,0,0:0:0:0:
445,110,248860,2,0,L|397:164,2,65.3333313395183
344,222,249235,1,0,0:0:0:0:
104,183,249485,1,0,0:0:0:0:
104,183,249610,1,0,0:0:0:0:
383,45,249860,5,0,0:0:0:0:
383,45,249985,1,0,0:0:0:0:
123,100,250235,1,0,0:0:0:0:
123,100,250360,2,0,L|192:97,2,65.3333313395183
121,182,250735,2,0,P|62:152|38:88,1,130.666662679037
83,19,251110,1,0,0:0:0:0:
31,220,251235,1,0,0:0:0:0:
31,220,251360,1,0,0:0:0:0:
31,220,251485,6,0,P|72:291|113:324,1,130.666662679037
335,257,251860,1,0,0:0:0:0:
257,257,251985,1,0,0:0:0:0:
183,257,252110,1,0,0:0:0:0:
245,177,252235,6,0,P|307:116|367:104,1,130.666662679037
491,93,252610,1,0,0:0:0:0:
445,148,252735,1,0,0:0:0:0:
418,79,252860,1,0,0:0:0:0:
304,238,252985,6,0,P|241:256|162:237,1,130.666662679037
77,175,253360,1,0,0:0:0:0:
218,57,253610,5,0,0:0:0:0:
289,54,253735,1,0,0:0:0:0:
340,104,253860,1,0,0:0:0:0:
313,170,253985,1,0,0:0:0:0:
292,238,254110,1,0,0:0:0:0:
323,302,254235,1,0,0:0:0:0:
393,313,254360,1,0,0:0:0:0:
491,213,254485,6,0,P|462:166|381:126,1,130.666662679037
263,111,254860,1,0,0:0:0:0:
263,111,255110,5,0,0:0:0:0:
209,158,255235,1,0,0:0:0:0:
139,176,255360,1,0,0:0:0:0:
83,130,255485,1,0,0:0:0:0:
96,59,255610,1,0,0:0:0:0:
163,34,255735,1,0,0:0:0:0:
223,72,255860,1,0,0:0:0:0:
196,163,255985,6,0,P|249:204|312:207,1,130.666662679037
426,206,256360,1,0,0:0:0:0:
170,243,256610,1,0,0:0:0:0:
170,243,256735,6,0,P|120:198|119:127,1,130.666662679037
154,25,257110,1,0,0:0:0:0:
154,25,257360,1,0,0:0:0:0:
224,40,257485,5,0,0:0:0:0:
288,71,257610,1,0,0:0:0:0:
344,115,257735,1,0,0:0:0:0:
389,170,257860,1,0,0:0:0:0:
429,229,257985,1,0,0:0:0:0:
456,295,258110,1,0,0:0:0:0:
242,302,258235,5,0,0:0:0:0:
60,296,258985,6,0,B|142:280|142:280|180:215|180:215|235:182,1,210
248,289,259360,2,0,P|311:239|271:98,1,210
365,39,259735,2,0,P|244:43|197:116,1,210
366,128,260110,2,0,P|439:99|453:21,1,140
171,24,260485,6,0,P|101:80|160:167,1,210
285,206,260860,2,0,B|241:270|241:270|158:272|78:273,1,210
195,172,261235,2,0,P|257:117|368:164,1,210
285,206,261610,2,0,P|241:251|134:247,1,140
242,46,261985,6,0,B|310:67|310:67|346:139|346:139|410:173,1,210
413,274,262360,2,0,B|284:207|284:207|299:270,1,210
436,361,262735,2,0,P|500:314|492:242,1,140
430,92,263110,2,0,L|494:240,1,140
338,105,263485,6,0,P|368:22|440:3,1,140
302,201,263860,2,0,P|249:139|245:66,2,140
446,235,264422,1,0,0:0:0:0:
446,235,264516,1,0,0:0:0:0:
446,235,264610,1,0,0:0:0:0:
159,264,264985,6,0,L|54:276,2,70
332,327,265360,2,0,L|170:342,1,140
402,246,265735,2,0,L|240:261,1,140
380,162,266110,2,0,L|462:156,2,70
181,118,266485,6,0,P|225:51|296:36,1,140
283,146,266860,2,0,P|239:213|168:228,1,140
232,322,267235,2,0,P|139:318|85:280,1,140
25,171,267610,5,0,0:0:0:0:
70,154,267703,1,0,0:0:0:0:
115,135,267797,1,0,0:0:0:0:
217,35,267985,5,0,0:0:0:0:
255,40,268078,1,0,0:0:0:0:
293,45,268172,1,0,0:0:0:0:
331,51,268266,1,0,0:0:0:0:
369,58,268360,1,0,0:0:0:0:
498,181,268547,2,0,L|497:215,1,35
346,287,268735,5,0,0:0:0:0:
307,279,268828,1,0,0:0:0:0:
273,259,268922,1,0,0:0:0:0:
243,233,269016,1,0,0:0:0:0:
223,198,269110,1,0,0:0:0:0:
198,51,269297,2,0,L|231:24,1,35
397,100,269485,5,0,0:0:0:0:
373,131,269578,1,0,0:0:0:0:
344,157,269672,1,0,0:0:0:0:
311,178,269766,1,0,0:0:0:0:
275,194,269860,1,0,0:0:0:0:
98,218,270047,2,0,L|54:218,1,35
18,363,270235,5,0,0:0:0:0:
56,358,270328,1,0,0:0:0:0:
94,352,270422,1,0,0:0:0:0:
133,347,270516,1,0,0:0:0:0:
172,343,270610,1,0,0:0:0:0:
361,313,270797,2,0,L|409:304,1,35
454,166,270985,6,0,P|455:80|365:127,1,210
268,181,271360,2,0,P|267:267|357:220,1,210
349,91,271735,2,0,B|279:52|279:52|190:84|190:84|118:78,1,210
40,147,272110,2,0,L|202:162,1,140
16,253,272485,6,0,B|93:257|93:257|157:302|157:302|244:308,1,210
398,310,272860,2,0,L|488:311,2,70
250,213,273235,2,0,P|307:151|382:148,1,140
280,290,273610,2,0,P|190:271|169:202,1,140
249,68,273985,6,0,B|404:76|404:76|356:122,1,210
307,217,274360,2,0,P|404:223|447:196,1,140
490,70,274735,2,0,P|405:88|371:145,1,140
380,313,275110,1,0,0:0:0:0:
490,70,275485,6,0,P|399:26|333:23,1,140
205,92,275860,2,0,P|131:84|65:62,2,140
397,109,276422,1,0,0:0:0:0:
397,109,276516,1,0,0:0:0:0:
397,109,276610,1,0,0:0:0:0:
193,211,276985,6,0,L|99:257,2,70
165,322,277360,2,0,L|71:368,2,70
34,234,277735,2,0,L|21:147,2,70
109,133,278110,2,0,L|96:46,2,70
150,359,278485,1,0,0:0:0:0:
323,280,278672,5,0,0:0:0:0:
323,280,278766,1,0,0:0:0:0:
323,280,278860,1,0,0:0:0:0:
434,189,279047,5,0,0:0:0:0:
434,189,279141,1,0,0:0:0:0:
434,189,279235,1,0,0:0:0:0:
292,148,279422,5,0,0:0:0:0:
292,148,279516,1,0,0:0:0:0:
292,148,279610,1,0,0:0:0:0:
103,232,279797,5,0,0:0:0:0:
139,39,279985,6,0,L|216:60,2,70
293,41,280360,2,0,L|370:62,2,70
470,165,280735,6,0,L|446:80,2,70
403,273,281110,2,0,L|379:188,2,70
343,68,281485,1,0,0:0:0:0:
204,173,281672,5,0,0:0:0:0:
204,173,281766,1,0,0:0:0:0:
204,173,281860,1,0,0:0:0:0:
255,310,282047,5,0,0:0:0:0:
255,310,282141,1,0,0:0:0:0:
255,310,282235,1,0,0:0:0:0:
97,278,282422,5,0,0:0:0:0:
97,278,282516,1,0,0:0:0:0:
97,278,282610,1,0,0:0:0:0:
332,240,282797,5,0,0:0:0:0:
266,155,282985,5,0,0:0:0:0:
222,160,283079,1,0,0:0:0:0:
182,182,283173,1,0,0:0:0:0:
142,201,283267,1,0,0:0:0:0:
98,195,283360,1,0,0:0:0:0:
64,165,283454,1,0,0:0:0:0:
55,121,283548,1,0,0:0:0:0:
70,79,283642,1,0,0:0:0:0:
106,54,283735,5,0,0:0:0:0:
150,55,283829,1,0,0:0:0:0:
186,79,283923,1,0,0:0:0:0:
205,118,284017,1,0,0:0:0:0:
214,160,284110,1,0,0:0:0:0:
217,204,284204,1,0,0:0:0:0:
215,248,284298,1,0,0:0:0:0:
221,291,284392,1,0,0:0:0:0:
233,332,284485,5,0,0:0:0:0:
272,311,284579,1,0,0:0:0:0:
315,303,284673,1,0,0:0:0:0:
359,303,284767,1,0,0:0:0:0:
401,312,284860,1,0,0:0:0:0:
444,315,284953,1,0,0:0:0:0:
481,291,285047,1,0,0:0:0:0:
490,247,285141,1,0,0:0:0:0:
488,202,285235,6,0,B|483:144|483:144|418:132|362:91,1,146.999995513916
339,141,285610,2,0,B|240:168|240:168|214:167,1,97.9999970092774
509,202,285985,1,0,0:0:0:0:
176,105,287485,5,0,0:0:0:0:
204,111,287578,1,0,0:0:0:0:
232,118,287672,1,0,0:0:0:0:
260,126,287766,1,0,0:0:0:0:
287,136,287860,1,0,0:0:0:0:
459,184,288047,1,0,0:0:0:0:
459,184,288141,1,0,0:0:0:0:
459,184,288235,1,0,0:0:0:0:
309,253,288422,6,0,L|211:297,2,97.9999970092774
331,66,288997,6,0,L|405:59,2,41.9999987182618
93,126,289349,2,0,L|21:127,2,41.9999987182618
355,173,289702,1,0,0:0:0:0:
355,173,289791,1,0,0:0:0:0:
355,173,289879,1,0,0:0:0:0:
28,208,290055,2,0,L|130:207,1,83.9999974365235
444,259,290408,6,0,L|390:261,2,41.9999987182618
111,207,290761,2,0,L|175:207,2,41.9999987182618
398,153,291114,1,0,0:0:0:0:
398,153,291202,1,0,0:0:0:0:
398,153,291291,1,0,0:0:0:0:
54,104,291467,2,0,L|168:109,1,83.9999974365235
335,67,291820,5,0,0:0:0:0:
366,79,291908,1,0,0:0:0:0:
393,99,291997,1,0,0:0:0:0:
410,127,292085,1,0,0:0:0:0:
416,159,292173,2,0,L|411:222,2,41.9999987182618
288,247,292526,1,0,0:0:0:0:
288,247,292614,1,0,0:0:0:0:
288,247,292702,1,0,0:0:0:0:
191,64,292879,2,0,L|194:15,2,41.9999987182618
115,292,293232,6,0,L|134:197,1,83.9999974365235
40,320,293585,2,0,P|79:365|110:371,1,83.9999974365235
210,206,293938,2,0,P|183:148|143:131,1,83.9999974365235
204,288,294291,2,0,P|276:257|289:224,1,83.9999974365235
320,73,294644,5,0,0:0:0:0:
320,73,294732,1,0,0:0:0:0:
320,73,294820,1,0,0:0:0:0:
455,236,294997,2,0,L|494:275,2,41.9999987182618
229,95,295349,2,0,L|176:58,2,41.9999987182618
468,154,295702,2,0,P|403:175|383:197,1,83.9999974365235
261,346,296055,6,0,L|317:265,1,83.9999974365235
152,365,296408,2,0,L|213:281,1,83.9999974365235
45,370,296761,1,0,0:0:0:0:
66,343,296849,1,0,0:0:0:0:
86,315,296938,2,0,L|143:239,2,83.9999974365235
97,155,297467,6,0,P|175:154|216:171,1,83.9999974365235
250,300,297820,1,0,0:0:0:0:
304,296,297908,1,0,0:0:0:0:
356,280,297997,1,0,0:0:0:0:
390,238,298085,1,0,0:0:0:0:
408,186,298173,5,0,0:0:0:0:
414,131,298261,1,0,0:0:0:0:
379,88,298349,1,0,0:0:0:0:
323,89,298438,1,0,0:0:0:0:
314,142,298526,5,0,0:0:0:0:
354,178,298614,1,0,0:0:0:0:
408,186,298702,1,0,0:0:0:0:
450,150,298791,1,0,0:0:0:0:
477,103,298879,6,0,L|508:49,2,41.9999987182618
361,68,299232,2,0,L|395:13,2,41.9999987182618
454,245,299585,2,0,L|486:185,2,41.9999987182618
443,64,299938,2,0,L|472:11,2,41.9999987182618
355,250,300291,5,0,0:0:0:0:
330,273,300379,1,0,0:0:0:0:
300,289,300467,1,0,0:0:0:0:
267,297,300555,1,0,0:0:0:0:
233,291,300644,1,0,0:0:0:0:
206,270,300732,1,0,0:0:0:0:
189,241,300820,1,0,0:0:0:0:
184,207,300908,1,0,0:0:0:0:
202,178,300997,5,0,0:0:0:0:
235,174,301085,1,0,0:0:0:0:
253,202,301173,1,0,0:0:0:0:
242,233,301261,1,0,0:0:0:0:
212,248,301349,1,0,0:0:0:0:
178,249,301438,1,0,0:0:0:0:
145,241,301526,1,0,0:0:0:0:
121,217,301614,1,0,0:0:0:0:
108,185,301702,6,0,L|85:117,2,41.9999987182618
134,62,302055,1,0,0:0:0:0:
164,46,302144,1,0,0:0:0:0:
197,40,302232,1,0,0:0:0:0:
226,56,302320,1,0,0:0:0:0:
252,76,302408,1,0,0:0:0:0:
281,92,302497,1,0,0:0:0:0:
313,100,302585,1,0,0:0:0:0:
440,111,302761,2,0,L|488:110,2,41.9999987182618
261,164,303114,5,0,0:0:0:0:
227,167,303202,1,0,0:0:0:0:
193,162,303291,1,0,0:0:0:0:
161,151,303379,1,0,0:0:0:0:
128,144,303467,1,0,0:0:0:0:
95,150,303555,1,0,0:0:0:0:
69,172,303644,1,0,0:0:0:0:
54,202,303732,1,0,0:0:0:0:
53,235,303820,5,0,0:0:0:0:
66,265,303908,1,0,0:0:0:0:
92,286,303997,1,0,0:0:0:0:
124,295,304085,1,0,0:0:0:0:
156,286,304173,5,0,0:0:0:0:
366,224,304349,1,0,0:0:0:0:
159,370,304526,1,0,0:0:0:0:
318,135,304702,1,0,0:0:0:0:
273,336,304879,2,0,L|264:381,2,41.9999987182618
338,58,305232,5,0,0:0:0:0:
338,58,305320,1,0,0:0:0:0:
338,58,305408,2,0,L|366:19,2,41.9999987182618
133,286,305938,5,0,0:0:0:0:
165,295,306026,1,0,0:0:0:0:
198,297,306114,1,0,0:0:0:0:
227,281,306202,1,0,0:0:0:0:
255,263,306291,1,0,0:0:0:0:
288,260,306379,1,0,0:0:0:0:
320,269,306467,1,0,0:0:0:0:
348,286,306555,1,0,0:0:0:0:
380,295,306644,1,0,0:0:0:0:
413,294,306732,1,0,0:0:0:0:
442,278,306820,1,0,0:0:0:0:
462,251,306908,1,0,0:0:0:0:
469,217,306997,1,0,0:0:0:0:
462,184,307085,1,0,0:0:0:0:
443,155,307173,1,0,0:0:0:0:
412,140,307261,1,0,0:0:0:0:
326,139,307349,5,0,0:0:0:0:
286,153,307438,1,0,0:0:0:0:
260,186,307526,1,0,0:0:0:0:
233,218,307614,1,0,0:0:0:0:
194,234,307702,1,0,0:0:0:0:
152,225,307791,1,0,0:0:0:0:
123,194,307879,1,0,0:0:0:0:
110,154,307967,1,0,0:0:0:0:
110,112,308055,1,0,0:0:0:0:
129,74,308144,1,0,0:0:0:0:
168,59,308232,1,0,0:0:0:0:
209,55,308320,1,0,0:0:0:0:
248,68,308408,1,0,0:0:0:0:
278,96,308497,1,0,0:0:0:0:
294,134,308585,1,0,0:0:0:0:
284,174,308673,1,0,0:0:0:0:
297,261,308761,5,0,0:0:0:0:
297,311,308849,1,0,0:0:0:0:
321,355,308938,1,0,0:0:0:0:
366,377,309026,1,0,0:0:0:0:
415,368,309114,1,0,0:0:0:0:
448,330,309202,1,0,0:0:0:0:
446,279,309291,1,0,0:0:0:0:
410,243,309379,1,0,0:0:0:0:
360,235,309467,1,0,0:0:0:0:
313,253,309555,1,0,0:0:0:0:
276,288,309644,1,0,0:0:0:0:
243,326,309732,1,0,0:0:0:0:
199,350,309820,1,0,0:0:0:0:
32,319,310173,5,0,0:0:0:0:
32,251,310261,1,0,0:0:0:0:
58,189,310349,1,0,0:0:0:0:
115,152,310438,1,0,0:0:0:0:
181,159,310526,1,0,0:0:0:0:
224,210,310614,1,0,0:0:0:0:
277,250,310702,1,0,0:0:0:0:
344,248,310791,1,0,0:0:0:0:
405,221,310879,1,0,0:0:0:0:
442,165,310967,1,0,0:0:0:0:
439,98,311055,1,0,0:0:0:0:
403,40,311144,1,0,0:0:0:0:
338,22,311232,1,0,0:0:0:0:
270,20,311320,1,0,0:0:0:0:
218,62,311408,1,0,0:0:0:0:
197,126,311497,1,0,0:0:0:0:
197,193,311585,6,0,L|176:248,2,35
206,139,311866,1,0,0:0:0:0:
234,91,311960,1,0,0:0:0:0:
271,51,312053,1,0,0:0:0:0:
323,36,312147,1,0,0:0:0:0:
377,40,312241,1,0,0:0:0:0:
425,65,312335,1,0,0:0:0:0:
452,111,312428,1,0,0:0:0:0:
462,164,312522,1,0,0:0:0:0:
453,217,312616,1,0,0:0:0:0:
420,261,312710,5,0,0:0:0:0:
383,299,312803,2,0,L|384:364,2,35
358,210,313085,5,0,0:0:0:0:
340,158,313178,1,0,0:0:0:0:
294,128,313272,1,0,0:0:0:0:
241,141,313366,1,0,0:0:0:0:
204,182,313460,1,0,0:0:0:0:
194,235,313553,1,0,0:0:0:0:
176,286,313647,1,0,0:0:0:0:
130,316,313741,6,0,L|80:336,1,35
254,335,313928,2,0,L|304:312,2,35
398,269,314210,2,0,L|438:248,2,35
217,211,314585,5,0,0:0:0:0:
163,223,314678,1,0,0:0:0:0:
109,213,314772,1,0,0:0:0:0:
74,170,314866,1,0,0:0:0:0:
63,115,314960,1,0,0:0:0:0:
90,68,315053,1,0,0:0:0:0:
141,50,315147,5,0,0:0:0:0:
195,50,315241,1,0,0:0:0:0:
240,81,315335,1,0,0:0:0:0:
276,121,315428,1,0,0:0:0:0:
304,167,315522,1,0,0:0:0:0:
352,191,315616,1,0,0:0:0:0:
406,198,315710,1,0,0:0:0:0:
455,185,315803,6,0,P|471:138|473:98,1,70
353,11,316085,5,0,0:0:0:0:
302,30,316178,1,0,0:0:0:0:
273,76,316272,1,0,0:0:0:0:
281,130,316366,1,0,0:0:0:0:
313,173,316460,1,0,0:0:0:0:
346,215,316553,1,0,0:0:0:0:
365,265,316647,1,0,0:0:0:0:
350,318,316741,1,0,0:0:0:0:
311,352,316835,6,0,L|215:352,1,83.9999974365235
104,305,317116,2,0,L|182:307,1,41.9999987182618
274,270,317303,2,0,B|224:244|224:244|185:235,1,83.9999974365235
31,195,317585,5,0,0:0:0:0:
70,232,317678,1,0,0:0:0:0:
123,244,317772,1,0,0:0:0:0:
175,229,317866,1,0,0:0:0:0:
215,191,317960,5,0,0:0:0:0:
229,138,318053,1,0,0:0:0:0:
248,87,318147,1,0,0:0:0:0:
284,46,318241,1,0,0:0:0:0:
337,34,318335,1,0,0:0:0:0:
389,47,318428,1,0,0:0:0:0:
422,89,318522,1,0,0:0:0:0:
433,142,318616,1,0,0:0:0:0:
430,197,318710,6,0,P|400:245|335:278,1,111.999996582031
488,353,319085,5,0,0:0:0:0:
433,355,319178,1,0,0:0:0:0:
378,355,319272,1,0,0:0:0:0:
323,357,319366,1,0,0:0:0:0:
268,359,319460,1,0,0:0:0:0:
213,359,319553,1,0,0:0:0:0:
158,359,319647,1,0,0:0:0:0:
104,359,319741,1,0,0:0:0:0:
51,362,319835,6,0,L|-16:363,2,41.9999987182618
156,286,320116,2,0,L|114:286,1,41.9999987182618
27,215,320303,2,0,L|138:215,1,83.9999974365235
272,276,320585,5,0,0:0:0:0:
326,274,320678,1,0,0:0:0:0:
379,263,320772,1,0,0:0:0:0:
414,221,320866,1,0,0:0:0:0:
428,167,320960,1,0,0:0:0:0:
413,114,321053,1,0,0:0:0:0:
364,89,321147,5,0,0:0:0:0:
310,99,321241,1,0,0:0:0:0:
305,153,321335,1,0,0:0:0:0:
349,185,321428,1,0,0:0:0:0:
399,165,321522,1,0,0:0:0:0:
439,129,321616,1,0,0:0:0:0:
450,75,321710,6,0,L|448:27,2,41.9999987182618
194,24,322085,5,0,0:0:0:0:
141,25,322178,1,0,0:0:0:0:
94,53,322272,1,0,0:0:0:0:
71,102,322366,1,0,0:0:0:0:
100,148,322460,1,0,0:0:0:0:
149,170,322553,1,0,0:0:0:0:
200,186,322647,1,0,0:0:0:0:
235,227,322741,1,0,0:0:0:0:
216,274,322835,6,0,P|174:307|140:327,1,83.9999974365235
31,297,323116,2,0,L|89:262,1,41.9999987182618
200,186,323303,2,0,L|283:130,1,83.9999974365235
345,314,323585,5,0,0:0:0:0:
306,301,323678,1,0,0:0:0:0:
273,277,323772,1,0,0:0:0:0:
252,242,323866,1,0,0:0:0:0:
252,200,323960,1,0,0:0:0:0:
269,162,324053,1,0,0:0:0:0:
279,122,324147,1,0,0:0:0:0:
275,81,324241,1,0,0:0:0:0:
251,47,324335,5,0,0:0:0:0:
215,27,324428,1,0,0:0:0:0:
174,23,324522,1,0,0:0:0:0:
137,43,324616,1,0,0:0:0:0:
115,79,324710,6,0,P|164:98|248:94,1,130.666662679037
342,0,325085,5,0,0:0:0:0:
369,32,325178,1,0,0:0:0:0:
370,71,325272,1,0,0:0:0:0:
358,112,325366,1,0,0:0:0:0:
329,142,325460,1,0,0:0:0:0:
319,183,325553,1,0,0:0:0:0:
333,223,325647,1,0,0:0:0:0:
366,250,325741,1,0,0:0:0:0:
402,273,325835,6,0,L|451:290,2,48.9999985046387
324,306,326116,2,0,L|283:273,1,48.9999985046387
135,238,326303,2,0,L|216:308,1,97.9999970092774
390,288,326585,5,0,0:0:0:0:
419,258,326678,1,0,0:0:0:0:
428,217,326772,1,0,0:0:0:0:
428,175,326866,1,0,0:0:0:0:
415,135,326960,1,0,0:0:0:0:
388,104,327053,1,0,0:0:0:0:
351,86,327147,1,0,0:0:0:0:
310,78,327241,1,0,0:0:0:0:
269,84,327335,5,0,0:0:0:0:
233,104,327428,1,0,0:0:0:0:
204,135,327522,1,0,0:0:0:0:
188,174,327616,1,0,0:0:0:0:
226,193,327710,6,0,P|286:180|339:182,1,97.9999970092774
416,130,328085,5,0,0:0:0:0:
398,93,328178,1,0,0:0:0:0:
367,65,328272,1,0,0:0:0:0:
330,46,328366,1,0,0:0:0:0:
289,40,328460,1,0,0:0:0:0:
248,39,328553,1,0,0:0:0:0:
207,48,328647,1,0,0:0:0:0:
171,69,328741,1,0,0:0:0:0:
153,106,328835,6,0,L|189:139,2,48.9999985046387
171,233,329116,2,0,L|131:189,1,48.9999985046387
53,163,329303,2,0,B|57:209|57:209|81:262,1,97.9999970092774
203,358,329585,5,0,0:0:0:0:
239,345,329678,1,0,0:0:0:0:
266,317,329772,1,0,0:0:0:0:
267,277,329866,1,0,0:0:0:0:
238,249,329960,1,0,0:0:0:0:
201,235,330053,1,0,0:0:0:0:
161,230,330147,1,0,0:0:0:0:
122,221,330241,1,0,0:0:0:0:
91,196,330335,5,0,0:0:0:0:
70,163,330428,1,0,0:0:0:0:
67,123,330522,1,0,0:0:0:0:
75,84,330616,1,0,0:0:0:0:
91,48,330710,6,0,P|139:16|218:5,1,130.666662679037
379,22,331085,5,0,0:0:0:0:
417,28,331178,1,0,0:0:0:0:
445,55,331272,1,0,0:0:0:0:
444,94,331366,1,0,0:0:0:0:
417,123,331460,1,0,0:0:0:0:
380,136,331553,1,0,0:0:0:0:
341,145,331647,1,0,0:0:0:0:
305,161,331741,1,0,0:0:0:0:
277,189,331835,6,0,L|280:256,2,48.9999985046387
387,289,332116,2,0,L|382:216,1,48.9999985046387
204,269,332303,2,0,P|243:308|286:320,1,97.9999970092774
494,253,332585,5,0,0:0:0:0:
486,214,332678,1,0,0:0:0:0:
454,190,332772,1,0,0:0:0:0:
414,186,332866,1,0,0:0:0:0:
381,208,332960,1,0,0:0:0:0:
365,243,333053,1,0,0:0:0:0:
336,270,333147,1,0,0:0:0:0:
299,284,333241,1,0,0:0:0:0:
260,277,333335,5,0,0:0:0:0:
229,252,333428,1,0,0:0:0:0:
205,220,333522,1,0,0:0:0:0:
201,180,333616,1,0,0:0:0:0:
197,140,333710,6,0,L|199:77,2,48.9999985046387
71,92,334085,5,0,0:0:0:0:
88,57,334178,1,0,0:0:0:0:
121,36,334272,1,0,0:0:0:0:
160,36,334366,1,0,0:0:0:0:
194,54,334460,1,0,0:0:0:0:
229,69,334553,1,0,0:0:0:0:
268,69,334647,1,0,0:0:0:0:
305,56,334741,1,0,0:0:0:0:
338,35,334835,6,0,L|432:19,1,65.3333313395183
400,146,335085,1,0,0:0:0:0:
222,167,335210,2,0,L|289:168,2,65.3333313395183
141,167,335522,1,0,0:0:0:0:
56,165,335585,6,0,B|81:218|81:218|127:243,1,65.3333313395183
188,248,335835,1,0,0:0:0:0:
268,261,335960,2,0,L|350:275,2,65.3333313395183
39,306,336335,5,0,0:0:0:0:
39,306,336460,1,0,0:0:0:0:
39,306,336585,1,0,0:0:0:0:
258,321,336710,2,0,L|341:325,2,65.3333313395183
394,159,337085,5,0,0:0:0:0:
394,159,337210,1,0,0:0:0:0:
394,159,337335,1,0,0:0:0:0:
141,82,337460,2,0,L|61:54,2,65.3333313395183
463,326,337835,5,0,0:0:0:0:
