osu file format v14

[General]
AudioFilename: audio.mp3
AudioLeadIn: 0
PreviewTime: -1
Countdown: 0
SampleSet: None
StackLeniency: 0.7
Mode: 1
LetterboxInBreaks: 0
WidescreenStoryboard: 1

[Editor]
Bookmarks: 900,11005,21110,26163,46373,51426,66584,74163,84268,89321,109531,114584,134794,144900,155005,165110,185321,197952,208057,218163,228742
DistanceSpacing: 1.1
BeatDivisor: 3
GridSize: 32
TimelineZoom: 1.9

[Metadata]
Title:Rise Again
TitleUnicode:Rise Again
Artist:Equilibrium
ArtistUnicode:Equilibrium
Creator:LZD
Version:Muzukashii
Source:Armageddon
Tags:Folk Metal
BeatmapID:1367603
BeatmapSetID:645370

[Difficulty]
HPDrainRate:6
CircleSize:2
OverallDifficulty:5
ApproachRate:5
SliderMultiplier:1.4
SliderTickRate:1

[Events]
//Background and Video events
0,0,"medieval_battlefield_by_solarsouth-d974ln9.jpg",0,0
//Break Periods
//Storyboard Layer 0 (Background)
//Storyboard Layer 1 (Fail)
//Storyboard Layer 2 (Pass)
//Storyboard Layer 3 (Foreground)
//Storyboard Layer 4 (Overlay)
//Storyboard Sound Samples

[TimingPoints]
909,315.789473684211,4,1,0,20,1,0
11014,-100,4,1,0,35,0,0
26172,-90.9090909090909,4,1,0,50,0,1
46382,-90.9090909090909,4,1,0,50,0,0
46593,-100,4,1,0,50,0,0
89330,-90.9090909090909,4,1,0,50,0,1
109540,-90.9090909090909,4,1,0,50,0,0
109791,-100,4,1,0,50,0,0
166382,-90.9090909090909,4,1,0,50,0,1
167645,-90.9090909090909,4,1,0,50,0,0
168593,-90.9090909090909,4,1,0,50,0,1
185330,-90.9090909090909,4,1,0,50,0,0
185580,-142.857142857143,4,1,0,20,0,0
197566,-100,4,1,0,50,0,0

[HitObjects]
192,160,909,5,8,0:0:0:0:
96,160,1540,1,0,0:0:0:0:
192,192,2172,1,8,0:0:0:0:
192,192,2487,1,0,0:0:0:0:
128,160,2645,1,0,0:0:0:0:
192,192,2803,1,8,0:0:0:0:
192,160,3435,1,8,0:0:0:0:
128,160,4066,1,0,0:0:0:0:
192,160,4698,1,8,0:0:0:0:
192,192,5014,1,0,0:0:0:0:
128,192,5172,1,0,0:0:0:0:
192,192,5330,1,8,0:0:0:0:
192,192,5961,1,8,0:0:0:0:
128,160,6593,1,0,0:0:0:0:
192,192,7224,1,8,0:0:0:0:
192,192,7540,1,0,0:0:0:0:
96,160,7698,1,0,0:0:0:0:
192,192,7856,1,8,0:0:0:0:
192,192,8487,1,8,0:0:0:0:
128,160,9119,1,0,0:0:0:0:
192,192,9751,1,8,0:0:0:0:
192,192,10066,1,0,0:0:0:0:
160,128,10224,1,0,0:0:0:0:
192,192,10382,1,8,0:0:0:0:
128,160,11014,1,8,0:0:0:0:
128,160,11172,1,8,0:0:0:0:
128,160,11330,1,0,0:0:0:0:
160,96,11487,1,0,0:0:0:0:
128,160,11645,1,8,0:0:0:0:
128,160,11961,1,0,0:0:0:0:
128,160,12119,1,0,0:0:0:0:
128,160,12277,1,8,0:0:0:0:
0,128,12593,1,0,0:0:0:0:
32,128,12672,1,0,0:0:0:0:
64,128,12751,1,0,0:0:0:0:
192,160,12909,1,8,0:0:0:0:
192,160,13224,1,8,0:0:0:0:
192,160,13540,1,8,0:0:0:0:
192,160,13698,1,8,0:0:0:0:
192,160,13856,1,0,0:0:0:0:
128,160,14014,1,0,0:0:0:0:
192,160,14172,1,8,0:0:0:0:
192,160,14487,1,0,0:0:0:0:
192,160,14645,1,0,0:0:0:0:
192,160,14803,1,8,0:0:0:0:
64,128,15119,1,0,0:0:0:0:
64,128,15198,1,0,0:0:0:0:
64,128,15277,1,0,0:0:0:0:
64,160,15435,1,8,0:0:0:0:
64,128,15751,1,0,0:0:0:0:
192,128,16066,1,8,0:0:0:0:
160,192,16224,1,0,0:0:0:0:
192,128,16540,1,0,0:0:0:0:
192,128,16856,1,8,0:0:0:0:
192,128,17014,1,0,0:0:0:0:
192,128,17330,1,8,0:0:0:0:
192,128,17645,1,0,0:0:0:0:
192,128,17803,1,0,0:0:0:0:
128,160,17961,1,8,0:0:0:0:
64,160,18277,1,0,0:0:0:0:
128,160,18435,1,0,0:0:0:0:
64,128,18593,1,8,0:0:0:0:
192,128,18751,1,0,0:0:0:0:
64,128,19066,1,8,0:0:0:0:
96,160,19382,1,0,0:0:0:0:
128,160,19540,1,8,0:0:0:0:
128,160,19856,1,8,0:0:0:0:
192,128,20014,1,8,0:0:0:0:
128,160,20172,1,0,0:0:0:0:
128,128,20330,1,0,0:0:0:0:
128,128,20487,1,8,0:0:0:0:
128,128,20803,1,0,0:0:0:0:
192,128,20961,1,0,0:0:0:0:
128,128,21119,1,12,0:0:0:0:
128,128,21435,1,0,0:0:0:0:
128,128,21751,1,0,0:0:0:0:
128,128,22066,1,0,0:0:0:0:
96,128,22382,5,12,0:0:0:0:
128,128,22698,1,0,0:0:0:0:
128,128,23014,1,0,0:0:0:0:
64,128,23330,1,0,0:0:0:0:
64,128,23645,1,8,0:0:0:0:
160,96,23803,1,0,0:0:0:0:
160,160,24119,1,0,0:0:0:0:
160,160,24277,1,8,0:0:0:0:
160,160,24435,1,0,0:0:0:0:
160,160,24751,1,0,0:0:0:0:
160,160,24909,1,8,0:0:0:0:
128,160,25224,1,8,0:0:0:0:
192,192,25540,1,8,0:0:0:0:
160,96,25856,1,8,0:0:0:0:
128,160,26172,1,8,0:0:0:0:
128,160,26330,1,8,0:0:0:0:
128,160,26487,1,0,0:0:0:0:
160,96,26645,1,0,0:0:0:0:
128,160,26803,1,8,0:0:0:0:
128,160,27119,1,0,0:0:0:0:
128,160,27277,1,0,0:0:0:0:
128,160,27435,1,8,0:0:0:0:
0,128,27751,1,0,0:0:0:0:
32,128,27830,1,0,0:0:0:0:
64,128,27909,1,0,0:0:0:0:
192,160,28066,1,8,0:0:0:0:
192,160,28382,1,8,0:0:0:0:
192,160,28698,1,8,0:0:0:0:
192,160,28856,1,8,0:0:0:0:
192,160,29014,1,0,0:0:0:0:
128,160,29172,1,0,0:0:0:0:
192,160,29330,1,8,0:0:0:0:
192,160,29645,1,0,0:0:0:0:
192,160,29803,1,0,0:0:0:0:
192,160,29961,1,8,0:0:0:0:
64,128,30277,1,0,0:0:0:0:
64,128,30356,1,0,0:0:0:0:
64,128,30435,1,0,0:0:0:0:
64,160,30593,1,8,0:0:0:0:
64,128,30909,1,0,0:0:0:0:
192,128,31224,1,12,0:0:0:0:
160,192,31382,1,4,0:0:0:0:
192,128,31698,1,0,0:0:0:0:
192,128,32014,1,8,0:0:0:0:
192,128,32172,1,0,0:0:0:0:
192,128,32487,1,8,0:0:0:0:
192,128,32803,1,0,0:0:0:0:
192,128,32961,1,0,0:0:0:0:
128,160,33119,1,8,0:0:0:0:
64,160,33435,1,0,0:0:0:0:
128,160,33593,1,0,0:0:0:0:
64,128,33751,1,8,0:0:0:0:
192,128,33909,1,0,0:0:0:0:
64,128,34224,1,12,0:0:0:0:
96,160,34540,1,0,0:0:0:0:
128,160,34698,1,8,0:0:0:0:
128,160,35014,1,8,0:0:0:0:
64,160,35172,1,8,0:0:0:0:
128,160,35330,1,0,0:0:0:0:
128,160,35487,1,0,0:0:0:0:
128,160,35645,1,8,0:0:0:0:
192,32,35961,1,0,0:0:0:0:
128,160,36277,1,8,0:0:0:0:
128,160,36435,1,8,0:0:0:0:
128,160,36593,1,0,0:0:0:0:
160,96,36751,1,0,0:0:0:0:
128,160,36909,1,8,0:0:0:0:
128,160,37224,1,0,0:0:0:0:
128,160,37382,1,0,0:0:0:0:
128,160,37540,1,8,0:0:0:0:
0,128,37856,1,0,0:0:0:0:
32,128,37935,1,0,0:0:0:0:
64,128,38014,1,0,0:0:0:0:
192,160,38172,1,8,0:0:0:0:
192,160,38487,1,8,0:0:0:0:
192,160,38803,1,8,0:0:0:0:
192,160,38961,1,8,0:0:0:0:
192,160,39119,1,0,0:0:0:0:
128,160,39277,1,0,0:0:0:0:
192,160,39435,1,8,0:0:0:0:
192,160,39751,1,0,0:0:0:0:
192,160,39909,1,0,0:0:0:0:
192,160,40066,1,8,0:0:0:0:
64,128,40382,1,0,0:0:0:0:
64,128,40461,1,0,0:0:0:0:
64,128,40540,1,0,0:0:0:0:
64,160,40698,1,8,0:0:0:0:
64,128,41014,1,0,0:0:0:0:
192,128,41330,1,12,0:0:0:0:
160,192,41487,1,4,0:0:0:0:
192,128,41803,1,0,0:0:0:0:
192,128,42119,1,8,0:0:0:0:
192,128,42277,1,0,0:0:0:0:
192,128,42593,1,8,0:0:0:0:
192,128,42909,1,0,0:0:0:0:
192,128,43066,1,0,0:0:0:0:
128,160,43224,1,8,0:0:0:0:
64,160,43540,1,0,0:0:0:0:
128,160,43698,1,0,0:0:0:0:
64,128,43856,1,8,0:0:0:0:
192,128,44014,1,0,0:0:0:0:
64,128,44330,1,12,0:0:0:0:
96,160,44645,1,0,0:0:0:0:
128,160,44803,1,8,0:0:0:0:
128,160,45119,1,8,0:0:0:0:
192,128,45277,1,8,0:0:0:0:
128,160,45435,1,0,0:0:0:0:
128,128,45593,1,0,0:0:0:0:
128,128,45751,1,8,0:0:0:0:
128,128,46066,1,0,0:0:0:0:
192,128,46224,1,0,0:0:0:0:
128,128,46382,1,12,0:0:0:0:
64,320,46856,1,0,0:0:0:0:
147,245,47014,5,8,0:0:0:0:
160,256,47487,1,8,0:0:0:0:
160,256,47645,1,0,0:0:0:0:
64,96,48119,1,0,0:0:0:0:
96,192,48277,1,8,0:0:0:0:
64,192,48751,1,0,0:0:0:0:
64,192,48909,1,8,0:0:0:0:
224,64,49382,1,0,0:0:0:0:
64,192,49540,1,8,0:0:0:0:
68,202,50014,1,8,0:0:0:0:
68,202,50172,1,0,0:0:0:0:
86,188,50487,1,8,0:0:0:0:
86,188,50803,1,0,0:0:0:0:
256,192,51119,1,8,0:0:0:0:
224,192,51435,1,0,0:0:0:0:
128,192,51593,1,8,0:0:0:0:
160,224,51909,1,8,0:0:0:0:
160,224,52224,1,8,0:0:0:0:
160,224,52540,1,8,0:0:0:0:
160,224,52856,1,8,0:0:0:0:
64,96,53172,1,8,0:0:0:0:
160,224,53487,1,8,0:0:0:0:
96,96,53803,1,8,0:0:0:0:
128,160,53961,1,0,0:0:0:0:
128,160,54119,1,8,0:0:0:0:
128,160,54435,1,8,0:0:0:0:
128,160,54751,1,8,0:0:0:0:
128,160,55066,1,8,0:0:0:0:
128,160,55382,1,8,0:0:0:0:
128,160,55698,1,8,0:0:0:0:
96,160,56014,1,8,0:0:0:0:
160,160,56172,1,0,0:0:0:0:
96,160,56330,1,8,0:0:0:0:
96,160,56487,1,0,0:0:0:0:
96,160,56645,1,8,0:0:0:0:
224,256,56961,1,8,0:0:0:0:
96,160,57277,1,8,0:0:0:0:
224,256,57593,1,8,0:0:0:0:
96,160,57909,1,8,0:0:0:0:
224,160,58224,1,8,0:0:0:0:
224,160,58540,1,8,0:0:0:0:
224,160,58698,1,0,0:0:0:0:
160,128,58856,1,0,0:0:0:0:
160,160,59014,1,12,0:0:0:0:
32,160,59330,1,4,0:0:0:0:
160,64,59645,1,12,0:0:0:0:
32,160,59961,1,4,0:0:0:0:
0,192,60277,1,12,0:0:0:0:
64,160,60435,1,12,0:0:0:0:
0,192,60751,1,12,0:0:0:0:
128,96,61066,1,12,0:0:0:0:
128,256,61382,1,12,0:0:0:0:
128,192,61540,1,4,0:0:0:0:
128,192,61698,1,8,0:0:0:0:
160,224,62014,1,8,0:0:0:0:
160,224,62330,1,8,0:0:0:0:
160,224,62645,1,8,0:0:0:0:
160,224,62961,1,8,0:0:0:0:
64,96,63277,1,8,0:0:0:0:
160,224,63593,1,8,0:0:0:0:
96,96,63909,1,8,0:0:0:0:
128,160,64066,1,0,0:0:0:0:
128,160,64224,1,8,0:0:0:0:
128,160,64540,1,8,0:0:0:0:
128,160,64856,1,8,0:0:0:0:
128,160,65172,1,8,0:0:0:0:
128,160,65487,1,8,0:0:0:0:
128,160,65803,1,8,0:0:0:0:
96,160,66119,1,8,0:0:0:0:
160,128,66277,1,0,0:0:0:0:
96,160,66435,1,8,0:0:0:0:
96,160,66593,1,0,0:0:0:0:
96,160,66751,1,8,0:0:0:0:
32,192,67066,1,8,0:0:0:0:
64,160,67382,1,8,0:0:0:0:
64,160,67540,1,0,0:0:0:0:
32,160,67698,1,8,0:0:0:0:
96,128,67856,1,0,0:0:0:0:
32,160,68014,1,8,0:0:0:0:
224,160,68330,1,8,0:0:0:0:
224,160,68645,1,8,0:0:0:0:
224,160,68803,1,0,0:0:0:0:
128,160,68961,1,0,0:0:0:0:
160,128,69119,1,8,0:0:0:0:
128,160,69435,1,0,0:0:0:0:
64,160,69751,1,8,0:0:0:0:
160,160,70066,1,0,0:0:0:0:
64,160,70382,1,8,0:0:0:0:
160,160,70540,1,8,0:0:0:0:
160,160,70698,1,0,0:0:0:0:
160,96,70856,1,0,0:0:0:0:
224,96,71014,1,8,0:0:0:0:
160,160,71330,1,0,0:0:0:0:
64,160,71645,5,8,0:0:0:0:
64,160,71803,1,8,0:0:0:0:
64,160,71961,1,0,0:0:0:0:
128,128,72119,1,0,0:0:0:0:
64,160,72277,1,8,0:0:0:0:
64,160,72435,1,8,0:0:0:0:
64,160,72593,1,0,0:0:0:0:
128,128,72751,1,0,0:0:0:0:
64,160,72909,5,8,0:0:0:0:
64,160,73224,5,8,0:0:0:0:
64,160,73540,1,8,0:0:0:0:
32,160,73698,5,0,0:0:0:0:
32,160,73856,5,0,0:0:0:0:
32,160,74014,5,0,0:0:0:0:
32,160,74172,5,12,0:0:0:0:
32,224,74487,1,0,0:0:0:0:
96,160,74645,1,8,0:0:0:0:
32,192,74961,1,0,0:0:0:0:
96,160,75119,1,8,0:0:0:0:
32,192,75277,1,0,0:0:0:0:
128,224,75593,1,0,0:0:0:0:
96,128,75751,1,8,0:0:0:0:
128,128,75909,1,0,0:0:0:0:
64,128,76066,1,0,0:0:0:0:
128,128,76224,1,0,0:0:0:0:
128,128,76382,1,8,0:0:0:0:
128,96,76698,1,8,0:0:0:0:
128,96,77014,1,0,0:0:0:0:
128,96,77172,1,8,0:0:0:0:
32,192,77487,1,0,0:0:0:0:
96,160,77645,1,8,0:0:0:0:
32,192,77803,1,0,0:0:0:0:
32,160,78119,1,0,0:0:0:0:
96,128,78277,1,8,0:0:0:0:
96,160,78435,1,0,0:0:0:0:
64,128,78593,1,0,0:0:0:0:
128,96,78751,1,8,0:0:0:0:
160,96,78830,1,8,0:0:0:0:
128,128,78909,1,8,0:0:0:0:
128,96,79224,1,8,0:0:0:0:
128,96,79540,1,0,0:0:0:0:
128,96,79698,1,8,0:0:0:0:
32,192,80014,1,0,0:0:0:0:
128,160,80172,1,8,0:0:0:0:
32,192,80330,1,0,0:0:0:0:
128,160,80645,1,0,0:0:0:0:
96,128,80803,1,8,0:0:0:0:
128,160,80961,1,0,0:0:0:0:
128,128,81119,1,0,0:0:0:0:
128,160,81277,1,0,0:0:0:0:
64,128,81435,1,8,0:0:0:0:
128,96,81751,1,8,0:0:0:0:
32,224,82066,1,0,0:0:0:0:
96,160,82224,1,8,0:0:0:0:
32,192,82540,1,8,0:0:0:0:
64,128,82698,1,0,0:0:0:0:
32,192,82856,1,8,0:0:0:0:
128,224,83172,1,0,0:0:0:0:
96,128,83330,1,8,0:0:0:0:
160,96,83487,1,0,0:0:0:0:
64,128,83645,1,0,0:0:0:0:
64,128,83803,1,8,0:0:0:0:
64,128,83882,1,8,0:0:0:0:
128,128,83961,1,8,0:0:0:0:
128,128,84277,1,12,0:0:0:0:
64,320,84751,1,0,0:0:0:0:
147,245,84909,5,8,0:0:0:0:
128,192,85066,1,0,0:0:0:0:
160,256,85382,1,8,0:0:0:0:
160,256,85540,1,0,0:0:0:0:
64,96,86014,1,0,0:0:0:0:
96,192,86172,1,8,0:0:0:0:
128,160,86330,1,0,0:0:0:0:
64,192,86645,1,0,0:0:0:0:
64,192,86803,1,8,0:0:0:0:
224,64,87277,1,0,0:0:0:0:
64,192,87435,1,8,0:0:0:0:
128,160,87593,1,0,0:0:0:0:
68,202,87909,1,8,0:0:0:0:
68,202,88066,1,0,0:0:0:0:
86,188,88382,5,8,0:0:0:0:
86,188,88698,1,0,0:0:0:0:
256,192,89014,1,8,0:0:0:0:
128,160,89330,1,8,0:0:0:0:
128,160,89487,1,8,0:0:0:0:
128,160,89645,1,0,0:0:0:0:
160,96,89803,1,0,0:0:0:0:
128,160,89961,1,8,0:0:0:0:
128,160,90277,1,0,0:0:0:0:
128,160,90435,1,0,0:0:0:0:
128,160,90593,1,8,0:0:0:0:
0,128,90909,1,0,0:0:0:0:
32,128,90987,1,0,0:0:0:0:
64,128,91066,1,0,0:0:0:0:
192,160,91224,1,8,0:0:0:0:
192,160,91540,1,8,0:0:0:0:
192,160,91856,1,8,0:0:0:0:
192,160,92014,1,8,0:0:0:0:
192,160,92172,1,0,0:0:0:0:
128,160,92330,1,0,0:0:0:0:
192,160,92487,1,8,0:0:0:0:
192,160,92803,1,0,0:0:0:0:
192,160,92961,1,0,0:0:0:0:
192,160,93119,1,8,0:0:0:0:
64,128,93435,1,0,0:0:0:0:
64,128,93514,1,0,0:0:0:0:
64,128,93593,1,0,0:0:0:0:
64,160,93751,1,8,0:0:0:0:
64,128,94066,1,0,0:0:0:0:
192,128,94382,1,12,0:0:0:0:
160,192,94540,1,4,0:0:0:0:
192,128,94856,1,0,0:0:0:0:
192,128,95172,1,8,0:0:0:0:
192,128,95330,1,0,0:0:0:0:
192,128,95645,1,8,0:0:0:0:
192,128,95961,1,0,0:0:0:0:
192,128,96119,1,0,0:0:0:0:
128,160,96277,1,8,0:0:0:0:
64,160,96593,1,0,0:0:0:0:
128,160,96751,1,0,0:0:0:0:
64,128,96909,1,8,0:0:0:0:
192,128,97066,1,0,0:0:0:0:
64,128,97382,1,12,0:0:0:0:
96,160,97698,1,0,0:0:0:0:
128,160,97856,1,8,0:0:0:0:
128,160,98172,1,8,0:0:0:0:
64,160,98330,1,8,0:0:0:0:
128,160,98487,1,0,0:0:0:0:
128,160,98645,1,0,0:0:0:0:
128,160,98803,1,8,0:0:0:0:
192,32,99119,1,0,0:0:0:0:
128,160,99435,1,8,0:0:0:0:
128,160,99593,1,8,0:0:0:0:
128,160,99751,1,0,0:0:0:0:
160,96,99909,1,0,0:0:0:0:
128,160,100066,1,8,0:0:0:0:
128,160,100382,1,0,0:0:0:0:
128,160,100540,1,0,0:0:0:0:
128,160,100698,1,8,0:0:0:0:
0,128,101014,1,0,0:0:0:0:
32,128,101093,1,0,0:0:0:0:
64,128,101172,1,0,0:0:0:0:
192,160,101330,1,8,0:0:0:0:
192,160,101645,1,8,0:0:0:0:
192,160,101961,1,8,0:0:0:0:
192,160,102119,1,8,0:0:0:0:
192,160,102277,1,0,0:0:0:0:
128,160,102435,1,0,0:0:0:0:
192,160,102593,1,8,0:0:0:0:
192,160,102909,1,0,0:0:0:0:
192,160,103066,1,0,0:0:0:0:
192,160,103224,1,8,0:0:0:0:
64,128,103540,1,0,0:0:0:0:
64,128,103619,1,0,0:0:0:0:
64,128,103698,1,0,0:0:0:0:
64,160,103856,1,8,0:0:0:0:
64,128,104172,1,0,0:0:0:0:
192,128,104487,1,12,0:0:0:0:
160,192,104645,1,4,0:0:0:0:
192,128,104961,1,0,0:0:0:0:
192,128,105277,1,8,0:0:0:0:
192,128,105435,1,0,0:0:0:0:
192,128,105751,1,8,0:0:0:0:
192,128,106066,1,0,0:0:0:0:
192,128,106224,1,0,0:0:0:0:
128,160,106382,1,8,0:0:0:0:
64,160,106698,1,0,0:0:0:0:
128,160,106856,1,0,0:0:0:0:
64,128,107014,1,8,0:0:0:0:
192,128,107224,1,0,0:0:0:0:
64,128,107435,1,0,0:0:0:0:
96,160,107645,1,12,0:0:0:0:
128,160,107961,1,8,0:0:0:0:
128,160,108277,1,8,0:0:0:0:
192,128,108435,1,8,0:0:0:0:
128,160,108593,1,0,0:0:0:0:
128,128,108751,1,0,0:0:0:0:
128,128,108909,1,8,0:0:0:0:
128,128,109224,1,0,0:0:0:0:
192,128,109382,1,0,0:0:0:0:
128,128,109540,5,12,0:0:0:0:
64,160,109856,1,0,0:0:0:0:
64,160,110172,1,0,0:0:0:0:
64,160,110330,1,0,0:0:0:0:
224,128,110645,5,12,0:0:0:0:
256,288,110961,1,12,0:0:0:0:
64,160,111277,1,0,0:0:0:0:
64,160,111435,1,0,0:0:0:0:
224,160,111751,1,12,0:0:0:0:
224,160,111909,1,12,0:0:0:0:
64,160,112224,1,0,0:0:0:0:
128,192,112382,1,12,0:0:0:0:
64,160,112698,1,0,0:0:0:0:
96,192,112856,1,12,0:0:0:0:
96,192,113172,1,4,0:0:0:0:
96,192,113487,1,4,0:0:0:0:
224,96,113803,1,12,0:0:0:0:
96,160,113961,1,0,0:0:0:0:
96,160,114119,1,0,0:0:0:0:
96,160,114277,1,0,0:0:0:0:
96,160,114435,1,0,0:0:0:0:
160,128,114593,1,12,0:0:0:0:
320,288,114909,1,0,0:0:0:0:
257,243,115066,1,0,0:0:0:0:
320,256,115224,1,0,0:0:0:0:
320,256,115540,1,8,0:0:0:0:
320,256,115856,1,0,0:0:0:0:
252,218,116014,1,0,0:0:0:0:
320,256,116172,1,0,0:0:0:0:
252,218,116330,1,0,0:0:0:0:
320,288,116487,1,8,0:0:0:0:
320,288,116803,1,0,0:0:0:0:
320,288,116961,1,0,0:0:0:0:
192,192,117119,1,8,0:0:0:0:
192,192,117435,1,0,0:0:0:0:
192,288,117751,1,8,0:0:0:0:
192,288,118066,1,0,0:0:0:0:
192,288,118224,1,8,0:0:0:0:
192,288,118540,1,0,0:0:0:0:
192,288,118698,1,0,0:0:0:0:
160,128,118856,1,0,0:0:0:0:
192,288,119014,1,8,0:0:0:0:
192,288,119330,1,0,0:0:0:0:
160,128,119645,1,12,0:0:0:0:
320,288,119961,1,0,0:0:0:0:
257,243,120119,1,0,0:0:0:0:
320,256,120277,1,0,0:0:0:0:
320,256,120593,1,8,0:0:0:0:
320,256,120909,1,0,0:0:0:0:
252,219,121066,1,0,0:0:0:0:
320,256,121224,1,0,0:0:0:0:
252,219,121382,1,0,0:0:0:0:
320,288,121540,1,8,0:0:0:0:
320,288,121856,1,0,0:0:0:0:
192,160,122014,1,0,0:0:0:0:
192,192,122172,1,8,0:0:0:0:
192,192,122487,1,0,0:0:0:0:
192,288,122803,1,8,0:0:0:0:
192,288,123119,1,0,0:0:0:0:
192,288,123277,1,0,0:0:0:0:
192,288,123593,1,8,0:0:0:0:
192,288,123751,1,8,0:0:0:0:
192,224,123909,1,8,0:0:0:0:
192,288,124066,1,0,0:0:0:0:
192,288,124382,1,0,0:0:0:0:
128,160,124698,1,12,0:0:0:0:
128,160,125014,1,0,0:0:0:0:
128,160,125172,1,0,0:0:0:0:
128,160,125330,1,0,0:0:0:0:
128,160,125645,1,8,0:0:0:0:
128,192,125961,1,0,0:0:0:0:
128,160,126119,1,0,0:0:0:0:
128,160,126277,1,0,0:0:0:0:
128,160,126435,1,0,0:0:0:0:
224,256,126593,1,8,0:0:0:0:
224,256,126909,1,0,0:0:0:0:
224,256,127066,1,0,0:0:0:0:
192,192,127224,1,8,0:0:0:0:
192,192,127540,1,0,0:0:0:0:
192,288,127856,1,8,0:0:0:0:
192,288,128172,1,0,0:0:0:0:
192,288,128330,1,8,0:0:0:0:
192,288,128645,1,0,0:0:0:0:
192,288,128803,1,0,0:0:0:0:
192,224,128961,1,0,0:0:0:0:
192,288,129119,1,8,0:0:0:0:
192,288,129435,1,0,0:0:0:0:
160,160,129751,1,12,0:0:0:0:
320,160,130066,1,0,0:0:0:0:
256,128,130224,1,0,0:0:0:0:
288,320,130382,1,8,0:0:0:0:
256,256,130540,1,0,0:0:0:0:
288,320,130698,1,8,0:0:0:0:
256,256,130856,1,8,0:0:0:0:
288,320,131014,1,0,0:0:0:0:
256,256,131172,1,8,0:0:0:0:
288,320,131330,1,0,0:0:0:0:
256,256,131487,1,0,0:0:0:0:
288,320,131645,1,8,0:0:0:0:
237,262,131803,1,0,0:0:0:0:
288,288,131961,1,8,0:0:0:0:
160,160,132119,1,8,0:0:0:0:
96,160,132277,1,0,0:0:0:0:
128,224,132593,1,8,0:0:0:0:
128,160,132909,1,0,0:0:0:0:
64,224,133066,1,0,0:0:0:0:
64,224,133224,1,8,0:0:0:0:
96,192,133540,1,0,0:0:0:0:
96,192,133856,1,8,0:0:0:0:
96,320,134172,1,8,0:0:0:0:
128,256,134330,1,8,0:0:0:0:
128,256,134487,1,0,0:0:0:0:
128,256,134645,1,0,0:0:0:0:
128,160,134803,1,12,0:0:0:0:
198,154,135119,1,8,0:0:0:0:
201,77,135277,1,0,0:0:0:0:
198,154,135435,1,8,0:0:0:0:
160,128,135593,1,8,0:0:0:0:
324,185,135751,1,0,0:0:0:0:
160,96,136066,1,8,0:0:0:0:
67,193,136382,1,8,0:0:0:0:
131,151,136540,1,8,0:0:0:0:
198,154,136698,1,0,0:0:0:0:
160,64,136856,1,0,0:0:0:0:
438,184,137014,1,8,0:0:0:0:
96,128,137330,1,0,0:0:0:0:
171,190,137645,1,0,0:0:0:0:
198,154,137803,1,0,0:0:0:0:
198,154,137961,1,8,0:0:0:0:
130,117,138119,1,0,0:0:0:0:
171,190,138277,1,0,0:0:0:0:
163,113,138435,1,0,0:0:0:0:
198,154,138593,1,8,0:0:0:0:
171,190,138909,1,8,0:0:0:0:
29,130,139224,1,8,0:0:0:0:
198,154,139382,1,0,0:0:0:0:
178,180,139540,1,8,0:0:0:0:
205,226,139698,1,0,0:0:0:0:
216,189,139856,1,8,0:0:0:0:
198,154,140172,1,8,0:0:0:0:
128,160,140330,1,0,0:0:0:0:
198,154,140487,1,8,0:0:0:0:
192,128,140803,1,8,0:0:0:0:
96,160,140961,1,0,0:0:0:0:
96,160,141119,1,8,0:0:0:0:
96,160,141435,1,8,0:0:0:0:
96,160,141751,1,8,0:0:0:0:
96,160,141909,1,0,0:0:0:0:
96,160,142066,1,8,0:0:0:0:
168,134,142224,1,0,0:0:0:0:
64,160,142382,1,8,0:0:0:0:
160,160,142540,1,0,0:0:0:0:
160,160,142698,1,0,0:0:0:0:
160,160,142856,1,0,0:0:0:0:
160,160,143014,1,8,0:0:0:0:
160,160,143330,1,8,0:0:0:0:
96,192,143645,5,8,0:0:0:0:
96,192,143803,1,8,0:0:0:0:
96,192,143961,1,8,0:0:0:0:
160,160,144119,1,8,0:0:0:0:
96,192,144277,1,0,0:0:0:0:
96,192,144435,1,0,0:0:0:0:
96,192,144593,1,0,0:0:0:0:
128,128,144751,1,0,0:0:0:0:
32,160,144909,5,12,0:0:0:0:
32,224,145224,1,0,0:0:0:0:
96,160,145382,1,8,0:0:0:0:
32,192,145698,1,0,0:0:0:0:
96,160,145856,1,8,0:0:0:0:
32,192,146014,1,0,0:0:0:0:
128,224,146330,1,0,0:0:0:0:
96,128,146487,1,8,0:0:0:0:
128,128,146645,1,0,0:0:0:0:
64,128,146803,1,0,0:0:0:0:
128,128,146961,1,0,0:0:0:0:
128,128,147119,1,8,0:0:0:0:
128,96,147435,1,8,0:0:0:0:
128,96,147751,1,0,0:0:0:0:
128,96,147909,1,8,0:0:0:0:
32,192,148224,1,0,0:0:0:0:
96,160,148382,1,8,0:0:0:0:
32,192,148540,1,0,0:0:0:0:
32,160,148856,1,0,0:0:0:0:
96,128,149014,1,8,0:0:0:0:
96,160,149172,1,0,0:0:0:0:
64,128,149330,1,0,0:0:0:0:
128,96,149487,1,8,0:0:0:0:
160,96,149566,1,8,0:0:0:0:
128,128,149645,1,8,0:0:0:0:
128,96,149961,1,8,0:0:0:0:
128,96,150277,1,0,0:0:0:0:
128,96,150435,1,8,0:0:0:0:
32,192,150751,1,0,0:0:0:0:
128,160,150909,1,8,0:0:0:0:
32,192,151066,1,0,0:0:0:0:
128,160,151382,1,0,0:0:0:0:
96,128,151540,1,8,0:0:0:0:
128,160,151698,1,0,0:0:0:0:
128,128,151856,1,0,0:0:0:0:
128,160,152014,1,0,0:0:0:0:
64,128,152172,1,8,0:0:0:0:
128,96,152487,1,8,0:0:0:0:
32,224,152803,1,0,0:0:0:0:
96,160,152961,1,8,0:0:0:0:
32,192,153277,1,8,0:0:0:0:
64,128,153435,1,0,0:0:0:0:
32,192,153593,1,8,0:0:0:0:
128,224,153909,1,0,0:0:0:0:
96,128,154066,1,8,0:0:0:0:
160,96,154224,5,0,0:0:0:0:
64,128,154382,1,0,0:0:0:0:
64,128,154540,1,8,0:0:0:0:
64,128,154619,1,8,0:0:0:0:
128,128,154698,1,8,0:0:0:0:
128,128,155014,1,12,0:0:0:0:
128,160,155330,5,8,0:0:0:0:
128,160,155487,1,0,0:0:0:0:
128,128,155645,1,0,0:0:0:0:
128,160,155803,1,8,0:0:0:0:
128,160,155961,1,0,0:0:0:0:
128,128,156119,1,0,0:0:0:0:
128,160,156277,1,8,0:0:0:0:
192,160,156435,1,0,0:0:0:0:
128,128,156593,1,0,0:0:0:0:
128,160,156751,5,8,0:0:0:0:
128,160,156909,1,0,0:0:0:0:
128,128,157066,1,0,0:0:0:0:
128,160,157224,1,8,0:0:0:0:
128,160,157382,1,0,0:0:0:0:
192,192,157540,1,0,0:0:0:0:
128,160,157698,1,8,0:0:0:0:
192,160,158014,1,0,0:0:0:0:
192,160,158172,1,8,0:0:0:0:
192,160,158487,1,0,0:0:0:0:
192,160,158645,1,8,0:0:0:0:
192,160,158803,1,0,0:0:0:0:
192,160,159119,1,8,0:0:0:0:
125,120,159277,1,0,0:0:0:0:
192,160,159435,1,0,0:0:0:0:
192,160,159593,1,8,0:0:0:0:
192,160,159751,1,0,0:0:0:0:
192,160,159909,1,0,0:0:0:0:
192,160,160066,1,8,0:0:0:0:
125,120,160224,1,0,0:0:0:0:
128,160,160382,5,0,0:0:0:0:
128,160,160540,1,8,0:0:0:0:
125,120,160698,1,0,0:0:0:0:
128,160,160856,1,0,0:0:0:0:
128,160,161014,1,8,0:0:0:0:
125,120,161172,1,0,0:0:0:0:
128,160,161330,1,0,0:0:0:0:
128,160,161487,1,8,0:0:0:0:
192,160,161803,1,8,0:0:0:0:
128,160,161961,5,8,0:0:0:0:
128,160,162277,1,8,0:0:0:0:
128,160,162435,1,8,0:0:0:0:
128,160,162593,1,0,0:0:0:0:
128,160,162751,1,8,0:0:0:0:
128,160,162909,1,8,0:0:0:0:
96,192,163224,1,0,0:0:0:0:
96,192,163382,1,8,0:0:0:0:
125,120,163540,1,0,0:0:0:0:
96,160,163698,1,8,0:0:0:0:
96,160,163856,1,0,0:0:0:0:
160,288,164172,1,8,0:0:0:0:
160,288,164330,1,8,0:0:0:0:
160,288,164487,1,0,0:0:0:0:
166,197,164645,1,8,0:0:0:0:
160,288,164803,1,0,0:0:0:0:
160,288,164961,1,0,0:0:0:0:
128,160,165119,1,8,0:0:0:0:
128,160,166382,1,8,0:0:0:0:
0,128,166698,1,0,0:0:0:0:
32,128,166777,1,0,0:0:0:0:
64,128,166856,1,0,0:0:0:0:
192,160,167014,1,8,0:0:0:0:
192,160,167330,1,8,0:0:0:0:
192,160,167645,1,8,0:0:0:0:
192,160,168593,1,0,0:0:0:0:
192,160,168751,1,0,0:0:0:0:
192,160,168909,1,8,0:0:0:0:
64,128,169224,1,0,0:0:0:0:
64,128,169303,1,0,0:0:0:0:
64,128,169382,1,0,0:0:0:0:
64,160,169540,1,8,0:0:0:0:
64,128,169856,1,0,0:0:0:0:
192,128,170172,1,12,0:0:0:0:
160,192,170330,1,4,0:0:0:0:
192,128,170645,1,0,0:0:0:0:
192,128,170961,1,8,0:0:0:0:
192,128,171119,1,0,0:0:0:0:
192,128,171435,1,8,0:0:0:0:
192,128,171751,1,0,0:0:0:0:
192,128,171909,1,0,0:0:0:0:
128,160,172066,1,8,0:0:0:0:
64,160,172382,1,0,0:0:0:0:
128,160,172540,1,0,0:0:0:0:
64,128,172698,1,8,0:0:0:0:
192,128,172856,1,0,0:0:0:0:
64,128,173172,1,12,0:0:0:0:
96,160,173487,1,0,0:0:0:0:
128,160,173645,1,8,0:0:0:0:
128,160,173961,1,8,0:0:0:0:
64,160,174119,1,8,0:0:0:0:
128,160,174277,1,0,0:0:0:0:
128,160,174435,1,0,0:0:0:0:
128,160,174593,1,8,0:0:0:0:
192,32,174909,1,0,0:0:0:0:
128,160,175224,1,8,0:0:0:0:
128,160,175382,1,8,0:0:0:0:
128,160,175540,1,0,0:0:0:0:
160,96,175698,1,0,0:0:0:0:
128,160,175856,1,8,0:0:0:0:
128,160,176172,1,0,0:0:0:0:
128,160,176330,1,0,0:0:0:0:
128,160,176487,1,8,0:0:0:0:
0,128,176803,1,0,0:0:0:0:
32,128,176882,1,0,0:0:0:0:
64,128,176961,1,0,0:0:0:0:
192,160,177119,1,8,0:0:0:0:
192,160,177435,1,8,0:0:0:0:
192,160,177751,1,8,0:0:0:0:
192,160,177909,1,8,0:0:0:0:
192,160,178066,1,0,0:0:0:0:
128,160,178224,1,0,0:0:0:0:
192,160,178382,1,8,0:0:0:0:
192,160,178698,1,0,0:0:0:0:
192,160,178856,1,0,0:0:0:0:
192,160,179014,1,8,0:0:0:0:
64,128,179330,1,0,0:0:0:0:
64,128,179409,1,0,0:0:0:0:
64,128,179487,1,0,0:0:0:0:
64,160,179645,1,8,0:0:0:0:
64,128,179961,1,0,0:0:0:0:
192,128,180277,1,12,0:0:0:0:
160,192,180435,1,4,0:0:0:0:
192,128,180751,1,0,0:0:0:0:
192,128,181066,1,8,0:0:0:0:
192,128,181224,1,0,0:0:0:0:
192,128,181540,1,8,0:0:0:0:
192,128,181856,1,0,0:0:0:0:
192,128,182014,1,0,0:0:0:0:
128,160,182172,1,8,0:0:0:0:
64,160,182487,1,0,0:0:0:0:
128,160,182645,1,0,0:0:0:0:
64,128,182803,1,8,0:0:0:0:
192,128,183014,1,0,0:0:0:0:
64,128,183224,1,0,0:0:0:0:
96,160,183435,1,12,0:0:0:0:
128,160,183751,1,8,0:0:0:0:
128,160,184066,1,8,0:0:0:0:
192,128,184224,1,8,0:0:0:0:
128,160,184382,1,0,0:0:0:0:
128,128,184540,1,0,0:0:0:0:
128,128,184698,1,8,0:0:0:0:
128,128,185014,1,0,0:0:0:0:
192,128,185172,1,0,0:0:0:0:
128,128,185330,5,12,0:0:0:0:
160,160,187856,5,0,0:0:0:0:
160,160,189119,1,0,0:0:0:0:
160,192,190382,1,0,0:0:0:0:
160,192,191645,1,0,0:0:0:0:
160,192,192751,1,0,0:0:0:0:
160,192,192909,1,8,0:0:0:0:
256,256,193540,1,0,0:0:0:0:
256,256,194172,1,0,0:0:0:0:
256,256,194803,1,8,0:0:0:0:
256,256,195435,1,0,0:0:0:0:
256,256,196066,1,0,0:0:0:0:
256,256,196698,1,8,0:0:0:0:
128,96,197645,5,4,0:0:0:0:
128,160,197961,1,12,0:0:0:0:
198,154,198277,1,8,0:0:0:0:
201,77,198435,1,0,0:0:0:0:
198,154,198593,1,8,0:0:0:0:
160,128,198751,1,8,0:0:0:0:
324,185,198909,1,0,0:0:0:0:
160,96,199224,1,8,0:0:0:0:
67,193,199540,1,8,0:0:0:0:
131,151,199698,1,8,0:0:0:0:
198,154,199856,1,0,0:0:0:0:
160,64,200014,1,0,0:0:0:0:
438,184,200172,1,8,0:0:0:0:
96,128,200487,1,0,0:0:0:0:
171,190,200803,1,0,0:0:0:0:
198,154,200961,1,0,0:0:0:0:
198,154,201119,1,8,0:0:0:0:
130,117,201277,1,0,0:0:0:0:
198,154,201435,1,0,0:0:0:0:
163,113,201593,1,0,0:0:0:0:
171,190,201751,1,8,0:0:0:0:
171,190,202066,1,8,0:0:0:0:
29,130,202382,1,8,0:0:0:0:
198,154,202540,1,0,0:0:0:0:
178,180,202698,1,8,0:0:0:0:
205,226,202856,1,0,0:0:0:0:
216,189,203014,1,8,0:0:0:0:
198,154,203330,1,8,0:0:0:0:
128,160,203487,1,0,0:0:0:0:
198,154,203645,1,8,0:0:0:0:
192,128,203961,1,8,0:0:0:0:
96,160,204119,1,0,0:0:0:0:
96,160,204277,1,8,0:0:0:0:
96,160,204593,1,8,0:0:0:0:
96,160,204909,1,8,0:0:0:0:
96,160,205066,1,0,0:0:0:0:
96,160,205224,1,8,0:0:0:0:
168,134,205382,1,0,0:0:0:0:
64,160,205540,1,8,0:0:0:0:
160,160,205698,1,0,0:0:0:0:
160,160,205856,1,0,0:0:0:0:
160,160,206014,1,0,0:0:0:0:
160,160,206172,1,8,0:0:0:0:
160,160,206487,1,8,0:0:0:0:
96,192,206803,5,8,0:0:0:0:
96,192,206961,1,8,0:0:0:0:
96,192,207119,1,8,0:0:0:0:
160,160,207277,1,8,0:0:0:0:
96,192,207435,1,0,0:0:0:0:
96,192,207593,1,0,0:0:0:0:
96,192,207751,1,0,0:0:0:0:
128,128,207909,1,0,0:0:0:0:
128,160,208066,1,12,0:0:0:0:
198,154,208382,1,8,0:0:0:0:
201,77,208540,1,0,0:0:0:0:
198,154,208698,1,8,0:0:0:0:
160,128,208856,1,8,0:0:0:0:
324,185,209014,1,0,0:0:0:0:
160,96,209330,1,8,0:0:0:0:
67,193,209645,1,8,0:0:0:0:
131,151,209803,1,8,0:0:0:0:
198,154,209961,1,0,0:0:0:0:
160,64,210119,1,0,0:0:0:0:
438,184,210277,1,8,0:0:0:0:
96,128,210593,1,0,0:0:0:0:
171,190,210909,1,0,0:0:0:0:
198,154,211066,1,0,0:0:0:0:
198,154,211224,1,8,0:0:0:0:
130,117,211382,1,0,0:0:0:0:
171,190,211540,1,0,0:0:0:0:
163,113,211698,1,0,0:0:0:0:
198,154,211856,1,8,0:0:0:0:
171,190,212172,1,8,0:0:0:0:
29,130,212487,1,8,0:0:0:0:
198,154,212645,1,0,0:0:0:0:
178,180,212803,1,8,0:0:0:0:
205,226,212961,1,0,0:0:0:0:
216,189,213119,1,8,0:0:0:0:
198,154,213435,1,8,0:0:0:0:
128,160,213593,1,0,0:0:0:0:
198,154,213751,1,8,0:0:0:0:
192,128,214066,1,8,0:0:0:0:
96,160,214224,1,0,0:0:0:0:
96,160,214382,1,8,0:0:0:0:
96,160,214698,1,8,0:0:0:0:
96,160,215014,1,8,0:0:0:0:
96,160,215172,1,0,0:0:0:0:
96,160,215330,1,8,0:0:0:0:
168,134,215487,1,0,0:0:0:0:
64,160,215645,1,8,0:0:0:0:
160,160,215803,1,0,0:0:0:0:
160,160,215961,1,0,0:0:0:0:
160,160,216119,1,0,0:0:0:0:
160,160,216277,1,8,0:0:0:0:
160,160,216593,1,8,0:0:0:0:
96,192,216909,5,8,0:0:0:0:
96,192,217066,1,8,0:0:0:0:
96,192,217224,1,8,0:0:0:0:
160,160,217382,5,8,0:0:0:0:
96,192,217540,1,0,0:0:0:0:
96,192,217698,1,0,0:0:0:0:
96,192,217856,1,0,0:0:0:0:
128,128,218014,1,0,0:0:0:0:
32,160,218172,5,12,0:0:0:0:
32,224,218487,5,0,0:0:0:0:
96,160,218645,1,8,0:0:0:0:
32,192,218961,1,0,0:0:0:0:
96,160,219119,1,8,0:0:0:0:
32,192,219277,1,0,0:0:0:0:
128,224,219593,1,0,0:0:0:0:
96,128,219751,1,8,0:0:0:0:
128,128,219909,1,0,0:0:0:0:
64,128,220066,1,0,0:0:0:0:
128,128,220224,1,0,0:0:0:0:
128,128,220382,1,8,0:0:0:0:
128,96,220698,1,8,0:0:0:0:
128,96,221014,1,0,0:0:0:0:
128,96,221172,1,8,0:0:0:0:
32,192,221487,1,0,0:0:0:0:
96,160,221645,1,8,0:0:0:0:
32,192,221803,1,0,0:0:0:0:
32,160,222119,1,0,0:0:0:0:
96,128,222277,1,8,0:0:0:0:
96,160,222435,1,0,0:0:0:0:
64,128,222593,1,0,0:0:0:0:
128,96,222751,1,8,0:0:0:0:
160,96,222830,1,8,0:0:0:0:
128,128,222909,1,8,0:0:0:0:
128,96,223224,1,8,0:0:0:0:
128,96,223540,1,0,0:0:0:0:
128,96,223698,1,8,0:0:0:0:
32,192,224014,1,0,0:0:0:0:
128,160,224172,1,8,0:0:0:0:
32,192,224330,1,0,0:0:0:0:
128,160,224645,1,0,0:0:0:0:
96,128,224803,1,8,0:0:0:0:
128,160,224961,1,0,0:0:0:0:
128,128,225119,1,0,0:0:0:0:
128,160,225277,1,0,0:0:0:0:
64,128,225435,1,8,0:0:0:0:
128,96,225751,1,8,0:0:0:0:
32,224,226066,1,0,0:0:0:0:
96,160,226224,1,8,0:0:0:0:
32,192,226540,1,8,0:0:0:0:
64,128,226698,1,0,0:0:0:0:
32,192,226856,1,8,0:0:0:0:
128,224,227172,1,0,0:0:0:0:
96,128,227330,1,8,0:0:0:0:
160,96,227487,5,0,0:0:0:0:
64,128,227645,1,0,0:0:0:0:
64,128,227803,1,8,0:0:0:0:
64,128,227882,1,8,0:0:0:0:
128,128,227961,1,8,0:0:0:0:
128,128,228277,1,12,0:0:0:0:
160,96,228435,1,8,0:0:0:0:
160,96,228593,1,8,0:0:0:0:
160,96,228751,1,4,0:0:0:0:
