osu file format v14

[General]
AudioFilename: audio.mp3
AudioLeadIn: 0
PreviewTime: -1
Countdown: 0
SampleSet: Soft
StackLeniency: 0.7
Mode: 0
LetterboxInBreaks: 0
WidescreenStoryboard: 0

[Editor]
DistanceSpacing: 0.1
BeatDivisor: 4
GridSize: 4
TimelineZoom: 1

[Metadata]
Title:Planet X
TitleUnicode:Planet X
Artist:Eqlipse
ArtistUnicode:Eqlipse
Creator:Sagi X
Version:Insane
Source:
Tags:
BeatmapID:1025336
BeatmapSetID:480264

[Difficulty]
HPDrainRate:8
CircleSize:4
OverallDifficulty:8
ApproachRate:9.6
SliderMultiplier:1.6
SliderTickRate:1

[Events]
//Background and Video events
0,0,"Abstract-techno-blue-circle-music-wallpaper-sound.jpg",0,0
//Break Periods
2,99400,124200
//Storyboard Layer 0 (Background)
//Storyboard Layer 1 (Fail)
//Storyboard Layer 2 (Pass)
//Storyboard Layer 3 (Foreground)
//Storyboard Sound Samples

[TimingPoints]
3200,400,4,2,0,100,1,0
15800,-66.6666666666667,4,2,0,100,0,0
20800,-66.6666666666667,4,2,0,100,0,0
28800,-66.6666666666667,4,2,0,100,0,1
54400,-66.6666666666667,4,2,0,100,0,0
65400,-100,4,2,0,100,0,0
73000,-66.6666666666667,4,2,0,100,0,0
133400,-133.333333333333,4,2,0,100,0,0
140200,-66.6666666666667,4,2,0,100,0,0
141800,-133.333333333333,4,2,0,100,0,0
143600,-66.6666666666667,4,2,0,100,0,0
203300,-66.6666666666667,4,2,0,100,0,0
219900,-200,4,2,0,100,0,0
226200,-66.6666666666667,4,2,0,100,0,0
227200,-200,4,2,0,100,0,0
232600,-66.6666666666667,4,2,0,100,0,0
255400,-57.1428571428571,4,2,0,100,0,0
257621,-57.1428571428571,4,2,0,100,0,1
263851,-50,4,2,0,100,0,1
297600,-50,4,2,0,100,0,0

[HitObjects]
144,108,3200,5,0,0:0:0:0:
96,260,3600,1,0,0:0:0:0:
224,200,3800,1,0,0:0:0:0:
164,352,4000,2,0,P|268:348|292:304,1,160
236,212,4600,1,0,0:0:0:0:
384,276,4800,5,0,0:0:0:0:
452,188,5000,1,0,0:0:0:0:
320,96,5200,2,0,P|364:56|448:96,3,160
446,92,6600,1,0,0:0:0:0:
296,152,6800,1,0,0:0:0:0:
392,248,7000,6,0,P|412:320|328:340,1,160
200,304,7600,1,0,0:0:0:0:
200,148,7800,1,0,0:0:0:0:
72,152,8000,2,0,P|52:88|80:56,1,80
256,64,8400,5,0,0:0:0:0:
204,264,8800,1,0,0:0:0:0:
360,80,9200,1,0,0:0:0:0:
408,168,9600,1,0,0:0:0:0:
344,280,9800,2,0,P|244:264|228:216,1,160
320,200,10400,5,0,0:0:0:0:
104,192,10800,1,0,0:0:0:0:
96,200,11000,2,0,P|48:128|80:64,2,160
56,288,12000,1,0,0:0:0:0:
56,288,12200,1,0,0:0:0:0:
244,156,12400,5,0,0:0:0:0:
140,248,12800,1,0,0:0:0:0:
264,312,13200,2,0,P|348:288|360:268,1,80
276,200,13600,1,0,0:0:0:0:
424,128,13800,1,0,0:0:0:0:
232,60,14000,1,0,0:0:0:0:
172,204,14200,6,0,P|72:188|60:116,2,160
240,64,15200,1,0,0:0:0:0:
104,184,15600,1,0,0:0:0:0:
344,64,16000,5,0,0:0:0:0:
336,64,16200,1,0,0:0:0:0:
388,212,16400,2,0,P|332:240|236:116,1,240.000009155274
392,116,17000,1,0,0:0:0:0:
316,260,17200,1,0,0:0:0:0:
392,116,17400,1,0,0:0:0:0:
284,64,17600,6,0,P|180:28|132:132,1,240.000009155274
232,144,18200,1,0,0:0:0:0:
52,68,18400,1,0,0:0:0:0:
220,144,18600,1,0,0:0:0:0:
92,212,18800,1,0,0:0:0:0:
252,272,19000,6,0,P|164:328|104:312,1,120.000004577637
60,172,19400,1,0,0:0:0:0:
184,100,19600,1,0,0:0:0:0:
64,52,19800,1,0,0:0:0:0:
200,204,20000,6,0,P|276:212|284:80,1,240.000009155274
236,64,20600,1,0,0:0:0:0:
380,168,20800,1,0,0:0:0:0:
296,224,21000,1,0,0:0:0:0:
408,300,21200,2,0,P|364:344|288:312,1,120.000004577637
200,320,21600,5,0,0:0:0:0:
64,160,22000,1,0,0:0:0:0:
200,88,22400,5,0,0:0:0:0:
364,128,22600,1,0,0:0:0:0:
364,136,22700,1,0,0:0:0:0:
364,144,22800,1,0,0:0:0:0:
364,156,22900,1,0,0:0:0:0:
364,168,23000,1,0,0:0:0:0:
364,180,23100,1,0,0:0:0:0:
280,64,23200,1,0,0:0:0:0:
216,212,23400,5,0,0:0:0:0:
212,224,23500,1,0,0:0:0:0:
208,236,23600,1,0,0:0:0:0:
204,248,23700,1,0,0:0:0:0:
200,260,23800,1,0,0:0:0:0:
360,76,24000,1,0,0:0:0:0:
128,84,24200,5,0,0:0:0:0:
124,96,24300,1,0,0:0:0:0:
120,108,24400,1,0,0:0:0:0:
116,120,24500,1,0,0:0:0:0:
112,132,24600,1,0,0:0:0:0:
260,68,24800,5,0,0:0:0:0:
304,188,25000,1,0,0:0:0:0:
300,200,25100,1,0,0:0:0:0:
296,208,25200,1,0,0:0:0:0:
292,216,25300,1,0,0:0:0:0:
288,228,25400,1,0,0:0:0:0:
144,300,25600,5,0,0:0:0:0:
64,176,25800,1,0,0:0:0:0:
92,148,25900,1,0,0:0:0:0:
128,120,26000,1,0,0:0:0:0:
168,96,26100,1,0,0:0:0:0:
212,92,26200,1,0,0:0:0:0:
256,112,26300,1,0,0:0:0:0:
288,140,26400,1,0,0:0:0:0:
312,176,26500,1,0,0:0:0:0:
352,200,26600,6,0,L|396:144,6,60.0000022888184
156,64,28800,5,0,0:0:0:0:
56,192,29000,1,0,0:0:0:0:
196,256,29200,1,0,0:0:0:0:
72,324,29400,2,0,P|160:328|176:376,1,120.000004577637
148,208,29800,1,0,0:0:0:0:
324,100,30000,5,0,0:0:0:0:
244,244,30200,1,0,0:0:0:0:
148,68,30400,2,0,P|184:20|256:48,1,120.000004577637
368,84,30800,1,0,0:0:0:0:
248,176,31000,1,0,0:0:0:0:
416,164,31200,1,0,0:0:0:0:
192,120,31400,6,0,B|208:160|208:160|228:140|228:140|216:168|216:168|240:152|240:152|224:176|224:176|244:160|244:160|232:184|232:184|248:168|248:168|240:192|240:192|256:176|256:176|256:176|256:176|268:172,1,240.000009155274
364,88,32000,1,0,0:0:0:0:
444,176,32200,1,0,0:0:0:0:
312,264,32400,1,0,0:0:0:0:
444,176,32600,1,0,0:0:0:0:
324,80,32800,6,0,P|236:120|176:84,1,120.000004577637
124,64,33200,2,0,P|104:148|68:152,1,120.000004577637
256,308,33600,1,0,0:0:0:0:
268,92,33800,2,0,P|348:96|336:156,1,120.000004577637
428,48,34200,5,0,0:0:0:0:
352,196,34400,1,0,0:0:0:0:
432,40,34600,2,0,B|372:40|372:40|376:72|376:72|356:40|356:40|360:72|360:72|268:72|268:72,1,240.000009155274
196,36,35200,1,0,0:0:0:0:
196,36,35400,1,0,0:0:0:0:
72,108,35600,1,0,0:0:0:0:
196,184,35800,6,0,P|268:212|276:248,1,120.000004577637
200,276,36200,2,0,P|272:344|296:332,1,120.000004577637
400,240,36600,1,0,0:0:0:0:
276,172,36800,1,0,0:0:0:0:
304,44,37000,2,0,P|376:100|368:112,1,120.000004577637
320,160,37400,2,0,P|368:216|408:204,1,120.000004577637
224,256,37800,5,0,0:0:0:0:
380,316,38000,1,0,0:0:0:0:
380,316,38100,1,0,0:0:0:0:
380,316,38200,1,0,0:0:0:0:
408,168,38400,1,0,0:0:0:0:
236,208,38600,6,0,P|296:144|304:104,1,120.000004577637
112,164,39000,2,0,P|204:120|192:92,1,120.000004577637
180,48,39400,1,0,0:0:0:0:
328,68,39600,2,0,P|400:96|392:168,1,120.000004577637
88,148,40000,1,0,0:0:0:0:
84,160,40200,1,0,0:0:0:0:
328,144,40600,1,0,0:0:0:0:
332,160,40800,1,0,0:0:0:0:
304,288,41000,6,0,B|248:288|248:288|248:320|248:320|232:288|232:288|232:320|232:320|144:324|144:324,1,240.000009155274
160,224,41600,1,0,0:0:0:0:
64,136,41800,1,0,0:0:0:0:
160,56,42000,1,0,0:0:0:0:
104,232,42200,6,0,P|200:272|228:252,1,120.000004577637
216,172,42600,2,0,P|292:140|308:164,1,120.000004577637
420,44,43000,1,0,0:0:0:0:
464,188,43200,1,0,0:0:0:0:
169,284,43400,2,0,P|93:228|77:156,1,120.000004577637
84,208,43800,2,0,P|66:121|86:81,1,120.000004577637
320,264,44200,2,0,P|400:200|384:176,1,120.000004577637
452,136,44600,1,0,0:0:0:0:
300,44,44800,1,0,0:0:0:0:
116,72,45000,5,0,0:0:0:0:
176,144,45200,1,0,0:0:0:0:
260,200,45400,1,0,0:0:0:0:
124,264,45600,2,0,P|180:304|252:296,1,120.000004577637
384,64,46000,2,0,P|320:76|288:128,1,120.000004577637
472,184,46400,1,0,0:0:0:0:
312,352,46600,6,0,P|284:300|288:236,1,120.000004577637
428,232,47000,2,0,P|456:128|432:104,1,120.000004577637
212,88,47400,2,0,B|268:88|268:88|268:56|268:56|280:96|280:96|284:56|284:56|296:88|296:88|348:88,1,240.000009155274
148,316,48000,1,0,0:0:0:0:
236,172,48200,1,0,0:0:0:0:
92,224,48400,1,0,0:0:0:0:
304,252,48600,1,0,0:0:0:0:
192,276,48800,5,0,0:0:0:0:
344,160,49000,1,0,0:0:0:0:
152,76,49200,1,0,0:0:0:0:
124,80,49300,1,0,0:0:0:0:
96,84,49400,1,0,0:0:0:0:
204,224,49600,5,0,0:0:0:0:
308,104,49800,1,0,0:0:0:0:
144,184,50000,1,0,0:0:0:0:
308,104,50200,1,0,0:0:0:0:
216,80,50400,5,0,0:0:0:0:
332,232,50600,1,0,0:0:0:0:
220,84,50800,1,0,0:0:0:0:
332,232,51000,1,0,0:0:0:0:
124,168,51200,5,0,0:0:0:0:
120,204,51300,1,0,0:0:0:0:
128,232,51400,1,0,0:0:0:0:
144,256,51500,1,0,0:0:0:0:
168,280,51600,1,0,0:0:0:0:
204,300,51700,1,0,0:0:0:0:
240,304,51800,1,0,0:0:0:0:
256,184,52000,5,0,0:0:0:0:
248,40,52200,1,0,0:0:0:0:
300,40,52300,1,0,0:0:0:0:
344,52,52400,1,0,0:0:0:0:
388,88,52500,1,0,0:0:0:0:
424,120,52600,1,0,0:0:0:0:
224,324,52800,6,0,P|160:276|152:232,2,120.000004577637
320,156,53400,1,0,0:0:0:0:
320,156,53600,1,0,0:0:0:0:
400,72,53800,2,0,B|440:144|440:144|476:132|476:132|396:236|396:236|396:240,1,240.000009155274
120,80,54400,5,0,0:0:0:0:
376,320,54800,1,0,0:0:0:0:
416,48,55200,1,0,0:0:0:0:
100,280,55600,2,0,P|136:324|200:332,1,120.000004577637
140,72,56000,1,0,0:0:0:0:
168,356,56400,5,0,0:0:0:0:
304,172,56800,1,0,0:0:0:0:
80,140,57200,2,0,P|116:72|200:72,1,120.000004577637
380,296,57600,1,0,0:0:0:0:
376,64,58000,1,0,0:0:0:0:
388,356,58400,1,0,0:0:0:0:
108,128,58800,6,0,P|76:224|124:264,1,120.000004577637
348,60,59200,1,0,0:0:0:0:
172,288,59600,1,0,0:0:0:0:
324,64,60000,1,0,0:0:0:0:
324,76,60400,2,0,L|348:216,1,120.000004577637
428,88,60800,5,0,0:0:0:0:
272,176,61000,1,0,0:0:0:0:
268,188,61100,1,0,0:0:0:0:
264,200,61200,1,0,0:0:0:0:
260,212,61300,1,0,0:0:0:0:
256,224,61400,1,0,0:0:0:0:
160,56,61600,5,0,0:0:0:0:
132,200,61800,1,0,0:0:0:0:
128,216,61900,1,0,0:0:0:0:
124,228,62000,1,0,0:0:0:0:
120,240,62100,1,0,0:0:0:0:
116,252,62200,1,0,0:0:0:0:
260,88,62400,5,0,0:0:0:0:
368,172,62600,1,0,0:0:0:0:
364,184,62700,1,0,0:0:0:0:
360,196,62800,1,0,0:0:0:0:
356,208,62900,1,0,0:0:0:0:
352,220,63000,1,0,0:0:0:0:
140,264,63200,5,0,0:0:0:0:
156,44,63400,1,0,0:0:0:0:
152,60,63500,1,0,0:0:0:0:
148,72,63600,1,0,0:0:0:0:
144,88,63700,1,0,0:0:0:0:
140,100,63800,1,0,0:0:0:0:
260,152,64000,5,0,0:0:0:0:
464,56,64200,1,0,0:0:0:0:
464,76,64300,1,0,0:0:0:0:
464,88,64400,1,0,0:0:0:0:
464,104,64500,1,0,0:0:0:0:
424,112,64600,1,0,0:0:0:0:
376,120,64700,1,0,0:0:0:0:
340,140,64800,1,0,0:0:0:0:
296,152,64900,1,0,0:0:0:0:
248,176,65000,1,0,0:0:0:0:
240,228,65100,1,0,0:0:0:0:
256,272,65200,1,0,0:0:0:0:
300,296,65300,1,0,0:0:0:0:
352,300,65400,1,0,0:0:0:0:
340,80,65600,6,0,P|408:108|400:172,2,120
352,288,66400,1,0,0:0:0:0:
152,292,66800,1,0,0:0:0:0:
116,168,67000,1,0,0:0:0:0:
116,168,67200,1,0,0:0:0:0:
260,80,67600,5,0,0:0:0:0:
144,160,67800,1,0,0:0:0:0:
272,208,68000,1,0,0:0:0:0:
144,52,68200,1,0,0:0:0:0:
56,180,68400,1,0,0:0:0:0:
224,144,68600,5,0,0:0:0:0:
96,312,68800,2,0,P|172:344|232:304,1,160
400,300,69400,1,0,0:0:0:0:
248,176,69600,1,0,0:0:0:0:
400,276,69800,1,0,0:0:0:0:
352,148,70000,2,0,P|432:128|436:120,1,80
272,44,70400,6,0,B|232:16|208:28|196:32,1,80
40,276,70800,2,0,P|36:216|68:188,1,80
172,176,71200,2,0,P|216:120|208:96,1,80
268,336,71600,1,0,0:0:0:0:
180,88,71800,1,0,0:0:0:0:
292,124,72000,1,0,0:0:0:0:
400,280,72200,6,0,B|496:276|488:276,3,80
300,216,73000,1,0,0:0:0:0:
320,92,73200,2,0,P|356:40|392:92,2,120.000004577637
408,232,73800,1,0,0:0:0:0:
324,308,74000,1,0,0:0:0:0:
156,160,74200,6,0,P|60:144|52:164,1,120.000004577637
104,332,74600,2,0,P|44:300|68:232,1,120.000004577637
112,152,75000,1,0,0:0:0:0:
196,56,75200,1,0,0:0:0:0:
232,160,75400,6,0,P|248:248|224:276,1,120.000004577637
348,328,75800,2,0,P|432:352|436:304,1,120.000004577637
472,256,76200,1,0,0:0:0:0:
336,172,76400,1,0,0:0:0:0:
464,80,76600,1,0,0:0:0:0:
336,172,76800,1,0,0:0:0:0:
312,44,77000,6,0,P|220:36|192:56,1,120.000004577637
248,208,77400,2,0,P|164:232|144:184,1,120.000004577637
56,68,77800,2,0,P|52:156|96:188,1,120.000004577637
172,328,78200,2,0,P|236:288|240:244,3,120
184,180,79000,1,0,0:0:0:0:
312,32,79200,1,0,0:0:0:0:
308,272,79400,6,0,B|248:424|204:300|204:300|136:304|136:304|136:304|136:304|132:304,1,240.000009155274
200,212,80000,1,0,0:0:0:0:
88,88,80400,1,0,0:0:0:0:
232,80,80600,2,0,P|316:52|368:96,1,120.000004577637
408,32,81000,2,0,P|412:128|364:124,1,120.000004577637
236,148,81400,1,0,0:0:0:0:
360,296,81600,2,0,P|208:328|192:236,3,240.000009155274
60,260,83000,5,0,0:0:0:0:
172,176,83200,1,0,0:0:0:0:
64,96,83400,1,0,0:0:0:0:
172,176,83600,1,0,0:0:0:0:
296,56,83800,1,0,0:0:0:0:
296,72,84000,2,0,P|400:164|372:268,2,240.000009155274
164,208,85000,5,0,0:0:0:0:
220,48,85200,1,0,0:0:0:0:
360,72,85400,2,0,P|432:72|468:128,1,120.000004577637
424,256,85800,1,0,0:0:0:0:
416,260,85900,1,0,0:0:0:0:
292,152,86200,1,0,0:0:0:0:
240,352,86400,5,0,0:0:0:0:
68,180,86600,1,0,0:0:0:0:
68,208,86800,1,0,0:0:0:0:
124,32,87000,1,0,0:0:0:0:
264,152,87200,1,0,0:0:0:0:
300,152,87400,1,0,0:0:0:0:
324,152,87600,1,0,0:0:0:0:
324,332,87800,5,0,0:0:0:0:
144,208,88000,2,0,P|120:132|240:44,3,240.000009155274
232,56,89400,1,0,0:0:0:0:
236,88,89600,1,0,0:0:0:0:
384,132,89800,5,0,0:0:0:0:
384,176,89900,1,0,0:0:0:0:
372,216,90000,1,0,0:0:0:0:
340,248,90100,1,0,0:0:0:0:
296,272,90200,1,0,0:0:0:0:
248,280,90300,1,0,0:0:0:0:
204,280,90400,1,0,0:0:0:0:
160,256,90500,1,0,0:0:0:0:
124,216,90600,1,0,0:0:0:0:
64,212,90700,1,0,0:0:0:0:
32,252,90800,1,0,0:0:0:0:
32,304,90900,1,0,0:0:0:0:
60,336,91000,1,0,0:0:0:0:
196,124,91200,5,0,0:0:0:0:
324,256,91400,1,0,0:0:0:0:
204,140,91600,1,0,0:0:0:0:
316,276,91800,1,0,0:0:0:0:
336,68,92000,2,0,P|396:84|424:244,1,240.000009155274
256,192,92800,1,0,0:0:0:0:
256,192,93000,12,0,99200,0:0:0:0:
40,300,124800,5,0,0:0:0:0:
200,56,125400,1,0,0:0:0:0:
260,304,126000,1,0,0:0:0:0:
368,112,126600,1,0,0:0:0:0:
424,296,127200,1,0,0:0:0:0:
92,312,127600,1,0,0:0:0:0:
208,120,128000,1,0,0:0:0:0:
288,304,128600,1,0,0:0:0:0:
360,72,129200,5,0,0:0:0:0:
208,120,129800,1,0,0:0:0:0:
208,120,130400,1,0,0:0:0:0:
208,120,130800,1,0,0:0:0:0:
208,120,131200,1,0,0:0:0:0:
392,60,131800,5,0,0:0:0:0:
208,120,132400,1,0,0:0:0:0:
96,288,133000,1,0,0:0:0:0:
316,272,133600,2,0,P|380:236|396:144,2,120.000004577637
72,160,135000,1,0,0:0:0:0:
208,56,135600,1,0,0:0:0:0:
104,268,136200,5,0,0:0:0:0:
248,120,136800,2,0,P|320:176|312:212,2,120.000004577637
120,304,138000,2,0,P|96:212|112:168,1,120.000004577637
248,184,138800,1,0,0:0:0:0:
60,104,139200,2,0,P|104:64|180:76,1,120.000004577637
204,200,140000,5,0,0:0:0:0:
56,300,140400,2,0,P|128:360|140:352,2,120.000004577637
160,180,141200,1,0,0:0:0:0:
240,60,141600,1,0,0:0:0:0:
424,208,142000,2,0,P|440:264|408:340,1,120.000004577637
252,184,142800,5,0,0:0:0:0:
88,80,143200,1,0,0:0:0:0:
88,116,143400,1,0,0:0:0:0:
248,48,143600,1,0,0:0:0:0:
104,248,143800,1,0,0:0:0:0:
264,244,144000,1,0,0:0:0:0:
364,64,144400,5,0,0:0:0:0:
168,152,144800,1,0,0:0:0:0:
52,236,145200,2,0,P|76:308|156:308,1,120.000004577637
264,256,145600,1,0,0:0:0:0:
348,64,146000,5,0,0:0:0:0:
424,164,146400,1,0,0:0:0:0:
344,292,146800,2,0,P|256:288|252:260,1,120.000004577637
252,276,147200,1,0,0:0:0:0:
436,188,147600,1,0,0:0:0:0:
300,64,147800,6,0,P|240:128|208:104,1,120.000004577637
88,52,148200,1,0,0:0:0:0:
88,192,148400,2,0,P|56:264|112:288,1,120.000004577637
184,228,148800,1,0,0:0:0:0:
184,240,149000,1,0,0:0:0:0:
288,292,149200,6,0,P|168:328|72:256,2,240.000009155274
192,224,150200,1,0,0:0:0:0:
328,180,150400,1,0,0:0:0:0:
252,76,150800,2,0,P|332:68|352:148,1,120.000004577637
256,252,151200,2,0,P|320:308|324:372,1,120.000004577637
464,176,151600,2,0,P|460:264|396:256,1,120.000004577637
296,112,152000,5,0,0:0:0:0:
176,48,152200,5,0,0:0:0:0:
96,148,152400,2,0,P|64:224|96:260,2,120.000004577637
248,188,153200,1,0,0:0:0:0:
244,216,153600,1,0,0:0:0:0:
264,336,154000,6,0,B|196:336|196:336|152:304,1,120.000004577637
220,216,154400,1,0,0:0:0:0:
84,152,154600,1,0,0:0:0:0:
236,56,154800,2,0,P|328:76|324:120,1,120.000004577637
456,124,155200,1,0,0:0:0:0:
312,164,155400,6,0,P|360:232|348:288,2,120.000004577637
196,340,156000,1,0,0:0:0:0:
132,104,156400,2,0,B|96:128|96:128|92:184|92:184|40:148|40:148|24:280,1,240.000009155274
280,20,157200,1,0,0:0:0:0:
240,128,157400,2,0,P|196:180|216:244,1,120.000004577637
296,220,157800,2,0,P|316:296|272:340,1,120.000004577637
144,304,158200,5,0,0:0:0:0:
188,192,158400,1,0,0:0:0:0:
52,152,158600,1,0,0:0:0:0:
204,52,158800,2,0,P|272:84|276:152,2,120.000004577637
424,68,159600,1,0,0:0:0:0:
272,192,160000,1,0,0:0:0:0:
208,80,160400,6,0,P|160:136|104:128,1,120.000004577637
116,112,160800,2,0,P|68:124|88:196,1,120.000004577637
164,232,161200,2,0,P|116:332|108:332,1,120.000004577637
280,176,161600,1,0,0:0:0:0:
388,56,161800,1,0,0:0:0:0:
484,216,162000,1,0,0:0:0:0:
272,136,162200,6,0,P|216:84|136:76,1,120.000004577637
44,48,162800,1,0,0:0:0:0:
92,172,163000,1,0,0:0:0:0:
36,44,163200,1,0,0:0:0:0:
220,96,163600,6,0,P|236:176|216:220,1,120.000004577637
96,216,164000,2,0,P|96:296|168:328,1,120.000004577637
220,324,164400,1,0,0:0:0:0:
288,244,164600,1,0,0:0:0:0:
384,316,164800,2,0,P|448:300|448:236,1,120.000004577637
304,156,165200,5,0,0:0:0:0:
436,72,165400,1,0,0:0:0:0:
224,56,165600,1,0,0:0:0:0:
176,196,166000,2,0,P|156:260|192:292,1,120.000004577637
248,228,166400,2,0,P|288:156|280:112,1,120.000004577637
152,32,166800,5,0,0:0:0:0:
24,136,167000,1,0,0:0:0:0:
216,188,167200,2,0,P|336:160|352:184,1,120.000004577637
312,240,167600,2,0,P|424:204|428:200,1,120.000004577637
400,68,168000,1,0,0:0:0:0:
484,300,168200,1,0,0:0:0:0:
184,356,168400,6,0,B|80:360|264:116|8:332|24:172,1,240.000009155274
76,56,169000,1,0,0:0:0:0:
212,128,169200,1,0,0:0:0:0:
120,200,169400,2,0,P|144:268|168:284,2,60.0000022888184
252,248,170000,1,0,0:0:0:0:
380,352,170200,5,0,0:0:0:0:
484,260,170400,1,0,0:0:0:0:
316,160,170600,2,0,P|384:120|392:136,1,120.000004577637
448,56,171000,1,0,0:0:0:0:
248,56,171200,1,0,0:0:0:0:
388,160,171400,6,0,P|332:204|284:192,1,120.000004577637
216,48,171800,2,0,P|152:68|152:160,1,120.000004577637
208,272,172200,2,0,P|168:316|120:252,3,120.000004577637
64,140,173000,1,0,0:0:0:0:
188,88,173200,2,0,P|280:48|324:72,1,120.000004577637
344,180,173600,6,0,P|336:260|272:288,1,120.000004577637
200,248,174000,2,0,P|216:320|260:336,1,120.000004577637
168,168,174400,1,0,0:0:0:0:
72,72,174600,1,0,0:0:0:0:
172,176,174800,1,0,0:0:0:0:
256,60,175000,1,0,0:0:0:0:
136,288,175200,6,0,P|160:332|216:292,2,120.000004577637
180,192,176000,1,0,0:0:0:0:
344,268,176400,6,0,P|404:228|400:168,1,120.000004577637
356,92,176800,1,0,0:0:0:0:
240,48,177000,1,0,0:0:0:0:
360,284,177400,2,0,P|420:264|424:204,1,120.000004577637
192,256,178000,1,0,0:0:0:0:
44,180,178200,6,0,P|104:168|112:88,1,120.000004577637
64,40,178600,1,0,0:0:0:0:
212,152,178800,1,0,0:0:0:0:
144,288,179000,2,0,P|256:288|284:268,1,120.000004577637
352,68,179600,5,0,0:0:0:0:
480,160,180000,2,0,P|468:240|392:276,1,120.000004577637
272,160,180400,1,0,0:0:0:0:
200,272,180600,1,0,0:0:0:0:
184,276,180800,1,0,0:0:0:0:
36,116,181200,6,0,P|140:56|152:56,1,120.000004577637
220,136,181600,1,0,0:0:0:0:
100,216,181800,1,0,0:0:0:0:
272,204,182000,1,0,0:0:0:0:
200,344,182200,6,0,P|140:360|84:308,1,120.000004577637
96,164,182700,1,0,0:0:0:0:
84,184,182800,1,0,0:0:0:0:
72,200,182900,1,0,0:0:0:0:
152,36,183200,1,0,0:0:0:0:
296,136,183400,5,0,0:0:0:0:
288,152,183500,1,0,0:0:0:0:
280,168,183600,1,0,0:0:0:0:
432,40,183800,2,0,P|472:84|484:184,1,120.000004577637
384,288,184200,5,0,0:0:0:0:
384,276,184300,1,0,0:0:0:0:
384,264,184400,1,0,0:0:0:0:
232,200,184600,1,0,0:0:0:0:
156,300,184800,1,0,0:0:0:0:
60,208,185000,6,0,P|36:128|88:64,1,120.000004577637
116,56,185400,1,0,0:0:0:0:
376,56,185600,1,0,0:0:0:0:
424,256,185800,2,0,L|348:300,4,60.0000022888184
376,160,186300,2,0,L|304:200,4,60.0000022888184
296,60,186800,2,0,L|224:100,3,60.0000022888184
216,144,188800,5,0,0:0:0:0:
112,64,189000,1,0,0:0:0:0:
128,176,189200,2,0,P|92:240|56:228,1,120.000004577637
128,256,189600,2,0,P|140:316|200:328,1,120.000004577637
216,200,190000,1,0,0:0:0:0:
304,332,190200,1,0,0:0:0:0:
312,340,190400,1,0,0:0:0:0:
388,256,190600,6,0,P|440:224|436:148,2,120.000004577637
446,169,191200,1,0,0:0:0:0:
360,52,191600,1,0,0:0:0:0:
160,288,192000,1,0,0:0:0:0:
128,24,192400,6,0,P|108:108|52:120,1,120.000004577637
160,116,192800,2,0,P|168:184|216:208,1,120.000004577637
200,212,193200,2,0,P|168:288|96:292,1,120.000004577637
152,320,193600,1,0,0:0:0:0:
160,332,193800,1,0,0:0:0:0:
160,336,194000,2,0,L|284:336,2,120.000004577637
256,224,194800,6,0,P|324:196|360:132,1,120.000004577637
188,152,195200,1,0,0:0:0:0:
368,56,195600,2,0,P|448:100|432:168,1,120.000004577637
468,216,196000,2,0,P|480:316|528:316,1,120.000004577637
352,260,196400,2,0,P|292:268|252:192,1,120.000004577637
244,196,196800,1,0,0:0:0:0:
360,36,197000,2,0,P|436:80|432:124,2,120.000004577637
432,132,197600,5,0,0:0:0:0:
76,292,198000,2,0,P|96:360|112:360,1,60.0000022888184
136,84,198200,1,0,0:0:0:0:
144,112,198300,1,0,0:0:0:0:
152,136,198400,1,0,0:0:0:0:
244,92,198600,6,0,P|348:128|372:96,1,120.000004577637
388,40,199000,2,0,L|488:128,1,120.000004577637
368,188,199400,1,0,0:0:0:0:
448,232,199600,2,0,P|404:320|444:356,1,120.000004577637
196,320,200000,1,0,0:0:0:0:
360,276,200200,6,0,P|456:352|484:364,1,120.000004577637
432,188,200600,1,0,0:0:0:0:
300,116,200800,1,0,0:0:0:0:
292,124,201000,1,0,0:0:0:0:
120,144,201200,5,0,0:0:0:0:
268,284,201400,1,0,0:0:0:0:
272,296,201500,1,0,0:0:0:0:
276,308,201600,1,0,0:0:0:0:
80,240,201800,6,0,P|40:184|60:100,1,120.000004577637
40,24,202200,2,0,P|104:64|172:60,1,120.000004577637
272,36,202600,1,0,0:0:0:0:
144,156,202800,2,0,P|220:208|244:208,1,120.000004577637
284,116,203200,1,0,0:0:0:0:
372,308,203400,6,0,B|332:264|332:264|288:328|288:328|272:320|272:320|272:320|272:320,1,128
280,320,203800,2,0,B|240:256|240:256|192:328,1,120.000004577637
64,240,204400,1,0,0:0:0:0:
64,48,204600,1,0,0:0:0:0:
168,160,204800,1,0,0:0:0:0:
168,168,204900,1,0,0:0:0:0:
336,80,205200,6,0,B|396:92|396:92|336:180|336:180|328:180,1,120.000004577637
440,160,205600,2,0,B|468:220|468:220|432:316,1,120.000004577637
264,352,206000,1,0,0:0:0:0:
88,352,206200,2,0,P|40:320|72:228,1,120.000004577637
28,164,206600,1,0,0:0:0:0:
116,80,206800,2,0,B|196:132|196:132|200:20|200:20|232:16,1,240.000009155274
424,80,207600,1,0,0:0:0:0:
424,112,207800,1,0,0:0:0:0:
424,140,208000,1,0,0:0:0:0:
236,168,208200,6,0,B|312:172|376:216|356:224,1,120.000004577637
472,204,208600,2,0,P|400:236|340:312,1,120.000004577637
348,348,209000,2,0,P|284:296|200:288,1,120.000004577637
228,312,209400,1,0,0:0:0:0:
216,328,209600,1,0,0:0:0:0:
32,264,209800,6,0,P|136:232|168:176,1,120.000004577637
96,116,210200,2,0,P|180:84|200:52,1,120.000004577637
304,60,210600,2,0,L|296:180,1,120.000004577637
296,188,211000,1,0,0:0:0:0:
416,200,211200,2,0,L|496:200,1,60.0000022888184
376,352,211600,5,0,0:0:0:0:
180,312,211800,2,0,P|248:280|256:196,1,120.000004577637
136,160,212200,2,0,P|196:192|260:120,1,120.000004577637
256,44,212600,1,0,0:0:0:0:
248,64,212700,1,0,0:0:0:0:
240,80,212800,1,0,0:0:0:0:
416,68,213000,5,0,0:0:0:0:
408,96,213200,1,0,0:0:0:0:
368,248,213400,2,0,P|288:268|272:232,2,120.000004577637
396,88,214000,1,0,0:0:0:0:
224,88,214200,1,0,0:0:0:0:
220,96,214400,1,0,0:0:0:0:
256,192,214600,12,0,217600,0:0:0:0:
136,44,220000,5,0,0:0:0:0:
384,48,220200,1,0,0:0:0:0:
136,44,220400,1,0,0:0:0:0:
384,48,220600,1,0,0:0:0:0:
120,312,220800,2,0,B|160:252|160:252|204:312|204:312|248:232|248:232|316:324|316:324|316:324|316:324|372:316,1,400
64,88,223200,5,0,0:0:0:0:
176,228,223400,1,0,0:0:0:0:
296,96,223600,1,0,0:0:0:0:
456,216,223800,1,0,0:0:0:0:
248,80,224000,2,0,B|188:64|188:64|212:136|212:136|104:112|104:112|136:220|48:236,1,400
424,228,226400,5,0,0:0:0:0:
260,108,226600,1,0,0:0:0:0:
232,276,226800,2,0,P|160:304|112:296,2,120.000004577637
96,128,227400,2,0,B|104:92|120:44|120:44|188:116|188:116|256:24|352:64|336:72,1,360.000013732911
112,184,229600,5,0,0:0:0:0:
116,352,229800,1,0,0:0:0:0:
260,184,230000,1,0,0:0:0:0:
264,352,230200,1,0,0:0:0:0:
384,260,230400,1,0,0:0:0:0:
220,56,230600,6,0,B|204:100|204:100|112:80|112:80|152:208|152:208|60:216|60:216,1,360
332,24,232800,2,0,P|332:96|332:148,1,120.000004577637
376,100,233200,2,0,P|380:176|380:224,1,120.000004577637
316,200,233600,2,0,L|320:332,1,120.000004577637
319,319,234000,5,0,0:0:0:0:
120,328,234200,1,0,0:0:0:0:
52,224,234400,1,0,0:0:0:0:
72,64,234600,2,0,P|84:148|136:148,1,120.000004577637
192,88,235000,1,0,0:0:0:0:
288,220,235200,1,0,0:0:0:0:
316,68,236000,6,0,P|240:152|240:160,1,120.000004577637
284,148,236400,2,0,P|192:212|180:216,1,120.000004577637
176,216,236800,2,0,L|124:88,1,120.000004577637
280,96,237200,5,0,0:0:0:0:
216,196,237400,1,0,0:0:0:0:
288,88,237600,1,0,0:0:0:0:
336,204,237800,2,0,P|336:276|284:320,1,120.000004577637
108,316,238200,1,0,0:0:0:0:
104,80,238400,1,0,0:0:0:0:
180,148,238600,6,0,P|272:116|288:64,1,120.000004577637
328,32,239000,2,0,P|388:124|428:112,1,120.000004577637
448,112,239400,2,0,P|448:188|392:244,1,120.000004577637
304,308,239800,1,0,0:0:0:0:
300,320,239900,1,0,0:0:0:0:
296,332,240000,1,0,0:0:0:0:
124,356,240400,6,0,P|44:312|24:240,1,120.000004577637
156,232,240800,1,0,0:0:0:0:
24,160,241000,1,0,0:0:0:0:
72,60,241200,2,0,P|112:112|176:104,1,120.000004577637
192,40,241600,1,0,0:0:0:0:
336,40,241800,1,0,0:0:0:0:
400,184,242000,6,0,P|352:268|388:296,1,120.000004577637
376,352,242400,2,0,P|272:344|232:304,1,120.000004577637
104,320,242800,1,0,0:0:0:0:
76,104,243000,2,0,P|48:136|64:200,2,60.0000022888184
176,176,243400,1,0,0:0:0:0:
192,24,243600,6,0,P|244:84|312:76,1,120.000004577637
392,60,244000,1,0,0:0:0:0:
428,140,244200,2,0,P|432:216|376:240,1,120.000004577637
272,244,244600,1,0,0:0:0:0:
380,348,244800,2,0,P|296:368|236:328,2,120.000004577637
48,256,245400,1,0,0:0:0:0:
128,352,245600,1,0,0:0:0:0:
248,176,245800,1,0,0:0:0:0:
252,192,245900,1,0,0:0:0:0:
64,116,246200,5,0,0:0:0:0:
156,64,246400,2,0,P|240:100|272:56,1,120.000004577637
372,32,246800,1,0,0:0:0:0:
472,96,247000,2,0,P|412:204|408:208,1,120.000004577637
280,160,247400,1,0,0:0:0:0:
396,312,247600,6,0,P|340:332|340:388,1,120.000004577637
200,340,248000,1,0,0:0:0:0:
100,216,248200,1,0,0:0:0:0:
100,216,248400,1,0,0:0:0:0:
184,336,248800,1,0,0:0:0:0:
288,224,249200,5,0,0:0:0:0:
416,356,249400,1,0,0:0:0:0:
480,208,249600,1,0,0:0:0:0:
352,68,249800,1,0,0:0:0:0:
88,32,250000,2,0,P|36:112|-16:104,1,120.000004577637
88,236,250400,2,0,P|116:304|56:356,1,120.000004577637
324,348,250800,5,0,0:0:0:0:
476,164,251000,1,0,0:0:0:0:
368,56,251200,2,0,P|320:92|256:56,1,120.000004577637
112,80,251600,1,0,0:0:0:0:
112,104,251800,1,0,0:0:0:0:
196,320,252000,6,0,P|136:328|104:264,2,120.000004577637
168,40,252800,1,0,0:0:0:0:
372,96,253200,1,0,0:0:0:0:
352,96,253300,1,0,0:0:0:0:
332,96,253400,1,0,0:0:0:0:
288,216,253600,5,0,0:0:0:0:
472,356,253800,1,0,0:0:0:0:
288,216,254000,1,0,0:0:0:0:
176,72,254200,1,0,0:0:0:0:
156,72,254300,1,0,0:0:0:0:
136,76,254400,1,0,0:0:0:0:
220,180,254600,5,0,0:0:0:0:
32,244,254800,1,0,0:0:0:0:
192,352,255000,1,0,0:0:0:0:
184,352,255200,1,0,0:0:0:0:
212,104,255400,6,0,P|88:56|72:64,1,120.000004577637
220,236,255800,2,0,P|272:332|300:328,1,120.000004577637
448,28,256200,1,0,0:0:0:0:
432,56,256300,1,0,0:0:0:0:
412,80,256400,1,0,0:0:0:0:
384,92,256500,1,0,0:0:0:0:
356,104,256600,1,0,0:0:0:0:
324,112,256700,1,0,0:0:0:0:
288,120,256800,1,0,0:0:0:0:
260,128,256900,1,0,0:0:0:0:
224,136,257000,1,0,0:0:0:0:
184,148,257100,1,0,0:0:0:0:
156,172,257200,1,0,0:0:0:0:
152,216,257300,1,0,0:0:0:0:
168,248,257400,1,0,0:0:0:0:
204,280,257500,1,0,0:0:0:0:
256,184,259200,5,0,0:0:0:0:
124,32,259400,2,0,P|60:96|28:72,1,140.000001335144
108,280,259800,1,0,0:0:0:0:
296,220,260000,6,0,P|360:256|384:316,1,140.000001335144
304,72,260400,2,0,P|408:32|448:68,1,140.000001335144
300,76,260800,1,0,0:0:0:0:
76,56,261000,1,0,0:0:0:0:
80,188,261200,2,0,L|76:268,4,70.000000667572
340,312,262000,5,0,0:0:0:0:
132,320,262400,1,0,0:0:0:0:
376,204,262600,2,0,P|352:128|288:88,1,140.000001335144
380,132,263000,2,0,P|420:44|464:20,1,140.000001335144
372,40,263400,2,0,P|304:28|252:76,1,140.000001335144
64,76,263800,5,0,0:0:0:0:
188,176,264000,1,0,0:0:0:0:
52,284,264200,2,0,P|116:336|212:320,3,160
52,284,265200,1,0,0:0:0:0:
44,292,265400,1,0,0:0:0:0:
48,288,265600,2,0,P|64:140|44:92,1,160
164,28,266000,5,0,0:0:0:0:
300,100,266200,2,0,P|392:36|428:60,1,160
256,216,266600,2,0,P|196:296|112:304,1,160
212,104,267000,2,0,P|148:56|48:128,1,160
72,204,267400,1,0,0:0:0:0:
68,220,267600,1,0,0:0:0:0:
256,192,267800,6,0,P|260:280|260:404,1,160
80,72,268400,1,0,0:0:0:0:
408,60,268700,1,0,0:0:0:0:
408,84,268800,1,0,0:0:0:0:
164,332,269000,6,0,P|84:328|40:248,1,160
176,152,269400,2,0,P|196:228|276:224,1,160
408,88,269800,2,0,P|328:112|296:24,1,160
208,108,270200,1,0,0:0:0:0:
352,192,270400,1,0,0:0:0:0:
252,168,270600,2,0,P|276:288|316:300,1,160
172,356,271000,5,0,0:0:0:0:
40,252,271200,1,0,0:0:0:0:
220,152,271400,1,0,0:0:0:0:
56,68,271600,1,0,0:0:0:0:
52,80,271800,1,0,0:0:0:0:
48,96,272000,1,0,0:0:0:0:
140,344,272200,6,0,P|60:296|56:212,1,160
156,104,272600,2,0,P|224:32|296:76,1,160
452,244,273000,2,0,P|408:336|332:316,1,160
96,124,273400,1,0,0:0:0:0:
360,128,273600,1,0,0:0:0:0:
88,312,273800,1,0,0:0:0:0:
96,312,274000,1,0,0:0:0:0:
88,312,274200,2,0,L|84:128,1,160
480,24,274800,5,0,0:0:0:0:
32,340,275100,1,0,0:0:0:0:
36,356,275200,1,0,0:0:0:0:
24,72,275400,2,0,B|104:116|132:80|152:16,1,160
456,240,275800,2,0,P|380:276|380:372,1,160
132,80,276200,5,0,0:0:0:0:
356,280,276400,1,0,0:0:0:0:
204,52,276600,2,0,L|80:164,1,160
232,148,277000,1,0,0:0:0:0:
88,260,277200,2,0,L|260:248,1,160
247,248,277600,1,0,0:0:0:0:
84,148,278000,5,2,0:0:0:0:
72,168,278200,1,2,0:0:0:0:
56,188,278400,1,2,0:0:0:0:
320,192,278800,6,0,L|320:372,1,160
252,272,279200,2,0,L|256:88,1,160
192,28,279600,2,0,P|192:108|188:236,1,160
80,320,280000,1,0,0:0:0:0:
88,192,280200,5,0,0:0:0:0:
240,280,280400,1,0,0:0:0:0:
32,264,280600,1,0,0:0:0:0:
32,264,280800,2,0,L|36:92,1,160
260,52,281200,5,0,0:0:0:0:
148,136,281500,1,0,0:0:0:0:
152,120,281600,1,0,0:0:0:0:
372,36,281800,6,0,P|404:144|392:192,1,160
292,348,282200,2,0,P|184:348|136:300,1,160
152,104,282600,2,0,P|240:116|260:200,1,160
264,174,283000,1,0,0:0:0:0:
104,168,283200,1,0,0:0:0:0:
360,28,283400,5,0,0:0:0:0:
216,156,283600,1,0,0:0:0:0:
344,284,283800,1,0,0:0:0:0:
476,144,284000,1,0,0:0:0:0:
360,36,284200,1,0,0:0:0:0:
360,36,284400,1,0,0:0:0:0:
72,60,284600,6,0,P|148:128|120:212,1,160
348,40,285200,1,0,0:0:0:0:
484,152,285400,1,0,0:0:0:0:
288,220,285600,1,0,0:0:0:0:
444,352,285800,2,0,L|232:348,1,160
208,52,286200,5,0,0:0:0:0:
56,136,286400,1,0,0:0:0:0:
136,296,286600,2,0,L|184:120,1,160
178,141,287000,1,0,0:0:0:0:
178,141,287200,1,0,0:0:0:0:
336,64,287600,5,2,0:0:0:0:
352,352,288000,5,0,0:0:0:0:
120,352,288400,2,0,P|32:276|56:180,1,160
256,184,288800,1,0,0:0:0:0:
56,104,289000,2,0,P|176:56|216:108,2,160
264,200,289600,1,0,0:0:0:0:
456,32,289800,2,0,L|460:220,1,160
459,191,290200,2,0,L|279:51,1,160
332,92,290600,5,0,0:0:0:0:
232,268,290800,1,0,0:0:0:0:
232,284,291000,1,0,0:0:0:0:
232,296,291200,1,0,0:0:0:0:
216,64,291600,5,0,0:0:0:0:
104,124,291800,1,0,0:0:0:0:
352,76,292000,1,0,0:0:0:0:
284,144,292200,1,0,0:0:0:0:
168,92,292400,1,0,0:0:0:0:
272,56,292600,5,0,0:0:0:0:
152,172,292800,1,0,0:0:0:0:
260,96,293000,1,0,0:0:0:0:
260,96,293200,1,0,0:0:0:0:
136,56,293400,1,0,0:0:0:0:
136,56,293600,6,0,L|136:224,1,160
364,104,294000,1,0,0:0:0:0:
256,296,294300,1,0,0:0:0:0:
256,296,294400,1,0,0:0:0:0:
128,104,294600,6,0,P|84:136|20:124,5,80
360,80,295200,2,0,P|432:108|444:84,5,80
320,248,295800,2,0,L|320:328,2,80
96,216,296200,1,0,0:0:0:0:
88,240,296400,1,0,0:0:0:0:
264,56,296600,5,0,0:0:0:0:
256,80,296800,1,0,0:0:0:0:
248,96,297000,1,0,0:0:0:0:
420,348,297200,1,0,0:0:0:0:
80,48,297600,1,0,0:0:0:0:
256,192,298400,12,0,303200,0:0:0:0:
