osu file format v14

[General]
AudioFilename: audio.mp3
AudioLeadIn: 0
PreviewTime: -1
Countdown: 1
SampleSet: Normal
StackLeniency: 0.7
Mode: 0
LetterboxInBreaks: 0
WidescreenStoryboard: 0

[Editor]
Bookmarks: 39086,87771,122058,133027,180515,194744,216684
DistanceSpacing: 1.2
BeatDivisor: 4
GridSize: 16
TimelineZoom: 2.699999

[Metadata]
Title:aa kenran no utakata ga shiku (Epsilon Remix)
TitleUnicode:嗚呼 絢爛の泡沫が如く(Epsilon Remix)
Artist:Epsilon114
ArtistUnicode:Epsilon114
Creator:lsahi
Version:Extra
Source:
Tags:
BeatmapID:1217188
BeatmapSetID:511434

[Difficulty]
HPDrainRate:8
CircleSize:4
OverallDifficulty:8.9
ApproachRate:9.4
SliderMultiplier:1.83
SliderTickRate:1

[Events]
//Background and Video events
0,0,"77a5691a16543f7d9a5919af12271ff863c7a214.jpg",0,0
//Break Periods
2,11857,22088
2,76313,81744
//Storyboard Layer 0 (Background)
//Storyboard Layer 1 (Fail)
//Storyboard Layer 2 (Pass)
//Storyboard Layer 3 (Foreground)
//Storyboard Layer 4 (Overlay)
//Storyboard Sound Samples

[TimingPoints]
686,342.857142857143,4,1,0,100,1,0
686,-133.333333333333,4,1,0,100,0,0
10286,-66.6666666666667,4,1,0,100,0,0
11657,-100,4,1,0,100,0,0
33257,-66.6666666666667,4,1,0,100,0,0
33600,-133.333333333333,4,1,0,100,0,0
39086,-133.333333333333,4,1,0,100,0,0
44571,-100,4,1,0,100,0,1
49028,-83.3333333333333,4,1,0,100,0,1
49371,-71.4285714285714,4,1,0,100,0,1
49714,-100,4,1,0,100,0,1
54857,-133.333333333333,4,1,0,100,0,1
55543,-100,4,1,0,100,0,1
60000,-83.3333333333333,4,1,0,100,0,1
60343,-71.4285714285714,4,1,0,100,0,1
60686,-100,4,1,0,100,0,1
66514,-100,4,1,0,100,0,0
72000,-66.6666666666667,4,1,0,100,0,0
73028,342.857142857143,4,1,0,100,1,0
73028,-66.6666666666667,4,1,0,100,0,0
74056,342.857142857143,4,1,0,100,1,0
74056,-66.6666666666667,4,1,0,100,0,0
74056,-66.6666666666667,4,1,0,100,0,0
75428,-83.3333333333333,4,1,0,100,0,0
76800,-133.333333333333,4,1,0,100,0,0
87770,-100,4,1,0,100,0,0
91884,-66.6666666666667,4,1,0,100,0,0
93256,-133.333333333333,4,1,0,100,0,0
100113,-100,4,1,0,100,0,0
100456,-66.6666666666667,4,1,0,100,0,0
102856,-100,4,1,0,100,0,0
103541,-80,4,1,0,100,0,0
104570,-74.0740740740741,4,1,0,100,0,0
104913,-66.6666666666667,4,1,0,100,0,0
106284,-100,4,1,0,100,0,0
106970,-66.6666666666667,4,1,0,100,0,0
107656,-100,4,1,0,100,0,0
108170,-66.6666666666667,4,1,0,100,0,0
121370,-100,4,1,0,100,0,0
122056,-133.333333333333,4,1,0,100,0,0
122398,-100,4,1,0,100,0,0
127541,-133.333333333333,4,1,0,100,0,0
127884,-100,4,1,0,100,0,0
133027,-80,4,1,0,100,0,0
134398,-100,4,1,0,100,0,0
135770,-80,4,1,0,100,0,0
137141,-100,4,1,0,100,0,0
138513,-80,4,1,0,100,0,0
139884,-100,4,1,0,100,0,0
145370,-100,4,1,0,100,0,0
158398,-66.6666666666667,4,1,0,100,0,0
158741,-100,4,1,0,100,0,0
159084,-200,4,1,0,100,0,0
164227,-133.333333333333,4,1,0,100,0,0
164570,-133.333333333333,4,1,0,100,0,0
168684,-200,4,1,0,100,0,0
169713,-66.6666666666667,4,1,0,100,0,0
170056,-66.6666666666667,4,1,0,100,0,1
176227,-100,4,1,0,100,0,1
176570,-66.6666666666667,4,1,0,100,0,1
177598,-100,4,1,0,100,0,1
177941,-66.6666666666667,4,1,0,100,0,1
180684,-100,4,1,0,100,0,1
181027,-66.6666666666667,4,1,0,100,0,1
185141,-83.3333333333333,4,1,0,100,0,1
185484,-66.6666666666667,4,1,0,100,0,1
185827,-55.5555555555556,4,1,0,100,0,1
186170,-66.6666666666667,4,1,0,100,0,1
191656,-133.333333333333,4,1,0,100,0,0
193713,-133.333333333333,4,1,0,100,0,0
194056,-100,4,1,0,100,0,0
194398,-66.6666666666667,4,1,0,100,0,0
194741,-100,4,1,0,50,0,0
198856,-66.6666666666667,4,1,0,50,0,0
200227,-100,4,1,0,50,0,0
209741,-66.6666666666667,4,1,0,50,0,0
211198,-100,4,1,0,50,0,0
215313,-66.6666666666667,4,1,0,50,0,0

[HitObjects]
37,81,685,5,0,0:0:0:0:
123,97,857,1,0,0:0:0:0:
176,208,1028,1,0,0:0:0:0:
267,202,1200,1,0,0:0:0:0:
315,74,1371,1,0,0:0:0:0:
403,92,1543,2,0,L|474:107,2,68.6250026178361
496,198,2057,5,0,0:0:0:0:
464,298,2228,2,0,P|416:270|399:244,2,68.6250026178361
316,236,2743,2,0,L|245:246,1,68.6250026178361
158,279,3086,2,0,P|124:307|90:322,1,68.6250026178361
68,323,3343,1,0,0:0:0:0:
37,313,3428,5,0,0:0:0:0:
17,225,3600,1,0,0:0:0:0:
134,200,3771,1,0,0:0:0:0:
141,111,3943,1,0,0:0:0:0:
234,57,4114,1,0,0:0:0:0:
241,146,4286,1,0,0:0:0:0:
358,171,4457,1,0,0:0:0:0:
338,259,4629,1,0,0:0:0:0:
450,324,4800,5,0,0:0:0:0:
321,341,4971,2,0,L|246:338,2,68.6250026178361
208,260,5486,2,0,P|206:221|190:183,1,68.6250026178361
92,172,5828,1,0,0:0:0:0:
45,79,6000,1,0,0:0:0:0:
75,82,6086,1,0,0:0:0:0:
102,95,6171,6,0,P|148:121|182:115,1,68.6250026178361
410,95,6514,2,0,P|364:121|330:115,1,68.6250026178361
163,26,6857,1,0,0:0:0:0:
254,258,7028,1,0,0:0:0:0:
349,28,7200,1,0,0:0:0:0:
254,258,7371,1,0,0:0:0:0:
254,145,7543,5,0,0:0:0:0:
357,310,7714,2,0,P|408:324|441:320,2,68.6250026178361
155,310,8228,2,0,P|104:324|71:320,1,68.6250026178361
19,133,8571,2,0,L|106:140,1,68.6250026178361
157,44,8828,1,0,0:0:0:0:
157,44,8914,6,0,P|163:92|187:122,1,68.6250026178361
355,44,9257,2,0,P|349:92|325:122,1,68.6250026178361
424,138,9600,2,0,L|493:133,2,68.6250026178361
256,308,10114,5,0,0:0:0:0:
256,277,10200,1,0,0:0:0:0:
314,202,10286,6,0,B|342:225|342:225|399:184|385:113,1,137.250005235672
316,83,10543,2,0,P|248:97|210:48,1,137.250005235672
113,35,10800,2,0,P|78:48|50:89,1,68.6250026178361
50,165,10971,2,0,B|53:236|123:261|123:261|160:213|159:154,1,205.875007853508
210,49,11314,6,0,P|212:88|231:132,1,68.6250026178361
356,343,11486,2,0,P|352:305|338:260,1,68.6250026178361
155,192,11657,5,0,0:0:0:0:
383,256,22628,5,0,0:0:0:0:
433,278,22714,2,0,L|408:159,1,91.5
469,46,22971,2,0,L|457:107,1,45.75
304,180,23143,2,0,L|289:107,1,45.75
152,52,23314,1,0,0:0:0:0:
374,86,23486,2,0,L|383:33,1,45.75
204,332,23657,2,0,L|235:225,1,91.5
118,71,24000,5,0,0:0:0:0:
274,251,24171,2,0,L|210:241,1,45.75
102,175,24343,2,0,L|207:152,1,91.5
392,335,24686,2,0,P|365:273|368:235,1,91.5
398,173,24943,1,0,0:0:0:0:
398,173,25028,1,0,0:0:0:0:
282,343,25200,1,0,0:0:0:0:
121,315,25371,6,0,B|141:289|136:254|136:254|164:290|211:290,1,137.25
217,119,25714,2,0,P|205:166|208:217,1,91.5
385,338,26057,2,0,P|417:261|412:148,1,183
52,245,26743,5,0,0:0:0:0:
265,77,26914,1,0,0:0:0:0:
294,105,27000,1,0,0:0:0:0:
314,140,27086,2,0,P|301:198|306:241,1,91.5
367,337,27428,5,0,0:0:0:0:
385,335,27514,1,0,0:0:0:0:
403,332,27600,1,0,0:0:0:0:
421,330,27686,1,0,0:0:0:0:
458,290,27771,5,0,0:0:0:0:
463,235,27857,1,0,0:0:0:0:
449,181,27943,1,0,0:0:0:0:
418,135,28028,1,0,0:0:0:0:
333,106,28114,5,0,0:0:0:0:
333,106,28200,2,0,B|293:129|293:129|239:130,1,91.5
141,93,28457,2,0,P|135:62|135:38,1,45.75
166,192,28628,2,0,P|172:223|172:247,1,45.75
258,369,28800,2,0,P|257:313|266:270,1,91.5
350,191,29057,2,0,L|396:186,1,45.75
26,134,29314,1,0,0:0:0:0:
119,312,29486,5,0,0:0:0:0:
387,342,29657,2,0,L|376:285,1,45.75
490,140,29828,2,0,P|488:210|468:244,1,91.5
444,58,30171,1,0,0:0:0:0:
267,164,30343,2,0,L|325:151,1,45.75
311,44,30514,2,0,L|214:61,1,91.5
379,235,30857,6,0,P|380:304|409:337,1,91.5
286,352,31114,1,0,0:0:0:0:
286,352,31200,2,0,P|234:317|127:320,1,137.25
52,344,31543,1,0,0:0:0:0:
121,209,31714,1,0,0:0:0:0:
263,264,31886,1,0,0:0:0:0:
316,271,31971,1,0,0:0:0:0:
370,263,32057,1,0,0:0:0:0:
415,231,32143,1,0,0:0:0:0:
437,181,32228,5,0,0:0:0:0:
122,103,32400,2,0,L|187:91,1,45.75
248,51,32571,2,0,P|290:84|348:84,1,91.5
226,283,32914,2,0,B|219:231|219:231|229:165,1,91.5
103,332,33257,2,0,L|91:226,2,91.5000034904481
145,171,33600,6,0,P|128:120|136:70,1,102.937503926754
208,27,33943,2,0,B|247:26|247:26|293:40,1,68.6250026178361
336,104,34286,2,0,P|338:182|395:226,1,137.250005235672
300,331,34971,6,0,P|282:277|284:239,1,68.6250026178361
282,181,35228,2,0,P|292:137|309:113,1,68.6250026178361
367,63,35486,2,0,P|400:52|411:53,1,34.3125013089181
512,197,35657,2,0,P|448:207|366:174,1,137.250005235672
114,315,36343,6,0,P|166:289|175:272,1,68.6250026178361
208,210,36600,2,0,P|209:158|198:132,1,68.6250026178361
153,78,36857,2,0,P|123:73|98:54,1,34.3125013089181
237,71,37028,2,0,P|314:89|354:132,1,137.250005235672
388,245,37714,6,0,P|359:293|330:306,1,68.6250026178361
264,332,37971,2,0,P|217:335|187:321,1,68.6250026178361
126,268,38228,2,0,L|114:178,1,68.6250026178361
129,107,38486,2,0,P|168:85|189:51,1,68.6250026178361
270,46,38743,2,0,L|279:125,1,68.6250026178361
150,206,39086,6,0,B|184:203|184:203|208:180|208:180|226:197|257:206,1,102.937503926754
377,370,39428,2,0,L|326:352,2,45.7500017452241
296,268,39771,2,0,P|252:303|236:360,1,102.937503926754
24,319,40114,2,0,L|85:306,2,45.7500017452241
136,216,40457,5,0,0:0:0:0:
398,181,40628,1,0,0:0:0:0:
359,260,40714,2,0,L|351:171,1,68.6250026178361
298,124,40971,2,0,P|259:149|217:148,1,68.6250026178361
170,100,41228,2,0,P|143:70|90:59,1,68.6250026178361
37,101,41486,2,0,B|32:139|32:139|38:181,1,68.6250026178361
155,335,41828,6,0,B|169:304|153:261|153:261|173:282|198:284,1,102.937503926754
20,306,42171,2,0,L|74:303,2,45.7500017452241
75,207,42514,2,0,P|109:165|100:99,1,102.937503926754
33,30,42857,2,0,L|40:87,2,45.7500017452241
20,306,43200,5,0,0:0:0:0:
104,35,43371,1,0,0:0:0:0:
272,232,43543,1,0,0:0:0:0:
0,146,43715,1,0,0:0:0:0:
223,316,43886,5,0,0:0:0:0:
269,306,43971,1,0,0:0:0:0:
316,296,44057,1,0,0:0:0:0:
363,286,44143,1,0,0:0:0:0:
396,240,44228,5,0,0:0:0:0:
381,220,44314,1,0,0:0:0:0:
371,197,44400,1,0,0:0:0:0:
370,172,44486,1,0,0:0:0:0:
389,107,44571,6,0,P|405:156|391:249,1,137.25
173,186,44914,2,0,L|159:134,1,45.75
267,35,45086,2,0,L|262:98,1,45.75
61,108,45257,1,0,0:0:0:0:
391,105,45428,1,0,0:0:0:0:
391,105,45514,1,0,0:0:0:0:
391,105,45600,1,0,0:0:0:0:
170,278,45771,1,0,0:0:0:0:
173,186,45943,6,0,L|169:287,1,91.5
419,202,46286,1,0,0:0:0:0:
87,326,46457,2,0,L|81:258,1,45.75
254,159,46628,2,0,L|250:266,1,91.5
31,83,46971,2,0,P|82:102|131:90,1,91.5
425,297,47314,6,0,P|360:288|316:298,1,91.5
146,336,47571,1,0,0:0:0:0:
146,336,47657,2,0,B|195:348|195:348|254:338,1,91.5
112,105,48000,1,0,0:0:0:0:
361,231,48171,2,0,L|354:302,1,45.75
84,243,48343,1,0,0:0:0:0:
239,47,48514,1,0,0:0:0:0:
233,288,48686,6,0,B|271:291|271:291|298:309|298:309|335:302,1,91.5
444,201,48943,1,0,0:0:0:0:
444,201,49028,2,0,B|460:167|456:118|456:118|440:133|416:135,1,109.79999664917
304,182,49286,1,0,0:0:0:0:
304,182,49371,2,0,P|290:253|243:177,1,192.149994136048
242,167,49714,5,0,0:0:0:0:
403,115,49886,1,0,0:0:0:0:
83,127,50057,1,0,0:0:0:0:
312,34,50228,1,0,0:0:0:0:
312,34,50314,1,0,0:0:0:0:
403,115,50400,2,0,L|386:228,1,91.5
177,274,50743,2,0,P|190:202|231:140,1,137.25
394,345,51086,2,0,P|324:329|277:334,1,91.5
68,348,51428,5,0,0:0:0:0:
270,313,51600,2,0,P|300:299|314:282,1,45.75
261,42,51771,2,0,P|286:113|302:134,1,91.5
115,153,52114,1,0,0:0:0:0:
401,109,52286,2,0,P|386:147|389:179,1,45.75
308,290,52457,2,0,L|295:190,1,91.5
124,267,52800,5,0,0:0:0:0:
316,123,52971,2,0,L|390:116,1,45.75
47,293,53143,5,0,0:0:0:0:
273,50,53314,2,0,L|347:43,1,45.75
194,311,53486,5,0,0:0:0:0:
404,188,53657,2,0,L|358:192,1,45.75
308,287,53828,1,0,0:0:0:0:
257,139,54000,1,0,0:0:0:0:
271,376,54171,5,0,0:0:0:0:
128,115,54343,2,0,L|179:131,1,45.75
363,35,54514,2,0,L|263:51,1,91.5
103,265,54857,5,0,0:0:0:0:
126,267,54943,1,0,0:0:0:0:
149,269,55028,1,0,0:0:0:0:
172,271,55114,1,0,0:0:0:0:
190,255,55200,2,0,P|225:273|225:215,1,102.937503926754
344,269,55543,6,0,B|336:323|336:323|365:359|365:359|393:347|401:333,1,137.25
180,37,55886,6,0,L|176:101,1,45.75
289,358,56057,2,0,L|293:297,1,45.75
103,265,56228,1,0,0:0:0:0:
366,98,56400,2,0,L|359:159,1,45.75
98,173,56571,2,0,L|103:280,1,91.5
430,257,56914,5,0,0:0:0:0:
186,253,57086,2,0,L|256:245,1,45.75
477,192,57257,1,0,0:0:0:0:
148,176,57428,1,0,0:0:0:0:
413,137,57600,2,0,P|395:182|441:264,1,137.25
482,80,57943,1,0,0:0:0:0:
299,113,58114,1,0,0:0:0:0:
398,339,58286,5,0,0:0:0:0:
210,71,58457,1,0,0:0:0:0:
210,71,58543,1,0,0:0:0:0:
275,200,58628,2,0,P|261:258|270:301,1,91.5
466,258,58971,1,0,0:0:0:0:
394,145,59143,2,0,P|358:156|328:153,1,45.75
42,210,59314,2,0,P|92:207|150:214,1,91.5
311,329,59657,6,0,B|281:334|256:322|256:322|226:335|226:335|207:327,1,91.5
115,241,59914,1,0,0:0:0:0:
115,241,60000,2,0,B|145:235|175:246|175:246|213:228|213:228|241:234,1,109.79999664917
365,167,60257,1,0,0:0:0:0:
365,167,60343,2,0,B|331:183|284:170|284:170|251:140|206:138|206:138|172:156,1,192.149994136048
346,31,60686,5,0,0:0:0:0:
298,243,60857,1,0,0:0:0:0:
173,131,61028,1,0,0:0:0:0:
469,238,61200,1,0,0:0:0:0:
469,238,61286,1,0,0:0:0:0:
293,333,61371,2,0,B|290:302|290:302|301:260|301:260|298:224,1,91.5
93,72,61714,2,0,P|72:140|111:207,1,137.25
356,170,62057,2,0,P|302:154|255:160,1,91.5
112,310,62400,5,0,0:0:0:0:
384,296,62571,2,0,P|370:266|370:233,1,45.75
261,66,62743,2,0,P|269:124|262:179,1,91.5
50,216,63086,1,0,0:0:0:0:
356,170,63257,1,0,0:0:0:0:
356,170,63343,1,0,0:0:0:0:
72,303,63428,2,0,P|54:261|50:208,1,91.5
279,340,63771,5,0,0:0:0:0:
138,258,63943,2,0,L|159:196,1,45.75
238,197,64114,5,0,0:0:0:0:
320,56,64286,2,0,L|382:77,1,45.75
243,100,64457,5,0,0:0:0:0:
369,225,64629,2,0,L|384:182,1,45.75
116,71,64800,2,0,L|132:139,1,45.75
96,370,64971,2,0,L|107:325,1,45.75
46,249,65143,5,0,0:0:0:0:
75,236,65228,1,0,0:0:0:0:
106,232,65314,1,0,0:0:0:0:
137,236,65400,1,0,0:0:0:0:
165,250,65486,1,0,0:0:0:0:
187,272,65571,1,0,0:0:0:0:
216,285,65657,1,0,0:0:0:0:
248,287,65743,1,0,0:0:0:0:
278,278,65828,2,0,L|306:278,7,22.875
346,218,66171,6,0,P|367:179|446:207,1,137.25
456,217,66514,6,0,B|448:165|448:165|459:106,1,91.5
56,167,66857,2,0,B|64:219|64:219|53:278,1,91.5
279,277,67200,1,0,0:0:0:0:
233,107,67371,1,0,0:0:0:0:
195,299,67543,2,0,P|226:346|279:363,1,91.5
142,148,67886,6,0,P|95:147|51:170,1,91.5
370,236,68228,2,0,P|417:237|461:214,1,91.5
384,103,68571,1,0,0:0:0:0:
128,281,68743,1,0,0:0:0:0:
244,149,68914,2,0,L|272:253,1,91.5
404,316,69257,6,0,P|387:253|349:225,1,91.5
108,68,69600,2,0,P|125:131|163:159,1,91.5
381,150,69943,1,0,0:0:0:0:
131,234,70114,1,0,0:0:0:0:
316,231,70286,2,0,P|282:188|269:132,1,91.5
494,239,70628,6,0,L|393:238,1,91.5
317,231,70886,2,0,P|255:245|220:272,1,91.5
208,339,71143,2,0,P|197:283|168:237,1,91.5
112,129,71486,2,0,B|100:174|100:174|114:239,2,91.5
434,281,72000,6,0,P|452:202|409:124,1,137.250005235672
282,50,72257,2,0,B|214:31|214:31|190:98,1,137.250005235672
169,329,72514,2,0,B|215:285|209:192|209:192|222:222|287:237,1,205.875007853508
122,201,72857,2,0,P|116:228|92:268,1,68.6250026178361
344,180,73028,6,0,P|382:138|475:136,1,137.250005235672
359,359,73286,2,0,B|335:320|336:272|336:272|319:303|287:308,1,137.250005235672
423,230,73543,2,0,B|458:151|392:101|392:101|407:67|395:36,1,205.875007853508
233,49,73886,2,0,P|266:59|309:58,1,68.6250026178361
145,95,74057,5,0,0:0:0:0:
145,95,74143,2,0,B|157:163|157:163|143:245,1,137.250005235672
64,314,74400,2,0,B|54:267|54:267|63:228,1,68.6250026178361
244,169,74571,2,0,B|293:145|293:145|267:271|267:271|240:232,1,205.875007853508
58,246,74914,2,0,L|131:242,1,68.6250026178361
385,293,75086,2,0,L|373:253,3,34.3125013089181
235,134,75257,2,0,L|244:174,3,34.3125013089181
295,249,75428,6,0,P|168:323|251:172,1,439.19998659668
98,240,82284,5,0,0:0:0:0:
390,297,82627,2,0,L|384:208,1,68.6250026178361
245,50,82970,2,0,L|238:195,1,137.250005235672
98,240,83656,1,0,0:0:0:0:
385,228,83827,1,0,0:0:0:0:
385,228,83913,1,0,0:0:0:0:
385,228,83998,1,0,0:0:0:0:
98,240,84170,1,0,0:0:0:0:
396,142,84341,2,0,B|407:248|407:248|366:210,1,137.250005235672
161,91,85027,5,0,0:0:0:0:
248,329,85370,1,0,0:0:0:0:
266,101,85713,2,0,B|255:148|255:148|275:196|275:196|262:253,1,137.250005235672
24,288,86398,1,0,0:0:0:0:
131,338,86570,1,0,0:0:0:0:
248,329,86741,1,0,0:0:0:0:
269,317,86827,1,0,0:0:0:0:
293,314,86913,2,0,L|323:320,3,17.156250654459
338,332,87084,5,0,0:0:0:0:
266,101,87256,1,0,0:0:0:0:
83,283,87427,2,0,L|124:277,1,22.875000872612
242,284,87541,2,0,L|254:257,1,22.875000872612
382,229,87656,2,0,L|377:201,1,22.875000872612
356,130,87770,6,0,L|348:243,1,91.5
412,350,88113,2,0,L|420:237,1,91.5
195,166,88456,1,0,0:0:0:0:
473,82,88627,1,0,0:0:0:0:
305,324,88798,2,0,L|311:222,1,91.5
88,68,89141,6,0,L|60:180,1,91.5
181,300,89398,2,0,L|166:190,1,91.5
290,73,89656,2,0,L|258:176,1,91.5
13,298,89998,1,0,0:0:0:0:
375,301,90170,2,0,L|351:195,1,91.5
92,297,90513,6,0,B|142:309|142:309|201:295,1,91.5
262,173,90770,2,0,B|247:123|247:123|205:79,1,91.5
60,98,91027,2,0,B|24:135|24:135|7:193,1,91.5
302,269,91370,1,0,0:0:0:0:
145,204,91541,2,0,B|170:245|170:245|224:255,1,91.5
449,198,91884,6,0,P|415:250|422:191,1,137.250005235672
311,118,92141,6,0,B|287:53|287:53|258:120,1,137.250005235672
202,253,92398,6,0,P|245:258|197:222,1,137.250005235672
121,140,92656,6,0,P|64:129|72:199,1,137.250005235672
121,140,92913,6,0,P|146:68|231:122,1,205.875007853508
318,82,93256,6,0,P|311:130|334:190,1,102.937503926754
413,158,93598,1,0,0:0:0:0:
470,227,93713,1,0,0:0:0:0:
424,300,93827,1,0,0:0:0:0:
334,295,93941,2,0,B|307:278|307:278|265:285|265:285|234:261,1,102.937503926754
216,193,94284,1,0,0:0:0:0:
156,135,94398,1,0,0:0:0:0:
76,125,94513,1,0,0:0:0:0:
10,172,94627,5,0,0:0:0:0:
240,112,94798,1,0,0:0:0:0:
240,112,94884,1,0,0:0:0:0:
240,112,94970,1,0,0:0:0:0:
183,322,95141,1,0,0:0:0:0:
183,322,95198,1,0,0:0:0:0:
183,322,95256,1,0,0:0:0:0:
183,322,95313,1,0,0:0:0:0:
106,84,95484,2,0,L|114:164,2,68.6250026178361
316,318,95998,6,0,P|328:268|310:219,1,102.937503926754
169,162,96341,2,0,L|105:182,2,45.7500017452241
295,65,96684,2,0,B|375:48|375:48|360:95,1,102.937503926754
345,194,97027,2,0,P|348:229|357:262,2,45.7500017452241
426,292,97370,5,0,0:0:0:0:
181,172,97541,1,0,0:0:0:0:
362,110,97713,1,0,0:0:0:0:
244,354,97885,1,0,0:0:0:0:
434,181,98056,5,0,0:0:0:0:
114,267,98227,1,0,0:0:0:0:
434,181,98398,1,0,0:0:0:0:
97,73,98570,1,0,0:0:0:0:
87,109,98656,1,0,0:0:0:0:
91,146,98741,5,0,0:0:0:0:
181,172,98913,1,0,0:0:0:0:
260,108,99084,1,0,0:0:0:0:
206,273,99256,1,0,0:0:0:0:
161,79,99427,1,0,0:0:0:0:
358,134,99598,1,0,0:0:0:0:
108,250,99770,1,0,0:0:0:0:
123,215,99856,1,0,0:0:0:0:
150,189,99941,1,0,0:0:0:0:
186,180,100027,1,0,0:0:0:0:
259,213,100113,6,0,P|264:273|333:315,1,137.25
461,258,100456,2,0,L|473:163,1,68.6250026178361
156,90,100627,1,0,0:0:0:0:
156,90,100713,1,0,0:0:0:0:
155,89,100798,2,0,B|195:88|195:88|237:110|237:110|296:108,1,137.250005235672
162,318,101141,1,0,0:0:0:0:
258,29,101313,1,0,0:0:0:0:
49,188,101484,5,0,0:0:0:0:
389,100,101656,2,0,P|359:140|324:150,1,68.6250026178361
125,145,101827,2,0,P|221:131|281:164,1,137.250005235672
287,318,102084,1,0,0:0:0:0:
271,291,102170,2,0,B|263:246|276:222|276:222|315:211|337:163,1,137.250005235672
164,69,102428,1,0,0:0:0:0:
196,98,102513,2,0,P|208:169|142:228,1,137.250005235672
49,188,102856,5,0,0:0:0:0:
306,182,103027,2,0,P|335:202|364:206,1,45.75
133,236,103198,2,0,L|241:223,1,91.5
413,80,103541,5,0,0:0:0:0:
484,367,103713,2,0,P|496:324|515:305,1,57.1875
460,160,103884,2,0,L|428:278,1,114.375
262,274,104227,6,0,P|239:230|248:139,1,114.375
159,65,104484,1,0,0:0:0:0:
151,176,104570,6,0,P|152:223|183:307,1,123.52500047121
28,40,104827,1,0,0:0:0:0:
69,129,104913,6,0,P|55:187|65:274,1,137.250005235672
133,337,105170,1,0,0:0:0:0:
181,311,105256,1,0,0:0:0:0:
233,295,105341,1,0,0:0:0:0:
288,292,105427,1,0,0:0:0:0:
341,303,105513,1,0,0:0:0:0:
396,339,105598,6,0,P|394:268|454:269,1,137.250005235672
487,330,105856,1,0,0:0:0:0:
487,330,105941,2,0,P|469:242|481:168,1,137.250005235672
303,191,106284,2,0,P|326:110|365:77,1,137.25
441,182,106627,1,0,0:0:0:0:
183,188,106798,1,0,0:0:0:0:
116,45,106970,6,0,P|118:116|58:115,1,137.250005235672
25,54,107228,1,0,0:0:0:0:
25,54,107313,2,0,P|43:142|31:216,1,137.250005235672
209,193,107656,2,0,P|186:274|147:307,1,137.25
26,226,107998,6,0,L|91:228,1,45.75
304,307,108170,2,0,L|222:306,1,68.6250026178361
116,46,108341,5,0,0:0:0:0:
218,162,108513,1,0,0:0:0:0:
241,206,108598,1,0,0:0:0:0:
317,257,108684,2,0,B|293:325|293:325|235:359,1,137.250005235672
32,120,109027,5,0,0:0:0:0:
148,301,109198,2,0,L|223:276,1,68.6250026178361
22,221,109370,5,0,0:0:0:0:
240,349,109541,2,0,L|315:324,1,68.6250026178361
39,22,109713,5,0,0:0:0:0:
257,218,109884,2,0,L|164:251,1,68.6250026178361
22,221,110056,2,0,P|65:240|126:163,1,137.250005235672
7,29,110398,6,0,L|-1:107,1,68.6250026178361
95,289,110570,1,0,0:0:0:0:
103,89,110741,6,0,L|95:167,1,68.6250026178361
169,328,110913,1,0,0:0:0:0:
203,326,110998,1,0,0:0:0:0:
233,310,111084,6,0,P|199:240|226:179,1,137.250005235672
382,192,111341,1,0,0:0:0:0:
382,192,111427,2,0,P|339:206|297:201,1,68.6250026178361
221,84,111598,2,0,P|178:69|141:69,1,68.6250026178361
79,181,111770,2,0,B|106:248|67:328|67:328|111:305|119:268,1,205.875007853508
32,51,112113,2,0,P|27:80|35:124,1,68.6250026178361
194,325,112284,2,0,P|199:296|191:252,1,68.6250026178361
0,245,112456,5,0,0:0:0:0:
285,140,112627,1,0,0:0:0:0:
313,159,112713,1,0,0:0:0:0:
346,163,112798,1,0,0:0:0:0:
135,147,112970,1,0,0:0:0:0:
285,140,113141,2,0,P|336:124|429:142,1,137.250005235672
480,193,113398,1,0,0:0:0:0:
491,91,113484,2,0,P|453:60|402:52,1,68.6250026178361
276,55,113656,2,0,P|229:75|201:111,1,68.6250026178361
251,230,113827,6,0,B|311:271|369:231|369:231|391:222|413:220|413:220|420:246|391:259,1,205.875007853508
336,351,114170,2,0,L|319:275,1,68.6250026178361
310,164,114341,2,0,P|320:128|315:87,1,68.6250026178361
78,115,114513,6,0,B|115:135|149:115|149:115|183:97|228:118,1,137.250005235672
181,329,114770,1,0,0:0:0:0:
155,251,114856,2,0,P|176:214|191:176,1,68.6250026178361
109,54,115027,2,0,P|88:91|73:129,1,68.6250026178361
74,323,115198,6,0,P|128:336|189:286,1,137.250005235672
142,158,115456,1,0,0:0:0:0:
151,75,115541,6,0,P|238:53|297:65,1,137.250005235672
314,278,115798,1,0,0:0:0:0:
358,347,115884,6,0,B|417:354|463:338|463:338|514:277|493:224,1,205.875007853508
170,69,116227,2,0,L|177:156,1,68.6250026178361
393,119,116398,2,0,L|382:199,1,68.6250026178361
83,226,116570,5,0,0:0:0:0:
233,324,116741,2,0,B|269:329|269:329|304:316,1,68.6250026178361
255,102,116913,2,0,P|198:155|108:142,1,137.250005235672
146,339,117256,2,0,P|171:263|290:256,1,205.875007853508
350,335,117598,6,0,P|340:297|345:248,1,68.6250026178361
159,212,117770,2,0,P|175:166|173:127,1,68.6250026178361
57,63,117941,5,0,0:0:0:0:
0,304,118113,2,0,B|41:295|41:295|79:303,1,68.6250026178361
385,227,118284,2,0,P|322:234|253:182,1,137.250005235672
142,363,118627,2,0,P|162:296|57:206,1,205.875007853508
67,205,118970,6,0,B|101:205|101:205|136:191,1,68.6250026178361
363,94,119141,2,0,B|329:94|329:94|294:108,1,68.6250026178361
385,320,119313,2,0,P|302:330|260:224,1,205.875007853508
382,172,119656,6,0,P|377:202|386:257,1,68.6250026178361
215,284,119827,2,0,P|250:248|258:228,1,68.6250026178361
94,92,119998,2,0,P|116:179|99:245,1,137.250005235672
28,344,120256,1,0,0:0:0:0:
49,311,120341,2,0,P|79:308|120:316,1,68.6250026178361
244,236,120513,2,0,P|279:252|303:275,1,68.6250026178361
396,344,120684,6,0,P|414:305|416:261,1,68.6250026178361
512,255,120856,2,0,P|502:213|500:177,1,68.6250026178361
392,165,121027,2,0,L|400:93,1,68.6250026178361
292,89,121198,2,0,P|283:46|263:10,1,68.6250026178361
234,198,121370,6,0,P|222:269|64:231,1,274.5
361,53,122056,6,0,L|365:166,1,102.937503926754
368,291,122398,2,0,B|317:287|317:287|278:261,1,91.5
83,89,122741,1,0,0:0:0:0:
187,241,123084,2,0,L|185:343,1,91.5
432,202,123598,2,0,L|420:86,2,91.5
291,342,124113,2,0,L|304:182,1,137.25
256,98,124456,2,0,P|189:79|155:81,1,91.5
45,220,124798,6,0,P|111:239|201:210,1,137.25
108,30,125141,2,0,L|112:144,1,91.5
315,248,125484,1,0,0:0:0:0:
47,311,125827,2,0,L|44:195,1,91.5
337,303,126341,2,0,P|274:322|230:318,2,91.5
397,227,126856,2,0,B|401:140|401:140|381:72,1,137.25
274,33,127198,2,0,L|206:43,1,45.75
142,127,127370,2,0,L|92:121,1,45.75
66,232,127541,6,0,L|178:220,1,102.937503926754
303,285,127884,2,0,P|317:238|352:202,1,91.5
142,47,128227,2,0,P|131:105|175:229,1,183
452,195,128913,5,0,0:0:0:0:
113,302,129084,2,0,L|48:294,1,45.75
219,240,129256,2,0,P|210:165|217:130,1,91.5
470,319,129598,2,0,P|379:349|268:325,1,183
222,41,130284,5,0,0:0:0:0:
194,193,130456,1,0,0:0:0:0:
147,110,130627,1,0,0:0:0:0:
291,182,130798,1,0,0:0:0:0:
140,279,130970,1,0,0:0:0:0:
222,41,131141,1,0,0:0:0:0:
287,359,131313,1,0,0:0:0:0:
38,291,131484,1,0,0:0:0:0:
376,283,131656,5,0,0:0:0:0:
331,272,131741,1,0,0:0:0:0:
300,237,131827,1,0,0:0:0:0:
298,191,131913,1,0,0:0:0:0:
324,154,131998,2,0,L|363:162,7,22.875
256,192,132341,12,0,132941,0:0:0:0:
77,259,133027,5,0,0:0:0:0:
414,287,133198,1,0,0:0:0:0:
76,90,133370,1,0,0:0:0:0:
424,125,133541,1,0,0:0:0:0:
230,377,133713,2,0,L|211:299,1,57.1875
337,48,133884,2,0,L|329:128,1,57.1875
77,259,134056,2,0,L|247:236,1,171.5625
400,291,134398,6,0,L|302:304,1,91.5
490,336,134741,1,0,0:0:0:0:
218,156,134913,1,0,0:0:0:0:
77,252,135084,2,0,P|112:198|142:181,1,91.5
231,291,135341,1,0,0:0:0:0:
172,347,135427,2,0,B|141:347|122:338|122:338|102:348|74:347,1,91.5
352,54,135770,5,0,0:0:0:0:
403,340,135941,1,0,0:0:0:0:
194,145,136113,1,0,0:0:0:0:
487,176,136284,1,0,0:0:0:0:
230,324,136456,2,0,L|252:263,1,57.1875
100,252,136627,2,0,L|89:194,1,57.1875
392,176,136798,2,0,L|404:308,1,114.375
154,346,137141,6,0,P|146:276|158:238,1,91.5
45,195,137398,1,0,0:0:0:0:
45,195,137484,2,0,P|83:146|126:127,1,91.5
162,37,137741,1,0,0:0:0:0:
162,37,137827,2,0,P|208:34|220:37,1,45.75
424,100,137998,2,0,P|378:103|366:100,1,45.75
278,116,138170,2,0,B|252:164|301:169|267:226,1,91.5
40,315,138513,5,0,0:0:0:0:
363,216,138684,1,0,0:0:0:0:
155,47,138856,2,0,L|145:167,1,114.375
260,335,139113,1,0,0:0:0:0:
260,335,139198,2,0,L|253:256,1,57.1875
314,74,139370,2,0,L|307:153,1,57.1875
89,296,139541,1,0,0:0:0:0:
423,245,139713,1,0,0:0:0:0:
242,121,139884,6,0,L|142:151,1,91.5
310,209,140141,1,0,0:0:0:0:
342,235,140227,2,0,L|236:265,1,91.5
431,314,140484,1,0,0:0:0:0:
458,342,140570,1,0,0:0:0:0:
209,345,140741,1,0,0:0:0:0:
119,280,140913,2,0,B|123:243|123:243|117:211|117:211|127:123,1,137.25
214,43,141256,5,0,0:0:0:0:
282,234,141427,1,0,0:0:0:0:
426,103,141598,2,0,P|428:163|427:204,1,91.5
493,306,141941,1,0,0:0:0:0:
318,71,142113,1,0,0:0:0:0:
512,194,142284,1,0,0:0:0:0:
198,328,142456,1,0,0:0:0:0:
68,250,142627,5,0,0:0:0:0:
118,268,142713,2,0,P|173:239|219:235,1,91.5
374,290,142970,2,0,P|312:292|270:270,1,91.5
393,56,143313,1,0,0:0:0:0:
381,98,143398,2,0,P|391:162|412:191,1,91.5
246,81,143656,2,0,P|187:95|151:83,1,91.5
256,192,143998,12,0,145113,0:0:0:0:
413,240,145370,6,0,B|292:284|292:284|319:212,1,183
368,77,145884,1,0,0:0:0:0:
72,136,146056,2,0,P|133:186|243:169,1,183
114,309,146741,6,0,L|131:201,1,91.5
150,189,146998,1,0,0:0:0:0:
171,159,147084,1,0,0:0:0:0:
5,197,147256,1,0,0:0:0:0:
323,237,147427,2,0,B|232:226|232:226|165:153,1,183
199,299,148113,6,0,P|254:268|317:156,1,183
56,80,148627,1,0,0:0:0:0:
235,61,148798,2,0,B|177:60|177:60|114:80|114:80|49:80,1,183
248,331,149484,6,0,P|272:275|271:220,1,91.5
80,249,149741,1,0,0:0:0:0:
80,249,149827,2,0,L|181:263,1,91.5
353,183,150170,2,0,P|370:245|344:369,1,183
102,325,150856,6,0,B|134:238|134:238|122:133,1,183
26,66,151370,1,0,0:0:0:0:
26,238,151541,2,0,P|106:275|212:242,1,183
374,154,152227,5,0,0:0:0:0:
195,254,152398,2,0,L|127:239,1,45.75
290,215,152570,2,0,P|348:252|390:252,1,91.5
80,122,152913,2,0,B|79:174|79:174|57:210|57:210|59:315,1,183
426,320,153598,6,0,P|437:238|414:131,1,183
191,248,154113,1,0,0:0:0:0:
70,229,154284,2,0,B|202:201|202:201|185:272,1,183
41,342,154970,5,0,0:0:0:0:
126,93,155141,1,0,0:0:0:0:
289,296,155313,2,0,L|187:290,1,91.5
33,163,155656,5,0,0:0:0:0:
371,137,155827,1,0,0:0:0:0:
195,40,155998,2,0,P|166:120|168:148,1,91.5
277,328,156341,5,0,0:0:0:0:
272,102,156513,1,0,0:0:0:0:
151,343,156684,1,0,0:0:0:0:
406,309,156856,1,0,0:0:0:0:
136,199,157027,2,0,B|123:149|152:105|152:105|194:128,1,137.25
243,188,157370,2,0,P|312:188|343:168,1,91.5
452,51,157713,5,0,0:0:0:0:
451,87,157798,1,0,0:0:0:0:
451,123,157884,1,0,0:0:0:0:
451,159,157970,1,0,0:0:0:0:
451,195,158056,1,0,0:0:0:0:
453,312,158227,5,0,0:0:0:0:
213,311,158398,2,0,B|171:180|171:180|227:223,1,205.875007853508
226,222,158741,5,0,0:0:0:0:
75,58,159084,5,0,0:0:0:0:
184,67,159427,1,0,0:0:0:0:
292,50,159770,1,0,0:0:0:0:
400,67,160113,1,0,0:0:0:0:
432,172,160456,6,0,P|382:180|346:219,1,91.5
281,290,161141,2,0,P|246:260|201:255,1,91.5
96,288,161827,5,0,0:0:0:0:
40,193,162170,1,0,0:0:0:0:
67,86,162513,2,0,P|101:61|161:58,1,91.5
246,105,163198,6,0,P|260:137|272:97,2,91.5
250,342,164227,5,0,0:0:0:0:
250,342,164398,1,0,0:0:0:0:
145,315,164570,6,0,L|162:234,1,68.6250026178361
392,87,164913,2,0,L|403:174,1,68.6250026178361
355,329,165256,2,0,L|348:250,1,68.6250026178361
99,105,165598,2,0,L|194:95,1,68.6250026178361
264,324,165941,6,0,L|186:319,1,68.6250026178361
25,160,166284,2,0,L|121:149,1,68.6250026178361
416,149,166627,2,0,L|328:165,1,68.6250026178361
100,342,166970,2,0,L|82:256,1,68.6250026178361
190,86,167313,5,0,0:0:0:0:
216,81,167398,1,0,0:0:0:0:
243,83,167484,1,0,0:0:0:0:
268,94,167570,1,0,0:0:0:0:
288,112,167656,1,0,0:0:0:0:
302,135,167741,1,0,0:0:0:0:
307,162,167827,1,0,0:0:0:0:
304,189,167913,1,0,0:0:0:0:
287,210,167998,6,0,L|286:239,1,17.156250654459
272,231,168084,2,0,L|254:254,1,17.156250654459
248,249,168170,2,0,L|218:258,1,17.156250654459
217,250,168256,2,0,L|188:249,1,17.156250654459
186,245,168341,6,0,L|158:228,1,17.156250654459
157,239,168427,2,0,L|137:240,1,17.156250654459
126,245,168513,2,0,L|102:257,1,17.156250654459
102,264,168598,2,0,L|88:287,1,17.156250654459
90,298,168684,6,0,P|103:251|0:297,1,251.625
0,319,169713,6,0,P|35:273|89:333,1,137.250005235672
50,120,170056,5,0,0:0:0:0:
239,280,170227,2,0,P|285:276|324:258,1,68.6250026178361
468,90,170398,2,0,P|394:92|323:118,1,137.250005235672
121,281,170741,2,0,P|155:196|210:172,1,137.250005235672
441,243,170998,1,0,0:0:0:0:
466,270,171084,2,0,P|469:308|464:345,1,68.6250026178361
239,280,171256,2,0,P|277:259|297:221,1,68.6250026178361
72,48,171427,5,0,0:0:0:0:
205,192,171598,2,0,P|171:175|139:142,1,68.6250026178361
387,42,171770,2,0,L|383:123,1,68.6250026178361
383,350,171941,2,0,P|365:312|361:272,1,68.6250026178361
470,150,172113,2,0,P|486:225|463:299,1,137.250005235672
148,267,172370,1,0,0:0:0:0:
177,282,172456,2,0,P|243:281|296:228,1,137.250005235672
171,51,172798,6,0,B|193:104|160:150|160:150|102:177|108:249,1,205.875007853508
24,92,173141,2,0,P|58:82|99:88,1,68.6250026178361
261,222,173313,2,0,P|209:231|181:226,1,68.6250026178361
377,80,173484,1,0,0:0:0:0:
358,331,173656,1,0,0:0:0:0:
358,331,173741,1,0,0:0:0:0:
276,317,173827,2,0,L|408:282,1,137.250005235672
471,211,174170,6,0,P|482:153|440:73,1,137.250005235672
272,97,174427,1,0,0:0:0:0:
272,97,174513,2,0,P|224:129|204:70,1,137.250005235672
272,19,174770,1,0,0:0:0:0:
272,19,174856,2,0,P|295:93|277:234,1,205.875007853508
242,288,175198,5,0,0:0:0:0:
90,256,175370,1,0,0:0:0:0:
409,272,175541,1,0,0:0:0:0:
194,362,175713,1,0,0:0:0:0:
194,362,175798,1,0,0:0:0:0:
254,138,175884,2,0,B|265:188|265:188|251:230|268:279,1,137.250005235672
484,221,176227,2,0,P|403:217|335:235,1,137.250005235672
349,314,176570,1,0,0:0:0:0:
400,123,176741,1,0,0:0:0:0:
418,350,176913,5,0,0:0:0:0:
87,257,177084,1,0,0:0:0:0:
87,257,177170,1,0,0:0:0:0:
324,184,177256,2,0,B|296:188|277:201|277:201|236:185|178:195,1,137.250005235672
320,347,177598,2,0,P|374:309|338:265,1,137.25
223,286,177941,2,0,P|185:296|144:300,1,68.6250026178361
11,287,178113,2,0,B|3:249|3:249|17:197,1,68.6250026178361
95,168,178284,6,0,P|187:210|275:141,1,205.875007853508
189,37,178627,2,0,P|178:78|182:124,1,68.6250026178361
329,230,178798,2,0,P|340:271|336:317,1,68.6250026178361
130,344,178970,2,0,P|125:258|151:193,1,137.250005235672
344,143,179227,1,0,0:0:0:0:
385,170,179313,2,0,P|431:181|467:182,1,68.6250026178361
504,51,179484,2,0,L|434:60,1,68.6250026178361
251,142,179656,6,0,B|226:221|257:298,1,137.250005235672
337,247,179913,1,0,0:0:0:0:
157,234,179998,2,0,L|72:228,1,68.6250026178361
51,325,180170,2,0,L|131:322,1,68.6250026178361
266,326,180341,5,0,0:0:0:0:
281,303,180427,1,0,0:0:0:0:
306,292,180513,1,0,0:0:0:0:
333,293,180598,1,0,0:0:0:0:
359,304,180684,6,0,P|391:317|460:252,1,137.25
411,53,181027,6,0,P|404:104|411:135,1,68.6250026178361
456,201,181198,1,0,0:0:0:0:
456,201,181284,1,0,0:0:0:0:
456,201,181370,2,0,P|447:277|390:317,1,137.250005235672
103,241,181713,2,0,P|160:206|306:231,1,205.875007853508
56,328,182056,1,0,0:0:0:0:
171,185,182227,2,0,P|190:225|187:261,1,68.6250026178361
12,244,182398,5,0,0:0:0:0:
261,177,182570,2,0,L|271:91,1,68.6250026178361
31,55,182741,2,0,L|82:193,1,137.250005235672
416,122,183084,1,0,0:0:0:0:
313,319,183256,2,0,P|277:321|227:312,1,68.6250026178361
12,244,183427,2,0,P|109:264|186:242,1,137.250005235672
199,59,183770,5,0,0:0:0:0:
416,122,183941,2,0,P|428:178|425:206,1,68.6250026178361
361,268,184113,1,0,0:0:0:0:
497,66,184284,1,0,0:0:0:0:
111,123,184456,1,0,0:0:0:0:
174,321,184627,2,0,P|218:310|246:295,1,68.6250026178361
308,50,184798,2,0,P|311:100|323:129,1,68.6250026178361
499,303,184970,2,0,P|469:271|442:255,1,68.6250026178361
339,263,185141,6,0,P|284:283|222:284,1,109.79999664917
87,204,185398,1,0,0:0:0:0:
111,123,185484,6,0,P|201:88|262:99,1,137.250005235672
407,223,185741,1,0,0:0:0:0:
403,316,185827,6,0,B|336:379|212:359|212:359|204:288,1,247.049992460633
237,61,186170,2,0,P|251:123|251:157,1,68.6250026178361
113,330,186341,2,0,P|117:295|137:244,1,68.6250026178361
407,223,186513,5,0,0:0:0:0:
127,263,186684,2,0,L|36:261,1,68.6250026178361
188,196,186856,2,0,P|285:211|343:180,1,137.250005235672
137,30,187198,2,0,P|153:119|58:168,1,205.875007853508
17,42,187541,2,0,P|46:73|86:95,1,68.6250026178361
177,308,187713,2,0,P|148:277|108:255,1,68.6250026178361
29,271,187884,1,0,0:0:0:0:
231,72,188056,1,0,0:0:0:0:
231,72,188141,1,0,0:0:0:0:
336,261,188227,2,0,P|292:212|314:106,1,137.250005235672
129,294,188570,2,0,P|177:204|274:236,1,205.875007853508
211,283,188913,5,0,0:0:0:0:
231,72,189084,1,0,0:0:0:0:
489,263,189256,2,0,B|461:276|424:257|424:257|369:277|369:277|337:251|287:257,1,205.875007853508
239,363,189598,2,0,P|296:346|305:334,1,68.6250026178361
480,121,189770,2,0,L|472:195,1,68.6250026178361
449,348,189941,1,0,0:0:0:0:
106,203,190113,2,0,L|203:201,1,68.6250026178361
379,28,190284,2,0,L|296:53,1,68.6250026178361
371,309,190456,2,0,L|362:226,1,68.6250026178361
131,92,190627,5,0,0:0:0:0:
137,125,190713,1,0,0:0:0:0:
152,155,190798,1,0,0:0:0:0:
177,178,190884,1,0,0:0:0:0:
208,190,190970,1,0,0:0:0:0:
241,195,191056,1,0,0:0:0:0:
273,186,191141,1,0,0:0:0:0:
302,167,191227,1,0,0:0:0:0:
323,139,191313,2,0,P|335:119|336:101,4,34.3125013089181
141,311,191656,5,8,0:0:0:0:
201,42,191827,1,0,0:0:0:0:
412,226,191998,2,0,L|340:215,1,68.6250026178361
73,209,192341,5,0,0:0:0:0:
417,136,192513,1,0,0:0:0:0:
141,311,192684,2,0,L|128:230,1,68.6250026178361
101,223,192941,1,0,0:0:0:0:
73,209,193027,1,0,0:0:0:0:
259,270,193198,1,0,0:0:0:0:
132,119,193370,6,0,P|180:104|223:129,1,102.937503926754
415,220,193713,6,0,P|359:221|313:245,1,102.937503926754
62,278,194056,6,0,P|126:271|187:338,1,137.25
408,82,194398,2,0,P|333:92|224:184,1,205.875007853508
61,183,194741,5,0,0:0:0:0:
230,87,194913,1,0,0:0:0:0:
262,95,194998,1,0,0:0:0:0:
310,167,195084,2,0,P|316:216|360:262,1,91.5
87,315,195427,1,0,0:0:0:0:
103,272,195513,1,0,0:0:0:0:
135,240,195598,1,0,0:0:0:0:
180,231,195684,1,0,0:0:0:0:
222,248,195770,2,0,P|267:254|288:245,1,45.75
354,173,195941,2,0,P|309:167|288:176,1,45.75
177,323,196113,6,0,P|141:281|138:228,1,91.5
184,76,196370,1,0,0:0:0:0:
285,84,196456,2,0,L|391:91,1,91.5
478,161,196713,2,0,L|426:165,1,45.75
66,203,196970,1,0,0:0:0:0:
110,215,197056,1,0,0:0:0:0:
155,218,197141,1,0,0:0:0:0:
198,204,197227,2,0,L|184:263,1,45.75
315,307,197398,1,0,0:0:0:0:
315,307,197484,6,0,L|301:239,1,45.75
456,241,197741,2,0,L|444:190,1,45.75
108,89,197998,2,0,P|138:95|162:87,1,45.75
308,153,198170,2,0,P|246:144|194:153,1,91.5
102,274,198427,1,0,0:0:0:0:
102,274,198513,2,0,B|109:342|109:342|130:313,1,91.5
235,109,198856,6,0,P|296:67|376:101,1,137.250005235672
426,233,199113,2,0,B|440:304|440:304|360:329,1,137.250005235672
143,271,199370,2,0,B|136:235|136:235|152:191|152:191|112:162|111:109|111:109|95:85|63:90,1,205.875007853508
231,247,199713,6,0,B|299:247|299:247|389:274,2,137.250005235672
279,332,200227,6,0,P|318:277|321:236,1,91.5
247,61,200484,1,0,0:0:0:0:
247,61,200570,2,0,P|226:100|226:118,1,45.75
218,203,200741,2,0,P|227:239|239:259,1,45.75
42,158,200913,2,0,L|147:141,2,91.5
444,270,201427,2,0,P|459:240|459:217,1,45.75
411,169,201598,5,0,0:0:0:0:
380,159,201684,1,0,0:0:0:0:
247,61,201856,1,0,0:0:0:0:
232,90,201942,1,0,0:0:0:0:
183,349,202113,1,0,0:0:0:0:
206,327,202198,1,0,0:0:0:0:
213,295,202284,2,0,P|216:272|233:247,2,45.75
320,240,202627,1,0,0:0:0:0:
332,279,202713,1,0,0:0:0:0:
362,306,202798,1,0,0:0:0:0:
400,319,202884,1,0,0:0:0:0:
482,314,202970,6,0,P|411:307|341:333,1,137.25
206,327,203313,2,0,P|241:323|263:306,1,45.75
398,179,203484,2,0,P|387:211|369:233,1,45.75
242,118,203656,2,0,L|348:111,1,91.5
465,253,203998,2,0,L|381:257,2,61
83,229,204341,5,0,0:0:0:0:
329,126,204513,1,0,0:0:0:0:
329,126,204570,1,0,0:0:0:0:
329,126,204627,1,0,0:0:0:0:
329,126,204684,2,0,P|310:170|261:197,1,91.5
146,136,205027,2,0,B|117:92|142:29|142:29|185:30|215:67,1,183
451,201,205713,5,0,0:0:0:0:
324,318,205885,1,0,0:0:0:0:
273,316,205970,1,0,0:0:0:0:
176,218,206056,2,0,P|170:169|126:123,1,91.5
425,69,206399,1,0,0:0:0:0:
409,112,206485,1,0,0:0:0:0:
377,144,206570,1,0,0:0:0:0:
332,153,206656,1,0,0:0:0:0:
290,136,206742,2,0,P|245:130|224:139,1,45.75
52,171,206913,2,0,P|97:177|118:168,1,45.75
376,116,207085,6,0,P|412:158|415:211,1,91.5
335,307,207342,1,0,0:0:0:0:
227,300,207428,2,0,L|121:293,1,91.5
0,276,207685,2,0,L|52:272,1,45.75
446,181,207942,1,0,0:0:0:0:
402,169,208028,1,0,0:0:0:0:
357,166,208113,1,0,0:0:0:0:
314,180,208199,2,0,L|328:121,1,45.75
197,77,208370,1,0,0:0:0:0:
197,77,208456,6,0,L|211:145,1,45.75
216,255,208713,2,0,L|228:306,1,45.75
422,315,208970,2,0,P|392:309|368:317,1,45.75
216,255,209142,2,0,P|278:264|330:255,1,91.5
410,110,209399,1,0,0:0:0:0:
410,110,209485,2,0,B|403:42|403:42|382:71,1,91.5
277,275,209828,6,0,P|216:317|136:283,1,137.250005235672
86,151,210085,2,0,B|72:80|72:80|152:55,1,137.250005235672
369,113,210342,2,0,B|376:149|376:149|360:193|360:193|400:222|401:275|401:275|417:299|449:294,1,205.875007853508
281,137,210685,6,0,B|213:137|213:137|123:110,2,137.250005235672
233,52,211199,6,0,P|194:107|191:148,1,91.5
265,323,211456,1,0,0:0:0:0:
265,323,211542,2,0,P|286:284|286:266,1,45.75
294,181,211713,2,0,P|285:145|273:125,1,45.75
470,226,211885,2,0,L|365:243,2,91.5
113,115,212399,1,0,0:0:0:0:
96,158,212485,1,0,0:0:0:0:
109,205,212570,5,0,0:0:0:0:
109,205,212656,1,0,0:0:0:0:
346,293,212827,1,0,0:0:0:0:
346,293,212913,1,0,0:0:0:0:
329,35,213085,1,0,0:0:0:0:
306,57,213170,1,0,0:0:0:0:
299,89,213256,2,0,P|296:112|279:137,2,45.75
192,144,213599,1,0,0:0:0:0:
180,105,213685,1,0,0:0:0:0:
150,78,213770,1,0,0:0:0:0:
112,65,213856,1,0,0:0:0:0:
30,70,213942,6,0,P|101:77|171:51,1,137.25
372,26,214285,2,0,P|337:30|315:47,1,45.75
174,185,214456,2,0,P|185:153|203:131,1,45.75
338,238,214628,2,0,L|232:245,1,91.5
47,131,214970,2,0,L|131:127,2,61
133,313,215313,6,0,B|186:284|169:210|169:210|215:222,1,137.250005235672
413,298,215570,2,0,B|325:314|325:314|349:261,1,137.250005235672
272,60,215827,2,0,P|267:157|291:193,1,137.250005235672
444,112,216084,2,0,P|392:77|385:132,1,137.250005235672
222,211,216341,6,0,P|201:125|353:124,1,274.500010471344
