osu file format v14

[General]
AudioFilename: Epik High - 1 Minute 1 Second.mp3
AudioLeadIn: 0
PreviewTime: 114029
Countdown: 0
SampleSet: Soft
StackLeniency: 0.3
Mode: 0
LetterboxInBreaks: 0
WidescreenStoryboard: 1

[Editor]
DistanceSpacing: 1.1
BeatDivisor: 4
GridSize: 4
TimelineZoom: 1.3

[Metadata]
Title:1 Minute 1 Second
TitleUnicode:1분 1초
Artist:Epik High feat. Taru
ArtistUnicode:에픽하이 feat. 타루
Creator:vikala
Version:Easy
Source:
Tags:lovescream zetera toybot kpop
BeatmapID:1032956
BeatmapSetID:483511

[Difficulty]
HPDrainRate:2
CircleSize:3
OverallDifficulty:3
ApproachRate:3
SliderMultiplier:0.8
SliderTickRate:1

[Events]
//Background and Video events
0,0,"333580.jpg",0,0
//Break Periods
2,53358,64105
2,214390,225137
//Storyboard Layer 0 (Background)
//Storyboard Layer 1 (Fail)
//Storyboard Layer 2 (Pass)
//Storyboard Layer 3 (Foreground)
//Storyboard Layer 4 (Overlay)
//Storyboard Sound Samples

[TimingPoints]
26836,387.096774193548,4,2,1,40,1,0
27416,-100,4,2,1,40,0,0
27900,-100,4,2,1,20,0,0
27997,-100,4,2,1,50,0,0
28190,-100,4,2,1,20,0,0
28384,-100,4,2,1,60,0,0
29158,-100,4,2,1,60,0,0
39126,-100,4,2,1,20,0,0
39223,-100,4,2,1,60,0,0
40384,-100,4,2,1,60,0,0
40674,-100,4,2,1,20,0,0
40771,-100,4,2,1,60,0,0
53158,-100,4,2,1,30,0,0
65158,-111.111111111111,4,2,1,30,0,0
77932,-100,4,2,1,40,0,0
79481,-100,4,2,1,40,0,0
81029,-100,4,2,1,40,0,0
82577,-100,4,2,1,40,0,0
83739,-100,4,2,1,30,0,0
83932,-100,4,2,1,40,0,0
84126,-100,4,2,1,40,0,0
85674,-100,4,2,1,40,0,0
86835,-100,4,2,1,40,0,0
87126,-100,4,2,1,10,0,0
87223,-100,4,2,1,40,0,0
89545,-100,4,2,1,40,0,0
89932,-100,4,2,1,40,0,0
90223,-100,4,2,1,20,0,0
90319,-100,4,2,1,50,0,0
97287,-100,4,2,1,50,0,0
97674,-100,4,2,1,50,0,0
99513,-100,4,2,1,20,0,0
99610,-100,4,2,1,50,0,0
101835,-100,4,2,1,20,0,0
101932,-100,4,2,1,50,0,0
105706,-100,4,2,1,20,0,0
105803,-100,4,2,1,50,0,0
111610,-100,4,2,1,50,0,0
111900,-100,4,2,1,20,0,0
111997,-100,4,2,1,40,0,0
113545,-100,4,2,1,40,0,0
114610,-100,4,2,1,20,0,0
114706,-100,4,2,1,50,0,0
114900,-100,4,2,1,30,0,0
115094,-100,4,2,1,60,0,1
121674,-100,4,2,1,60,0,1
121868,-100,4,2,1,60,0,1
127094,-100,4,2,1,60,0,1
127384,-100,4,2,1,20,0,1
127481,-100,4,2,1,60,0,1
134061,-100,4,2,1,60,0,1
134255,-100,4,2,1,60,0,1
139481,-100,4,2,1,60,0,1
139771,-100,4,2,1,20,0,1
139868,-100,4,2,1,40,0,0
146642,-100,4,2,1,30,0,0
147416,-100,4,2,1,40,0,0
164545,-100,4,2,1,20,0,0
164642,-100,4,2,1,50,0,0
174706,-100,4,2,1,40,0,0
175481,-100,4,2,1,50,0,0
187868,-100,4,2,1,40,0,0
188932,-100,4,2,1,20,0,0
189029,-100,4,2,1,50,0,0
189319,-100,4,2,1,20,0,0
189416,-100,4,2,1,60,0,1
195997,-100,4,2,1,60,0,1
196190,-100,4,2,1,60,0,1
201416,-100,4,2,1,60,0,1
201706,-100,4,2,1,20,0,1
201803,-100,4,2,1,60,0,1
208384,-100,4,2,1,60,0,1
208577,-100,4,2,1,60,0,1
210997,-100,4,2,1,20,0,1
211094,-100,4,2,1,60,0,1
213803,-100,4,2,1,60,0,1
214094,-100,4,2,1,20,0,1
214190,-100,4,2,1,40,0,0
226481,-100,4,2,1,10,0,0
226577,-111.111111111111,4,2,2,50,0,0
229674,-111.111111111111,4,2,3,50,0,0
231223,-111.111111111111,4,2,4,55,0,0
231997,-111.111111111111,4,2,5,60,0,0
232771,-111.111111111111,4,2,6,50,0,0
235094,-111.111111111111,4,2,3,50,0,0
235868,-111.111111111111,4,2,7,50,0,0
236255,-111.111111111111,4,2,1,20,0,0
236642,-111.111111111111,4,2,1,25,0,0
237029,-100,4,2,1,30,0,0
238190,-100,4,2,1,40,0,0
238577,-100,4,2,1,50,0,0
238965,-100,4,2,1,60,0,1
244771,-100,4,2,1,40,0,1
245158,-100,4,2,1,60,0,1
250965,-100,4,2,1,40,0,1
251352,-100,4,2,1,60,0,1
257158,-100,4,2,1,40,0,1
257545,-100,4,2,1,60,0,1
259965,-100,4,2,1,20,0,1
260061,-100,4,2,1,60,0,1
262481,-100,4,2,1,20,0,1
262577,-100,4,2,1,60,0,1
263061,-100,4,2,1,20,0,1
263158,-100,4,2,1,60,0,1
263545,-100,4,2,1,40,0,0
263739,-100,4,2,1,20,0,0

[Colours]
Combo1 : 202,83,187
Combo2 : 255,255,94
Combo3 : 217,194,87
Combo4 : 240,81,140

[HitObjects]
80,136,27610,5,2,0:0:0:0:
160,176,27997,1,2,0:0:0:0:
212,108,28384,2,0,P|260:84|344:152,1,160,4|0,3:2|0:0,0:0:0:0:
356,224,29545,1,8,0:0:0:0:
436,256,29932,2,0,B|468:216|456:152|456:152|472:184|492:196,2,160,0|0|0,3:0|0:0|3:0,0:0:0:0:
368,312,31868,6,0,L|284:320,1,80,8|0,0:0|0:0,0:0:0:0:
204,300,32642,2,0,P|192:256|196:208,1,80,8|0,0:0|0:0,0:0:0:0:
136,156,33416,2,0,P|148:112|144:64,2,80,8|0|8,0:0|0:0|0:0,0:0:0:0:
56,196,34577,6,0,P|80:224|200:216,1,160,0|0,3:0|0:0,0:0:0:0:
260,160,35739,1,8,0:0:0:0:
324,100,36126,2,0,P|398:80|448:104,2,120,0|0|8,3:0|3:0|0:0,0:0:0:0:
260,160,37674,6,0,P|255:203|260:240,1,80,0|8,3:0|0:0,0:0:0:0:
324,300,38448,2,0,L|408:304,1,80,0|8,0:0|0:0,0:0:0:0:
472,248,39223,2,0,P|476:204|472:168,1,80,0|8,3:0|0:0,0:0:0:0:
408,112,39997,1,0,0:0:0:0:
332,160,40384,1,12,0:0:0:0:
260,108,40771,6,0,B|228:88|184:104|184:104|152:72|108:88,1,160,0|0,3:0|0:0,0:0:0:0:
56,156,41932,1,8,0:0:0:0:
116,220,42319,2,0,B|128:280|112:320|112:320|96:336|60:344,2,160,0|0|0,3:0|0:0|3:0,0:0:0:0:
168,148,44255,6,0,P|196:180|204:220,1,80,8|0,0:0|0:0,0:0:0:0:
256,288,45029,2,0,P|300:296|348:280,1,80,8|0,0:0|0:0,0:0:0:0:
384,216,45803,2,0,P|393:177|420:148,2,80,8|0|8,0:0|0:0|0:0,0:0:0:0:
472,220,46965,6,0,L|448:52,1,160,0|0,3:0|0:0,0:0:0:0:
368,32,48126,1,8,0:0:0:0:
308,96,48513,2,0,B|236:108|264:72|184:84,2,120,0|0|8,3:0|3:0|0:0,0:0:0:0:
376,152,50061,6,0,P|392:196|372:268,2,120,0|0|8,3:0|3:0|0:0,0:0:0:0:
308,208,51610,2,0,P|277:243|205:262,2,120,0|0|12,3:0|3:0|0:0,0:0:0:0:
288,120,53158,5,2,0:0:0:0:
128,104,65545,6,0,P|164:96|244:164,1,143.999995605469,0|0,3:0|0:0,0:0:0:0:
180,304,67094,2,0,P|144:312|64:244,1,143.999995605469,0|0,3:0|0:0,0:0:0:0:
128,104,68642,2,0,B|180:100|180:100|220:88|220:88|280:84,1,143.999995605469,0|0,3:0|0:0,0:0:0:0:
416,148,70190,2,0,P|424:184|416:220,2,71.9999978027344,0|0|0,3:0|0:0|0:0,0:0:0:0:
264,192,71739,6,0,B|228:196|196:220|196:220|160:208|124:216,1,143.999995605469,0|0,3:0|0:0,0:0:0:0:
164,60,73287,2,0,B|200:56|232:32|232:32|268:44|304:36,1,143.999995605469,0|0,3:0|0:0,0:0:0:0:
404,156,74835,2,0,B|424:108|424:108|400:8,2,143.999995605469,0|0|0,3:0|0:0|3:0,0:0:0:0:
404,156,77932,6,0,P|360:148|304:296,1,240,2|2,3:2|0:0,0:0:0:0:
388,308,79481,2,0,P|380:256|228:252,1,240,2|0,3:2|0:0,0:0:0:0:
164,312,81029,6,0,P|104:332|40:324,2,120,2|2|2,3:2|0:0|0:0,0:0:0:0:
227,252,82577,2,0,P|244:200|216:96,1,160,2|0,3:2|0:0,0:0:0:0:
368,196,84126,6,0,B|440:204|416:184|496:192,2,120,2|2|2,3:2|0:0|0:0,0:0:0:0:
319,122,85674,2,0,B|279:90|255:22|255:22|236:96|183:126,1,240,2|2,3:2|0:0,0:0:0:0:
144,196,87223,1,2,0:0:0:0:
144,196,89545,6,0,L|156:280,1,80,8|2,0:0|0:0,0:0:0:0:
236,312,90319,2,0,P|288:316|348:232,1,160,2|8,3:2|0:0,0:0:0:0:
324,152,91481,1,0,0:0:0:0:
240,124,91868,2,0,B|144:116|184:168|80:160,2,160,0|8|0,0:0|0:0|3:0,0:0:0:0:
408,176,94190,6,0,L|500:168,1,80,8|0,0:0|0:0,0:0:0:0:
480,80,94965,2,0,P|428:44|340:80,1,160,0|8,0:0|0:0,0:0:0:0:
300,152,96126,1,0,0:0:0:0:
220,116,96513,6,0,B|180:104|140:108|140:108|96:124|48:104,2,160,0|8|0,3:0|0:0|0:0,0:0:0:0:
300,152,98448,1,0,3:0:0:0:
364,212,98835,2,0,P|320:236|284:236,1,80,8|0,0:0|3:0,0:0:0:0:
212,204,99610,5,0,3:0:0:0:
68,308,100384,2,0,B|36:264|36:264|64:152,2,160,8|0|8,0:0|0:0|0:0,0:0:0:0:
152,332,102319,1,0,0:0:0:0:
236,356,102706,6,0,P|284:312|268:220,1,160,0|8,3:0|0:0,0:0:0:0:
188,196,103868,1,0,0:0:0:0:
248,132,104255,2,0,P|300:132|336:152,2,80,0|0|8,0:0|3:0|0:0,0:0:0:0:
168,96,105416,1,0,3:0:0:0:
136,12,105803,6,0,B|228:0|196:48|296:32,1,160,0|8,3:0|0:0,0:0:0:0:
380,20,106965,1,0,0:0:0:0:
432,92,107352,2,0,P|444:148|424:256,1,160,0|8,0:0|0:0,0:0:0:0:
348,208,108513,1,0,0:0:0:0:
292,276,108900,6,0,P|236:304|140:280,1,160,0|8,3:0|0:0,0:0:0:0:
88,216,110061,1,0,0:0:0:0:
156,160,110448,2,0,P|168:112|84:48,2,160,0|8|4,0:0|0:0|3:2,0:0:0:0:
156,160,113545,6,0,B|252:152|216:200|316:192,1,160,2|2,0:0|0:0,0:0:0:0:
384,144,114706,1,2,0:0:0:0:
464,184,115094,2,0,P|472:140|400:56,1,160,2|0,3:2|0:0,0:0:0:0:
320,84,116255,1,8,0:0:0:0:
240,52,116642,2,0,B|176:56|176:56|144:48|144:48|80:52,2,160,0|0|0,3:0|0:0|3:0,0:0:0:0:
320,84,118577,6,0,P|332:128|320:172,1,80,8|0,0:0|0:0,0:0:0:0:
400,204,119352,2,0,P|367:236|323:248,1,80,8|0,0:0|0:0,0:0:0:0:
336,333,120126,2,0,P|291:321|259:289,1,80,8|0,0:0|0:0,0:0:0:0:
220,224,120900,1,8,0:0:0:0:
172,296,121287,6,0,P|136:224|176:152,1,160,0|0,3:0|0:0,0:0:0:0:
244,112,122448,1,8,0:0:0:0:
168,68,122835,2,0,L|44:52,2,120,0|0|8,3:0|3:0|0:0,0:0:0:0:
244,112,124384,5,0,3:0:0:0:
320,68,124771,1,8,0:0:0:0:
400,104,125158,2,0,P|416:152|416:192,1,80,0|8,0:0|0:0,0:0:0:0:
352,240,125932,2,0,L|264:228,1,80,0|8,3:0|0:0,0:0:0:0:
192,196,126706,5,0,0:0:0:0:
176,284,127094,1,12,0:0:0:0:
96,324,127481,2,0,P|24:324|4:244,1,160,0|0,3:0|0:0,0:0:0:0:
52,180,128642,1,8,0:0:0:0:
104,108,129029,2,0,B|56:80|8:104|8:104|28:80|40:52,2,160,0|0|0,3:0|0:0|3:0,0:0:0:0:
172,168,130965,6,0,P|228:172|264:156,1,80,8|0,0:0|0:0,0:0:0:0:
320,116,131739,2,0,P|352:132|380:180,1,80,8|0,0:0|0:0,0:0:0:0:
332,244,132513,2,0,P|324:292|332:332,1,80,8|0,0:0|0:0,0:0:0:0:
412,288,133287,1,8,0:0:0:0:
476,348,133674,6,0,P|492:256|440:200,1,160,0|0,3:0|0:0,0:0:0:0:
376,167,134835,1,8,0:0:0:0:
424,92,135223,2,0,P|389:78|333:86,1,80,0|8,3:0|0:0,0:0:0:0:
288,144,135997,2,0,L|272:228,1,80,0|8,0:0|0:0,0:0:0:0:
196,268,136771,6,0,P|148:300|84:292,2,120,0|0|8,3:0|3:0|0:0,0:0:0:0:
128,216,138319,2,0,P|76:190|51:131,2,120,0|0|12,3:0|3:0|0:0,0:0:0:0:
140,128,139868,5,2,3:2:0:0:
296,208,140642,1,8,0:0:0:0:
428,88,141416,2,0,B|456:40|380:16|356:80|372:128|424:152|424:188|412:232,1,240,2|0,0:0|3:0,0:0:0:0:
352,280,142965,5,2,3:2:0:0:
304,112,143739,1,8,0:0:0:0:
184,240,144513,2,0,B|152:252|112:244|112:244|88:288|28:284,1,160,0|8,0:0|0:0,0:0:0:0:
148,144,146061,6,0,P|148:84|100:32,2,120,2|2|2,3:2|0:0|0:0,0:0:0:0:
232,172,147610,2,0,B|288:128|348:168|348:168|368:168|368:168|364:224|420:256,1,240,2|0,0:0|3:0,0:0:0:0:
456,176,149158,5,2,3:2:0:0:
292,240,149932,1,8,0:0:0:0:
232,172,150319,1,0,0:0:0:0:
160,224,150706,2,0,P|144:184|200:88,1,160,2|8,0:0|0:0,0:0:0:0:
372,84,152255,5,2,3:2:0:0:
344,256,153029,2,0,P|296:264|264:256,1,80,8|0,0:0|0:0,0:0:0:0:
256,168,153803,2,0,B|216:164|168:212|176:272|176:272|160:224|108:212,1,240,2|0,0:2|3:0,0:0:0:0:
24,216,155352,5,2,3:2:0:0:
168,116,156126,2,0,P|176:68|164:28,1,80,8|0,0:0|0:0,0:0:0:0:
89,76,156900,2,0,P|81:124|165:204,1,160,2|8,0:0|0:0,0:0:0:0:
320,156,158448,6,0,L|328:20,2,120,2|2|2,3:2|0:0|0:0,0:0:0:0:
284,236,159997,2,0,B|332:256|376:224|376:224|360:304|272:324,1,240,2|0,0:0|3:0,0:0:0:0:
196,308,161545,5,2,3:2:0:0:
168,136,162319,1,8,0:0:0:0:
232,76,162706,1,0,0:0:0:0:
312,116,163094,2,0,P|360:128|436:44,1,160,2|12,0:0|0:0,0:0:0:0:
376,224,164642,6,0,P|364:268|376:312,1,80,2|8,3:2|0:0,0:0:0:0:
452,268,165416,2,0,P|464:224|452:180,1,80,0|10,0:0|0:0,0:0:0:0:
388,136,166190,2,0,L|300:128,1,80,2|8,3:2|0:0,0:0:0:0:
240,188,166965,2,0,L|232:276,1,80,0|10,0:0|0:0,0:0:0:0:
152,308,167739,6,0,P|96:312|44:228,1,160,2|0,3:2|0:0,0:0:0:0:
92,160,168900,1,10,0:0:0:0:
36,92,169287,2,0,L|28:8,2,80,2|8|0,3:2|0:0|0:0,0:0:0:0:
92,160,170448,1,10,0:0:0:0:
180,172,170835,6,0,B|240:176|280:144|280:144|304:172|336:168,1,160,2|0,3:2|0:0,0:0:0:0:
352,84,171997,1,10,0:0:0:0:
412,148,172384,2,0,P|440:88|424:32,2,120,2|2|10,3:2|3:2|0:0,0:0:0:0:
325,168,173932,5,2,3:2:0:0:
156,124,174706,1,0,0:0:0:0:
236,280,175481,2,0,P|244:344|240:364,2,80,2|8|0,3:2|0:0|0:0,0:0:0:0:
200,200,176642,1,10,0:0:0:0:
156,124,177029,6,0,B|192:104|236:120|236:120|280:144|320:120,1,160,2|0,3:2|0:0,0:0:0:0:
388,84,178190,1,10,0:0:0:0:
424,164,178577,2,0,P|432:208|424:248,1,80,2|8,3:2|0:0,0:0:0:0:
352,288,179352,2,0,L|256:280,1,80,0|10,0:0|0:0,0:0:0:0:
200,232,180126,6,0,P|152:240|116:304,2,120,2|2|10,3:2|3:2|0:0,0:0:0:0:
268,176,181674,2,0,P|276:144|264:92,1,80,2|8,3:2|0:0,0:0:0:0:
188,56,182448,2,0,L|96:48,1,80,0|10,0:0|0:0,0:0:0:0:
52,116,183223,6,0,P|80:148|200:128,1,160,2|0,3:2|0:0,0:0:0:0:
267,98,184384,1,10,0:0:0:0:
332,160,184771,2,0,P|344:208|332:280,2,120,2|2|10,3:2|3:2|0:0,0:0:0:0:
267,98,186319,1,6,0:0:0:0:
267,98,187868,6,0,B|172:112|220:144|116:156,1,160,2|2,0:0|0:0,0:0:0:0:
76,232,189029,1,2,0:0:0:0:
140,292,189416,2,0,P|220:292|272:224,1,160,4|0,3:2|0:0,0:0:0:0:
296,152,190577,1,8,0:0:0:0:
376,188,190965,2,0,B|400:244|400:244|376:348,2,160,0|0|0,3:0|0:0|3:0,0:0:0:0:
296,152,192900,6,0,L|208:148,2,80,8|0|8,0:0|0:0|0:0,0:0:0:0:
368,100,194061,2,0,P|376:60|356:8,1,80,0|8,0:0|0:0,0:0:0:0:
280,4,194835,2,0,L|192:8,1,80,0|8,0:0|0:0,0:0:0:0:
128,56,195610,6,0,P|88:92|84:168,2,120,0|0|8,3:0|3:0|0:0,0:0:0:0:
164,136,197158,2,0,P|175:188|238:230,2,120,0|0|8,3:0|3:0|0:0,0:0:0:0:
220,68,198706,6,0,P|264:60|356:136,1,160,0|0,3:0|0:0,0:0:0:0:
304,292,200255,2,0,B|268:264|256:228|256:228|244:264|208:292,1,160,0|0,3:0|0:0,0:0:0:0:
124,304,201416,1,12,0:0:0:0:
88,224,201803,6,0,B|68:172|68:172|96:64,1,160,0|0,3:0|0:0,0:0:0:0:
176,44,202965,1,8,0:0:0:0:
204,128,203352,2,0,P|264:56|248:-8,2,160,0|0|0,3:0|0:0|3:0,0:0:0:0:
172,212,205287,6,0,P|204:216|252:204,1,80,8|0,0:0|0:0,0:0:0:0:
316,148,206061,1,8,0:0:0:0:
376,212,206448,2,0,P|384:248|376:304,2,80,0|8|0,0:0|0:0|0:0,0:0:0:0:
316,148,207610,1,8,0:0:0:0:
376,80,207997,6,0,P|416:56|496:76,2,120,0|0|8,3:0|3:0|0:0,0:0:0:0:
316,148,209545,2,0,P|263:174|206:160,2,120,0|0|8,3:0|3:0|0:0,0:0:0:0:
392,192,211094,2,0,B|408:260|408:260|396:312,2,120,0|0|8,3:0|3:0|0:0,0:0:0:0:
320,244,212642,2,0,B|280:260|216:240|188:180|188:180|180:228|136:244,1,240,2|12,3:2|0:0,0:0:0:0:
100,164,214190,5,0,0:0:0:0:
32,112,226577,6,0,L|176:101,3,143.999995605469,0|0|0|0,0:0|0:0|0:0|0:0,0:0:0:0:
336,101,229674,2,0,L|492:113,3,143.999995605469,0|0|0|0,0:0|0:0|0:0|0:0,0:0:0:0:
480,272,232771,6,0,L|336:283,3,143.999995605469,0|0|0|0,0:0|0:0|0:0|0:0,0:0:0:0:
176,283,235868,2,0,L|20:271,2,143.999995605469,0|0|0,0:0|3:0|3:0,0:0:0:0:
228,212,237803,1,0,3:0:0:0:
260,132,238190,2,0,P|233:124|177:141,1,80,2|2,3:2|0:0,0:0:0:0:
96,148,238965,6,0,B|112:84|80:20|80:20|120:56|184:44,1,240,4|8,3:2|0:0,0:0:0:0:
268,24,240513,2,0,P|308:20|356:32,1,80,0|10,3:0|0:0,0:0:0:0:
396,100,241287,2,0,L|388:180,1,80,2|8,0:0|0:0,0:0:0:0:
432,256,242061,6,0,P|396:240|308:312,1,160,0|0,3:0|0:0,0:0:0:0:
232,352,243223,1,8,0:0:0:0:
148,324,243610,2,0,L|120:188,2,120,0|0|8,0:0|3:0|0:0,0:0:0:0:
64,352,245158,6,0,L|36:192,1,160,2|2,3:2|0:0,0:0:0:0:
84,120,246319,1,8,0:0:0:0:
168,144,246706,2,0,P|204:148|248:136,1,80,2|8,3:2|0:0,0:0:0:0:
308,76,247481,2,0,P|344:72|388:84,1,80,2|8,0:0|0:0,0:0:0:0:
452,144,248255,6,0,B|492:96|464:32|464:32|504:60,2,160,0|0|0,3:0|0:0|3:0,0:0:0:0:
284,200,250577,1,2,0:0:0:0:
311,283,250965,1,10,0:0:0:0:
370,218,251352,6,0,P|362:159|208:150,1,240,2|0,3:2|0:0,0:0:0:0:
148,204,252900,2,0,L|160:288,1,80,0|10,3:0|0:0,0:0:0:0:
232,336,253674,2,0,P|276:344|316:332,1,80,2|8,0:0|0:0,0:0:0:0:
376,276,254448,6,0,B|392:184|392:184|376:108,1,160,2|0,3:2|0:0,0:0:0:0:
304,68,255610,1,8,0:0:0:0:
232,120,255997,2,0,P|204:128|116:80,2,120,0|0|8,0:0|3:0|0:0,0:0:0:0:
196,40,257545,6,0,P|146:7|88:13,2,120,2|2|8,3:2|3:2|0:0,0:0:0:0:
232,120,259094,2,0,L|236:208,1,80,2|8,3:2|0:0,0:0:0:0:
156,236,259868,2,0,L|152:148,1,80,0|8,0:0|0:0,0:0:0:0:
72,120,260642,5,0,3:0:0:0:
40,204,261029,2,0,P|36:296|80:340,1,160,8|8,0:0|0:0,0:0:0:0:
164,308,262190,2,0,B|236:300|208:333|292:324,2,120,2|2|8,3:2|3:2|0:0,0:0:0:0:
