osu file format v14

[General]
AudioFilename: Epik High - 1 Minute 1 Second.mp3
AudioLeadIn: 0
PreviewTime: 114029
Countdown: 0
SampleSet: Soft
StackLeniency: 0.7
Mode: 0
LetterboxInBreaks: 1
WidescreenStoryboard: 1

[Editor]
DistanceSpacing: 0.5
BeatDivisor: 8
GridSize: 8
TimelineZoom: 3

[Metadata]
Title:1 Minute 1 Second
TitleUnicode:1분 1초
Artist:Epik High feat. Taru
ArtistUnicode:에픽하이 feat. 타루
Creator:Aranel
Version:toybot's Insane
Source:
Tags:toybot vikala zetera lovescream can't cant let go pop hip hop hiphop hip-hop kpop rap bun cho korean
BeatmapID:4319714
BeatmapSetID:2056138

[Difficulty]
HPDrainRate:6
CircleSize:4
OverallDifficulty:7
ApproachRate:8.2
SliderMultiplier:1.5
SliderTickRate:1

[Events]
//Background and Video events
0,0,"sky-clouds-remastered.jpg",0,0
//Break Periods
2,53358,64438
2,214390,224309
//Storyboard Layer 0 (Background)
//Storyboard Layer 1 (Fail)
//Storyboard Layer 2 (Pass)
//Storyboard Layer 3 (Foreground)
//Storyboard Layer 4 (Overlay)
//Storyboard Sound Samples

[TimingPoints]
26836,387.096774193548,4,2,1,40,1,0
27416,-133.333333333333,4,2,1,40,0,0
27900,-133.333333333333,4,2,1,5,0,0
27997,-111.111111111111,4,2,1,50,0,0
28190,-111.111111111111,4,2,1,5,0,0
28384,-100,4,2,1,60,0,0
39126,-100,4,2,1,5,0,0
39223,-100,4,2,1,60,0,0
40384,-83.3333333333333,4,2,1,60,0,0
40674,-83.3333333333333,4,2,1,5,0,0
40771,-100,4,2,1,60,0,0
53158,-100,4,2,1,30,0,0
65158,-200,4,2,1,30,0,0
77932,-166.666666666667,4,2,1,40,0,0
79481,-200,4,2,1,40,0,0
79868,-200,4,2,1,45,0,0
80255,-200,4,2,1,50,0,0
81029,-166.666666666667,4,2,1,40,0,0
82577,-200,4,2,1,40,0,0
82965,-200,4,2,1,35,0,0
83158,-200,4,2,1,30,0,0
83352,-200,4,2,1,25,0,0
83545,-200,4,2,1,20,0,0
83739,-200,4,2,1,30,0,0
83932,-200,4,2,1,40,0,0
84126,-166.666666666667,4,2,1,40,0,0
85674,-181.818181818182,4,2,1,40,0,0
86061,-181.818181818182,4,2,1,45,0,0
86448,-181.818181818182,4,2,1,50,0,0
86642,-181.818181818182,4,2,1,30,0,0
86835,-133.333333333333,4,2,1,40,0,0
87126,-133.333333333333,4,2,1,10,0,0
87223,-133.333333333333,4,2,1,40,0,0
89932,-100,4,2,1,40,0,0
90223,-100,4,2,1,5,0,0
90319,-111.111111111111,4,2,1,50,0,0
99513,-111.111111111111,4,2,1,5,0,0
99610,-111.111111111111,4,2,1,50,0,0
101835,-111.111111111111,4,2,1,5,0,0
101932,-111.111111111111,4,2,1,50,0,0
105706,-111.111111111111,4,2,1,20,0,0
105803,-111.111111111111,4,2,1,50,0,0
111610,-90.9090909090909,4,2,1,50,0,0
111900,-90.9090909090909,4,2,1,5,0,0
111997,-90.9090909090909,4,2,1,40,0,0
113545,-133.333333333333,4,2,1,40,0,0
114610,-133.333333333333,4,2,1,5,0,0
114706,-100,4,2,1,50,0,0
114900,-100,4,2,1,30,0,0
115094,-100,4,2,1,60,0,1
127094,-83.3333333333333,4,2,1,60,0,1
127384,-83.3333333333333,4,2,1,5,0,1
127481,-100,4,2,1,60,0,1
139481,-83.3333333333333,4,2,1,60,0,1
139771,-83.3333333333333,4,2,1,5,0,1
139868,-133.333333333333,4,2,1,40,0,0
146642,-133.333333333333,4,2,1,30,0,0
147416,-133.333333333333,4,2,1,40,0,0
164545,-133.333333333333,4,2,1,5,0,0
164642,-100,4,2,1,50,0,0
174706,-133.333333333333,4,2,1,40,0,0
175481,-100,4,2,1,50,0,0
187868,-125,4,2,1,40,0,0
188932,-125,4,2,1,5,0,0
189029,-83.3333333333333,4,2,1,50,0,0
189319,-83.3333333333333,4,2,1,5,0,0
189416,-100,4,2,1,60,0,1
201416,-83.3333333333333,4,2,1,60,0,1
201706,-83.3333333333333,4,2,1,20,0,1
201803,-100,4,2,1,60,0,1
210997,-100,4,2,1,5,0,1
211094,-100,4,2,1,60,0,1
213803,-83.3333333333333,4,2,1,60,0,1
214094,-83.3333333333333,4,2,1,5,0,1
214190,-100,4,2,1,40,0,0
226481,-100,4,2,1,5,0,0
226577,-100,4,2,1,50,0,0
229674,-100,4,2,1,50,0,0
231223,-100,4,2,1,55,0,0
231997,-100,4,2,1,60,0,0
232771,-100,4,2,1,50,0,0
235094,-100,4,2,1,50,0,0
235868,-100,4,2,1,50,0,0
236255,-100,4,2,1,20,0,0
236642,-100,4,2,1,25,0,0
237029,-100,4,2,1,30,0,0
237416,-100,4,2,1,40,0,0
237610,-100,4,2,1,40,0,0
238190,-100,4,2,1,50,0,0
238577,-100,4,2,1,55,0,0
238965,-90.9090909090909,4,2,1,60,0,1
259965,-90.9090909090909,4,2,1,5,0,1
260061,-90.9090909090909,4,2,1,60,0,1
262481,-90.9090909090909,4,2,1,5,0,1
262577,-90.9090909090909,4,2,1,60,0,1
263061,-90.9090909090909,4,2,1,5,0,1
263158,-83.3333333333333,4,2,1,60,0,1
263545,-133.333333333333,4,2,1,40,0,0
263739,-133.333333333333,4,2,1,5,0,0

[Colours]
Combo1 : 202,83,187
Combo2 : 255,255,94
Combo3 : 217,194,87
Combo4 : 240,81,140

[HitObjects]
126,81,27416,5,0,0:0:0:0:
126,81,27610,2,0,P|130:149|122:185,1,84.3750032186509,2|0,0:0|0:0,0:0:0:0:
127,164,27997,2,0,L|207:156,1,67.4999979400635,2|0,0:0|0:0,0:0:0:0:
312,112,28384,6,0,P|308:176|316:216,1,75,4|0,3:2|0:0,0:0:0:0:
228,258,28771,2,0,P|180:254|144:258,1,75,8|0,0:0|3:0,0:0:0:0:
302,323,29158,2,0,B|374:305|375:364|450:347,1,150,0|8,0:0|0:0,0:0:0:0:
424,264,29739,1,0,0:0:0:0:
483,131,29932,6,0,P|487:168|486:206,1,75,2|0,3:2|0:0,0:0:0:0:
328,176,30319,2,0,L|416:180,1,75,8|0,0:0|3:0,0:0:0:0:
424,264,30706,1,2,0:0:0:0:
252,232,30900,2,0,L|161:227,1,75,2|8,3:2|0:0,0:0:0:0:
288,312,31287,1,0,0:0:0:0:
328,176,31481,6,0,P|336:116|320:16,1,150,2|8,3:2|0:0,0:0:0:0:
416,140,32061,1,0,3:0:0:0:
248,108,32255,2,0,L|160:100,1,75
248,108,32642,1,8,0:0:0:0:
120,184,32835,6,0,P|116:240|124:272,1,75,0|0,3:0|0:0,0:0:0:0:
208,312,33223,1,0,3:0:0:0:
376,288,33416,1,8,0:0:0:0:
292,300,33610,5,0,3:0:0:0:
463,367,33803,2,0,B|449:284|491:307|475:207,1,150,0|8,0:0|0:0,0:0:0:0:
477,220,34577,5,2,3:2:0:0:
380,132,34771,2,0,P|376:184|384:224,1,75,0|8,0:0|0:0,0:0:0:0:
460,92,35158,2,0,L|296:80,1,150,0|0,3:0|0:0,0:0:0:0:
196,184,35739,2,0,L|292:176,1,75,8|0,0:0|0:0,0:0:0:0:
152,108,36126,6,0,P|116:144|128:244,1,150,2|8,3:2|0:0,0:0:0:0:
270,177,36706,2,0,P|273:140|268:103,1,75,0|2,3:0|0:0,0:0:0:0:
228,276,37094,1,2,3:2:0:0:
122,237,37287,2,0,P|119:274|124:311,1,75,10|0,0:0|0:0,0:0:0:0:
188,176,37674,6,0,B|113:164|123:216|37:200,1,150,2|8,3:2|0:0,0:0:0:0:
59,43,38255,2,0,L|69:117,1,75,2|0,3:2|0:0,0:0:0:0:
69,117,38642,1,0,3:0:0:0:
188,176,38835,2,0,P|244:169|300:172,1,112.5,10|0,0:0|0:0,0:0:0:0:
300,172,39223,5,2,3:2:0:0:
69,117,39610,1,8,0:0:0:0:
188,176,39803,1,2,3:2:0:0:
165,17,39997,2,0,L|158:92,1,75,0|0,0:0|3:0,0:0:0:0:
308,177,40384,6,0,B|384:162|368:205|443:190,1,134.999995880127,12|0,0:0|0:0,0:0:0:0:
439,190,40771,6,0,P|443:246|439:282,1,75,2|0,3:2|0:0,0:0:0:0:
307,81,41158,2,0,P|344:76|381:78,1,75,8|2,0:0|3:2,0:0:0:0:
304,260,41545,2,0,P|232:268|152:256,1,150,0|10,0:0|0:0,0:0:0:0:
155,257,42126,1,0,0:0:0:0:
167,118,42319,5,2,3:2:0:0:
212,191,42513,1,0,0:0:0:0:
76,224,42707,1,8,0:0:0:0:
82,138,42900,1,0,3:0:0:0:
155,257,43094,2,0,P|160:316|152:352,1,75,2|2,0:0|3:2,0:0:0:0:
57,350,43481,1,10,0:0:0:0:
76,224,43674,1,0,0:0:0:0:
248,268,43868,6,0,P|240:212|248:112,1,150,2|8,3:2|0:0,0:0:0:0:
160,184,44448,1,2,3:2:0:0:
328,148,44642,2,0,L|402:144,1,75
328,148,45029,1,10,0:2:0:0:
464,216,45223,6,0,P|468:253|464:290,1,75,0|2,3:0|0:0,0:0:0:0:
292,256,45610,1,0,3:0:0:0:
376,260,45803,1,8,0:0:0:0:
208,252,45997,5,0,3:0:0:0:
128,328,46190,2,0,P|96:264|132:176,1,150,0|8,0:0|0:0,0:0:0:0:
116,191,46965,5,2,3:2:0:0:
96,88,47158,2,0,L|16:80,1,75,0|8,0:0|0:0,0:0:0:0:
208,252,47545,2,0,B|287:266|274:204|352:216,1,150,2|0,3:2|0:0,0:0:0:0:
437,250,48126,2,0,P|442:212|437:175,1,75,10|0,0:0|0:0,0:0:0:0:
220,92,48513,6,0,P|216:140|228:188,1,75,2|0,3:2|0:0,0:0:0:0:
305,128,48900,1,8,0:0:0:0:
208,252,49094,2,0,L|132:256,1,75,0|2,3:0|0:0,0:0:0:0:
269,336,49481,1,2,3:2:0:0:
356,288,49674,2,0,L|430:284,1,75,10|0,0:0|0:0,0:0:0:0:
506,198,50061,6,0,B|472:203|439:182|439:182|407:212|362:202,1,150,2|8,3:2|0:0,0:0:0:0:
384,52,50642,2,0,P|389:90|385:125,1,75,2|0,3:2|0:0,0:0:0:0:
292,244,51029,2,0,P|287:206|290:170,1,75,0|10,3:0|0:0,0:0:0:0:
128,128,51416,1,0,0:0:0:0:
200,172,51610,6,0,P|212:120|152:44,1,150,2|8,3:2|0:0,0:0:0:0:
56,84,52190,2,0,P|44:136|104:212,1,150,0|0,3:0|3:0,0:0:0:0:
290,169,52771,2,0,B|361:156|357:215|435:200,1,150,12|2,0:0|0:0,0:0:0:0:
62,82,65158,6,0,L|56:41,2,37.5,0|0|0,0:0|0:0|3:0,0:0:0:0:
125,141,66319,2,0,L|105:298,2,150,0|0|0,0:0|3:0|0:0,0:0:0:0:
199,220,68255,2,0,L|158:226,1,37.5
258,157,68642,6,0,L|415:177,2,150,0|0|0,3:0|0:0|3:0,0:0:0:0:
175,112,70625,1,0,0:0:0:0:
257,63,71013,1,0,0:0:0:0:
367,264,71739,6,0,P|441:263|493:212,2,150,0|0|0,3:0|0:0|3:0,0:0:0:0:
278,197,73674,2,0,L|288:118,2,75
169,166,74835,2,0,L|151:15,2,150,0|0|0,3:0|0:0|3:0,0:0:0:0:
169,166,77932,6,0,P|126:164|79:159,1,89.9999972534181,2|0,3:2|0:0,0:0:0:0:
79,270,78513,2,0,P|126:266|169:264,1,89.9999972534181,2|0,0:0|0:0,0:0:0:0:
238,215,79094,1,2,0:0:0:0:
289,310,79481,2,0,P|341:326|429:202,1,225,2|0,3:2|0:0,0:0:0:0:
432,210,81029,6,0,P|428:178|432:118,1,89.9999972534181,2|0,3:2|0:0,0:0:0:0:
354,83,81610,2,0,P|325:119|291:146,1,89.9999972534181,2|0,0:0|0:0,0:0:0:0:
346,214,82190,1,2,0:0:0:0:
258,63,82577,2,0,B|143:43|151:131|35:106,1,225,2|0,3:2|0:0,0:0:0:0:
44,107,83932,1,0,0:0:0:0:
94,191,84126,6,0,P|102:243|98:287,1,89.9999972534181,2|0,3:2|0:0,0:0:0:0:
186,359,84706,2,0,P|183:314|191:269,1,89.9999972534181,2|0,0:0|0:0,0:0:0:0:
249,205,85287,1,2,0:0:0:0:
344,288,85674,2,0,B|408:313|452:264|452:264|403:230|416:177,1,206.250006294251,2|0,3:2|0:0,0:0:0:0:
500,111,86835,2,0,L|493:196,1,84.3750032186509,2|0,0:0|0:0,0:0:0:0:
493,195,87223,1,2,3:2:0:0:
506,112,88771,5,2,0:0:0:0:
320,172,89352,1,2,0:0:0:0:
389,218,89545,6,0,P|401:182|393:134,1,75.000002861023,8|0,0:0|0:0,0:0:0:0:
336,92,89932,2,0,B|276:83|286:116|224:108,1,112.5,2|0,0:0|0:0,0:0:0:0:
154,170,90319,6,0,P|142:110|158:22,1,134.999995880127,2|0,3:2|0:0,0:0:0:0:
249,200,90900,1,0,0:0:0:0:
176,256,91094,2,0,L|104:264,2,67.4999979400635,8|0|0,0:0|0:0|0:0,0:0:0:0:
249,200,91674,1,0,3:0:0:0:
340,317,91868,6,0,P|339:283|329:251,1,67.4999979400635
428,136,92255,2,0,L|421:270,1,134.999995880127,0|8,3:0|0:0,0:0:0:0:
421,270,92835,1,0,0:0:0:0:
340,148,93029,2,0,P|343:114|354:82,1,67.4999979400635,0|0,3:0|0:0,0:0:0:0:
329,250,93416,6,0,P|271:283|205:272,1,134.999995880127,0|0,3:0|0:0,0:0:0:0:
120,136,93997,1,0,0:0:0:0:
196,96,94190,2,0,P|200:140|196:172,1,67.4999979400635,8|0,0:0|0:0,0:0:0:0:
97,215,94577,1,0,0:0:0:0:
205,272,94771,6,0,B|134:264|150:306|76:300,1,134.999995880127,0|0,3:0|0:0,0:0:0:0:
284,224,95352,2,2,B|351:231|343:187|412:195,1,134.999995880127,0|8,3:0|0:0,0:1:0:0:
436,204,96126,1,0,0:0:0:0:
459,212,96513,5,0,3:0:0:0:
284,224,96706,2,0,P|275:157|283:90,1,134.999995880127
343,17,97287,2,0,L|419:5,1,67.4999979400635,8|0,0:0|0:0,0:0:0:0:
283,90,97674,2,0,L|207:102,1,67.4999979400635,0|0,0:0|3:0,0:0:0:0:
29,65,98061,5,0,0:0:0:0:
29,65,98255,1,0,0:0:0:0:
106,14,98448,2,0,P|117:45|117:81,1,67.4999979400635,0|0,3:0|0:0,0:0:0:0:
28,182,98835,1,8,0:0:0:0:
28,182,99029,1,0,0:0:0:0:
128,172,99223,2,0,L|232:164,1,101.249996910095,0|0,3:0|0:0,0:0:0:0:
228,164,99610,5,0,3:0:0:0:
168,320,99997,2,0,P|164:284|172:236,1,67.4999979400635
328,336,100384,2,0,P|292:340|244:332,1,67.4999979400635,8|0,0:0|0:0,0:0:0:0:
228,164,100771,1,0,0:0:0:0:
300,252,100965,6,0,B|376:236|356:280|432:264,1,134.999995880127,0|0,3:0|0:0,0:0:0:0:
402,83,101545,2,0,P|399:133|404:184,1,101.249996910095,4|0,3:2|0:0,0:0:0:0:
404,184,101932,2,0,L|480:176,1,67.4999979400635,8|0,0:0|0:0,0:0:0:0:
296,96,102319,1,0,0:0:0:0:
296,96,102706,6,0,L|148:84,1,134.999995880127,0|0,3:0|0:0,0:0:0:0:
204,220,103287,1,0,0:0:0:0:
112,256,103481,2,0,P|108:216|112:180,1,67.4999979400635,8|0,0:0|0:0,0:0:0:0:
189,317,103868,2,0,P|156:340|123:355,1,67.4999979400635,0|0,0:0|3:0,0:0:0:0:
204,220,104255,5,0,0:0:0:0:
280,264,104448,1,0,0:0:0:0:
360,236,104642,2,0,L|444:232,1,67.4999979400635,0|0,3:0|0:0,0:0:0:0:
202,152,105029,2,0,P|199:186|204:220,1,67.4999979400635,8|0,0:0|0:0,0:0:0:0:
328,152,105416,2,0,P|332:108|324:36,1,101.249996910095,0|0,3:0|0:0,0:0:0:0:
327,51,105803,6,0,B|256:36|267:80|192:64,1,134.999995880127,0|0,3:0|0:0,0:0:0:0:
328,152,106384,1,0,0:0:0:0:
404,112,106577,2,0,L|472:104,1,67.4999979400635,8|0,0:0|0:0,0:0:0:0:
250,189,106965,1,0,0:0:0:0:
312,272,107158,6,0,P|242:265|160:260,1,134.999995880127,0|0,3:0|0:0,0:0:0:0:
0,176,107739,2,2,P|69:182|152:188,1,134.999995880127,0|8,3:0|0:0,0:1:0:0:
160,179,108513,1,0,0:0:0:0:
185,172,108900,5,0,3:0:0:0:
112,40,109094,2,0,P|108:92|116:120,1,67.4999979400635
200,72,109481,1,0,0:0:0:0:
273,204,109674,2,0,P|277:152|269:124,1,67.4999979400635,8|0,0:0|0:0,0:0:0:0:
200,72,110061,1,0,0:0:0:0:
185,172,110255,1,0,3:0:0:0:
170,272,110448,6,0,L|96:280,1,67.4999979400635
273,204,110835,2,0,L|347:196,1,67.4999979400635,0|0,3:0|0:0,0:0:0:0:
200,72,111223,1,8,0:0:0:0:
106,110,111417,1,0,0:0:0:0:
185,172,111610,2,0,L|319:157,1,123.75000377655,0|0,3:0|0:0,0:0:0:0:
460,144,111997,5,4,3:2:0:0:
452,224,112577,1,0,0:0:0:0:
386,177,113158,1,0,0:0:0:0:
452,224,113545,6,0,P|380:224|328:320,1,168.750006437302,2|0,0:0|0:0,0:0:0:0:
236,344,114319,2,0,P|240:292|232:248,1,84.3750032186509,2|0,0:0|0:0,0:0:0:0:
235,260,114706,2,0,L|150:250,1,75,2|0,0:0|0:0,0:0:0:0:
56,92,115094,6,0,P|52:140|60:180,1,75,2|0,3:2|0:0,0:0:0:0:
240,112,115481,2,0,P|188:108|148:116,1,75,8|0,0:0|3:0,0:0:0:0:
91,287,115868,2,0,B|166:301|156:246|235:260,1,150,0|8,0:0|0:0,0:0:0:0:
380,300,116448,1,0,0:0:0:0:
376,316,116545,1,0,0:0:0:0:
372,332,116642,5,2,3:2:0:0:
480,207,116835,1,0,0:0:0:0:
471,309,117029,1,8,0:0:0:0:
320,244,117223,1,0,3:0:0:0:
387,167,117416,2,0,P|392:120|380:72,1,75,2|2,0:0|3:2,0:0:0:0:
325,15,117803,1,8,0:0:0:0:
465,40,117997,1,0,0:0:0:0:
303,127,118190,6,0,L|154:138,1,150,2|8,3:2|0:0,0:0:0:0:
154,138,118771,1,0,3:0:0:0:
72,12,118965,2,0,P|68:52|76:96,1,75,2|0,0:0|0:0,0:0:0:0:
160,44,119352,1,8,0:0:0:0:
104,210,119545,6,0,L|20:218,1,75,0|2,3:0|0:0,0:0:0:0:
140,299,119932,1,0,3:0:0:0:
309,281,120126,1,8,0:0:0:0:
225,290,120319,5,0,3:0:0:0:
380,336,120513,2,0,B|404:284|404:284|372:176,1,150,0|8,0:0|0:0,0:0:0:0:
377,195,121287,5,2,3:2:0:0:
431,116,121481,2,0,P|458:140|471:175,1,75,0|8,0:0|0:0,0:0:0:0:
296,236,121868,2,0,B|221:241|228:194|152:200,1,150,0|0,3:2|0:0,0:0:0:0:
92,294,122448,2,0,L|166:288,1,75,8|0,0:0|0:0,0:0:0:0:
280,148,122835,6,0,P|284:104|272:48,1,75,2|0,3:2|0:0,0:0:0:0:
200,40,123223,1,8,0:0:0:0:
374,112,123416,1,0,3:0:0:0:
394,108,123513,1,0,0:0:0:0:
414,104,123610,1,2,0:0:0:0:
392,296,123803,1,2,3:2:0:0:
400,204,123997,2,0,P|348:212|320:240,1,75,10|0,0:0|0:0,0:0:0:0:
222,329,124384,5,2,3:2:0:0:
393,370,124577,2,0,P|395:333|392:296,1,75,0|8,0:0|0:0,0:0:0:0:
244,168,124965,2,0,P|241:205|245:242,1,75,2|0,3:2|0:0,0:0:0:0:
400,204,125352,1,0,3:0:0:0:
289,88,125545,1,10,0:0:0:0:
245,242,125739,1,0,0:0:0:0:
394,110,125932,6,0,L|468:102,1,75,2|0,3:2|0:0,0:0:0:0:
325,211,126319,2,0,L|400:204,1,75,8|2,0:0|3:2,0:0:0:0:
289,88,126706,1,0,0:0:0:0:
245,242,126900,1,0,3:0:0:0:
133,126,127094,6,0,P|198:120|250:166,1,134.999995880127,12|0,0:0|0:0,0:0:0:0:
248,162,127481,6,0,P|244:124|248:78,1,75,2|0,3:2|0:0,0:0:0:0:
85,224,127868,2,0,P|122:220|160:224,1,75,8|0,0:0|3:0,0:0:0:0:
151,32,128255,2,0,B|68:25|81:70|6:60,1,150,0|8,0:0|0:0,0:0:0:0:
133,126,128835,1,0,0:0:0:0:
246,87,129029,6,0,P|244:124|248:162,1,75,2|0,3:2|0:0,0:0:0:0:
407,117,129416,2,0,L|332:123,1,75,8|0,0:0|3:0,0:0:0:0:
272,248,129803,1,2,0:0:0:0:
406,208,129997,2,0,L|480:201,1,75,2|8,3:2|0:0,0:0:0:0:
454,292,130384,1,0,0:0:0:0:
272,248,130577,6,0,P|220:240|112:240,1,150,2|8,3:2|0:0,0:0:0:0:
184,160,131158,1,0,3:0:0:0:
36,288,131352,2,0,L|28:200,1,75
122,239,131739,1,10,0:0:0:0:
177,85,131932,6,0,L|185:173,1,75,0|2,3:0|0:0,0:0:0:0:
344,44,132319,1,0,3:0:0:0:
256,36,132512,1,8,0:0:0:0:
432,52,132706,5,0,3:0:0:0:
339,191,132900,2,0,B|319:122|366:123|339:23,1,150,0|8,0:0|0:0,0:0:0:0:
343,43,133674,5,2,3:2:0:0:
424,152,133868,2,0,P|428:204|420:252,1,75,0|8,0:0|0:0,0:0:0:0:
218,148,134255,2,0,P|289:139|339:191,1,150,0|0,3:2|0:0,0:0:0:0:
262,295,134835,2,0,P|255:258|260:221,1,75,8|0,0:0|0:0,0:0:0:0:
142,140,135223,6,0,L|217:147,1,75,2|0,3:2|0:0,0:0:0:0:
72,246,135610,1,8,0:0:0:0:
18,84,135803,2,0,B|95:97|84:44|164:56,1,150,0|2,3:0|3:2,0:0:0:0:
161,55,136384,1,10,0:0:0:0:
216,146,136577,1,0,0:0:0:0:
30,171,136771,6,0,P|-16:227|0:298,1,150,2|8,3:2|0:0,0:0:0:0:
113,176,137352,2,0,P|86:108|17:84,1,150,2|0,3:2|3:0,0:0:0:0:
69,250,137932,1,10,0:0:0:0:
148,338,138126,1,0,0:0:0:0:
270,316,138319,6,0,P|344:302|419:297,1,150,2|8,3:2|0:0,0:0:0:0:
261,195,138900,2,0,P|186:189|112:175,1,150,2|0,3:2|3:0,0:0:0:0:
343,69,139481,6,0,B|383:77|415:69|415:69|443:105|423:133,1,134.999995880127,12|0,0:0|0:0,0:0:0:0:
467,188,139868,6,0,P|413:199|366:170,1,112.500004291535,2|0,3:2|0:0,0:0:0:0:
343,69,140448,1,0,0:0:0:0:
268,112,140642,2,0,P|221:82|167:94,1,112.500004291535,8|0,0:0|0:0,0:0:0:0:
140,223,141223,6,0,L|128:151,2,56.2500021457673,0|2|0,3:0|0:0|3:0,0:0:0:0:
119,302,141803,2,8,P|93:291|74:270,1,56.2500021457673,0|0,3:0|0:0,0:0:0:0:
130,167,142190,2,0,L|258:175,2,112.500004291535,8|0|2,0:0|3:0|3:2,0:0:0:0:
164,89,143158,6,0,L|225:93,1,56.2500021457673
242,174,143545,1,0,0:0:0:0:
412,164,143739,2,0,P|360:164|320:220,1,112.500004291535,8|0,0:0|0:0,0:0:0:0:
229,334,144319,6,0,P|283:332|318:291,1,112.500004291535,0|0,3:0|3:0,0:0:0:0:
322,207,144900,2,0,L|254:203,1,56.2500021457673,4|0,3:2|0:0,0:0:0:0:
392,256,145287,1,8,0:0:0:0:
401,66,145868,1,0,0:0:0:0:
394,79,145965,1,0,0:0:0:0:
388,92,146061,6,0,P|384:128|388:156,1,56.2500021457673,2|0,3:2|0:0,0:0:0:0:
470,125,146448,1,0,0:0:0:0:
301,123,146642,2,0,P|261:83|197:83,1,112.500004291535,2|0,0:0|0:0,0:0:0:0:
207,79,147223,1,2,0:0:0:0:
162,245,147416,5,0,3:0:0:0:
238,213,147610,2,0,L|222:141,1,56.2500021457673,2|0,0:0|0:0,0:0:0:0:
227,294,147997,2,0,L|297:316,1,56.2500021457673,0|0,3:0|0:0,0:0:0:0:
162,245,148384,2,0,P|106:241|38:249,1,112.500004291535,8|0,0:0|3:0,0:0:0:0:
92,73,148965,1,0,0:0:0:0:
97,87,149061,1,0,0:0:0:0:
102,101,149158,5,2,3:2:0:0:
192,124,149352,1,0,0:0:0:0:
368,84,149545,5,0,0:0:0:0:
280,104,149739,1,2,0:0:0:0:
455,160,149932,6,0,P|458:132|456:104,1,56.2500021457673,8|0,0:0|0:0,0:0:0:0:
368,168,150319,1,2,0:0:0:0:
191,39,150513,5,0,3:0:0:0:
279,47,150706,2,0,P|282:75|280:104,1,56.2500021457673,2|0,0:0|3:0,0:0:0:0:
180,268,151094,5,0,3:0:0:0:
192,124,151287,1,0,0:0:0:0:
284,236,151481,2,0,P|289:296|283:348,1,112.500004291535,8|0,0:0|0:0,0:0:0:0:
400,248,152061,1,0,0:0:0:0:
392,236,152158,1,0,0:0:0:0:
384,224,152255,6,0,P|380:180|384:152,1,56.2500021457673,2|0,3:2|0:0,0:0:0:0:
276,96,152642,2,0,L|352:88,1,56.2500021457673,0|2,0:0|0:0,0:0:0:0:
284,236,153029,1,8,0:0:0:0:
209,177,153223,2,0,L|153:182,1,56.2500021457673,0|2,0:0|0:0,0:0:0:0:
88,344,153610,1,0,3:0:0:0:
64,264,153803,6,0,P|116:264|164:312,1,112.500004291535,2|0,0:2|3:0,0:0:0:0:
232,344,154384,1,0,0:0:0:0:
396,225,154577,2,0,L|284:236,2,112.500004291535,8|2|2,0:0|3:2|3:2,0:0:0:0:
456,160,155545,5,0,0:0:0:0:
341,55,155739,1,0,0:0:0:0:
429,75,155932,1,0,0:0:0:0:
279,121,156126,2,0,L|200:128,1,56.2500021457673,8|0,0:0|0:0,0:0:0:0:
62,87,156513,5,0,0:0:0:0:
144,48,156706,2,0,P|148:96|144:128,1,56.2500021457673,0|2,3:0|0:0,0:0:0:0:
78,186,157094,5,0,3:0:0:0:
2,149,157287,2,0,P|-1:176|0:204,1,56.2500021457673,0|0,3:0|0:0,0:0:0:0:
89,280,157674,5,8,0:0:0:0:
147,103,157868,2,0,P|150:130|149:159,1,56.2500021457673
89,280,158255,1,0,0:0:0:0:
101,272,158352,1,0,0:0:0:0:
113,264,158448,6,0,L|185:256,1,56.2500021457673,2|0,3:2|0:0,0:0:0:0:
69,356,158835,2,0,L|-3:348,1,56.2500021457673,0|2,0:0|0:0,0:0:0:0:
137,244,159223,2,0,L|265:232,1,112.500004291535,0|2,0:0|0:0,0:0:0:0:
401,278,159803,6,0,L|393:314,2,28.1250010728836,0|0|2,3:0|0:0|0:0,0:0:0:0:
349,209,160190,1,0,0:0:0:0:
420,91,160384,2,0,L|407:149,1,56.2500021457673,0|0,3:0|0:0,0:0:0:0:
249,233,160771,2,0,P|295:202|349:209,2,112.500004291535,8|0|2,0:0|3:0|3:2,0:0:0:0:
103,317,161739,5,0,0:0:0:0:
159,196,161932,2,0,P|164:223|160:251,1,56.2500021457673
44,228,162319,2,0,P|37:176|46:117,1,112.500004291535,8|0,0:0|0:0,0:0:0:0:
224,124,162900,1,0,3:0:0:0:
159,196,163094,5,2,0:0:0:0:
193,33,163287,1,0,3:0:0:0:
318,142,163481,1,0,3:0:0:0:
130,106,163674,5,2,0:0:0:0:
286,51,163868,1,12,0:0:0:0:
255,213,164255,2,0,P|252:264|255:302,1,84.3750032186509,2|0,0:0|0:0,0:0:0:0:
254,297,164642,5,2,3:2:0:0:
345,288,164835,1,0,0:0:0:0:
432,274,165029,1,8,0:0:0:0:
499,112,165223,1,2,3:2:0:0:
499,112,165319,1,0,0:0:0:0:
499,112,165416,2,0,L|489:191,1,75
441,348,165803,2,0,L|431:269,1,75,10|0,0:0|0:0,0:0:0:0:
298,146,166190,5,2,3:2:0:0:
206,132,166384,1,0,0:0:0:0:
220,39,166577,1,8,0:0:0:0:
314,54,166771,1,2,3:2:0:0:
206,132,166965,2,0,L|111:144,1,75
131,141,167255,1,0,0:0:0:0:
131,141,167352,1,10,0:0:0:0:
36,101,167545,1,0,0:0:0:0:
46,204,167739,5,2,3:2:0:0:
126,48,167932,1,0,0:0:0:0:
120,31,168029,1,0,0:0:0:0:
114,14,168126,1,8,0:0:0:0:
46,204,168319,2,0,P|34:265|42:301,1,75,2|0,3:2|0:0,0:0:0:0:
256,369,168706,2,0,P|267:333|266:295,1,75,0|10,0:0|0:0,0:0:0:0:
203,227,169094,1,0,0:0:0:0:
300,191,169287,5,2,3:2:0:0:
179,323,169481,2,0,L|104:326,1,75,0|8,3:0|0:0,0:0:0:0:
12,118,169868,2,0,B|82:96|90:149|176:122,1,150,2|0,3:2|3:0,0:0:0:0:
158,126,170448,1,10,0:0:0:0:
203,227,170642,1,0,0:0:0:0:
187,219,170739,1,0,0:0:0:0:
171,211,170835,5,2,3:2:0:0:
179,323,171029,1,0,0:0:0:0:
291,315,171223,1,8,0:0:0:0:
283,203,171416,1,2,3:2:0:0:
167,335,171610,5,0,0:0:0:0:
303,327,171803,1,0,0:0:0:0:
295,191,171997,1,10,0:0:0:0:
159,199,172190,1,0,0:0:0:0:
319,339,172384,6,0,L|403:335,1,75,2|0,3:2|0:0,0:0:0:0:
231,267,172771,1,8,0:0:0:0:
334,114,172965,2,0,P|377:172|359:243,1,150,2|0,3:2|3:0,0:0:0:0:
342,250,173448,1,0,0:0:0:0:
325,258,173545,1,10,0:0:0:0:
231,267,173739,1,0,0:0:0:0:
137,275,173932,5,2,3:2:0:0:
175,115,174126,2,0,P|183:155|175:199,1,75,0|8,0:0|0:0,0:0:0:0:
78,165,174513,1,0,3:0:0:0:
231,267,174706,5,0,0:0:0:0:
78,165,174900,2,0,P|70:110|79:55,1,112.500004291535
254,118,175481,5,2,3:2:0:0:
231,267,175674,1,0,3:0:0:0:
162,134,175868,1,8,0:0:0:0:
297,200,176061,1,2,3:2:0:0:
148,225,176255,1,0,0:0:0:0:
347,79,176448,5,0,3:0:0:0:
446,112,176642,2,0,P|453:75|445:34,1,75,10|0,0:0|0:0,0:0:0:0:
446,38,176932,1,0,0:0:0:0:
446,38,177029,5,2,3:2:0:0:
386,189,177223,1,0,0:0:0:0:
501,284,177416,1,8,0:0:0:0:
512,199,177610,1,2,3:2:0:0:
493,197,177706,1,0,0:0:0:0:
474,202,177803,5,0,0:0:0:0:
370,304,177997,1,0,0:0:0:0:
233,249,178190,2,0,L|224:150,1,75,10|0,0:0|0:0,0:0:0:0:
143,125,178577,5,2,3:2:0:0:
314,169,178771,1,0,0:0:0:0:
150,230,178965,1,8,0:0:0:0:
314,169,179158,1,2,3:2:0:0:
143,125,179352,2,0,L|68:115,2,75,0|0|8,0:0|0:0|0:0,0:0:0:0:
233,53,179932,1,0,0:0:0:0:
249,45,180029,1,0,0:0:0:0:
265,37,180126,6,0,L|341:29,1,75,2|0,3:2|0:0,0:0:0:0:
424,90,180513,1,8,0:0:0:0:
372,251,180706,1,2,3:2:0:0:
512,190,180900,2,0,L|412:176,1,75
340,165,181287,1,10,0:0:0:0:
242,150,181481,1,0,0:0:0:0:
226,160,181577,1,0,0:0:0:0:
210,170,181674,6,0,P|210:215|218:244,1,75,2|0,3:2|3:0,0:0:0:0:
149,336,182061,1,8,0:0:0:0:
38,167,182255,2,0,P|76:144|98:122,1,75,2|0,3:2|0:0,0:0:0:0:
149,336,182642,1,0,3:0:0:0:
139,321,182739,1,0,3:0:0:0:
127,305,182835,2,0,P|96:286|60:276,1,75,10|0,0:0|0:0,0:0:0:0:
27,87,183223,6,0,L|16:12,1,75,2|0,3:2|0:0,0:0:0:0:
27,87,183610,1,8,0:0:0:0:
207,162,183803,2,0,L|220:84,1,75,2|0,3:2|0:0,0:0:0:0:
126,109,184190,1,0,0:0:0:0:
298,151,184384,1,8,0:0:0:0:
126,109,184577,1,0,0:0:0:0:
80,295,184771,6,0,P|80:257|88:221,1,75,2|0,3:2|0:0,0:0:0:0:
298,151,185158,2,0,P|306:187|306:224,1,75,8|2,0:0|3:2,0:0:0:0:
229,296,185545,1,0,0:0:0:0:
198,201,185739,1,0,3:0:0:0:
325,315,185932,1,10,0:0:0:0:
163,368,186126,1,0,0:0:0:0:
306,224,186319,5,6,0:0:0:0:
396,255,186900,1,2,0:0:0:0:
325,315,187481,1,2,0:0:0:0:
306,224,187868,6,0,B|355:211|398:224|398:224|435:190|476:189,1,180,2|0,0:0|0:0,0:0:0:0:
364,112,188642,2,0,P|323:99|264:112,1,90,2|0,0:0|0:0,0:0:0:0:
277,105,189029,6,0,P|212:120|140:60,1,134.999995880127,2|0,0:0|0:0,0:0:0:0:
85,44,189416,6,0,P|47:38|10:39,1,75,4|0,3:2|0:0,0:0:0:0:
131,245,189803,2,0,P|137:208|135:171,1,75,8|0,0:0|3:0,0:0:0:0:
14,123,190190,2,0,B|94:127|74:80|155:86,1,150,0|8,0:0|0:0,0:0:0:0:
280,164,190771,1,0,0:0:0:0:
288,180,190868,1,0,0:0:0:0:
296,196,190965,6,0,P|300:244|296:284,1,75,2|0,3:2|0:0,0:0:0:0:
130,322,191352,2,0,P|126:274|130:234,1,75,8|0,0:0|3:0,0:0:0:0:
212,264,191739,1,2,0:0:0:0:
360,328,191932,2,0,L|440:320,1,75,2|8,3:2|0:0,0:0:0:0:
298,270,192319,1,0,0:0:0:0:
452,188,192513,6,0,P|444:148|348:108,1,150,2|8,3:2|0:0,0:0:0:0:
296,192,193094,2,0,L|370:186,1,75,0|0,3:0|0:0,0:0:0:0:
220,148,193481,2,0,P|212:196|232:248,1,75,0|8,0:0|0:0,0:0:0:0:
352,106,193868,6,0,P|360:58|340:6,1,75,0|2,3:0|0:0,0:0:0:0:
184,32,194255,1,0,3:0:0:0:
268,20,194448,1,8,0:0:0:0:
100,44,194642,5,0,3:0:0:0:
34,181,194835,2,0,B|64:154|57:115|57:115|21:95|17:51,1,150,0|8,0:0|0:0,0:0:0:0:
18,53,195610,5,2,3:2:0:0:
131,177,195803,2,0,L|205:167,1,75,0|8,0:0|0:0,0:0:0:0:
155,258,196190,2,0,L|6:279,1,150,0|0,3:0|0:0,0:0:0:0:
219,316,196771,2,0,P|236:284|239:247,1,75,8|0,0:0|0:0,0:0:0:0:
171,43,197158,6,0,P|157:114|206:167,1,150,2|8,3:2|0:0,0:0:0:0:
361,157,197739,2,0,P|324:158|291:175,1,75,0|2,3:0|0:0,0:0:0:0:
219,316,198126,1,2,3:2:0:0:
351,323,198319,2,0,P|354:286|350:249,1,75,10|0,0:0|0:0,0:0:0:0:
290,175,198706,6,0,B|267:102|318:102|294:22,1,150,2|8,3:2|0:0,0:0:0:0:
418,91,199287,1,2,3:2:0:0:
462,159,199481,1,0,0:0:0:0:
438,231,199674,1,0,3:0:0:0:
215,171,199868,2,0,L|295:175,1,75,10|0,0:0|0:0,0:0:0:0:
219,316,200255,6,0,L|139:312,1,75,2|0,3:2|0:0,0:0:0:0:
63,211,200642,1,8,0:0:0:0:
195,63,200835,1,2,3:2:0:0:
205,79,200932,1,0,0:0:0:0:
213,96,201029,2,0,P|217:136|213:180,1,75,0|0,0:0|3:0,0:0:0:0:
23,140,201416,6,0,P|71:128|143:200,1,134.999995880127,12|0,0:0|0:0,0:0:0:0:
214,170,201803,6,0,P|252:168|289:161,1,75,2|0,3:2|0:0,0:0:0:0:
316,340,202190,2,0,P|295:309|268:284,1,75,8|0,0:0|3:0,0:0:0:0:
494,207,202577,2,0,B|413:195|425:241|348:232,1,150,0|8,0:0|0:0,0:0:0:0:
472,297,203158,1,0,0:0:0:0:
350,233,203352,6,0,P|346:196|350:159,1,75,2|0,3:2|0:0,0:0:0:0:
400,88,203739,1,8,0:0:0:0:
264,172,203932,2,0,P|232:152|176:144,1,75,0|2,3:0|0:0,0:0:0:0:
136,292,204319,2,0,P|168:312|224:320,1,75,2|8,3:2|0:0,0:0:0:0:
200,232,204706,1,0,0:0:0:0:
173,64,204900,6,0,P|120:114|126:186,1,150,2|8,3:2|0:0,0:0:0:0:
264,172,205481,1,0,3:0:0:0:
319,90,205674,2,0,L|311:15,1,75
264,172,206061,1,8,0:0:0:0:
386,157,206255,6,0,L|462:149,1,75,0|2,3:0|0:0,0:0:0:0:
272,292,206642,1,0,3:0:0:0:
440,270,206835,1,8,0:0:0:0:
356,281,207029,5,0,3:0:0:0:
215,84,207223,2,0,B|196:184|196:184|216:228,1,150,0|8,0:0|0:0,0:0:0:0:
216,228,207997,5,2,3:2:0:0:
116,164,208190,2,0,L|40:156,1,75,0|8,0:0|0:0,0:0:0:0:
192,314,208577,2,0,B|271:327|256:277|336:289,1,150,0|0,3:0|0:0,0:0:0:0:
214,153,209158,2,0,P|212:190|216:228,1,75,10|0,0:0|0:0,0:0:0:0:
422,324,209545,6,0,P|425:286|419:249,1,75,2|0,3:2|0:0,0:0:0:0:
391,158,209932,1,8,0:0:0:0:
314,45,210126,2,0,L|307:120,1,75,0|2,3:0|3:2,0:0:0:0:
336,289,210513,1,2,0:0:0:0:
267,220,210706,2,0,P|214:202|158:208,1,112.5,10|0,0:0|0:0,0:0:0:0:
159,209,211094,6,0,P|153:134|141:61,1,150,2|8,3:2|0:0,0:0:0:0:
370,61,211674,2,0,P|358:135|352:209,1,150,2|0,3:2|3:0,0:0:0:0:
256,126,212255,2,0,L|256:42,1,75,10|0,0:0|0:0,0:0:0:0:
141,61,212642,6,0,P|101:105|133:201,1,150,2|8,3:2|0:0,0:0:0:0:
371,323,213223,2,0,P|411:279|379:183,1,150,0|0,3:0|0:0,0:0:0:0:
256,126,213803,2,0,B|256:275,1,134.999995880127,12|0,0:0|0:0,0:0:0:0:
256,261,214190,1,0,0:0:0:0:
256,192,225029,12,0,226481,0:0:0:0:
256,64,226577,5,2,0:0:0:0:
332,88,227352,1,0,0:0:0:0:
378,152,228126,1,0,0:0:0:0:
378,231,228900,1,0,0:0:0:0:
332,295,229674,5,2,0:0:0:0:
256,320,230449,1,0,0:0:0:0:
181,295,231223,1,2,0:0:0:0:
135,231,231997,1,2,0:0:0:0:
135,152,232771,5,2,0:0:0:0:
181,88,233546,1,0,0:0:0:0:
257,64,234320,1,0,0:0:0:0:
332,88,235094,1,2,0:0:0:0:
378,152,235868,5,2,3:2:0:0:
378,231,236255,1,0,3:0:0:0:
332,295,236642,1,0,3:0:0:0:
256,320,237029,1,0,3:0:0:0:
181,295,237416,5,2,3:2:0:0:
135,231,237610,1,0,3:0:0:0:
135,152,237803,1,0,3:0:0:0:
181,88,237997,1,0,3:0:0:0:
256,64,238190,6,0,P|299:68|348:72,1,75,2|0,3:2|3:0,0:0:0:0:
476,195,238577,1,2,0:0:0:0:
441,178,238674,1,0,3:0:0:0:
402,179,238771,1,0,3:0:0:0:
368,196,238868,1,0,3:0:0:0:
346,228,238965,6,0,P|337:294|342:340,1,82.5000025177003,4|0,3:2|0:0,0:0:0:0:
417,350,239352,1,8,0:0:0:0:
255,268,239545,1,2,3:2:0:0:
441,178,239739,2,0,P|447:137|445:96,1,82.5000025177003
346,228,240126,1,10,0:0:0:0:
272,84,240319,1,0,0:0:0:0:
252,92,240416,1,0,0:0:0:0:
232,100,240513,6,0,L|140:88,1,82.5000025177003,2|0,3:2|0:0,0:0:0:0:
346,228,240900,2,0,L|440:240,1,82.5000025177003,10|0,0:0|3:0,0:0:0:0:
200,184,241287,2,0,P|184:224|192:272,1,82.5000025177003,2|0,0:0|3:0,0:0:0:0:
198,281,241577,1,2,0:3:0:0:
208,298,241674,2,0,P|170:284|130:290,1,82.5000025177003,8|2,0:0|0:3,0:0:0:0:
41,335,242061,5,2,3:2:0:0:
2,167,242255,2,0,P|35:195|49:231,1,82.5000025177003,0|8,0:0|0:0,0:0:0:0:
41,335,242642,1,2,3:2:0:0:
127,161,242835,2,0,P|185:107|264:122,1,165.000005035401,0|10,0:0|0:0,0:0:0:0:
231,308,243416,1,0,3:0:0:0:
222,289,243513,1,0,0:0:0:0:
213,270,243610,6,0,L|209:186,1,82.5000025177003,2|0,0:2|3:0,0:0:0:0:
124,273,243997,1,8,0:0:0:0:
263,121,244190,2,0,B|344:104|345:161|430:144,1,165.000005035401,2|0,3:2|0:0,0:0:0:0:
512,86,244771,1,8,0:0:0:0:
485,59,244867,1,8,0:0:0:0:
451,45,244964,1,8,0:0:0:0:
414,40,245061,1,8,0:0:0:0:
378,48,245158,5,2,3:2:0:0:
260,214,245352,2,0,P|255:173|259:132,1,82.5000025177003,0|8,0:0|0:0,0:0:0:0:
349,177,245739,1,0,3:0:0:0:
184,272,245932,2,0,P|143:262|99:260,1,82.5000025177003,2|0,0:0|0:0,0:0:0:0:
81,245,246223,2,0,P|86:265|86:285,1,41.2500012588501,2|8,0:3|0:0,0:0:0:0:
155,168,246513,1,2,0:3:0:0:
53,130,246706,6,0,P|65:90|69:46,1,82.5000025177003,2|0,3:2|0:0,0:0:0:0:
90,63,246997,2,0,P|110:63|130:58,1,41.2500012588501,2|8,0:3|0:0,0:0:0:0:
260,214,247287,1,2,3:0:0:0:
320,109,247481,2,0,P|277:102|237:102,1,82.5000025177003,2|0,0:0|3:0,0:0:0:0:
211,108,247771,2,0,P|219:90|223:70,1,41.2500012588501,2|8,0:3|0:0,0:0:0:0:
260,214,248061,1,2,0:3:0:0:
423,161,248255,5,2,3:2:0:0:
364,272,248448,1,0,0:0:0:0:
395,266,248544,1,0,0:0:0:0:
426,263,248641,1,8,0:0:0:0:
457,262,248738,1,0,0:0:0:0:
488,262,248835,1,0,3:0:0:0:
259,295,249029,2,0,P|254:254|259:214,1,82.5000025177003,0|0,0:0|3:0,0:0:0:0:
424,80,249416,2,0,P|429:120|424:161,1,82.5000025177003,8|0,0:0|0:0,0:0:0:0:
403,154,249706,1,0,0:0:0:0:
383,146,249803,6,0,L|287:134,1,82.5000025177003,2|0,3:2|0:0,0:0:0:0:
176,288,250190,1,8,0:0:0:0:
294,360,250384,1,2,3:2:0:0:
309,225,250577,2,0,L|176:207,1,123.75000377655,2|0,0:0|0:0,0:0:0:0:
99,179,250965,6,8,P|88:158|85:136,1,41.2500012588501,10|8,0:0|0:0,0:0:0:0:
194,68,251158,2,8,P|204:88|207:110,1,41.2500012588501,10|8,0:0|0:0,0:0:0:0:
96,20,251352,5,2,3:2:0:0:
187,209,251545,2,0,P|236:203|279:197,1,82.5000025177003,0|8,0:0|0:0,0:0:0:0:
416,106,251932,1,2,3:2:0:0:
348,40,252126,1,0,0:0:0:0:
433,196,252319,1,0,0:0:0:0:
456,19,252512,1,10,0:0:0:0:
334,150,252706,1,0,0:0:0:0:
510,115,252900,6,0,P|508:70|484:24,1,82.5000025177003,2|0,3:2|0:0,0:0:0:0:
356,255,253287,2,0,P|388:280|427:293,1,82.5000025177003,10|0,0:0|3:0,0:0:0:0:
341,127,253674,2,0,B|269:119|293:159|205:151,1,123.75000377655,2|2,0:0|0:3,0:0:0:0:
222,151,254061,2,0,L|230:45,1,82.5000025177003,8|2,0:0|0:3,0:0:0:0:
356,255,254448,5,2,3:2:0:0:
238,314,254642,2,0,L|138:306,1,82.5000025177003,0|8,0:0|0:0,0:0:0:0:
222,151,255029,1,2,3:2:0:0:
67,198,255223,2,0,B|123:190|123:190|171:158|171:158|221:151,1,165.000005035401,0|10,0:0|0:2,0:0:0:0:
113,32,255803,6,0,P|95:68|92:109,1,82.5000025177003,0|2,3:0|0:0,0:0:0:0:
237,315,256190,2,0,P|257:278|258:237,1,82.5000025177003,0|8,3:0|0:0,0:0:0:0:
221,151,256577,2,0,L|239:326,1,165.000005035401,2|0,3:2|0:0,0:0:0:0:
60,335,257158,1,8,0:0:0:0:
65,298,257255,1,8,0:0:0:0:
70,262,257351,1,8,0:0:0:0:
75,226,257448,1,8,0:0:0:0:
81,188,257545,6,0,P|145:137|243:171,1,165.000005035401,2|8,3:2|0:0,0:0:0:0:
327,189,258126,2,0,P|331:148|324:108,1,82.5000025177003,2|0,3:2|0:0,0:0:0:0:
410,262,258513,2,0,P|454:254|498:254,1,82.5000025177003,2|8,0:0|0:0,0:0:0:0:
329,343,258900,1,0,0:0:0:0:
248,268,259094,6,0,B|169:250|172:318|80:296,1,165.000005035401,2|8,3:2|0:0,0:0:0:0:
88,88,259674,2,0,P|113:144|110:206,1,123.75000377655,2|0,3:2|0:0,0:0:0:0:
111,205,260061,2,0,P|70:197|22:194,1,82.5000025177003,2|8,3:2|0:0,0:0:0:0:
188,110,260448,2,0,P|228:117|269:120,1,82.5000025177003,2|0,3:2|3:0,0:0:0:0:
421,100,260835,1,0,0:0:0:0:
403,10,261029,5,8,0:0:0:0:
352,158,261223,1,2,3:2:0:0:
507,128,261416,1,0,0:0:0:0:
334,71,261610,5,0,3:0:0:0:
438,189,261804,1,10,0:0:0:0:
489,41,261997,1,0,0:0:0:0:
352,158,262190,6,0,P|348:211|396:271,1,123.75000377655,2|0,3:2|0:0,0:0:0:0:
387,266,262577,1,8,0:0:0:0:
268,214,262771,2,0,B|211:226|205:186|148:197,1,123.75000377655,2|0,3:2|0:0,0:0:0:0:
84,250,263158,2,0,P|120:276|165:278,1,89.9999972534181,2|8,3:2|0:0,0:0:0:0:
143,119,263545,6,0,P|116:124|93:140,1,56.2500021457673,2|0,0:0|0:0,0:0:0:0:
