osu file format v14

[General]
AudioFilename: 04 - Fly.mp3
AudioLeadIn: 1500
PreviewTime: 449
Countdown: 0
SampleSet: Normal
StackLeniency: 0.7
Mode: 0
LetterboxInBreaks: 0
WidescreenStoryboard: 1

[Editor]
DistanceSpacing: 1
BeatDivisor: 4
GridSize: 4
TimelineZoom: 2

[Metadata]
Title:Fly
TitleUnicode:Fly
Artist:Epik High
ArtistUnicode:에픽하이
Creator:Zetera
Version:Hard
Source:
Tags:Tablo Mithra Jin DJ Tukutz Black Swan Songs Rap Hip Hop Kpop Amin J Soulciety Nexy Fifa 06
BeatmapID:625661
BeatmapSetID:275219

[Difficulty]
HPDrainRate:6
CircleSize:4
OverallDifficulty:6
ApproachRate:7
SliderMultiplier:1.6
SliderTickRate:2

[Events]
//Background and Video events
0,0,"BG_Fly.jpg",0,0
//Break Periods
2,2524,15411
2,137524,151349
//Storyboard Layer 0 (Background)
//Storyboard Layer 1 (Fail)
//Storyboard Layer 2 (Pass)
//Storyboard Layer 3 (Foreground)
//Storyboard Sound Samples

[TimingPoints]
449,468.75,4,1,0,30,1,0
917,-100,4,1,0,35,0,0
1386,-100,4,1,0,40,0,0
1855,-100,4,1,0,45,0,0
2324,-100,4,1,0,50,0,0
16386,-100,4,2,0,50,0,0
27636,-133.333333333333,4,2,0,50,0,0
28574,-100,4,2,0,50,0,0
42636,-133.333333333333,4,2,0,50,0,0
43574,-100,4,2,0,50,0,0
47324,-100,4,1,0,50,0,1
77324,-133.333333333333,4,2,0,50,0,0
90449,-100,4,2,0,50,0,0
102636,-133.333333333333,4,2,0,50,0,0
103574,-100,4,2,0,50,0,0
107324,-100,4,1,0,50,0,1
137324,-100,4,1,0,50,0,0
152324,-133.333333333333,4,1,0,50,0,0
167089,-133.333333333333,4,1,0,50,0,0
167324,-100,4,1,0,50,0,1
196855,-100,4,1,0,50,0,0

[Colours]
Combo1 : 255,94,55
Combo2 : 192,192,192
Combo3 : 255,88,100
Combo4 : 215,215,215

[HitObjects]
81,175,449,5,0,0:0:0:0:
158,219,683,2,2,P|167:160|154:123,1,80,0|2,2:0|0:0,0:2:0:0:
85,97,1152,2,2,P|76:156|89:193,1,80,0|0,2:0|0:0,0:2:0:0:
41,244,1620,1,0,2:0:0:0:
71,318,1855,1,2,0:0:0:0:
227,283,2324,5,4,0:0:0:0:
72,152,16386,5,2,0:0:0:0:
76,168,16855,1,2,0:0:0:0:
80,183,17324,5,4,1:0:0:0:
119,252,17558,1,0,0:0:0:0:
162,184,17792,1,8,0:0:0:0:
38,254,18027,2,0,P|59:306|170:313,1,160,0|0,0:0|0:0,0:0:0:0:
223,284,18730,1,8,0:0:0:0:
254,210,18964,6,0,L|245:138,2,40,0|0|0,0:0|0:0|1:0,0:0:0:0:
303,272,19433,1,0,0:0:0:0:
369,228,19667,2,0,P|381:160|348:58,1,160,8|2,0:0|0:0,0:0:0:0:
282,45,20370,2,0,L|187:33,2,80,0|8|0,0:0|0:0|0:0,0:0:0:0:
358,73,21074,5,0,1:0:0:0:
434,48,21308,1,2,0:0:0:0:
495,98,21542,2,0,P|501:151|488:212,1,80,8|0,0:0|0:0,0:0:0:0:
489,195,21894,1,0,0:0:0:0:
480,213,22011,1,2,0:0:0:0:
414,258,22245,1,0,0:0:0:0:
343,220,22480,2,0,L|237:215,1,80,8|0,0:0|0:0,0:0:0:0:
184,230,22949,5,0,1:0:0:0:
107,208,23183,1,0,0:0:0:0:
32,237,23417,1,10,0:0:0:0:
113,338,23652,1,0,0:0:0:0:
113,338,23769,1,0,0:0:0:0:
113,338,23886,1,2,0:0:0:0:
107,208,24120,1,0,0:0:0:0:
55,77,24355,2,0,P|43:132|53:187,1,80,8|2,0:0|1:2,0:0:0:0:
107,208,24824,6,0,L|196:211,1,80,2|0,1:2|0:0,0:0:0:0:
258,245,25292,2,0,L|426:251,1,160,10|0,0:0|0:0,0:0:0:0:
487,290,25995,1,2,0:0:0:0:
487,209,26230,2,0,L|481:119,1,80,10|0,0:0|0:0,0:0:0:0:
386,52,26699,2,0,L|392:186,2,120,0|0|0,1:0|0:0|0:0,0:0:0:0:
313,23,27636,6,0,B|267:24|227:48|227:48|184:32|112:42,1,180.000006866455,2|2,0:0|2:0,0:0:0:0:
70,118,28574,6,0,P|56:172|68:281,1,160,4|10,1:2|0:0,0:0:0:0:
132,319,29277,1,0,0:0:0:0:
206,288,29511,2,0,L|201:228,2,40,0|2|0,0:0|0:0|0:0,0:0:0:0:
271,333,29980,2,0,P|316:345|372:341,1,80,10|0,0:0|0:0,0:0:0:0:
417,303,30449,5,0,1:0:0:0:
458,232,30683,1,0,0:0:0:0:
458,232,30800,1,0,0:0:0:0:
458,232,30917,1,10,0:0:0:0:
499,163,31152,1,0,0:0:0:0:
456,95,31386,2,0,L|452:-6,1,80,8|0,0:3|0:0,0:0:0:0:
365,96,31855,2,0,L|369:197,1,80,4|0,0:3|0:0,0:0:0:0:
293,50,32324,6,0,L|129:34,1,160,4|8,1:0|0:0,0:0:0:0:
36,66,33027,1,2,0:0:0:0:
105,136,33261,2,0,P|116:178|99:231,1,80
99,229,33613,2,0,P|141:263|227:229,1,120,8|2,0:0|0:0,0:0:0:0:
264,310,34199,6,0,P|325:288|428:335,1,160,0|2,1:0|0:0,0:0:0:0:
471,371,34902,1,0,0:0:0:0:
499,296,35136,2,0,P|492:247|501:204,1,80,0|0,0:0|0:0,0:0:0:0:
502,197,35488,2,0,P|506:141|487:59,1,120,8|2,0:0|0:0,0:0:0:0:
422,42,36074,6,0,B|381:33|344:46|344:46|308:28|255:33,1,160,0|8,1:0|0:0,0:0:0:0:
201,80,36777,2,0,L|195:132,2,40,0|0|0,0:0|0:0|0:0,0:0:0:0:
121,71,37245,2,0,L|115:18,2,40,0|0|8,0:0|0:0|0:0,0:0:0:0:
46,101,37714,1,0,0:0:0:0:
73,176,37949,6,0,P|75:230|62:281,1,80,2|0,1:2|0:0,0:0:0:0:
62,273,38300,1,2,0:0:0:0:
54,291,38417,1,8,0:0:0:0:
104,353,38652,1,2,0:0:0:0:
183,348,38886,6,0,P|227:340|265:348,1,80,2|0,0:0|0:0,0:0:0:0:
338,224,39355,2,0,P|299:234|267:258,1,80,8|2,0:0|0:0,0:0:0:0:
420,203,39824,6,0,P|432:156|394:39,1,160,0|8,1:0|1:2,0:0:0:0:
325,30,40527,1,0,1:0:0:0:
252,63,40761,1,0,1:0:0:0:
403,51,40995,2,0,L|506:43,2,80,0|10|0,0:0|0:0|0:0,0:0:0:0:
329,132,41699,6,0,P|317:187|324:235,1,80,2|0,0:3|0:1,0:0:0:0:
214,281,42167,2,0,P|214:241|203:202,1,80,8|0,0:0|0:1,0:0:0:0:
332,332,42636,6,0,L|526:350,1,180.000006866455,2|2,0:0|0:0,0:0:0:0:
494,270,43574,6,6,P|491:220|506:177,1,80,0|0,1:0|0:0,0:0:0:0:
469,116,44042,1,10,0:0:0:0:
397,152,44277,2,0,L|346:162,2,40,0|2|0,0:0|0:0|0:0,0:0:0:0:
469,116,44745,1,0,0:0:0:0:
347,77,44980,2,0,L|234:66,1,80,10|0,1:2|0:0,0:0:0:0:
189,87,45449,6,0,P|163:137|169:226,1,120,0|0,1:0|1:0,0:0:0:0:
172,216,45917,2,0,L|282:232,1,80,8|0,0:0|1:0,0:0:0:0:
82,254,46386,1,8,0:3:0:0:
74,268,46855,1,4,0:3:0:0:
68,279,47324,6,0,P|60:232|101:128,1,160,4|8,0:0|0:0,0:0:0:0:
96,49,48027,2,0,P|97:124|148:199,1,160,0|0,0:0|0:0,0:0:0:0:
218,218,48730,2,2,L|318:223,1,80,10|2,0:0|0:0,0:0:0:0:
371,190,49199,5,4,0:0:0:0:
444,221,49433,1,0,0:0:0:0:
503,168,49667,2,8,P|507:107|484:50,2,120,8|8|0,0:0|0:0|0:0,0:0:0:0:
378,271,50605,2,0,L|271:270,1,80,8|2,0:0|0:0,0:0:0:0:
220,289,51074,5,2,0:0:0:0:
142,309,51308,1,0,0:0:0:0:
77,261,51542,2,0,P|72:217|83:177,1,80,10|0,0:0|0:0,0:0:0:0:
112,108,52011,2,2,P|117:64|106:24,2,80,2|0|8,0:0|0:0|0:0,0:0:0:0:
157,174,52714,6,0,L|333:191,1,160,2|0,0:0|0:0,0:0:0:0:
379,238,53417,2,8,L|521:253,2,120,8|8|0,0:0|0:0|2:1,0:0:0:0:
238,281,54355,1,4,0:3:0:0:
238,281,54824,6,0,P|190:280|95:222,1,160,4|8,0:0|0:0,0:0:0:0:
16,213,55527,2,0,P|90:225|172:187,1,160,0|0,0:0|0:0,0:0:0:0:
215,129,56230,2,2,P|221:77|210:26,1,80,10|2,0:0|0:0,0:0:0:0:
248,204,56699,5,0,0:0:0:0:
327,211,56933,1,0,0:0:0:0:
401,239,57167,2,8,P|457:248|510:201,2,120,8|8|0,0:0|0:0|0:0,0:0:0:0:
447,94,58105,2,0,P|449:133|440:172,1,80,8|0,0:0|0:0,0:0:0:0:
360,170,58574,5,2,0:0:0:0:
281,155,58808,1,0,0:0:0:0:
202,140,59042,2,0,P|169:97|162:60,1,80,10|0,0:0|0:0,0:0:0:0:
230,218,59511,2,2,P|217:255|190:285,1,80,0|2,0:0|0:0,0:0:0:0:
143,207,59980,1,8,0:0:0:0:
281,155,60214,6,2,P|320:222|305:313,1,160,2|0,0:0|0:0,0:0:0:0:
379,348,60917,1,8,0:0:0:0:
452,290,61152,2,0,L|462:349,2,40,0|8|0,0:0|0:0|0:0,0:0:0:0:
487,178,61620,1,0,0:0:0:0:
321,226,61855,1,8,0:0:0:0:
321,226,62324,5,4,0:0:0:0:
260,173,62558,2,2,P|199:165|157:178,1,80,2|8,0:0|0:0,0:0:0:0:
130,248,63027,2,0,P|58:262|-5:178,1,160,2|0,0:0|0:0,0:0:0:0:
17,124,63730,1,10,0:0:0:0:
6,44,63964,1,2,0:0:0:0:
80,74,64199,6,0,P|120:84|174:83,1,80,2|0,0:0|0:0,0:0:0:0:
159,85,64550,1,0,0:0:0:0:
159,85,64667,1,8,0:0:0:0:
237,61,64902,1,0,0:0:0:0:
308,97,65136,2,0,P|358:106|408:99,2,80,8|0|10,0:0|0:0|0:0,0:0:0:0:
298,106,66074,6,0,P|348:115|398:108,1,80,2|0,0:0|0:0,0:0:0:0:
486,185,66542,2,0,P|436:194|386:187,1,80,8|0,0:0|0:0,0:0:0:0:
305,243,67011,2,0,P|348:251|367:247,2,40,8|0|0,0:0|0:0|0:0,0:0:0:0:
475,311,67480,2,0,P|425:320|375:313,1,80,8|0,0:0|0:0,0:0:0:0:
317,355,67949,5,0,0:0:0:0:
305,243,68183,2,0,L|311:181,2,40,0|0|8,0:0|0:0|0:0,0:0:0:0:
203,192,68652,2,0,L|197:144,2,40,0|0|8,0:0|0:0|0:0,0:0:0:0:
101,228,69120,2,0,B|68:199|67:157|67:157|34:131|26:60,1,160,2|2,0:0|0:0,0:0:0:0:
92,27,69824,5,0,0:0:0:0:
162,72,70058,2,0,P|198:86|256:77,1,80,2|8,0:0|0:0,0:0:0:0:
311,50,70527,2,0,P|387:53|439:115,1,160,2|0,0:0|0:0,0:0:0:0:
432,193,71230,1,10,0:0:0:0:
454,269,71464,1,2,0:0:0:0:
402,330,71699,6,0,L|314:320,1,80,2|0,0:0|0:0,0:0:0:0:
322,320,72050,1,0,0:0:0:0:
322,320,72167,1,8,0:0:0:0:
245,344,72402,1,0,0:0:0:0:
197,280,72636,2,0,P|193:230|203:189,2,80,8|0|10,0:0|0:0|0:0,0:0:0:0:
189,284,73574,6,0,P|185:234|195:193,1,80,2|0,0:0|0:0,0:0:0:0:
268,83,74042,2,0,P|264:133|274:174,1,80,8|0,0:0|0:0,0:0:0:0:
341,256,74511,2,0,P|338:232|339:209,2,40,8|0|0,0:0|0:0|0:0,0:0:0:0:
410,84,74980,2,0,P|406:134|416:175,1,80,8|0,0:0|0:0,0:0:0:0:
506,258,75449,5,2,0:0:0:0:
466,327,75683,2,2,P|419:336|368:322,1,80,0|10,2:0|0:0,0:0:0:0:
327,277,76152,2,2,P|287:271|248:280,1,80,0|10,2:0|0:0,0:0:0:0:
188,333,76620,1,0,2:0:0:0:
111,309,76855,1,6,0:0:0:0:
111,309,77324,6,0,L|58:50,1,240.000009155274,0|8,1:0|0:0,0:0:0:0:
62,73,78964,1,0,0:0:0:0:
148,97,79199,2,0,B|211:117|262:79|262:79|314:115|394:75,1,240.000009155274,0|0,1:0|0:0,0:0:0:0:
376,83,80605,1,2,0:0:0:0:
459,48,80839,1,0,0:0:0:0:
450,137,81074,6,0,P|439:203|488:381,1,240.000009155274,2|8,1:2|0:0,0:0:0:0:
480,368,82714,1,0,0:0:0:0:
400,326,82949,2,0,P|325:314|294:322,2,90.0000034332277,0|0|0,1:0|1:0|1:0,0:0:0:0:
480,368,83886,1,8,0:0:0:0:
194,343,84355,5,10,0:0:0:0:
104,371,84589,1,8,0:0:0:0:
26,324,84824,2,0,P|-3:192|39:72,1,240.000009155274,2|8,1:2|0:0,0:0:0:0:
25,93,86464,1,0,0:0:0:0:
95,148,86699,6,0,B|152:196|208:160|263:125|329:178,1,240.000009155274,0|0,1:0|0:0,0:0:0:0:
371,249,87870,2,0,L|357:328,2,60.0000022888184,2|0|2,0:0|0:0|0:0,0:0:0:0:
422,174,88574,2,0,B|442:117|429:54|429:54|450:84|472:120,1,180.000006866455,2|0,1:2|0:0,0:0:0:0:
501,182,89511,2,0,P|487:241|488:309,1,120.000004577637,8|2,0:0|0:0,0:0:0:0:
423,364,90214,1,0,0:0:0:0:
344,322,90449,6,0,L|281:326,1,40,0|0,1:0|1:0,0:0:0:0:
44,270,90917,1,8,0:0:0:0:
113,229,91152,2,0,L|159:238,1,40,0|0,1:0|1:0,0:0:0:0:
273,189,91503,2,0,L|298:157,1,40,0|0,0:0|0:0,0:0:0:0:
186,152,91855,1,8,0:0:0:0:
246,280,92089,1,2,0:0:0:0:
246,280,92206,1,0,0:0:0:0:
246,280,92324,6,0,P|300:297|339:288,1,80,4|0,1:0|0:0,0:0:0:0:
340,286,92675,2,0,P|376:240|355:152,1,120,8|2,0:0|0:0,0:0:0:0:
309,133,93261,2,0,L|258:142,2,40,2|0|0,0:0|0:0|0:0,0:0:0:0:
383,102,93730,1,8,0:0:0:0:
456,133,93964,1,2,0:0:0:0:
456,133,94081,1,0,0:0:0:0:
456,133,94199,6,0,L|451:218,1,80,0|0,1:0|0:0,0:0:0:0:
440,229,94550,2,0,L|435:359,1,120,8|0,0:0|0:0,0:0:0:0:
358,327,95136,1,2,0:0:0:0:
358,327,95253,1,0,0:0:0:0:
358,327,95370,1,0,0:0:0:0:
281,352,95605,2,0,P|224:357|180:340,1,80,10|2,0:0|0:0,0:0:0:0:
132,312,96074,5,0,1:0:0:0:
200,271,96308,2,0,L|193:223,2,40,2|0|8,0:0|0:0|0:0,0:0:0:0:
280,276,96777,1,0,0:0:0:0:
342,225,97011,6,0,L|336:178,3,40,0|2|0|0,0:0|0:0|0:0|0:0,0:0:0:0:
346,167,97480,1,10,0:0:0:0:
425,176,97714,1,0,0:0:0:0:
402,74,97949,6,0,P|369:47|303:49,1,80,2|0,1:2|0:0,0:0:0:0:
313,45,98300,1,0,0:0:0:0:
294,52,98417,1,8,0:0:0:0:
224,129,98652,2,0,L|231:172,2,40,2|0|2,0:0|0:0|0:0,0:0:0:0:
155,50,99120,1,2,0:0:0:0:
61,97,99355,6,0,P|51:142|57:197,1,80,8|2,0:0|0:0,0:0:0:0:
97,269,99824,2,0,L|281:276,1,160,0|8,1:0|0:0,0:0:0:0:
334,255,100527,1,0,0:0:0:0:
412,292,100761,2,0,L|501:273,2,80,0|8|0,0:0|0:0|0:0,0:0:0:0:
341,335,101464,1,10,0:0:0:0:
266,304,101699,5,0,1:0:0:0:
188,322,101933,2,0,L|183:361,2,40,0|0|8,0:0|0:0|0:0,0:0:0:0:
117,283,102402,1,0,0:0:0:0:
196,239,102636,6,0,P|210:192|184:46,1,180.000006866455,2|2,0:0|0:0,0:0:0:0:
22,159,103574,6,0,P|16:208|37:266,1,80,4|0,0:0|0:0,0:0:0:0:
111,276,104042,1,8,0:0:0:0:
196,239,104277,2,0,L|200:191,2,40,0|0|2,0:0|0:0|0:0,0:0:0:0:
274,296,104745,1,0,0:0:0:0:
362,258,104980,2,0,P|369:215|363:176,1,80,8|2,0:0|0:0,0:0:0:0:
313,98,105449,6,0,L|186:94,1,120,0|0,1:0|1:0,0:0:0:0:
157,112,105917,2,0,P|134:160|136:200,1,80,10|0,0:0|0:0,0:0:0:0:
131,34,106386,1,8,0:3:0:0:
115,30,106855,1,4,0:3:0:0:
100,26,107324,6,0,P|69:75|71:202,1,160,4|8,0:0|0:0,0:0:0:0:
24,245,108027,2,0,P|84:154|148:129,1,160,0|0,0:0|0:0,0:0:0:0:
205,149,108730,2,0,L|313:156,1,80,10|2,0:0|0:0,0:0:0:0:
357,189,109199,5,0,0:0:0:0:
416,135,109433,1,0,0:0:0:0:
485,174,109667,2,0,P|506:229|491:293,2,120,8|8|0,0:0|0:0|0:0,0:0:0:0:
343,112,110605,2,0,L|249:108,1,80,8|2,0:0|0:0,0:0:0:0:
188,79,111074,5,2,0:0:0:0:
251,30,111308,1,0,0:0:0:0:
194,165,111542,2,0,L|100:161,1,80,10|0,0:0|0:0,0:0:0:0:
54,108,112011,2,2,P|49:65|61:18,2,80,2|0|8,0:0|0:0|0:0,0:0:0:0:
42,187,112714,6,0,P|51:241|26:358,1,160,2|0,0:0|0:0,0:0:0:0:
139,311,113417,2,0,P|205:298|255:306,1,80,10|0,0:0|0:0,0:0:0:0:
237,299,113769,2,0,P|304:306|358:299,1,120,8|0,0:0|0:0,0:0:0:0:
445,246,114355,1,4,0:3:0:0:
445,246,114824,6,0,P|424:193|429:84,1,160,4|8,0:0|0:0,0:0:0:0:
462,20,115527,2,0,P|406:107|328:127,1,160,0|0,0:0|0:0,0:0:0:0:
253,144,116230,2,2,L|166:133,1,80,10|2,0:0|0:0,0:0:0:0:
93,128,116699,5,0,0:0:0:0:
18,157,116933,1,0,0:0:0:0:
81,205,117167,2,0,L|214:222,2,120,8|8|0,0:0|0:0|0:0,0:0:0:0:
6,235,118105,2,0,P|-2:282|9:331,1,80,8|0,0:0|0:0,0:0:0:0:
78,345,118574,5,2,0:0:0:0:
153,312,118808,1,0,0:0:0:0:
235,337,119042,2,0,P|285:307|297:277,1,80,10|0,0:0|0:0,0:0:0:0:
188,177,119511,2,2,P|152:200|131:233,1,80,0|2,0:0|0:0,0:0:0:0:
216,259,119980,1,8,0:0:0:0:
273,202,120214,6,0,P|261:126|194:71,1,160,2|0,0:0|0:0,0:0:0:0:
349,134,120917,2,0,P|420:159|443:152,1,80,8|0,0:0|0:0,0:0:0:0:
441,155,121269,2,0,P|484:107|469:36,1,120
410,84,121855,1,10,0:0:0:0:
410,84,122324,5,4,0:0:0:0:
333,108,122558,2,0,L|244:114,1,80,2|8,0:0|0:0,0:0:0:0:
189,65,123027,2,0,L|24:36,1,160,2|0,0:0|0:0,0:0:0:0:
2,112,123730,1,10,0:0:0:0:
28,187,123964,1,2,0:0:0:0:
7,264,124199,6,0,P|59:262|89:229,1,80,2|0,0:0|0:0,0:0:0:0:
79,245,124550,1,0,0:0:0:0:
79,245,124667,1,8,0:0:0:0:
152,212,124902,1,0,0:0:0:0:
227,238,125136,2,0,P|266:242|302:227,2,80,8|0|10,0:0|0:0|0:0,0:0:0:0:
323,241,126074,6,0,P|286:256|247:251,1,80,2|0,0:0|0:0,0:0:0:0:
393,295,126542,2,0,P|424:319|440:355,1,80,8|0,0:0|0:0,0:0:0:0:
405,212,127011,2,0,P|404:180|408:162,2,40,8|0|0,0:0|0:0|0:0,0:0:0:0:
494,167,127480,2,0,P|497:116|486:72,1,80,8|0,0:0|0:0,0:0:0:0:
423,45,127949,5,0,0:0:0:0:
351,80,128183,2,0,L|347:125,2,40,0|0|8,0:0|0:0|0:0,0:0:0:0:
270,82,128652,2,0,L|261:38,2,40,0|0|8,0:0|0:0|0:0,0:0:0:0:
194,107,129120,2,0,B|154:106|116:121|116:121|83:103|29:104,1,160,2|2,0:0|0:0,0:0:0:0:
13,180,129824,5,4,0:0:0:0:
64,241,130058,2,0,P|111:253|157:239,1,80,2|8,0:0|0:0,0:0:0:0:
201,299,130527,2,0,P|267:270|355:296,1,160,2|0,0:0|0:0,0:0:0:0:
396,356,131230,1,10,0:0:0:0:
470,326,131464,1,2,0:0:0:0:
418,264,131699,6,0,P|412:206|422:175,1,80,2|0,0:0|0:0,0:0:0:0:
417,185,132050,1,0,0:0:0:0:
417,185,132167,1,8,0:0:0:0:
461,119,132402,1,0,0:0:0:0:
389,83,132636,2,0,P|383:25|393:-6,2,80,8|0|10,0:0|0:0|0:0,0:0:0:0:
389,83,133574,6,0,P|381:36|360:2,1,80,2|0,0:0|0:0,0:0:0:0:
341,169,134042,2,0,P|385:185|425:184,1,80,8|0,0:0|0:0,0:0:0:0:
291,87,134511,2,0,P|261:84|240:87,2,40,8|0|0,0:0|0:0|0:0,0:0:0:0:
250,173,134980,2,0,L|145:165,1,80,8|0,0:0|0:0,0:0:0:0:
90,155,135449,5,0,0:0:0:0:
34,97,135683,2,2,P|35:43|51:12,1,80,0|10,2:1|0:0,0:0:0:0:
78,235,136152,2,2,P|77:289|61:320,1,80,0|2,2:1|0:0,0:0:0:0:
162,117,136620,1,0,0:0:0:0:
90,155,136855,1,10,0:0:0:0:
90,155,137324,5,4,0:0:0:0:
72,160,152324,6,0,P|124:156|216:68,1,180.000006866455,4|0,0:0|0:0,0:0:0:0:
215,73,153495,1,0,0:0:0:0:
255,173,153730,2,0,P|305:168|336:177,1,60.0000022888184,8|0,0:0|0:0,0:0:0:0:
392,224,154199,6,0,B|406:266|400:335|400:335|429:313|439:278,1,180.000006866455,0|0,0:0|0:0,0:0:0:0:
438,280,155370,1,0,0:0:0:0:
309,292,155605,2,0,L|223:290,1,60.0000022888184,8|0,0:0|0:0,0:0:0:0:
163,247,156074,6,0,B|114:241|84:261|84:261|51:235|43:200|56:157,1,180.000006866455,4|0,0:0|0:0,0:0:0:0:
51,173,157245,1,0,0:0:0:0:
152,86,157480,2,0,L|228:92,1,60.0000022888184,8|0,0:0|0:0,0:0:0:0:
294,141,157949,6,0,P|330:147|391:130,2,90.0000034332277,0|0|0,0:0|0:0|0:0,0:0:0:0:
214,175,158886,2,0,P|151:185|103:240,1,120.000004577637,8|8,0:0|0:0,0:0:0:0:
124,320,159589,1,8,0:0:0:0:
216,287,159824,6,0,L|407:302,1,180.000006866455,4|0,0:0|0:0,0:0:0:0:
395,301,160995,1,0,0:0:0:0:
363,184,161230,2,0,P|361:147|368:105,1,60.0000022888184,8|0,0:0|0:0,0:0:0:0:
439,76,161699,6,0,P|362:121|278:80,1,180.000006866455,0|0,0:0|0:0,0:0:0:0:
218,144,162636,2,0,P|158:134|82:172,1,120.000004577637,0|8,0:0|0:0,0:0:0:0:
54,240,163339,1,0,0:0:0:0:
107,322,163574,6,0,B|150:344|196:315|196:315|245:283|295:330,1,180.000006866455,4|0,0:0|0:0,0:0:0:0:
360,350,164511,2,0,P|409:357|474:312,1,120.000004577637,0|8,0:0|0:0,0:0:0:0:
489,229,165214,1,0,0:0:0:0:
500,134,165449,6,0,L|492:32,2,90.0000034332277,0|0|0,0:0|0:0|0:0,0:0:0:0:
416,166,166386,2,0,B|374:162|330:186|330:186|283:162|227:174,1,180.000006866455,2|0,2:0|2:0,0:0:0:0:
167,200,167324,5,0,0:0:0:0:
99,157,167558,2,0,P|95:108|103:69,1,80,0|8,0:0|0:0,0:0:0:0:
172,43,168027,2,0,L|344:56,1,160,0|0,0:0|0:0,0:0:0:0:
409,75,168730,1,10,0:0:0:0:
487,62,168964,1,2,0:0:0:0:
461,137,169199,6,0,P|452:183|454:240,1,80,2|0,0:0|0:0,0:0:0:0:
451,216,169550,1,0,0:0:0:0:
451,216,169667,1,8,0:0:0:0:
400,277,169902,1,0,0:0:0:0:
340,223,170136,2,0,P|338:183|330:143,2,80,8|0|10,0:0|0:0|0:0,0:0:0:0:
340,223,171074,5,2,0:0:0:0:
285,281,171308,2,0,P|209:298|139:255,1,160,0|0,0:0|0:0,0:0:0:0:
94,193,172011,2,0,L|80:106,1,80,0|0,0:0|0:0,0:0:0:0:
201,31,172480,2,0,L|190:121,1,80,8|0,0:0|0:0,0:0:0:0:
273,194,172949,6,0,P|349:217|419:168,2,160,2|10|2,0:0|0:0|0:0,0:0:0:0:
337,127,174120,1,0,0:0:0:0:
348,301,174355,1,10,0:0:0:0:
352,306,174824,5,4,0:0:0:0:
278,337,175058,2,0,P|222:333|194:342,1,80,0|8,0:0|0:0,0:0:0:0:
147,278,175527,2,0,B|99:295|59:289|59:289|81:238|57:187,1,160,0|0,0:0|0:0,0:0:0:0:
11,163,176230,1,10,0:0:0:0:
43,90,176464,1,2,0:0:0:0:
122,97,176699,6,0,L|216:101,1,80,2|0,0:0|0:0,0:0:0:0:
201,100,177050,1,0,0:0:0:0:
201,100,177167,1,8,0:0:0:0:
264,150,177402,1,0,0:0:0:0:
331,106,177636,2,0,L|425:110,2,80,8|0|10,0:0|0:0|0:0,0:0:0:0:
331,106,178574,5,2,0:0:0:0:
186,175,178808,2,0,P|175:228|182:276,1,80,8|0,0:0|0:0,0:0:0:0:
101,281,179277,2,0,P|60:244|15:227,1,80,8|0,0:0|0:0,0:0:0:0:
45,154,179745,2,0,P|96:137|134:106,1,80,8|0,0:0|0:0,0:0:0:0:
174,65,180214,1,0,0:0:0:0:
251,86,180449,5,2,0:0:0:0:
315,132,180683,2,2,P|327:191|325:229,1,80,0|10,0:0|0:0,0:0:0:0:
410,117,181152,2,2,P|411:77|421:38,1,80,0|10,0:0|0:0,0:0:0:0:
492,162,181620,1,0,0:0:0:0:
480,241,181855,1,10,0:0:0:0:
332,304,182324,5,4,0:0:0:0:
252,311,182558,2,0,P|204:305|166:313,1,80,2|10,0:0|0:0,0:0:0:0:
97,283,183027,2,0,P|126:244|139:104,1,160,2|2,0:0|0:0,0:0:0:0:
148,56,183730,1,10,0:0:0:0:
69,38,183964,6,2,P|39:76|27:217,1,160
74,240,184667,1,8,0:0:0:0:
154,236,184902,2,2,B|196:225|230:247|230:247|271:221|340:248,1,160
385,258,185605,1,8,0:0:0:0:
386,258,186074,6,0,P|376:308|380:351,1,80
455,354,186542,1,8,0:0:0:0:
467,242,186777,2,2,P|436:191|322:206,1,160
292,248,187480,1,10,0:0:0:0:
241,309,187714,6,0,P|161:317|115:252,1,160,2|2,0:0|0:0,0:0:0:0:
125,179,188417,1,8,0:0:0:0:
196,246,188652,1,0,0:0:0:0:
196,246,188769,1,0,0:0:0:0:
53,338,189003,1,8,0:0:0:0:
53,338,189120,1,0,0:0:0:0:
16,247,189355,1,8,0:0:0:0:
16,247,189824,5,4,0:0:0:0:
30,168,190058,2,0,P|81:167|118:182,1,80,2|10,0:0|0:0,0:0:0:0:
178,214,190527,2,0,P|235:240|343:227,1,160,2|2,0:0|0:0,0:0:0:0:
400,194,191230,1,10,0:0:0:0:
437,114,191464,2,2,B|395:100|358:116|358:116|322:92|256:98,1,160
211,59,192167,1,8,0:0:0:0:
139,94,192402,2,2,P|117:169|140:245,1,160
188,309,193105,1,8,0:0:0:0:
188,309,193574,6,0,P|228:287|271:285,1,80,2|2,0:0|0:2,0:0:0:0:
300,213,194042,2,0,P|333:244|348:284,1,80,8|0,0:0|0:0,0:0:0:0:
426,285,194511,2,0,P|406:326|387:346,2,40,8|0|0,0:0|0:0|0:0,0:0:0:0:
482,228,194980,2,0,L|495:129,1,80,8|0,0:0|0:0,0:0:0:0:
442,85,195449,5,2,0:0:0:0:
370,121,195683,2,0,P|359:166|359:211,1,80,0|10,0:0|0:0,0:0:0:0:
277,112,196152,2,0,P|275:72|264:33,1,80,0|10,0:0|0:0,0:0:0:0:
214,186,196620,1,0,0:0:0:0:
96,150,196855,5,4,0:0:0:0:
