osu file format v14

[General]
AudioFilename: audio.mp3
AudioLeadIn: 0
PreviewTime: -1
Countdown: 0
SampleSet: Normal
StackLeniency: 0.7
Mode: 0
LetterboxInBreaks: 0
WidescreenStoryboard: 0

[Editor]
Bookmarks: 10352,35495,50352,65209,85781,104067,104852,126924,136067,152067,164638,182924
DistanceSpacing: 0.5
BeatDivisor: 4
GridSize: 4
TimelineZoom: 1.5

[Metadata]
Title:Victims Of Contingency
TitleUnicode:Victims Of Contingency
Artist:Epica
ArtistUnicode:Epica
Creator:Moonlit
Version:The Shadow Of Fate
Source:
Tags:
BeatmapID:1368942
BeatmapSetID:646045

[Difficulty]
HPDrainRate:6
CircleSize:4.4
OverallDifficulty:9.5
ApproachRate:9.8
SliderMultiplier:2
SliderTickRate:1

[Events]
//Background and Video events
//Break Periods
//Storyboard Layer 0 (Background)
//Storyboard Layer 1 (Fail)
//Storyboard Layer 2 (Pass)
//Storyboard Layer 3 (Foreground)
//Storyboard Sound Samples

[TimingPoints]
67,285.714285714286,4,1,0,70,1,0
16638,-142.857142857143,4,1,0,70,0,0
17209,-100,4,1,0,70,0,0
23495,-142.857142857143,4,1,0,70,0,0
24067,-100,4,1,0,70,0,0
25924,-142.857142857143,4,1,0,70,0,0
26352,-100,4,1,0,70,0,0
30924,-83.3333333333333,4,1,0,70,0,0
35495,-100,4,1,0,70,0,0
40067,-83.3333333333333,4,1,0,70,0,0
44924,-125,4,1,0,70,0,0
46067,-100,4,1,0,70,0,0
46924,-90.9090909090909,4,1,0,70,0,0
50352,-83.3333333333333,4,1,0,70,0,0
53781,-90.9090909090909,4,1,0,70,0,0
57209,-83.3333333333333,4,1,0,70,0,0
65209,-90.9090909090909,4,1,0,70,0,0
72924,-83.3333333333333,4,1,0,70,0,0
74638,-90.9090909090909,4,1,0,70,0,0
84638,-125,4,1,0,70,0,0
85781,-90.9090909090909,4,1,0,70,0,0
89209,-83.3333333333333,4,1,0,70,0,0
92638,-90.9090909090909,4,1,0,70,0,0
96067,-83.3333333333333,4,1,0,70,0,0
104352,-71.4285714285714,4,1,0,70,0,0
106352,-90.9090909090909,4,1,0,70,0,0
114067,-83.3333333333333,4,1,0,70,0,0
115638,-90.9090909090909,4,1,0,70,0,0
125781,-125,4,1,0,70,0,0
126924,-100,4,1,0,60,0,0
136067,-125,4,1,0,60,0,0
143781,-90.9090909090909,4,1,0,70,0,0
153209,-200,4,1,0,30,0,0
156638,-142.857142857143,4,1,0,30,0,0
157781,-200,4,1,0,30,0,0
160067,-125,4,1,0,50,0,0
161209,-90.9090909090909,4,1,0,70,0,0
164638,-90.9090909090909,4,1,0,70,0,0
182924,-76.9230769230769,4,1,0,70,0,0
203495,-90.9090909090909,4,1,0,70,0,0

[Colours]
Combo1 : 245,90,156
Combo2 : 188,34,221

[HitObjects]
256,192,6924,12,0,10209,0:0:0:0:
181,128,10352,5,0,0:0:0:0:
187,167,10423,1,0,0:0:0:0:
194,206,10494,1,0,0:0:0:0:
201,246,10566,1,0,0:0:0:0:
208,285,10637,1,0,0:0:0:0:
410,344,10781,1,0,0:0:0:0:
410,344,10852,1,0,0:0:0:0:
410,344,10924,1,8,0:0:0:0:
309,175,11067,1,0,0:0:0:0:
312,218,11139,1,0,0:0:0:0:
319,257,11210,1,0,0:0:0:0:
319,257,11495,5,0,0:0:0:0:
282,271,11566,1,0,0:0:0:0:
242,271,11637,1,0,0:0:0:0:
205,256,11709,1,0,0:0:0:0:
175,230,11781,1,0,0:0:0:0:
138,216,11852,1,0,0:0:0:0:
98,216,11923,1,0,0:0:0:0:
61,231,11995,1,0,0:0:0:0:
32,258,12066,1,8,0:0:0:0:
39,278,12638,5,0,0:0:0:0:
25,241,12709,1,0,0:0:0:0:
25,201,12780,1,0,0:0:0:0:
40,164,12852,1,0,0:0:0:0:
67,135,12923,1,0,0:0:0:0:
142,231,13067,1,0,0:0:0:0:
142,231,13138,1,0,0:0:0:0:
142,231,13210,1,8,0:0:0:0:
220,145,13352,1,0,0:0:0:0:
213,105,13423,1,0,0:0:0:0:
208,65,13494,1,0,0:0:0:0:
457,78,13781,5,0,0:0:0:0:
426,103,13852,1,0,0:0:0:0:
388,115,13923,1,0,0:0:0:0:
349,113,13995,1,0,0:0:0:0:
313,93,14066,1,0,0:0:0:0:
230,263,14209,1,0,0:0:0:0:
230,263,14281,1,0,0:0:0:0:
230,263,14352,2,0,P|251:249|276:242,1,50,8|0,0:0|0:0,0:0:0:0:
412,260,14495,1,0,0:0:0:0:
412,260,14567,1,0,0:0:0:0:
412,260,14638,1,0,0:0:0:0:
412,260,14924,5,0,0:0:0:0:
374,247,14995,1,0,0:0:0:0:
341,224,15066,1,0,0:0:0:0:
318,192,15138,1,0,0:0:0:0:
306,154,15209,1,0,0:0:0:0:
306,114,15281,1,0,0:0:0:0:
319,76,15352,1,0,0:0:0:0:
343,44,15423,1,0,0:0:0:0:
376,22,15495,5,8,0:0:0:0:
376,22,15781,1,8,0:0:0:0:
329,319,15924,1,8,0:0:0:0:
327,318,16638,2,0,B|295:309|268:308|268:308|245:297|232:272|232:272|207:255|179:256|179:256|161:237|161:237|140:251|102:246,1,244.999992523194,12|0,0:0|2:0,0:0:0:0:
84,199,17209,5,0,0:0:0:0:
89,159,17280,1,0,0:0:0:0:
121,136,17351,1,0,0:0:0:0:
161,134,17423,1,0,0:0:0:0:
189,162,17495,1,0,0:0:0:0:
333,176,17637,1,0,0:0:0:0:
357,145,17709,1,0,0:0:0:0:
350,106,17781,1,8,0:0:0:0:
200,30,17924,1,0,0:0:0:0:
240,28,17996,1,0,0:0:0:0:
268,56,18068,1,0,0:0:0:0:
268,56,18352,5,0,0:0:0:0:
265,95,18423,1,0,0:0:0:0:
262,135,18494,1,0,0:0:0:0:
259,175,18566,1,0,0:0:0:0:
257,215,18638,1,0,0:0:0:0:
254,254,18709,1,0,0:0:0:0:
251,294,18780,1,0,0:0:0:0:
248,334,18852,1,0,0:0:0:0:
246,374,18924,1,8,0:0:0:0:
42,162,19495,5,0,0:0:0:0:
82,160,19567,1,0,0:0:0:0:
122,157,19639,1,0,0:0:0:0:
162,154,19710,1,0,0:0:0:0:
201,151,19781,1,0,0:0:0:0:
132,265,19924,1,0,0:0:0:0:
132,265,19995,1,0,0:0:0:0:
132,265,20066,1,8,0:0:0:0:
306,235,20209,1,0,0:0:0:0:
267,238,20280,1,0,0:0:0:0:
227,241,20351,1,0,0:0:0:0:
227,241,20638,5,0,0:0:0:0:
221,202,20709,1,0,0:0:0:0:
231,163,20780,1,0,0:0:0:0:
254,130,20852,1,0,0:0:0:0:
286,108,20923,1,0,0:0:0:0:
184,24,21067,1,0,0:0:0:0:
184,24,21138,1,0,0:0:0:0:
184,24,21209,1,8,0:0:0:0:
133,144,21352,1,0,0:0:0:0:
98,164,21423,1,0,0:0:0:0:
67,187,21494,1,0,0:0:0:0:
67,187,21781,5,0,0:0:0:0:
96,213,21852,1,0,0:0:0:0:
133,227,21923,1,0,0:0:0:0:
173,226,21995,1,0,0:0:0:0:
211,213,22067,1,0,0:0:0:0:
250,213,22138,1,0,0:0:0:0:
288,227,22209,1,0,0:0:0:0:
317,255,22281,1,0,0:0:0:0:
334,290,22352,1,8,0:0:0:0:
334,290,22638,5,8,0:0:0:0:
257,24,22781,1,8,0:0:0:0:
257,24,23495,2,0,B|259:59|259:59|251:86|251:86|261:112|261:112|257:153|234:179|234:179|186:161|147:169,1,244.999992523194,12|0,0:0|2:0,0:0:0:0:
177,252,24067,5,0,0:0:0:0:
217,257,24138,1,0,0:0:0:0:
257,262,24209,1,0,0:0:0:0:
296,268,24281,1,0,0:0:0:0:
336,273,24352,1,0,0:0:0:0:
376,279,24424,1,0,0:0:0:0:
415,284,24495,1,0,0:0:0:0:
455,290,24567,1,0,0:0:0:0:
495,295,24638,1,8,0:0:0:0:
133,322,24924,5,8,0:0:0:0:
474,254,25067,1,8,0:0:0:0:
444,32,25352,6,0,B|427:68|427:68|432:92|432:92|416:133,1,100,8|0,0:0|0:0,0:0:0:0:
227,291,25638,2,0,B|203:257|203:257|181:250|181:250|153:216,1,100,8|0,0:0|0:0,0:0:0:0:
316,215,25924,2,0,B|346:192|329:149|329:149|347:125|347:125|328:82|328:82|322:99|311:114,1,174.999994659424,12|0,0:0|2:0,0:0:0:0:
246,53,26352,5,0,0:0:0:0:
237,81,26423,1,0,0:0:0:0:
218,104,26494,1,0,0:0:0:0:
192,119,26566,1,0,0:0:0:0:
163,125,26637,1,0,0:0:0:0:
134,119,26709,1,0,0:0:0:0:
108,103,26780,1,0,0:0:0:0:
90,80,26852,1,0,0:0:0:0:
73,43,26924,5,0,0:0:0:0:
111,55,26995,1,0,0:0:0:0:
142,80,27066,1,0,0:0:0:0:
163,114,27138,1,0,0:0:0:0:
169,153,27209,1,0,0:0:0:0:
161,193,27281,1,0,0:0:0:0:
141,227,27352,1,0,0:0:0:0:
109,251,27424,1,0,0:0:0:0:
74,215,27495,5,0,0:0:0:0:
123,211,27566,1,0,0:0:0:0:
173,207,27637,1,0,0:0:0:0:
223,203,27709,1,0,0:0:0:0:
256,165,27781,5,0,0:0:0:0:
284,206,27852,1,0,0:0:0:0:
313,247,27923,1,0,0:0:0:0:
341,289,27995,1,0,0:0:0:0:
374,326,28067,5,0,0:0:0:0:
396,281,28138,1,0,0:0:0:0:
417,236,28209,1,0,0:0:0:0:
439,190,28281,1,0,0:0:0:0:
457,150,28352,5,0,0:0:0:0:
407,153,28423,1,0,0:0:0:0:
358,157,28494,1,0,0:0:0:0:
307,161,28566,1,0,0:0:0:0:
256,165,28638,5,0,0:0:0:0:
228,175,28709,1,0,0:0:0:0:
198,174,28780,1,0,0:0:0:0:
170,162,28852,1,0,0:0:0:0:
150,141,28923,1,0,0:0:0:0:
138,113,28995,1,0,0:0:0:0:
137,83,29066,1,0,0:0:0:0:
147,55,29138,1,0,0:0:0:0:
167,33,29209,5,0,0:0:0:0:
198,57,29280,1,0,0:0:0:0:
233,76,29351,1,0,0:0:0:0:
271,88,29423,1,0,0:0:0:0:
311,92,29494,1,0,0:0:0:0:
351,89,29566,1,0,0:0:0:0:
390,79,29637,1,0,0:0:0:0:
426,62,29709,1,0,0:0:0:0:
458,39,29781,5,0,0:0:0:0:
411,22,29853,1,0,0:0:0:0:
362,27,29924,1,0,0:0:0:0:
318,51,29996,1,0,0:0:0:0:
289,91,30067,1,0,0:0:0:0:
278,139,30139,1,0,0:0:0:0:
288,188,30210,1,0,0:0:0:0:
318,228,30282,1,0,0:0:0:0:
362,248,30352,1,8,0:3:0:0:
168,307,30495,1,8,0:3:0:0:
197,65,30638,2,0,B|203:118|203:118|192:134|189:163,1,100,4|0,0:3|2:0,0:0:0:0:
88,42,30924,5,4,0:0:0:0:
88,42,30995,1,0,0:0:0:0:
88,42,31067,2,0,L|93:116,1,59.9999981689454
280,303,31209,2,0,P|276:249|299:168,1,119.999996337891
307,91,31424,1,0,0:0:0:0:
312,113,31495,1,8,0:0:0:0:
166,214,31638,1,0,0:0:0:0:
166,214,31709,1,0,0:0:0:0:
166,214,31781,1,0,0:0:0:0:
269,349,31924,1,0,0:0:0:0:
378,332,32067,6,0,P|376:300|363:261,1,59.9999981689454
233,167,32209,1,0,0:0:0:0:
233,167,32281,1,0,0:0:0:0:
233,167,32352,2,0,P|235:135|248:96,1,59.9999981689454
465,191,32495,2,0,P|440:169|404:151,1,59.9999981689454
179,262,32638,1,8,0:0:0:0:
347,76,32781,1,0,2:0:0:0:
151,25,32924,1,0,2:0:0:0:
289,239,33067,1,0,2:0:0:0:
94,159,33209,5,0,0:0:0:0:
94,159,33281,1,0,0:0:0:0:
94,159,33352,2,0,L|158:138,1,59.9999981689454
295,338,33495,2,0,B|316:283|316:283|300:223,1,119.999996337891
270,131,33709,1,0,0:0:0:0:
265,154,33781,1,8,0:0:0:0:
416,286,33924,1,0,0:0:0:0:
421,263,33996,1,0,0:0:0:0:
426,240,34067,1,0,0:0:0:0:
334,31,34209,1,0,2:0:0:0:
458,141,34352,6,0,P|428:145|399:136,1,59.9999981689454
300,223,34495,1,0,0:0:0:0:
300,223,34567,1,0,0:0:0:0:
300,223,34638,2,0,P|275:205|246:198,1,59.9999981689454
173,71,34781,2,0,P|200:59|220:37,1,59.9999981689454
301,114,34924,1,8,0:0:0:0:
121,200,35067,2,0,P|117:229|126:258,1,59.9999981689454
236,298,35209,1,0,0:0:0:0:
237,252,35495,5,0,0:0:0:0:
244,223,35566,1,0,0:0:0:0:
259,196,35637,1,0,0:0:0:0:
279,175,35709,1,0,0:0:0:0:
305,159,35780,1,0,0:0:0:0:
334,151,35852,1,0,0:0:0:0:
363,150,35923,1,0,0:0:0:0:
393,157,35995,1,0,0:0:0:0:
419,171,36066,5,8,0:0:0:0:
382,187,36138,1,0,0:0:0:0:
343,194,36209,1,0,0:0:0:0:
303,189,36281,1,0,0:0:0:0:
267,174,36352,1,0,0:0:0:0:
235,149,36424,1,0,0:0:0:0:
212,117,36495,1,0,0:0:0:0:
199,79,36567,1,0,0:0:0:0:
196,39,36638,5,0,0:0:0:0:
244,50,36709,1,0,0:0:0:0:
293,61,36780,1,0,0:0:0:0:
342,72,36852,1,0,0:0:0:0:
391,83,36924,5,0,0:0:0:0:
342,94,36995,1,0,0:0:0:0:
293,105,37066,1,0,0:0:0:0:
244,116,37138,1,0,0:0:0:0:
196,127,37210,5,0,0:0:0:0:
240,150,37281,1,0,0:0:0:0:
284,173,37352,1,0,0:0:0:0:
329,196,37424,1,0,0:0:0:0:
372,220,37496,5,8,0:0:0:0:
335,254,37567,1,0,0:0:0:0:
298,287,37638,1,0,0:0:0:0:
261,321,37710,1,0,0:0:0:0:
226,356,37781,5,0,0:0:0:0:
218,327,37852,1,0,0:0:0:0:
203,300,37923,1,0,0:0:0:0:
184,278,37995,1,0,0:0:0:0:
159,260,38066,1,0,0:0:0:0:
132,249,38138,1,0,0:0:0:0:
102,244,38209,1,0,0:0:0:0:
72,246,38281,1,0,0:0:0:0:
43,255,38352,5,0,0:0:0:0:
80,270,38423,1,0,0:0:0:0:
120,272,38494,1,0,0:0:0:0:
159,262,38566,1,0,0:0:0:0:
192,240,38637,1,0,0:0:0:0:
216,208,38709,1,0,0:0:0:0:
230,171,38780,1,0,0:0:0:0:
231,131,38852,1,0,0:0:0:0:
219,93,38924,5,0,0:0:0:0:
264,72,38995,1,0,0:0:0:0:
314,69,39066,1,0,0:0:0:0:
361,83,39138,1,0,0:0:0:0:
401,113,39209,1,0,0:0:0:0:
428,155,39281,1,0,0:0:0:0:
439,203,39352,1,0,0:0:0:0:
432,252,39424,1,0,0:0:0:0:
408,296,39495,1,0,0:0:0:0:
63,185,39638,1,0,0:0:0:0:
63,185,39709,1,0,0:0:0:0:
63,185,39781,2,0,B|94:178|111:167|111:167|139:170|171:167,1,100
331,321,40067,5,0,0:0:0:0:
336,291,40138,1,0,0:0:0:0:
339,261,40209,1,0,0:0:0:0:
305,57,40352,2,0,L|245:63,1,59.9999981689454
226,201,40495,1,0,0:0:0:0:
457,82,40638,1,0,0:0:0:0:
480,296,40781,2,0,L|463:225,1,59.9999981689454
411,348,40924,1,0,0:0:0:0:
359,153,41067,1,0,0:0:0:0:
246,321,41209,5,0,0:0:0:0:
67,222,41352,1,0,0:0:0:0:
285,77,41495,1,0,0:0:0:0:
285,77,41567,1,0,0:0:0:0:
285,77,41638,1,0,0:0:0:0:
338,273,41781,5,8,0:0:0:0:
189,223,41924,1,0,0:0:0:0:
193,18,42067,1,0,0:0:0:0:
383,135,42210,1,0,0:0:0:0:
119,62,42352,5,8,0:0:0:0:
65,88,42423,1,0,0:0:0:0:
32,137,42494,1,0,0:0:0:0:
29,196,42566,1,0,0:0:0:0:
56,249,42638,5,8,0:0:0:0:
106,216,42709,1,0,0:0:0:0:
165,212,42780,1,0,0:0:0:0:
218,238,42852,1,0,0:0:0:0:
250,288,42924,2,0,P|262:320|260:347,1,59.9999981689454
153,318,43067,5,0,0:0:0:0:
210,303,43138,1,0,0:0:0:0:
268,288,43209,1,0,0:0:0:0:
327,272,43281,1,0,0:0:0:0:
385,258,43352,2,0,L|400:191,1,59.9999981689454
64,343,43495,1,8,0:0:0:0:
250,125,43888,6,0,B|243:92|243:92|226:61,2,59.9999981689454
227,151,44067,6,0,B|155:187|162:252|162:252|201:286|274:269|274:269|295:296|326:306|326:306|357:307|390:320,1,359.999989013672
478,16,44638,6,0,B|493:80|493:80|469:128,1,119.999996337891
457,268,44924,2,0,P|430:238|395:220,1,80
213,345,45209,1,0,0:0:0:0:
304,333,45352,2,0,L|225:317,1,80
177,63,45638,1,0,0:0:0:0:
126,140,45781,2,0,L|149:63,1,80
381,157,46067,6,0,P|398:228|423:303,1,150,0|0,0:0|2:0,0:0:0:0:
262,98,46352,2,0,P|245:161|220:244,1,150,0|0,0:0|2:0,0:0:0:0:
275,299,46638,2,0,P|201:325|153:279,1,150,0|0,0:0|2:0,0:0:0:0:
110,38,46924,6,0,L|128:147,1,110.000003356934
363,23,47209,1,0,0:0:0:0:
355,256,47352,1,0,0:0:0:0:
230,13,47495,1,0,0:0:0:0:
150,161,47638,1,0,0:0:0:0:
363,23,47781,1,0,0:0:0:0:
469,147,47924,1,0,0:0:0:0:
332,206,48067,6,0,P|296:164|244:150,1,110.000003356934
161,359,48352,1,0,0:0:0:0:
395,325,48495,2,0,B|382:283|394:248|394:248|375:199|375:199|399:164|373:112,1,220.000006713867
284,353,48924,1,0,0:0:0:0:
486,290,49067,1,0,0:0:0:0:
286,78,49209,6,0,L|274:200,1,110.000003356934
144,122,49495,1,0,0:0:0:0:
141,353,49638,2,0,B|192:322|245:331|245:331|270:311|270:311|304:302,1,165.000005035401
348,221,49924,2,0,L|395:265,1,55.0000016784668
471,251,50067,1,0,0:0:0:0:
386,87,50209,1,0,0:0:0:0:
409,338,50352,5,0,0:0:0:0:
478,146,50495,1,0,0:0:0:0:
277,185,50638,2,0,P|216:168|196:96,1,119.999996337891
394,222,50924,5,0,0:0:0:0:
394,222,50995,1,0,0:0:0:0:
394,222,51067,1,0,0:0:0:0:
511,62,51209,2,0,B|461:60|424:76|424:76|398:121|340:138,1,179.999994506836
277,185,51495,5,0,0:0:0:0:
434,315,51638,1,0,0:0:0:0:
230,295,51781,2,0,L|347:270,1,119.999996337891
512,104,52067,5,0,0:0:0:0:
427,327,52209,1,0,0:0:0:0:
355,132,52352,1,0,0:0:0:0:
359,98,52638,5,0,0:0:0:0:
412,244,52781,1,0,0:0:0:0:
237,53,52924,1,0,0:0:0:0:
184,199,53067,1,0,0:0:0:0:
71,142,53209,1,0,0:0:0:0:
57,181,53280,1,0,0:0:0:0:
58,223,53351,1,0,0:0:0:0:
72,262,53423,1,0,0:0:0:0:
99,295,53494,1,0,0:0:0:0:
134,316,53566,1,0,0:0:0:0:
175,325,53637,1,0,0:0:0:0:
217,320,53709,1,0,0:0:0:0:
254,301,53781,6,0,P|314:299|363:320,1,110.000003356934
473,104,54067,1,0,0:0:0:0:
446,346,54209,1,0,0:0:0:0:
295,132,54352,1,0,0:0:0:0:
502,258,54494,1,0,0:0:0:0:
260,294,54638,1,0,0:0:0:0:
375,81,54781,1,0,0:0:0:0:
116,204,54924,6,0,L|102:90,1,110.000003356934
277,187,55209,1,0,0:0:0:0:
127,317,55352,1,0,0:0:0:0:
205,64,55495,1,0,0:0:0:0:
296,312,55638,1,0,0:0:0:0:
39,248,55781,1,0,0:0:0:0:
290,167,55924,1,0,0:0:0:0:
110,340,56067,6,0,L|239:363,1,110.000003356934
401,237,56352,1,0,0:0:0:0:
181,248,56495,1,0,0:0:0:0:
341,21,56638,1,0,0:0:0:0:
330,63,56709,1,0,0:0:0:0:
319,106,56780,1,0,0:0:0:0:
308,149,56852,1,0,0:0:0:0:
298,191,56923,1,0,0:0:0:0:
143,346,57067,1,0,0:0:0:0:
183,88,57209,5,0,0:0:0:0:
271,272,57352,1,0,0:0:0:0:
72,223,57495,2,0,B|77:297|130:308|130:308|164:283|211:278,1,179.999994506836
291,308,57781,5,0,0:0:0:0:
487,251,57924,1,0,0:0:0:0:
381,75,58067,2,0,B|375:131|375:131|342:155|320:120|320:120|341:66,1,179.999994506836
225,129,58352,5,0,0:0:0:0:
290,322,58495,1,0,0:0:0:0:
464,214,58638,2,0,P|488:160|487:101,1,119.999996337891
257,38,58924,5,0,0:0:0:0:
328,189,59067,1,0,0:0:0:0:
166,147,59209,2,0,B|86:149|86:149|46:171,1,119.999996337891
38,324,59495,5,0,0:0:0:0:
70,297,59566,1,0,0:0:0:0:
110,285,59637,1,0,0:0:0:0:
151,288,59709,1,0,0:0:0:0:
189,306,59782,1,0,0:0:0:0:
221,333,59853,1,0,0:0:0:0:
261,345,59924,1,0,0:0:0:0:
302,342,59996,1,0,0:0:0:0:
340,324,60067,1,0,0:0:0:0:
378,342,60138,1,0,0:0:0:0:
419,345,60210,1,0,0:0:0:0:
459,333,60281,1,0,0:0:0:0:
491,306,60353,1,0,0:0:0:0:
508,267,60424,1,0,0:0:0:0:
511,226,60496,1,0,0:0:0:0:
499,186,60567,1,0,0:0:0:0:
473,154,60638,6,0,L|457:88,1,59.9999981689454
357,161,60781,2,0,L|342:219,1,59.9999981689454
219,74,60924,2,0,L|277:59,1,59.9999981689454
212,190,61067,2,0,L|153:175,1,59.9999981689454
263,292,61209,2,0,L|278:351,3,59.9999981689454
127,304,61495,1,0,0:0:0:0:
127,304,61567,1,0,0:0:0:0:
127,304,61638,1,0,0:0:0:0:
127,304,61709,1,0,0:0:0:0:
126,304,61781,6,0,P|117:332|102:358,1,59.9999981689454
36,256,61924,2,0,P|16:233|1:207,1,59.9999981689454
121,190,62067,2,0,P|150:183|180:184,1,59.9999981689454
226,294,62209,2,0,P|254:284|280:269,1,59.9999981689454
257,50,62352,6,0,P|250:79|251:109,1,59.9999981689454
345,90,62495,2,0,P|354:118|369:144,1,59.9999981689454
493,55,62638,6,0,P|464:64|438:79,1,59.9999981689454
503,204,62781,2,0,P|502:174|509:145,1,59.9999981689454
419,242,62924,6,0,L|355:249,1,59.9999981689454
221,340,63067,2,0,L|281:334,1,59.9999981689454
369,144,63209,2,0,L|305:151,1,59.9999981689454
171,242,63352,2,0,L|230:235,1,59.9999981689454
217,53,63495,6,0,P|215:86|210:117,1,59.9999981689454
294,352,63638,2,0,P|295:322|300:292,1,59.9999981689454
143,159,63781,2,0,P|112:156|79:152,1,59.9999981689454
304,28,63924,2,0,P|335:28|363:34,1,59.9999981689454
398,295,64067,5,0,0:0:0:0:
401,265,64138,1,0,0:0:0:0:
405,235,64209,1,0,0:0:0:0:
409,205,64281,1,0,0:0:0:0:
412,175,64352,1,0,0:0:0:0:
416,146,64424,1,0,0:0:0:0:
420,116,64495,1,0,0:0:0:0:
423,86,64567,1,0,0:0:0:0:
427,56,64638,1,0,0:0:0:0:
427,56,65209,5,0,0:0:0:0:
500,240,65352,1,0,0:0:0:0:
307,190,65495,2,0,P|277:235|278:289,1,110.000003356934
509,124,65781,1,0,0:0:0:0:
367,262,65924,1,0,0:0:0:0:
285,81,66067,2,0,B|212:76|212:76|173:85,1,110.000003356934
76,337,66352,6,0,P|129:343|177:317,1,110.000003356934
323,172,66638,1,0,0:0:0:0:
42,137,66781,2,0,B|69:184|55:245|55:245|83:240|107:250|107:250|134:247|157:228,1,220.000006713867
332,332,67209,1,0,0:0:0:0:
222,167,67352,1,0,0:0:0:0:
419,27,67495,6,0,B|464:85|464:85|476:139,1,110.000003356934
301,225,67781,1,0,0:0:0:0:
312,71,67924,1,0,0:0:0:0:
418,237,68067,1,0,0:0:0:0:
243,327,68209,1,0,0:0:0:0:
215,130,68352,2,0,B|161:137|161:137|96:117,1,110.000003356934
295,53,68638,5,0,0:0:0:0:
338,47,68709,1,0,0:0:0:0:
380,57,68780,1,0,0:0:0:0:
416,83,68852,1,0,0:0:0:0:
439,120,68923,1,0,0:0:0:0:
448,162,68995,1,0,0:0:0:0:
440,205,69067,1,0,0:0:0:0:
396,203,69138,1,0,0:0:0:0:
353,212,69209,1,0,0:0:0:0:
323,241,69281,1,0,0:0:0:0:
294,274,69352,1,0,0:0:0:0:
254,256,69424,1,0,0:0:0:0:
210,249,69495,1,0,0:0:0:0:
193,207,69567,1,0,0:0:0:0:
195,163,69638,1,0,0:0:0:0:
225,131,69709,1,0,0:0:0:0:
268,120,69781,5,0,0:0:0:0:
227,336,69924,1,0,0:0:0:0:
486,168,70067,2,0,P|432:148|377:151,1,110.000003356934
491,340,70352,1,0,0:0:0:0:
285,259,70495,1,0,0:0:0:0:
383,62,70638,1,0,0:0:0:0:
398,281,70781,1,0,0:0:0:0:
398,281,70852,1,0,0:0:0:0:
398,281,70924,6,0,B|335:320|283:290|283:290|264:267|235:267|235:267|229:240|200:221,1,220.000006713867
99,335,71352,1,0,0:0:0:0:
158,146,71495,1,0,0:0:0:0:
158,146,71638,1,0,0:0:0:0:
190,360,71781,1,0,0:0:0:0:
370,257,71924,1,0,0:0:0:0:
283,173,72067,5,0,0:0:0:0:
71,115,72209,1,0,0:0:0:0:
405,141,72352,1,0,0:0:0:0:
282,307,72495,1,0,0:0:0:0:
168,175,72638,1,0,0:0:0:0:
370,257,72781,1,0,0:0:0:0:
391,63,72924,2,0,B|420:44|451:56|451:56|464:94|489:121|489:121|484:148|494:161,1,179.999994506836
448,266,73209,5,0,0:0:0:0:
409,300,73280,1,0,0:0:0:0:
359,308,73351,1,0,0:0:0:0:
313,285,73423,1,0,0:0:0:0:
287,241,73494,1,0,0:0:0:0:
291,190,73566,1,0,0:0:0:0:
324,150,73638,5,0,0:0:0:0:
330,100,73709,1,0,0:0:0:0:
306,54,73781,1,0,0:0:0:0:
261,31,73852,1,0,0:0:0:0:
210,36,73924,1,0,0:0:0:0:
172,69,73995,1,0,0:0:0:0:
156,118,74066,1,0,0:0:0:0:
173,167,74138,1,0,0:0:0:0:
207,205,74209,1,0,0:0:0:0:
232,249,74280,1,0,0:0:0:0:
277,274,74352,6,0,B|331:275|331:275|365:256|365:256|407:248,1,119.999996337891
86,48,74638,2,0,P|66:98|69:153,1,110.000003356934
304,167,74924,1,0,0:0:0:0:
167,344,75067,1,0,0:0:0:0:
189,151,75209,1,0,0:0:0:0:
383,111,75352,1,0,0:0:0:0:
205,22,75495,6,0,B|218:94|218:94|197:124,1,110.000003356934
26,227,75781,1,0,0:0:0:0:
237,244,75924,2,0,B|286:259|325:246|325:246|366:252|398:278|398:278|447:277,1,220.000006713867
460,58,76352,2,0,P|405:66|355:88,1,110.000003356934
319,341,76638,5,0,0:0:0:0:
436,181,76781,1,0,0:0:0:0:
240,147,76924,1,0,0:0:0:0:
168,331,77067,2,0,B|152:291|161:237|161:237|115:199|119:121,1,220.000006713867
427,326,77495,2,0,B|378:329|378:329|321:307,1,110.000003356934
264,81,77781,5,0,0:0:0:0:
288,32,77852,1,0,0:0:0:0:
336,8,77923,1,0,0:0:0:0:
390,16,77995,1,0,0:0:0:0:
428,54,78066,1,0,0:0:0:0:
437,107,78138,1,0,0:0:0:0:
413,156,78209,5,0,0:0:0:0:
364,131,78280,1,0,0:0:0:0:
310,136,78351,1,0,0:0:0:0:
266,169,78423,1,0,0:0:0:0:
226,205,78494,1,0,0:0:0:0:
172,216,78566,1,0,0:0:0:0:
120,199,78637,1,0,0:0:0:0:
175,194,78709,1,0,0:0:0:0:
223,219,78780,1,0,0:0:0:0:
252,265,78852,1,0,0:0:0:0:
252,320,78923,5,0,0:0:0:0:
56,282,79067,1,0,0:0:0:0:
197,52,79209,2,0,B|177:119|177:119|181:160,1,110.000003356934
365,338,79495,1,0,0:0:0:0:
327,141,79639,1,0,0:0:0:0:
175,265,79781,2,0,P|123:280|73:257,1,110.000003356934
287,59,80067,6,0,P|341:49|389:72,1,110.000003356934
258,311,80352,1,0,0:0:0:0:
205,97,80495,1,0,0:0:0:0:
329,221,80638,1,0,0:0:0:0:
489,147,80781,1,0,0:0:0:0:
301,15,80924,2,0,B|310:40|307:59|307:59|317:86|317:86|321:122,1,110.000003356934
195,347,81209,6,0,B|204:321|201:302|201:302|211:275|211:275|215:239,1,110.000003356934
208,213,81424,1,0,0:0:0:0:
200,186,81495,1,0,0:0:0:0:
378,347,81638,1,0,0:0:0:0:
416,80,81781,1,0,0:0:0:0:
329,190,81924,1,0,0:0:0:0:
325,217,81995,1,0,0:0:0:0:
319,244,82067,1,0,0:0:0:0:
230,40,82209,1,0,0:0:0:0:
68,72,82352,5,0,0:0:0:0:
150,340,82495,1,0,0:0:0:0:
150,340,82567,1,0,0:0:0:0:
150,340,82638,1,0,0:0:0:0:
275,197,82781,1,0,0:0:0:0:
12,268,82924,1,0,0:0:0:0:
196,41,83067,1,0,0:0:0:0:
199,56,83138,1,0,0:0:0:0:
202,72,83209,1,0,0:0:0:0:
417,104,83495,5,0,0:0:0:0:
467,124,83566,1,0,0:0:0:0:
493,171,83637,1,0,0:0:0:0:
483,224,83709,1,0,0:0:0:0:
443,259,83780,1,0,0:0:0:0:
389,261,83852,1,0,0:0:0:0:
346,228,83923,1,0,0:0:0:0:
330,176,83995,1,0,0:0:0:0:
294,136,84066,1,0,0:0:0:0:
243,115,84138,1,0,0:0:0:0:
189,117,84209,1,0,0:0:0:0:
140,143,84281,1,0,0:0:0:0:
108,186,84352,1,0,0:0:0:0:
116,230,84424,1,0,0:0:0:0:
124,272,84495,1,0,0:0:0:0:
132,315,84567,1,0,0:0:0:0:
139,358,84638,6,0,L|178:365,3,40
221,225,84924,1,0,0:0:0:0:
236,231,84995,2,0,B|244:248|244:248|238:270,2,40
351,292,85209,1,0,0:0:0:0:
351,292,85281,1,0,0:0:0:0:
384,312,85352,2,0,L|442:302,1,40
424,174,85495,1,0,0:0:0:0:
424,174,85567,1,0,0:0:0:0:
424,174,85638,1,0,0:0:0:0:
424,174,85709,1,0,0:0:0:0:
424,174,85781,6,0,L|442:50,1,110.000003356934
325,239,86067,1,0,0:0:0:0:
231,26,86209,1,0,0:0:0:0:
231,254,86352,1,0,0:0:0:0:
329,132,86495,1,0,0:0:0:0:
129,26,86638,1,0,0:0:0:0:
78,169,86781,1,0,0:0:0:0:
354,154,86924,5,0,0:0:0:0:
176,116,87067,1,0,0:0:0:0:
396,52,87209,1,0,0:0:0:0:
478,280,87352,2,0,B|423:276|397:240|397:240|358:247|323:275|323:275|282:258,1,220.000006713867
488,95,87781,1,0,0:0:0:0:
387,343,87924,1,0,0:0:0:0:
396,52,88067,6,0,B|337:27|295:86|295:86|324:121|324:121|310:151|310:175,1,220.000006713867
185,272,88495,1,0,0:0:0:0:
397,216,88638,1,0,0:0:0:0:
206,103,88781,1,0,0:0:0:0:
206,103,88852,1,0,0:0:0:0:
206,103,88924,1,0,0:0:0:0:
267,333,89067,1,0,0:0:0:0:
318,113,89209,5,0,0:0:0:0:
178,292,89352,1,0,0:0:0:0:
120,17,89495,2,0,B|162:34|160:97|160:97|193:64|249:64,1,179.999994506836
236,175,89781,5,0,0:0:0:0:
431,241,89924,1,0,0:0:0:0:
442,60,90067,2,0,B|387:40|387:40|359:53|327:51,1,119.999996337891
279,254,90352,5,0,0:0:0:0:
490,174,90495,1,0,0:0:0:0:
408,345,90638,2,0,L|386:219,1,119.999996337891
195,90,90924,1,0,0:0:0:0:
299,320,91067,1,0,0:0:0:0:
375,44,91209,2,0,B|403:32|403:32|403:84|370:93|370:93|337:69|298:75,1,179.999994506836
312,167,91495,5,0,0:0:0:0:
353,164,91566,1,0,0:0:0:0:
388,184,91637,1,0,0:0:0:0:
406,222,91709,1,0,0:0:0:0:
399,263,91781,1,0,0:0:0:0:
358,257,91852,1,0,0:0:0:0:
317,264,91923,1,0,0:0:0:0:
280,284,91995,1,0,0:0:0:0:
252,315,92067,1,0,0:0:0:0:
211,325,92138,1,0,0:0:0:0:
171,313,92209,1,0,0:0:0:0:
142,283,92281,1,0,0:0:0:0:
132,243,92352,1,0,0:0:0:0:
138,201,92424,1,0,0:0:0:0:
133,159,92495,1,0,0:0:0:0:
108,126,92566,1,0,0:0:0:0:
67,114,92638,6,0,B|111:80|111:80|168:85,1,110.000003356934
48,332,92924,1,0,0:0:0:0:
245,151,93067,1,0,0:0:0:0:
285,352,93209,1,0,0:0:0:0:
111,265,93352,1,0,0:0:0:0:
379,324,93495,1,0,0:0:0:0:
352,124,93638,1,0,0:0:0:0:
174,350,93781,6,0,L|205:239,1,110.000003356934
415,207,94067,1,0,0:0:0:0:
278,343,94209,1,0,0:0:0:0:
287,62,94352,1,0,0:0:0:0:
132,161,94495,1,0,0:0:0:0:
404,89,94638,1,0,0:0:0:0:
386,316,94781,1,0,0:0:0:0:
180,64,94924,6,0,B|211:89|211:89|215:126|215:126|235:166,1,110.000003356934
337,15,95209,1,0,0:0:0:0:
286,221,95352,1,0,0:0:0:0:
102,234,95495,1,0,0:0:0:0:
71,257,95567,1,0,0:0:0:0:
55,291,95638,1,0,0:0:0:0:
57,329,95709,1,0,0:0:0:0:
75,363,95781,2,0,L|143:356,1,55.0000016784668
203,228,95924,2,0,L|271:235,1,55.0000016784668
431,346,96067,5,0,0:0:0:0:
501,190,96209,1,0,0:0:0:0:
317,169,96352,2,0,B|255:139|201:145|201:145|202:115|223:79,1,179.999994506836
297,49,96638,5,0,0:0:0:0:
226,293,96781,1,0,0:0:0:0:
388,215,96924,2,0,P|441:188|500:189,1,119.999996337891
318,350,97209,5,0,0:0:0:0:
230,175,97352,1,0,0:0:0:0:
38,355,97495,2,0,B|89:373|126:337|126:337|164:325|164:325|168:293|146:278,1,179.999994506836
52,237,97781,5,0,0:0:0:0:
145,54,97924,1,0,0:0:0:0:
242,270,98067,1,0,0:0:0:0:
282,260,98352,5,0,0:0:0:0:
296,299,98423,1,0,0:0:0:0:
328,326,98494,1,0,0:0:0:0:
368,334,98566,1,0,0:0:0:0:
408,321,98637,1,0,0:0:0:0:
435,290,98709,1,0,0:0:0:0:
444,249,98780,1,0,0:0:0:0:
432,209,98851,1,0,0:0:0:0:
402,177,98924,1,0,0:0:0:0:
349,189,98995,1,0,0:0:0:0:
297,179,99066,1,0,0:0:0:0:
252,150,99138,1,0,0:0:0:0:
223,105,99209,1,0,0:0:0:0:
212,146,99281,1,0,0:0:0:0:
201,186,99352,1,0,0:0:0:0:
190,227,99424,1,0,0:0:0:0:
189,267,99495,6,0,P|207:292|220:319,1,59.9999981689454
31,241,99638,2,0,P|42:213|60:189,1,59.9999981689454
86,329,99781,2,0,P|56:333|26:329,1,59.9999981689454
157,171,99924,2,0,P|186:166|216:170,1,59.9999981689454
89,97,100067,2,0,P|77:69|60:44,1,59.9999981689454
198,56,100209,2,0,P|227:60|257:56,1,59.9999981689454
323,174,100352,1,0,0:0:0:0:
323,174,100424,1,0,0:0:0:0:
323,174,100495,1,0,0:0:0:0:
323,174,100567,1,0,0:0:0:0:
323,174,100638,6,0,L|317:243,1,59.9999981689454
195,362,100781,2,0,L|189:293,1,59.9999981689454
410,225,100924,2,0,L|404:294,1,59.9999981689454
228,218,101067,2,0,L|222:149,1,59.9999981689454
419,137,101209,2,0,L|438:80,1,59.9999981689454
278,323,101352,2,0,L|336:336,1,59.9999981689454
344,72,101495,2,0,L|286:85,1,59.9999981689454
509,253,101638,2,0,L|489:196,1,59.9999981689454
307,180,101781,6,0,P|277:183|247:178,1,59.9999981689454
393,267,101924,2,0,P|410:291|421:318,1,59.9999981689454
419,137,102067,2,0,P|436:112|447:85,1,59.9999981689454
314,310,102209,2,0,P|289:292|262:281,1,59.9999981689454
284,23,102352,2,0,P|287:52|282:82,1,59.9999981689454
159,298,102495,2,0,P|155:268|160:238,1,59.9999981689454
125,20,102638,2,0,P|154:24|182:36,1,59.9999981689454
356,195,102781,2,0,P|328:206|298:211,1,59.9999981689454
19,106,102924,5,0,0:0:0:0:
59,115,102995,1,0,0:0:0:0:
100,124,103067,1,0,0:0:0:0:
140,133,103138,1,0,0:0:0:0:
180,142,103209,1,0,0:0:0:0:
221,151,103281,1,0,0:0:0:0:
261,160,103352,1,0,0:0:0:0:
302,169,103424,1,0,0:0:0:0:
342,178,103495,1,0,0:0:0:0:
342,178,104067,6,0,L|356:246,1,59.9999981689454
211,296,104209,2,0,L|197:364,1,59.9999981689454
318,66,104352,2,0,B|277:54|277:54|262:63|240:63|240:63|217:34|188:27,1,139.999995727539
156,115,104567,1,0,0:0:0:0:
156,115,104638,2,0,P|122:124|96:146,1,69.9999978637696
321,288,104781,2,0,B|318:251|298:241|298:241|301:201|301:201|285:176|290:144,1,139.999995727539
372,153,104995,1,0,0:0:0:0:
372,153,105067,2,0,P|405:167|440:167,1,69.9999978637696
358,366,105209,6,0,B|382:355|391:341|391:341|429:352|429:352|454:331|489:333,1,139.999995727539
467,236,105424,1,0,0:0:0:0:
467,236,105495,5,0,0:0:0:0:
483,191,105566,1,0,0:0:0:0:
468,147,105637,1,0,0:0:0:0:
428,121,105709,1,0,0:0:0:0:
381,127,105780,1,0,0:0:0:0:
373,174,105852,1,0,0:0:0:0:
356,219,105924,1,0,0:0:0:0:
346,265,105995,1,0,0:0:0:0:
352,312,106067,1,0,0:0:0:0:
310,334,106138,1,0,0:0:0:0:
262,341,106209,1,0,0:0:0:0:
216,329,106281,1,0,0:0:0:0:
177,302,106352,5,0,0:0:0:0:
26,123,106495,1,0,0:0:0:0:
0,323,106638,2,0,B|43:327|43:327|64:340|95:338|95:338|109:344,1,110.000003356934
227,180,106924,1,0,0:0:0:0:
347,272,107067,1,0,0:0:0:0:
230,68,107209,1,0,0:0:0:0:
121,190,107352,1,0,0:0:0:0:
305,351,107495,6,0,P|357:362|405:338,1,110.000003356934
341,127,107781,1,0,0:0:0:0:
200,315,107924,2,0,B|202:229|258:207|258:207|284:229|319:229|319:229|355:249,1,220.000006713867
115,345,108352,1,0,0:0:0:0:
434,256,108495,1,0,0:0:0:0:
254,111,108638,6,0,B|228:119|211:117|211:117|188:148|188:148|158:167,1,110.000003356934
310,344,108924,1,0,0:0:0:0:
497,161,109067,1,0,0:0:0:0:
357,132,109209,1,0,0:0:0:0:
216,102,109352,1,0,0:0:0:0:
452,237,109495,2,0,B|433:312|433:312|402:322,1,110.000003356934
313,223,109781,5,0,0:0:0:0:
273,193,109852,1,0,0:0:0:0:
226,181,109923,1,0,0:0:0:0:
177,187,109995,1,0,0:0:0:0:
134,211,110066,1,0,0:0:0:0:
103,249,110138,1,0,0:0:0:0:
89,296,110209,1,0,0:0:0:0:
134,276,110280,1,0,0:0:0:0:
180,291,110351,1,0,0:0:0:0:
216,324,110423,1,0,0:0:0:0:
265,326,110494,1,0,0:0:0:0:
313,311,110567,1,0,0:0:0:0:
341,270,110638,1,0,0:0:0:0:
315,227,110709,1,0,0:0:0:0:
308,179,110780,1,0,0:0:0:0:
320,131,110852,1,0,0:0:0:0:
348,91,110923,5,0,0:0:0:0:
484,204,111067,1,0,0:0:0:0:
237,102,111209,2,0,P|182:97|132:118,1,110.000003356934
41,336,111495,2,0,B|71:304|71:304|85:239,1,110.000003356934
30,43,111781,1,0,0:0:0:0:
204,201,111924,1,0,0:0:0:0:
273,64,112067,6,0,B|362:43|362:43|384:70,1,110.000003356934
247,304,112352,1,0,0:0:0:0:
85,239,112495,1,0,0:0:0:0:
122,45,112638,2,0,P|170:69|204:112,1,110.000003356934
134,334,112924,1,0,0:0:0:0:
350,259,113067,1,0,0:0:0:0:
279,18,113209,5,0,0:0:0:0:
232,274,113352,1,0,0:0:0:0:
363,91,113495,1,0,0:0:0:0:
410,347,113638,1,0,0:0:0:0:
175,149,113781,1,0,0:0:0:0:
209,355,113924,1,0,0:0:0:0:
262,119,114067,2,0,P|225:73|169:56,1,119.999996337891
106,313,114352,5,0,0:0:0:0:
149,333,114423,1,0,0:0:0:0:
196,339,114494,1,0,0:0:0:0:
243,330,114566,1,0,0:0:0:0:
285,307,114637,1,0,0:0:0:0:
317,271,114709,1,0,0:0:0:0:
337,228,114780,5,0,0:0:0:0:
291,216,114852,1,0,0:0:0:0:
259,181,114923,1,0,0:0:0:0:
252,134,114995,1,0,0:0:0:0:
272,91,115066,1,0,0:0:0:0:
312,66,115138,1,0,0:0:0:0:
359,67,115209,1,0,0:0:0:0:
398,94,115280,1,0,0:0:0:0:
406,141,115352,1,0,0:0:0:0:
385,184,115424,1,0,0:0:0:0:
412,223,115495,6,0,B|448:284|448:284|440:333,1,119.999996337891
180,232,115781,2,0,B|190:167|190:167|221:135,1,110.000003356934
407,80,116067,1,0,0:0:0:0:
344,281,116209,1,0,0:0:0:0:
308,52,116352,2,0,P|259:27|204:23,1,110.000003356934
69,236,116638,6,0,L|89:346,1,110.000003356934
119,25,116924,1,0,0:0:0:0:
23,154,117067,2,0,B|67:128|67:128|105:142|105:142|143:119|191:127|191:127|245:113,1,220.000006713867
268,353,117495,1,0,0:0:0:0:
168,250,117638,1,0,0:0:0:0:
313,93,117781,6,0,B|371:91|371:91|418:111,1,110.000003356934
183,332,118067,1,0,0:0:0:0:
293,169,118209,2,0,B|294:83|225:23|225:23|232:51|229:75,1,220.000006713867
264,268,118638,2,0,P|318:270|364:242,1,110.000003356934
93,70,118924,5,0,0:0:0:0:
54,108,118995,1,0,0:0:0:0:
48,161,119066,1,0,0:0:0:0:
77,207,119138,1,0,0:0:0:0:
127,225,119209,1,0,0:0:0:0:
178,208,119281,1,0,0:0:0:0:
208,163,119352,1,0,0:0:0:0:
182,115,119423,1,0,0:0:0:0:
189,61,119494,1,0,0:0:0:0:
226,22,119566,1,0,0:0:0:0:
280,12,119637,1,0,0:0:0:0:
328,36,119709,1,0,0:0:0:0:
354,83,119781,1,0,0:0:0:0:
404,101,119852,1,0,0:0:0:0:
437,144,119923,1,0,0:0:0:0:
442,198,119995,1,0,0:0:0:0:
417,246,120067,5,0,0:0:0:0:
203,199,120209,1,0,0:0:0:0:
386,24,120352,2,0,B|390:84|390:84|371:130,1,110.000003356934
107,177,120638,1,0,0:0:0:0:
179,26,120781,1,0,0:0:0:0:
165,307,120924,1,0,0:0:0:0:
300,272,121067,1,0,0:0:0:0:
437,219,121209,6,0,P|408:171|352:144,1,110.000003356934
457,357,121495,1,0,0:0:0:0:
268,332,121638,2,0,B|167:291|167:291|57:307,1,220.000006713867
44,80,122067,2,0,B|7:123|7:123|13:179,1,110.000003356934
203,197,122352,6,0,L|328:184,1,110.000003356934
340,220,122567,1,0,0:0:0:0:
370,251,122638,1,0,0:0:0:0:
512,164,122781,1,0,0:0:0:0:
271,108,122924,1,0,0:0:0:0:
275,328,123067,1,0,0:0:0:0:
275,328,123138,1,0,0:0:0:0:
275,328,123209,1,0,0:0:0:0:
48,257,123352,1,0,0:0:0:0:
393,266,123495,5,0,0:0:0:0:
121,365,123638,1,0,0:0:0:0:
121,365,123709,1,0,0:0:0:0:
121,365,123781,1,0,0:0:0:0:
302,231,123924,1,0,0:0:0:0:
38,131,124067,1,0,0:0:0:0:
383,363,124209,1,0,0:0:0:0:
383,363,124281,1,0,0:0:0:0:
383,363,124352,1,0,0:0:0:0:
410,271,124638,5,0,0:0:0:0:
393,273,124709,1,0,0:0:0:0:
377,275,124780,1,0,0:0:0:0:
360,277,124852,1,0,0:0:0:0:
344,279,124923,1,0,0:0:0:0:
328,281,124995,1,0,0:0:0:0:
311,283,125066,1,0,0:0:0:0:
295,285,125137,1,0,0:0:0:0:
279,287,125209,1,0,0:0:0:0:
262,289,125280,1,0,0:0:0:0:
246,291,125352,1,0,0:0:0:0:
229,294,125423,1,0,0:0:0:0:
213,296,125495,1,0,0:0:0:0:
197,298,125566,1,0,0:0:0:0:
180,300,125637,1,0,0:0:0:0:
164,302,125709,1,0,0:0:0:0:
148,302,125781,6,0,L|137:237,3,40
64,206,126067,1,0,0:0:0:0:
63,205,126138,2,0,P|48:193|28:190,2,40
148,144,126352,1,0,0:0:0:0:
148,144,126424,1,0,0:0:0:0:
178,160,126495,1,0,0:0:0:0:
207,147,126567,1,0,0:0:0:0:
238,141,126638,1,0,0:0:0:0:
269,145,126709,1,0,0:0:0:0:
298,157,126781,1,0,0:0:0:0:
324,174,126852,1,0,0:0:0:0:
340,201,126924,6,0,L|401:189,2,50
403,76,127209,2,0,L|342:64,2,50
323,304,127495,1,0,0:0:0:0:
468,261,127638,1,0,0:0:0:0:
476,299,127709,1,0,0:0:0:0:
485,338,127781,1,0,0:0:0:0:
469,95,128067,5,0,0:0:0:0:
477,133,128138,1,0,0:0:0:0:
486,172,128210,1,0,0:0:0:0:
259,209,128352,1,0,0:0:0:0:
251,247,128423,1,0,0:0:0:0:
242,286,128495,1,0,0:0:0:0:
53,182,128638,1,0,0:0:0:0:
54,182,129209,6,0,B|90:204|90:204|114:187|114:187|145:211|197:197|197:197|215:224|215:224|239:213|239:213|276:236|339:224,1,300
433,351,129781,2,0,B|422:331|397:318|397:318|389:270|389:270|413:234|394:193|394:193|417:151|417:151|413:118|428:80,1,300
252,17,130352,2,0,B|267:83|220:117|220:117|253:150|253:150|202:130|155:144|155:144|155:169|142:192,1,300
174,357,130924,2,0,B|210:348|210:348|280:264|229:272|229:272|198:256|198:256|192:291|192:291|151:312|271:327|271:327|307:310,1,350
366,264,131495,6,0,L|352:194,2,50
146,183,131781,2,0,L|160:113,2,50
355,115,132067,1,0,0:0:0:0:
197,31,132209,1,0,0:0:0:0:
197,31,132281,1,0,0:0:0:0:
197,31,132352,1,0,0:0:0:0:
439,169,132638,5,0,0:0:0:0:
439,169,132709,1,0,0:0:0:0:
439,169,132781,1,0,0:0:0:0:
237,212,132924,1,0,0:0:0:0:
237,212,132995,1,0,0:0:0:0:
237,212,133067,1,0,0:0:0:0:
363,16,133209,2,0,B|343:48|343:48|350:80|350:80|331:109,1,100
414,273,133781,5,0,0:0:0:0:
374,275,133852,1,0,0:0:0:0:
333,278,133924,1,0,0:0:0:0:
293,281,133995,1,0,0:0:0:0:
252,282,134067,1,0,0:0:0:0:
221,322,134138,1,0,0:0:0:0:
173,336,134209,1,0,0:0:0:0:
124,323,134281,1,0,0:0:0:0:
102,279,134352,2,0,P|100:254|105:229,1,50
246,69,134495,5,0,0:0:0:0:
288,95,134567,1,0,0:0:0:0:
298,143,134638,1,0,0:0:0:0:
271,185,134709,1,0,0:0:0:0:
221,195,134781,2,0,L|179:204,2,33.3333333333333
163,180,134924,6,0,B|142:161|142:161|103:181|103:181|76:173,1,100
416,59,136067,5,0,0:0:0:0:
398,229,136209,1,0,0:0:0:0:
166,62,136495,1,0,0:0:0:0:
206,309,136638,2,0,B|248:309|248:309|285:298,1,80
121,193,136924,5,0,0:0:0:0:
121,193,137067,2,0,L|209:200,1,80
443,321,137352,1,0,0:0:0:0:
443,321,137495,2,0,L|355:328,1,80
348,65,137781,1,0,0:0:0:0:
348,65,137924,2,0,B|361:145|361:145|339:234,1,160
212,84,138352,5,0,0:0:0:0:
472,131,138495,1,0,0:0:0:0:
140,317,138781,1,0,0:0:0:0:
427,287,138924,2,0,P|399:257|365:238,1,80
146,205,139209,1,0,0:0:0:0:
146,205,139352,2,0,P|118:234|84:253,1,80
268,111,139638,1,0,0:0:0:0:
268,111,139781,2,0,P|256:72|256:33,1,80
262,269,140067,2,0,B|272:304|272:304|268:326|270:347,1,80
282,192,140638,5,0,0:0:0:0:
128,350,140781,1,0,0:0:0:0:
180,104,141067,1,0,0:0:0:0:
385,327,141209,2,0,L|475:306,1,80
394,124,141495,1,0,0:0:0:0:
394,124,141638,2,0,B|352:128|352:128|311:116,1,80
285,307,141924,1,0,0:0:0:0:
285,307,142067,2,0,B|302:268|302:268|333:239,1,80
485,206,142352,1,0,0:0:0:0:
220,169,142495,1,0,0:0:0:0:
415,267,142638,1,0,0:0:0:0:
132,342,142781,1,0,0:0:0:0:
165,90,142924,5,0,0:0:0:0:
224,325,143067,1,0,0:0:0:0:
401,62,143352,1,0,0:0:0:0:
93,254,143495,2,0,P|63:229|25:220,1,80
279,247,143781,2,0,P|340:236|372:189,1,110.000003356934
364,161,143995,1,0,0:0:0:0:
328,145,144067,5,0,0:0:0:0:
282,163,144138,1,0,0:0:0:0:
234,156,144209,1,0,0:0:0:0:
195,126,144281,1,0,0:0:0:0:
177,81,144352,1,0,0:0:0:0:
129,74,144423,1,0,0:0:0:0:
82,90,144494,1,0,0:0:0:0:
47,124,144566,1,0,0:0:0:0:
31,171,144638,1,0,0:0:0:0:
64,206,144709,1,0,0:0:0:0:
82,252,144780,1,0,0:0:0:0:
64,298,144852,1,0,0:0:0:0:
17,315,144923,1,0,0:0:0:0:
225,273,145067,1,0,0:0:0:0:
229,305,145138,1,0,0:0:0:0:
233,337,145209,5,0,0:0:0:0:
279,119,145352,1,0,0:0:0:0:
138,345,145638,1,0,0:0:0:0:
452,197,145781,2,0,L|443:306,1,110.000003356934
405,73,146067,1,0,0:0:0:0:
405,73,146209,2,0,P|301:51|221:121,1,220.000006713867
203,295,146638,2,0,P|153:319|99:318,1,110.000003356934
144,61,146924,5,0,0:0:0:0:
279,342,147067,1,0,0:0:0:0:
279,342,147209,1,0,0:0:0:0:
331,153,147352,1,0,0:0:0:0:
45,193,147495,5,0,0:0:0:0:
381,238,147638,1,0,0:0:0:0:
81,311,147924,1,0,0:0:0:0:
371,71,148067,2,0,B|433:78|433:78|466:111,1,110.000003356934
365,333,148352,1,0,0:0:0:0:
365,333,148495,2,0,L|261:118,1,220.000006713867
161,348,148924,2,0,L|106:234,1,110.000003356934
453,269,149209,1,0,0:0:0:0:
432,73,149781,5,0,0:0:0:0:
354,331,149924,1,0,0:0:0:0:
101,30,150209,1,0,0:0:0:0:
161,348,150352,2,0,B|183:266|183:266|174:230,1,110.000003356934
12,135,150638,5,0,0:0:0:0:
12,135,150781,2,0,B|73:188|73:188|208:157,1,220.000006713867
398,48,151209,2,0,P|362:87|354:141,1,110.000003356934
434,344,151495,2,0,P|443:317|448:290,1,55.0000016784668
355,288,151638,2,0,P|358:260|356:233,1,55.0000016784668
259,253,151781,2,0,P|255:225|245:200,1,55.0000016784668
163,245,151924,2,0,P|151:219|135:197,1,55.0000016784668
66,264,152067,5,0,0:0:0:0:
32,221,152138,1,0,0:0:0:0:
27,167,152209,1,0,0:0:0:0:
51,118,152281,1,0,0:0:0:0:
98,90,152352,5,0,0:0:0:0:
152,98,152423,1,0,0:0:0:0:
207,105,152494,1,0,0:0:0:0:
261,113,152566,1,0,0:0:0:0:
294,158,152638,5,0,0:0:0:0:
346,141,152709,1,0,0:0:0:0:
400,141,152780,1,0,0:0:0:0:
446,171,152852,1,0,0:0:0:0:
464,222,152923,5,0,0:0:0:0:
426,262,152995,1,0,0:0:0:0:
388,303,153067,1,0,0:0:0:0:
351,343,153138,1,0,0:0:0:0:
300,321,153209,6,0,B|231:297|170:334|170:334|123:298|138:227|138:227|186:186|195:142|195:142|141:141|104:110|104:110|74:153|79:201|79:201|114:206|147:222|147:222|178:233|178:233|208:233|235:224,1,700
178,47,155495,2,0,B|261:45|287:118|287:118|323:127|363:112|363:112|325:182|325:182|336:213|322:242,1,350
398,289,156638,6,0,B|421:247|416:206|416:206|442:162|460:129|460:129|461:89|440:63,1,244.999992523194
358,27,157209,6,0,B|305:62|249:35|249:35|250:73|232:102|232:102|203:111|190:155,1,244.999992523194
232,213,157781,6,0,B|290:207|327:233|327:233|320:286|260:295|260:295|206:331|206:331|165:300|117:298|117:298|128:242|95:206|95:206|109:168|109:168|103:100|169:46|169:46|136:38|110:62,1,700
264,102,160067,6,0,B|359:84|359:84|394:107,1,120
447,50,160352,2,0,B|420:108|420:108|432:171,1,120
391,233,160638,2,0,L|368:364,1,120
309,262,160924,2,0,P|250:265|199:235,1,120
218,156,161209,5,0,0:0:0:0:
225,113,161280,1,0,0:0:0:0:
209,72,161351,1,0,0:0:0:0:
175,45,161423,1,0,0:0:0:0:
132,39,161494,1,0,0:0:0:0:
92,56,161566,1,0,0:0:0:0:
69,94,161638,1,0,0:0:0:0:
85,135,161709,1,0,0:0:0:0:
77,178,161780,1,0,0:0:0:0:
61,219,161852,1,0,0:0:0:0:
54,262,161923,1,0,0:0:0:0:
70,302,161995,1,0,0:0:0:0:
77,346,162067,2,0,L|154:358,1,55.0000016784668
207,250,162209,2,0,L|261:241,1,55.0000016784668
394,349,162352,6,0,P|395:294|371:173,1,165.000005035401
250,55,162638,6,0,L|229:111,3,55.0000016784668
458,170,162924,1,0,0:0:0:0:
458,170,162995,1,0,0:0:0:0:
458,170,163067,2,0,P|436:153|410:143,1,55.0000016784668
307,257,163209,1,0,0:0:0:0:
263,251,163281,1,0,0:0:0:0:
220,242,163352,1,0,0:0:0:0:
176,234,163424,1,0,0:0:0:0:
132,226,163495,5,0,0:0:0:0:
37,136,163638,2,0,B|112:35|112:35|115:107,1,165.000005035401
169,138,163924,1,0,0:0:0:0:
190,133,163995,1,0,0:0:0:0:
211,128,164067,1,0,0:0:0:0:
242,83,164138,1,0,0:0:0:0:
289,56,164209,1,0,0:0:0:0:
344,53,164281,1,0,0:0:0:0:
394,75,164352,1,0,0:0:0:0:
429,116,164424,1,0,0:0:0:0:
443,169,164495,1,0,0:0:0:0:
432,222,164567,1,0,0:0:0:0:
399,265,164638,6,0,B|342:275|342:275|283:247,1,110.000003356934
287,34,164924,1,0,0:0:0:0:
62,224,165067,2,0,L|74:333,1,110.000003356934
335,170,165352,1,0,0:0:0:0:
112,128,165495,2,0,P|58:119|5:134,1,110.000003356934
331,352,165781,6,0,B|376:353|376:353|411:336|411:336|437:331,1,110.000003356934
74,333,166067,1,0,0:0:0:0:
229,151,166209,1,0,0:0:0:0:
202,358,166352,1,0,0:0:0:0:
46,225,166495,1,0,0:0:0:0:
271,260,166638,1,0,0:0:0:0:
309,70,166781,1,0,0:0:0:0:
90,27,166924,6,0,B|80:84|80:84|105:129,1,110.000003356934
416,37,167209,1,0,0:0:0:0:
385,227,167352,1,0,0:0:0:0:
227,161,167495,1,0,0:0:0:0:
243,345,167638,1,0,0:0:0:0:
292,107,167781,2,0,L|398:133,1,110.000003356934
338,291,168067,5,0,0:0:0:0:
297,263,168138,1,0,0:0:0:0:
249,252,168209,1,0,0:0:0:0:
200,259,168281,1,0,0:0:0:0:
157,283,168352,1,0,0:0:0:0:
110,299,168423,1,0,0:0:0:0:
62,288,168494,1,0,0:0:0:0:
27,255,168566,1,0,0:0:0:0:
13,208,168637,1,0,0:0:0:0:
32,163,168709,1,0,0:0:0:0:
69,130,168780,1,0,0:0:0:0:
116,117,168852,1,0,0:0:0:0:
164,125,168924,1,0,0:0:0:0:
207,149,168995,1,0,0:0:0:0:
256,144,169066,1,0,0:0:0:0:
294,114,169138,1,0,0:0:0:0:
309,68,169209,5,0,0:0:0:0:
78,31,169352,1,0,0:0:0:0:
339,194,169495,2,0,B|414:171|414:171|445:175,1,110.000003356934
355,344,169781,1,0,0:0:0:0:
212,212,169924,1,0,0:0:0:0:
507,122,170067,1,0,0:0:0:0:
275,106,170209,1,0,0:0:0:0:
275,106,170281,1,0,0:0:0:0:
275,106,170352,6,0,L|167:81,1,110.000003356934
261,337,170638,1,0,0:0:0:0:
372,252,170781,2,0,P|278:198|176:229,1,220.000006713867
373,361,171209,1,0,0:0:0:0:
358,109,171352,1,0,0:0:0:0:
181,302,171495,5,0,0:0:0:0:
175,127,171638,1,0,0:0:0:0:
273,338,171781,1,0,0:0:0:0:
436,271,171924,1,0,0:0:0:0:
265,249,172067,1,0,0:0:0:0:
364,103,172209,1,0,0:0:0:0:
111,253,172352,2,0,P|48:237|81:292,1,165.000005035401
164,315,172638,5,0,0:0:0:0:
188,266,172709,1,0,0:0:0:0:
185,211,172780,1,0,0:0:0:0:
156,165,172852,1,0,0:0:0:0:
109,139,172923,1,0,0:0:0:0:
54,139,172995,1,0,0:0:0:0:
7,165,173067,1,0,0:0:0:0:
17,112,173138,1,0,0:0:0:0:
47,66,173209,1,0,0:0:0:0:
92,35,173281,1,0,0:0:0:0:
145,23,173352,1,0,0:0:0:0:
199,32,173424,1,0,0:0:0:0:
245,62,173495,1,0,0:0:0:0:
247,115,173566,1,0,0:0:0:0:
283,155,173637,1,0,0:0:0:0:
337,163,173709,1,0,0:0:0:0:
382,134,173781,6,0,B|390:194|390:194|374:241,1,110.000003356934
346,20,174067,1,0,0:0:0:0:
156,113,174209,1,0,0:0:0:0:
250,282,174352,1,0,0:0:0:0:
275,110,174495,1,0,0:0:0:0:
136,346,174638,2,0,B|69:328|69:328|30:341,1,110.000003356934
85,41,174924,6,0,L|194:32,1,110.000003356934
170,277,175209,1,0,0:0:0:0:
317,80,175352,2,0,B|383:73|423:128|423:128|414:166|414:166|425:190|410:222,1,220.000006713867
194,32,175781,1,0,0:0:0:0:
170,277,175924,1,0,0:0:0:0:
432,334,176067,6,0,P|419:281|379:244,1,110.000003356934
114,349,176352,1,0,0:0:0:0:
239,196,176495,2,0,B|230:142|198:118|198:118|217:82|217:82|174:59|145:21,1,220.000006713867
296,258,176924,2,0,B|287:289|290:317|290:317|280:331|272:371,1,110.000003356934
16,291,177209,5,0,0:0:0:0:
0,241,177280,1,0,0:0:0:0:
3,189,177351,1,0,0:0:0:0:
44,152,177423,1,0,0:0:0:0:
97,147,177494,1,0,0:0:0:0:
144,175,177566,1,0,0:0:0:0:
164,225,177638,1,0,0:0:0:0:
216,244,177709,1,0,0:0:0:0:
270,241,177780,1,0,0:0:0:0:
319,217,177852,1,0,0:0:0:0:
354,176,177923,1,0,0:0:0:0:
370,123,177995,1,0,0:0:0:0:
364,69,178067,1,0,0:0:0:0:
322,35,178138,1,0,0:0:0:0:
269,43,178209,1,0,0:0:0:0:
240,87,178281,1,0,0:0:0:0:
253,139,178352,5,0,0:0:0:0:
185,355,178495,1,0,0:0:0:0:
147,90,178638,2,0,B|109:64|109:64|45:69,1,110.000003356934
21,295,178924,1,0,0:0:0:0:
290,311,179067,1,0,0:0:0:0:
86,149,179209,1,0,0:0:0:0:
84,365,179352,1,0,0:0:0:0:
268,215,179495,6,0,P|321:213|364:246,1,110.000003356934
258,23,179781,1,0,0:0:0:0:
157,246,179924,1,0,0:0:0:0:
347,336,180067,1,0,0:0:0:0:
330,115,180209,1,0,0:0:0:0:
268,369,180352,1,0,0:0:0:0:
449,293,180495,2,0,P|449:274|444:257,2,36.6666677856446
454,222,180638,5,0,0:0:0:0:
199,313,180781,1,0,0:0:0:0:
128,93,180924,1,0,0:0:0:0:
176,86,180995,1,0,0:0:0:0:
223,100,181067,1,0,0:0:0:0:
254,138,181138,1,0,0:0:0:0:
253,187,181209,1,0,0:0:0:0:
290,219,181280,1,0,0:0:0:0:
339,215,181351,1,0,0:0:0:0:
373,251,181423,1,0,0:0:0:0:
359,298,181494,1,0,0:0:0:0:
326,308,181567,1,0,0:0:0:0:
294,318,181638,1,0,0:0:0:0:
262,328,181709,1,0,0:0:0:0:
230,338,181781,6,0,L|161:328,1,55.0000016784668
61,266,181924,1,0,0:0:0:0:
61,266,181995,1,0,0:0:0:0:
58,238,182067,1,0,0:0:0:0:
55,210,182138,1,0,0:0:0:0:
52,182,182209,1,0,0:0:0:0:
50,154,182281,1,0,0:0:0:0:
48,126,182352,1,0,0:0:0:0:
88,163,182423,1,0,0:0:0:0:
137,187,182494,1,0,0:0:0:0:
191,196,182566,1,0,0:0:0:0:
245,188,182637,1,0,0:0:0:0:
295,165,182709,1,0,0:0:0:0:
336,129,182780,1,0,0:0:0:0:
365,82,182852,1,0,0:0:0:0:
377,29,182924,6,0,L|521:46,1,129.999994049073
371,350,183209,2,0,B|332:336|332:336|296:344|296:344|252:304,1,129.999994049073
215,69,183495,1,0,0:0:0:0:
468,209,183638,1,0,0:0:0:0:
101,119,183781,1,0,0:0:0:0:
158,342,183924,1,0,0:0:0:0:
279,135,184067,6,0,B|244:160|244:160|207:162|207:162|183:179|155:180,1,129.999994049073
500,291,184352,1,0,0:0:0:0:
371,59,184495,1,0,0:0:0:0:
201,253,184638,1,0,0:0:0:0:
488,148,184781,1,0,0:0:0:0:
255,358,184924,1,0,0:0:0:0:
220,60,185067,1,0,0:0:0:0:
22,319,185209,6,0,B|43:338|65:341|65:341|76:356|76:356|105:348|136:358,1,129.999994049073
38,54,185495,1,0,0:0:0:0:
283,142,185638,1,0,0:0:0:0:
57,243,185781,1,0,0:0:0:0:
220,60,185924,1,0,0:0:0:0:
292,366,186067,2,0,B|281:299|281:299|310:233,1,129.999994049073
447,142,186352,5,0,0:0:0:0:
415,84,186424,1,0,0:0:0:0:
354,61,186495,1,0,0:0:0:0:
288,68,186567,1,0,0:0:0:0:
243,114,186638,1,0,0:0:0:0:
220,174,186709,1,0,0:0:0:0:
241,235,186781,1,0,0:0:0:0:
296,202,186852,1,0,0:0:0:0:
361,205,186924,1,0,0:0:0:0:
402,254,186995,1,0,0:0:0:0:
393,318,187067,1,0,0:0:0:0:
338,352,187138,1,0,0:0:0:0:
278,327,187209,1,0,0:0:0:0:
261,261,187281,1,0,0:0:0:0:
296,202,187352,1,0,0:0:0:0:
326,143,187424,1,0,0:0:0:0:
289,89,187495,5,0,0:0:0:0:
83,220,187638,1,0,0:0:0:0:
426,90,187781,1,0,0:0:0:0:
397,353,187924,1,0,0:0:0:0:
81,106,188067,1,0,0:0:0:0:
289,35,188209,1,0,0:0:0:0:
126,339,188352,1,0,0:0:0:0:
380,213,188495,1,0,0:0:0:0:
12,166,188638,6,0,B|5:234|5:234|32:301,1,129.999994049073
73,29,188924,1,0,0:0:0:0:
259,280,189067,1,0,0:0:0:0:
337,94,189209,1,0,0:0:0:0:
488,239,189352,1,0,0:0:0:0:
203,113,189495,1,0,0:0:0:0:
262,366,189638,1,0,0:0:0:0:
469,113,189781,5,0,0:0:0:0:
49,117,189924,1,0,0:0:0:0:
393,7,190067,1,0,0:0:0:0:
386,306,190209,1,0,0:0:0:0:
270,78,190352,1,0,0:0:0:0:
16,360,190495,1,0,0:0:0:0:
160,148,190638,2,0,B|166:101|166:101|161:57|161:57|171:20,1,129.999994049073
464,176,190924,5,0,0:0:0:0:
459,246,190995,1,0,0:0:0:0:
412,300,191067,1,0,0:0:0:0:
345,325,191138,1,0,0:0:0:0:
273,323,191209,1,0,0:0:0:0:
213,281,191281,1,0,0:0:0:0:
199,211,191352,1,0,0:0:0:0:
251,164,191423,1,0,0:0:0:0:
261,95,191494,1,0,0:0:0:0:
224,36,191566,1,0,0:0:0:0:
157,15,191637,1,0,0:0:0:0:
92,43,191709,1,0,0:0:0:0:
62,106,191780,1,0,0:0:0:0:
87,173,191852,1,0,0:0:0:0:
91,244,191924,1,0,0:0:0:0:
67,311,191995,1,0,0:0:0:0:
113,365,192067,5,0,0:0:0:0:
367,332,192209,1,0,0:0:0:0:
160,110,192352,2,0,B|166:145|183:160|183:160|178:188|178:188|185:249,1,129.999994049073
463,342,192638,1,0,0:0:0:0:
426,138,192781,1,0,0:0:0:0:
262,355,192924,1,0,0:0:0:0:
46,245,193067,1,0,0:0:0:0:
252,97,193209,6,0,P|228:34|174:0,1,129.999994049073
118,350,193495,1,0,0:0:0:0:
424,236,193638,1,0,0:0:0:0:
126,178,193781,1,0,0:0:0:0:
330,349,193924,1,0,0:0:0:0:
97,77,194067,1,0,0:0:0:0:
352,45,194209,1,0,0:0:0:0:
424,337,194352,5,0,0:0:0:0:
233,200,194495,1,0,0:0:0:0:
273,361,194638,1,0,0:0:0:0:
468,142,194781,2,0,B|426:109|370:127|370:127|333:111|333:111|315:141|315:141|281:106|238:105,1,259.999988098145
43,215,195209,1,0,0:0:0:0:
48,233,195281,1,0,0:0:0:0:
53,251,195352,1,0,0:0:0:0:
58,269,195424,1,0,0:0:0:0:
63,287,195495,5,0,0:0:0:0:
113,302,195567,1,0,0:0:0:0:
161,285,195638,1,0,0:0:0:0:
178,236,195709,1,0,0:0:0:0:
151,190,195781,1,0,0:0:0:0:
118,149,195852,1,0,0:0:0:0:
129,97,195924,1,0,0:0:0:0:
173,71,195995,1,0,0:0:0:0:
222,87,196067,1,0,0:0:0:0:
255,126,196138,1,0,0:0:0:0:
302,145,196209,1,0,0:0:0:0:
353,133,196281,1,0,0:0:0:0:
385,92,196352,1,0,0:0:0:0:
436,84,196424,1,0,0:0:0:0:
477,114,196495,1,0,0:0:0:0:
482,166,196567,1,0,0:0:0:0:
449,205,196638,5,0,0:0:0:0:
270,20,196781,1,0,0:0:0:0:
270,295,196924,1,0,0:0:0:0:
393,31,197067,1,0,0:0:0:0:
67,163,197209,1,0,0:0:0:0:
455,229,197352,1,0,0:0:0:0:
67,163,197495,1,0,0:0:0:0:
455,229,197638,1,0,0:0:0:0:
176,19,197781,6,0,B|187:75|187:75|177:104|177:104|189:156,1,129.999994049073
472,25,198067,1,0,0:0:0:0:
369,322,198209,1,0,0:0:0:0:
134,237,198352,1,0,0:0:0:0:
271,49,198495,1,0,0:0:0:0:
412,137,198638,2,0,B|437:92|437:92|434:68|439:48|439:48|451:29|448:3,1,129.999994049073
57,175,198924,6,0,B|94:161|123:160|123:160|155:173|175:192,1,129.999994049073
177,280,199138,1,0,0:0:0:0:
177,280,199209,1,0,0:0:0:0:
414,323,199352,1,0,0:0:0:0:
96,351,199495,1,0,0:0:0:0:
322,139,199638,1,0,0:0:0:0:
318,164,199709,1,0,0:0:0:0:
314,191,199781,1,0,0:0:0:0:
381,25,199924,1,0,0:0:0:0:
356,362,200067,5,0,0:0:0:0:
257,51,200209,1,0,0:0:0:0:
190,356,200352,1,0,0:0:0:0:
115,86,200495,1,0,0:0:0:0:
430,297,200638,1,0,0:0:0:0:
512,80,200781,1,0,0:0:0:0:
512,80,200852,1,0,0:0:0:0:
512,80,200924,2,0,B|443:15|443:15|393:22,1,129.999994049073
233,91,201209,5,0,0:0:0:0:
174,92,201280,1,0,0:0:0:0:
123,117,201351,1,0,0:0:0:0:
87,163,201423,1,0,0:0:0:0:
74,220,201494,1,0,0:0:0:0:
87,276,201566,1,0,0:0:0:0:
123,322,201637,1,0,0:0:0:0:
175,348,201709,1,0,0:0:0:0:
233,348,201780,1,0,0:0:0:0:
286,324,201851,1,0,0:0:0:0:
323,280,201923,1,0,0:0:0:0:
337,224,201994,1,0,0:0:0:0:
326,167,202066,1,0,0:0:0:0:
361,120,202137,1,0,0:0:0:0:
419,114,202209,1,0,0:0:0:0:
458,157,202281,1,0,0:0:0:0:
463,214,202352,5,0,0:0:0:0:
227,250,202495,2,0,B|352:269|352:269|410:305,1,194.999991073609
442,340,202781,1,0,0:0:0:0:
130,272,202924,1,0,0:0:0:0:
123,220,202995,1,0,0:0:0:0:
142,171,203067,1,0,0:0:0:0:
189,151,203138,1,0,0:0:0:0:
240,148,203209,1,0,0:0:0:0:
282,178,203281,1,0,0:0:0:0:
333,176,203352,1,0,0:0:0:0:
371,140,203424,1,0,0:0:0:0:
374,88,203495,6,0,B|326:67|326:67|294:73|251:70,1,110.000003356934
124,355,203781,2,0,B|130:324|145:307|145:307|155:277|149:243,1,110.000003356934
19,136,204067,1,0,0:0:0:0:
230,370,204209,1,0,0:0:0:0:
170,38,204352,2,0,B|166:81|166:81|184:105|184:105|179:131|188:160,1,110.000003356934
444,230,204638,6,0,B|386:190|330:201|330:201|303:222|303:222|272:219|237:237,1,220.000006713867,0|0,3:0|3:0,3:0:0:0:
422,340,205067,1,0,0:0:0:0:
512,140,205209,1,0,0:0:0:0:
153,224,205352,1,0,0:0:0:0:
261,38,205495,1,0,0:0:0:0:
163,367,205638,1,0,0:0:0:0:
376,21,205781,5,0,0:0:0:0:
60,267,205924,1,0,0:0:0:0:
60,267,205995,1,0,0:0:0:0:
60,267,206067,1,0,0:0:0:0:
469,347,206209,1,0,0:0:0:0:
0,126,206352,1,0,0:0:0:0:
491,27,206495,1,0,0:0:0:0:
170,377,206638,1,0,0:0:0:0:
