osu file format v14

[General]
AudioFilename: audio.mp3
AudioLeadIn: 0
PreviewTime: 192339
Countdown: 1
SampleSet: Soft
StackLeniency: 0.7
Mode: 0
LetterboxInBreaks: 0
WidescreenStoryboard: 1

[Editor]
DistanceSpacing: 2.5
BeatDivisor: 4
GridSize: 4
TimelineZoom: 1

[Metadata]
Title:Victims Of Contingency
TitleUnicode:Victims Of Contingency
Artist:Epica
ArtistUnicode:Epica
Creator:Gus
Version:Insane
Source:
Tags:
BeatmapID:1371241
BeatmapSetID:645846

[Difficulty]
HPDrainRate:5
CircleSize:4
OverallDifficulty:7.7
ApproachRate:9
SliderMultiplier:1.5
SliderTickRate:1

[Events]
//Background and Video events
0,0,"my_heart_is_dead_but_still_red_by_nanomortis-d8hpg04.png",0,0
//Break Periods
//Storyboard Layer 0 (Background)
//Storyboard Layer 1 (Fail)
//Storyboard Layer 2 (Pass)
//Storyboard Layer 3 (Foreground)
//Storyboard Sound Samples

[TimingPoints]
54,285.714285714286,4,2,1,55,1,0
10339,-100,4,2,1,55,0,0
46054,-200,4,2,1,55,0,0
46911,-100,4,2,2,55,0,0
65196,-86.9565217391305,4,2,2,55,0,1
84625,-100,4,2,2,55,0,0
85768,-100,4,2,2,55,0,0
105482,-100,4,2,1,55,0,0
106339,-86.9565217391305,4,2,2,55,0,1
125768,-100,4,2,1,55,0,0
126911,-100,4,2,1,55,0,0
164625,-100,4,2,2,55,0,1
182911,-76.9230769230769,4,2,2,55,0,1
189768,-76.9230769230769,4,2,1,55,0,1
192054,-76.9230769230769,4,2,2,55,0,1
203482,-76.9230769230769,4,2,1,55,0,1
206625,-100,4,2,1,55,0,0

[Colours]
Combo1 : 255,255,168
Combo2 : 255,128,128
Combo3 : 0,128,255
Combo4 : 255,156,108
Combo5 : 98,98,255
Combo6 : 153,0,0
Combo7 : 255,0,0
Combo8 : 0,74,115

[HitObjects]
218,154,10339,6,0,L|188:115,2,37.5
218,154,10625,1,0,0:0:0:0:
287,96,10768,2,0,L|335:89,2,37.5,0|0|8,0:0|0:0|0:0,0:0:0:0:
304,184,11054,2,0,L|285:229,2,37.5
391,164,11482,5,0,0:0:0:0:
390,173,11553,1,0,0:0:0:0:
390,182,11624,1,0,0:0:0:0:
390,192,11696,1,0,0:0:0:0:
389,201,11768,2,0,L|449:189,3,37.5
449,192,12054,1,8,0:0:0:0:
256,155,12625,5,0,0:0:0:0:
255,165,12696,1,0,0:0:0:0:
257,174,12767,1,0,0:0:0:0:
262,182,12839,1,0,0:0:0:0:
269,189,12910,1,0,0:0:0:0:
341,243,13054,2,0,L|389:225,2,37.5,0|0|8,0:0|0:0|0:0,0:0:0:0:
259,281,13339,2,0,L|211:263,2,37.5
94,205,13768,5,0,0:0:0:0:
86,199,13839,1,0,0:0:0:0:
78,194,13910,1,0,0:0:0:0:
75,186,13982,1,0,0:0:0:0:
75,176,14053,1,0,0:0:0:0:
156,136,14196,2,0,B|181:126|181:126|193:106,2,37.5,0|0|10,0:0|0:0|0:0,0:0:0:0:
105,60,14482,2,0,B|80:50|80:50|68:30,2,37.5
285,49,14911,5,2,0:0:0:0:
293,53,14982,1,0,0:0:0:0:
301,58,15053,1,0,0:0:0:0:
309,62,15125,1,0,0:0:0:0:
317,67,15196,2,0,L|378:67,3,37.5
339,96,15482,6,0,B|364:133|364:133|362:182,1,75,8|0,0:0|0:0,0:0:0:0:
332,273,15768,1,8,0:0:0:0:
277,201,15911,1,8,0:0:0:0:
277,201,16625,1,8,0:0:0:0:
277,201,17196,5,0,0:0:0:0:
268,197,17267,1,0,0:0:0:0:
259,194,17338,1,0,0:0:0:0:
250,193,17410,1,0,0:0:0:0:
240,193,17481,1,0,0:0:0:0:
150,204,17625,2,0,L|109:224,2,37.5,0|0|8,0:0|0:0|0:0,0:0:0:0:
165,293,17911,2,0,L|139:330,2,37.5
344,301,18339,5,0,0:0:0:0:
352,297,18410,1,0,0:0:0:0:
362,294,18481,1,0,0:0:0:0:
371,293,18553,1,0,0:0:0:0:
380,293,18625,2,0,L|406:247,3,37.5
410,241,18911,1,8,0:0:0:0:
330,79,19482,5,0,0:0:0:0:
320,80,19553,1,0,0:0:0:0:
311,82,19624,1,0,0:0:0:0:
302,84,19696,1,0,0:0:0:0:
293,86,19767,1,0,0:0:0:0:
238,158,19911,2,0,L|188:148,2,37.5,0|0|8,0:0|0:0|0:0,0:0:0:0:
175,64,20196,2,0,L|125:74,2,37.5
96,226,20625,5,0,0:0:0:0:
99,234,20696,1,0,0:0:0:0:
105,242,20767,1,0,0:0:0:0:
112,247,20839,1,0,0:0:0:0:
121,252,20910,1,0,0:0:0:0:
211,248,21054,2,8,L|234:209,2,37.5,0|0|8,0:0|0:0|0:0,0:0:0:0:
281,304,21339,2,0,L|258:343,2,37.5
458,271,21768,5,0,0:0:0:0:
457,261,21839,1,0,0:0:0:0:
457,252,21910,1,0,0:0:0:0:
457,242,21982,1,0,0:0:0:0:
457,233,22054,2,0,L|411:222,3,37.5
458,199,22339,6,0,B|431:172|431:172|379:159,1,75,8|0,0:0|0:0,0:0:0:0:
305,232,22625,1,8,0:0:0:0:
307,322,22768,1,8,0:0:0:0:
307,322,23482,1,8,0:0:0:0:
307,322,24054,1,0,0:0:0:0:
298,324,24125,1,0,0:0:0:0:
288,325,24196,1,0,0:0:0:0:
279,325,24268,1,0,0:0:0:0:
270,323,24339,2,0,L|241:286,3,37.5
267,284,24625,6,0,L|266:196,1,75,8|0,0:0|0:0,0:0:0:0:
152,213,24911,1,8,0:0:0:0:
191,131,25054,1,8,0:0:0:0:
191,131,25339,6,0,B|252:135|252:135|307:157,1,112.5,8|0,0:0|0:0,0:0:0:0:
226,101,25625,2,0,B|165:105|165:105|110:127,1,112.5,8|0,0:0|0:0,0:0:0:0:
189,70,25911,2,0,B|265:74|265:74|334:111,1,150,8|0,0:0|0:0,0:0:0:0:
406,156,26339,5,8,0:0:0:0:
413,161,26410,1,0,0:0:0:0:
420,167,26481,1,0,0:0:0:0:
426,174,26553,1,0,0:0:0:0:
431,182,26624,1,0,0:0:0:0:
435,191,26696,1,0,0:0:0:0:
438,200,26767,1,0,0:0:0:0:
439,209,26839,1,0,0:0:0:0:
439,218,26911,2,0,L|448:273,7,37.5,8|0|0|0|0|0|0|0,0:0|0:0|0:0|0:0|0:0|0:0|0:0|0:0,0:0:0:0:
369,318,27482,6,0,P|366:300|360:283,3,37.5,8|0|0|0,0:0|0:0|0:0|0:0,0:0:0:0:
338,276,27768,2,0,P|329:246|330:225,3,37.5,8|0|0|0,0:0|0:0|0:0|0:0,0:0:0:0:
342,221,28054,2,0,P|339:202|332:185,3,37.5,8|0|0|0,0:0|0:0|0:0|0:0,0:0:0:0:
310,181,28339,2,0,P|301:151|302:130,3,37.5,8|0|0|0,0:0|0:0|0:0|0:0,0:0:0:0:
278,150,28625,5,8,0:0:0:0:
274,141,28696,1,0,0:0:0:0:
271,132,28767,1,0,0:0:0:0:
269,123,28839,1,0,0:0:0:0:
268,113,28910,1,0,0:0:0:0:
268,104,28982,1,0,0:0:0:0:
268,95,29053,1,0,0:0:0:0:
269,85,29125,1,0,0:0:0:0:
270,76,29196,2,0,P|279:46|278:25,7,37.5,8|0|0|0|0|0|0|0,0:0|0:0|0:0|0:0|0:0|0:0|0:0|0:0,0:0:0:0:
256,41,29768,6,0,P|247:11|248:-10,7,37.5,8|0|0|0|0|0|0|0,0:0|0:0|0:0|0:0|0:0|0:0|0:0|0:0,0:0:0:0:
246,6,30339,1,8,0:0:0:0:
392,184,30911,5,0,0:0:0:0:
386,192,30982,1,0,0:0:0:0:
381,199,31053,1,0,0:0:0:0:
375,207,31125,1,0,0:0:0:0:
370,215,31196,1,0,0:0:0:0:
297,269,31339,2,0,L|317:312,2,37.5,0|0|8,0:0|0:0|0:0,0:0:0:0:
223,216,31625,1,0,0:0:0:0:
223,216,31696,1,0,0:0:0:0:
223,216,31768,2,0,L|257:139,1,75
201,72,32054,5,0,0:0:0:0:
192,68,32125,1,0,0:0:0:0:
184,64,32196,1,0,0:0:0:0:
175,61,32268,1,0,0:0:0:0:
166,57,32339,2,0,P|140:40|134:0,4,37.5,0|0|0|0|8,0:0|0:0|0:0|0:0|0:0,0:0:0:0:
231,178,33196,5,0,0:0:0:0:
239,174,33267,1,0,0:0:0:0:
248,171,33338,1,0,0:0:0:0:
257,167,33410,1,0,0:0:0:0:
265,164,33481,1,0,0:0:0:0:
337,108,33625,2,0,B|348:83|348:83|333:45,2,37.5,0|0|8,0:0|0:0|0:0,0:0:0:0:
407,164,33911,1,0,0:0:0:0:
407,164,33982,1,0,0:0:0:0:
407,164,34054,2,0,B|416:209|416:209|390:254,1,75
322,276,34339,5,0,0:0:0:0:
313,271,34410,1,0,0:0:0:0:
305,268,34481,1,0,0:0:0:0:
295,267,34553,1,0,0:0:0:0:
286,267,34624,1,0,0:0:0:0:
176,224,34768,2,0,L|132:244,2,37.5,0|0|8,0:0|0:0|0:0,0:0:0:0:
92,136,35054,2,0,L|136:156,2,37.5
286,144,35482,5,8,0:0:0:0:
294,148,35553,1,0,0:0:0:0:
302,152,35624,1,0,0:0:0:0:
311,155,35696,1,0,0:0:0:0:
320,157,35767,1,0,0:0:0:0:
330,158,35839,1,0,0:0:0:0:
339,159,35910,1,0,0:0:0:0:
348,159,35982,1,0,0:0:0:0:
358,158,36054,2,0,L|402:137,7,37.5,8|0|0|0|0|0|0|0,0:0|0:0|0:0|0:0|0:0|0:0|0:0|0:0,0:0:0:0:
315,60,36625,6,0,L|271:39,3,37.5,8|0|0|0,0:0|0:0|0:0|0:0,0:0:0:0:
292,24,36911,2,0,L|336:3,3,37.5,8|0|0|0,0:0|0:0|0:0|0:0,0:0:0:0:
342,23,37196,2,0,L|375:39,3,37.5,8|0|0|0,0:0|0:0|0:0|0:0,0:0:0:0:
378,61,37482,2,0,L|345:77,3,37.5,8|0|0|0,0:0|0:0|0:0|0:0,0:0:0:0:
360,93,37768,5,8,0:0:0:0:
363,101,37839,1,0,0:0:0:0:
365,110,37910,1,0,0:0:0:0:
367,119,37982,1,0,0:0:0:0:
368,129,38053,1,0,0:0:0:0:
369,138,38125,1,0,0:0:0:0:
368,148,38196,1,0,0:0:0:0:
367,157,38268,1,0,0:0:0:0:
365,166,38339,2,0,L|362:229,7,37.5,8|0|0|0|0|0|0|0,0:0|0:0|0:0|0:0|0:0|0:0|0:0|0:0,0:0:0:0:
354,224,38911,6,0,L|351:287,7,37.5,8|0|0|0|0|0|0|0,0:0|0:0|0:0|0:0|0:0|0:0|0:0|0:0,0:0:0:0:
352,262,39482,1,8,0:0:0:0:
352,262,40054,5,0,0:0:0:0:
346,254,40125,1,0,0:0:0:0:
341,246,40196,1,0,0:0:0:0:
336,238,40268,1,0,0:0:0:0:
331,230,40339,1,0,0:0:0:0:
344,141,40482,2,0,L|353:89,2,37.5,0|0|8,0:0|0:0|0:0,0:0:0:0:
268,90,40768,2,0,L|259:38,2,37.5
163,297,41196,6,0,L|111:306,2,37.5
216,223,41482,2,0,L|268:231,2,37.5
146,164,41768,1,8,0:0:0:0:
146,164,42339,5,8,0:0:0:0:
146,164,42411,1,0,0:0:0:0:
146,164,42482,2,0,L|198:153,1,37.5
265,78,42625,1,0,0:0:0:0:
257,73,42696,1,0,0:0:0:0:
248,69,42767,1,0,0:0:0:0:
239,66,42839,1,0,0:0:0:0:
230,64,42911,2,0,P|199:60|174:71,1,37.5
82,82,43054,1,8,0:0:0:0:
82,82,43125,1,0,0:0:0:0:
82,82,43196,2,0,L|108:142,1,37.5
53,221,43339,2,0,L|27:161,1,37.5
153,251,43482,5,8,0:0:0:0:
153,251,43911,1,0,0:0:0:0:
153,251,43982,1,0,0:0:0:0:
153,251,44054,2,0,B|211:235|246:258|246:258|280:278|281:277|307:263|307:263|343:278|376:259|377:259,1,225,8|0,0:0|0:0,0:0:0:0:
463,203,44625,5,8,0:0:0:0:
335,74,46054,2,0,B|297:84|297:84|261:73,2,75
203,29,46911,6,0,P|188:66|198:104,1,75,8|2,0:0|0:0,0:0:0:0:
235,274,47196,2,0,P|242:237|228:204,1,75,8|2,0:0|0:0,0:0:0:0:
312,131,47482,2,0,L|392:128,1,75,8|0,0:0|0:0,0:0:0:0:
448,44,47768,2,0,L|368:41,1,75,8|0,0:0|0:0,0:0:0:0:
383,253,48054,6,0,B|345:275|345:275|308:278,1,75,8|2,0:0|0:0,0:0:0:0:
229,203,48339,2,0,B|267:181|267:181|304:178,1,75,8|2,0:0|0:0,0:0:0:0:
404,217,48625,2,0,B|366:239|366:239|329:242,1,75,8|2,0:0|0:0,0:0:0:0:
246,171,48911,2,0,B|284:149|284:149|321:146,1,75,8|2,0:0|0:0,0:0:0:0:
311,33,49196,6,0,P|274:18|236:28,1,75,8|2,0:0|0:0,0:0:0:0:
169,81,49482,1,8,0:0:0:0:
105,159,49625,2,0,L|122:241,1,75,2|8,0:0|0:0,0:0:0:0:
142,320,49911,1,2,0:0:0:0:
204,255,50054,1,8,0:0:0:0:
279,337,50196,1,2,0:0:0:0:
360,259,50339,6,0,B|381:214|381:214|372:175,2,75,2|0|8,0:0|0:0|0:0,0:0:0:0:
300,196,50911,2,0,B|279:151|279:151|288:112,2,75,2|0|8,0:0|0:0|0:0,0:0:0:0:
220,62,51482,2,0,B|175:41|175:41|136:50,2,75,2|0|8,0:0|0:0|0:0,0:0:0:0:
152,137,52054,2,0,B|107:158|107:158|68:149,2,75,2|0|8,0:0|0:0|0:0,0:0:0:0:
75,242,52625,6,0,P|125:263|168:243,1,75,8|0,0:0|0:0,0:0:0:0:
114,294,52911,2,0,P|164:273|180:228,1,75,8|0,0:0|0:0,0:0:0:0:
170,303,53196,2,0,P|191:253|170:210,1,75,8|0,0:0|0:0,0:0:0:0:
284,248,53482,1,0,0:0:0:0:
238,160,53625,1,0,0:0:0:0:
238,160,53696,1,0,0:0:0:0:
238,160,53768,6,0,B|277:147|277:147|324:161,1,75,8|0,0:0|0:0,0:0:0:0:
376,224,54054,2,0,P|369:254|392:316,1,75,8|0,0:0|0:0,0:0:0:0:
464,176,54339,2,0,L|496:256,1,75,8|0,0:0|0:0,0:0:0:0:
398,104,54625,2,0,P|405:61|385:17,1,75,8|2,0:0|0:0,0:0:0:0:
292,64,54911,6,0,L|206:90,1,75,8|2,0:0|0:0,0:0:0:0:
128,150,55196,2,0,L|214:176,1,75,8|2,0:0|0:0,0:0:0:0:
294,234,55482,2,0,L|208:260,1,75,8|2,0:0|0:0,0:0:0:0:
130,320,55768,2,0,L|216:346,1,75,8|2,0:0|0:0,0:0:0:0:
315,347,56054,6,0,P|363:322|375:276,1,75,8|2,0:0|0:0,0:0:0:0:
460,184,56339,2,0,P|412:209|400:255,1,75,8|2,0:0|0:0,0:0:0:0:
285,230,56625,1,8,0:0:0:0:
344,134,56768,1,2,0:0:0:0:
285,230,56911,2,0,L|262:265,1,37.5,8|0,0:0|0:0,0:0:0:0:
344,134,57054,2,0,L|367:99,1,37.5,10|0,0:0|0:0,0:0:0:0:
266,61,57196,6,0,L|209:137,2,75,2|0|8,0:0|0:0|0:0,0:0:0:0:
182,203,57768,2,0,L|239:279,2,75,2|0|8,0:0|0:0|0:0,0:0:0:0:
317,266,58339,2,0,L|374:190,2,75,2|0|8,0:0|0:0|0:0,0:0:0:0:
401,124,58911,2,0,L|344:48,2,75,2|0|8,0:0|0:0|0:0,0:0:0:0:
246,92,59482,6,0,B|211:114|211:114|168:109,1,75,8|0,0:0|0:0,0:0:0:0:
217,150,59768,2,0,B|176:140|176:140|149:106,1,75,8|0,0:0|0:0,0:0:0:0:
156,171,60054,2,0,B|134:136|134:136|139:93,1,75,0|8,0:0|0:0,0:0:0:0:
128,12,60339,1,8,0:0:0:0:
55,67,60482,1,0,0:0:0:0:
55,67,60554,1,0,0:0:0:0:
55,67,60625,6,0,L|41:132,11,37.5,8|0|0|0|0|0|0|0|0|0|0|0,0:0|0:0|0:0|0:0|0:0|0:0|0:0|0:0|0:0|0:0|0:0|0:0,0:0:0:0:
69,103,61482,2,0,L|51:188,1,75,2|0,0:0|0:0,0:0:0:0:
200,142,61768,6,0,L|214:77,7,37.5
186,106,62339,2,0,L|204:21,1,75,2|0,0:0|0:0,0:0:0:0:
284,68,62625,2,0,L|356:20,1,75,2|0,0:0|0:0,0:0:0:0:
409,93,62911,5,0,0:0:0:0:
414,99,62982,1,0,0:0:0:0:
419,106,63053,1,0,0:0:0:0:
424,114,63125,1,0,0:0:0:0:
428,122,63196,1,0,0:0:0:0:
432,130,63268,1,0,0:0:0:0:
435,138,63339,1,0,0:0:0:0:
437,147,63411,1,0,0:0:0:0:
439,155,63482,2,0,L|449:208,7,37.5
400,272,64054,5,0,0:0:0:0:
400,272,64125,1,0,0:0:0:0:
400,272,64196,2,0,L|357:228,1,37.5
309,180,64339,2,0,L|266:224,1,37.5
207,257,64482,2,0,L|164:213,1,37.5
100,187,64625,1,8,0:0:0:0:
365,67,65196,6,0,P|312:81|275:70,1,86.2500016450882,2|0,0:0|0:0,0:0:0:0:
172,49,65482,2,0,P|121:62|185:120,1,172.500003290176,8|2,0:0|0:0,0:0:0:0:
173,127,65911,1,2,0:0:0:0:
235,220,66054,6,0,P|249:273|238:310,1,86.2500016450882,8|0,0:0|0:0,0:0:0:0:
341,250,66339,2,0,B|323:193|344:160|344:160|405:171|447:208,1,172.500003290176,2|8,0:0|0:0,0:0:0:0:
418,187,66768,1,2,0:0:0:0:
457,292,66911,2,0,L|362:339,1,86.2500016450882,2|0,0:0|0:0,0:0:0:0:
268,312,67196,2,0,L|173:359,1,86.2500016450882,8|0,0:0|0:0,0:0:0:0:
85,308,67482,6,0,B|114:215|114:215|174:166,1,172.500003290176,2|8,0:0|0:0,0:0:0:0:
172,167,67911,1,0,0:0:0:0:
275,211,68054,2,2,P|289:158|278:121,1,86.2500016450882
165,85,68339,2,0,P|157:127|171:167,1,86.2500016450882,8|0,0:0|0:0,0:0:0:0:
218,270,68625,5,8,0:0:0:0:
224,278,68696,1,0,0:0:0:0:
232,285,68767,1,0,0:0:0:0:
241,291,68839,1,0,0:0:0:0:
251,295,68911,2,0,L|317:288,3,43.1250008225441,8|0|0|0,0:0|0:0|0:0|0:0,0:0:0:0:
318,283,69196,5,8,0:0:0:0:
326,277,69267,1,0,0:0:0:0:
333,269,69338,1,0,0:0:0:0:
339,259,69410,1,0,0:0:0:0:
343,250,69482,2,0,L|335:183,3,43.1250008225441,8|0|0|0,0:0|0:0|0:0|0:0,0:0:0:0:
332,181,69768,6,0,B|295:143|295:143|230:126,1,86.2500016450882,2|0,0:0|0:0,0:0:0:0:
194,44,70054,2,0,P|151:80|159:199,1,172.500003290176,8|2,0:0|0:0,0:0:0:0:
151,189,70482,1,2,0:0:0:0:
217,279,70625,2,0,B|254:317|254:317|319:334,1,86.2500016450882,8|0,0:0|0:0,0:0:0:0:
398,311,70911,6,0,B|429:271|429:271|438:241|438:241|472:238|472:238|518:191,1,172.500003290176,2|8,0:0|0:0,0:0:0:0:
511,197,71339,1,2,0:0:0:0:
427,122,71482,2,0,P|368:101|319:108,1,86.2500016450882,2|0,0:0|0:0,0:0:0:0:
267,184,71768,2,0,P|326:205|375:198,1,86.2500016450882,8|0,0:0|0:0,0:0:0:0:
248,282,72054,6,0,B|200:302|200:302|209:260,1,86.2500016450882,2|0,0:0|0:0,0:0:0:0:
307,217,72339,2,0,B|355:237|355:237|346:195,1,86.2500016450882,8|0,0:0|0:0,0:0:0:0:
254,139,72625,2,0,B|206:159|206:159|215:117,1,86.2500016450882,2|0,0:0|0:0,0:0:0:0:
313,74,72911,2,0,B|361:94|361:94|352:52,1,86.2500016450882,8|0,0:0|0:0,0:0:0:0:
248,19,73196,5,8,0:0:0:0:
248,19,73268,1,0,0:0:0:0:
248,19,73339,1,0,0:0:0:0:
248,19,73411,1,0,0:0:0:0:
248,19,73482,2,0,L|182:41,1,43.1250008225441
160,105,73625,5,8,0:0:0:0:
160,105,73697,1,0,0:0:0:0:
160,105,73768,1,0,0:0:0:0:
160,105,73840,1,0,0:0:0:0:
160,105,73911,2,0,L|226:127,1,43.1250008225441
296,96,74054,5,8,0:0:0:0:
298,106,74125,1,0,0:0:0:0:
300,117,74196,1,0,0:0:0:0:
303,127,74268,1,0,0:0:0:0:
305,138,74339,6,0,L|326:232,1,86.2500016450882,2|0,0:0|0:0,0:0:0:0:
411,189,74625,2,0,L|377:9,1,172.500003290176,8|2,0:0|0:0,0:0:0:0:
378,19,75054,1,2,0:0:0:0:
294,92,75196,2,0,B|246:117|246:117|189:108,1,86.2500016450882,8|0,0:0|0:0,0:0:0:0:
178,219,75482,6,0,B|266:230|266:230|344:191,1,172.500003290176,2|8,0:0|0:0,0:0:0:0:
340,192,75911,1,2,0:0:0:0:
294,92,76054,2,0,P|241:86|193:104,1,86.2500016450882,2|0,0:0|0:0,0:0:0:0:
256,195,76339,2,0,P|309:201|357:183,1,86.2500016450882,8|0,0:0|0:0,0:0:0:0:
423,115,76625,6,0,B|438:174|438:174|426:216|426:216|442:283,1,172.500003290176,2|8,0:0|0:0,0:0:0:0:
441,282,77054,1,2,0:0:0:0:
339,325,77196,2,0,L|232:323,1,86.2500016450882,2|0,0:0|0:0,0:0:0:0:
185,232,77482,2,0,L|292:230,1,86.2500016450882,8|0,0:0|0:0,0:0:0:0:
341,141,77768,5,8,0:0:0:0:
344,130,77839,1,0,0:0:0:0:
347,120,77910,1,0,0:0:0:0:
351,110,77982,1,0,0:0:0:0:
354,99,78054,2,0,L|370:45,3,43.1250008225441,8|0|0|0,0:0|0:0|0:0|0:0,0:0:0:0:
341,49,78339,5,8,0:0:0:0:
331,45,78410,1,0,0:0:0:0:
321,42,78481,1,0,0:0:0:0:
310,39,78553,1,0,0:0:0:0:
300,35,78625,2,0,L|245:19,3,43.1250008225441,8|0|0|0,0:0|0:0|0:0|0:0,0:0:0:0:
232,22,78911,6,0,P|194:55|196:108,1,86.2500016450882,2|0,0:0|0:0,0:0:0:0:
289,138,79196,2,0,P|280:195|187:265,1,172.500003290176,8|2,0:0|0:0,0:0:0:0:
194,263,79625,1,2,0:0:0:0:
294,314,79768,2,0,P|339:300|395:325,1,86.2500016450882,8|0,0:0|0:0,0:0:0:0:
454,229,80054,6,0,B|471:169|457:147|457:147|414:149|357:120,1,172.500003290176,2|8,0:0|0:0,0:0:0:0:
371,127,80482,1,2,0:0:0:0:
269,172,80625,2,0,B|221:175|221:175|241:133,1,86.2500016450882,2|0,0:0|0:0,0:0:0:0:
248,253,80911,2,0,B|231:287|231:287|279:284,1,86.2500016450882,8|0,0:0|0:0,0:0:0:0:
344,193,81196,6,0,P|340:136|309:105,1,86.2500016450882,2|0,0:0|0:0,0:0:0:0:
227,174,81482,2,0,P|231:231|262:262,1,86.2500016450882,8|0,0:0|0:0,0:0:0:0:
322,167,81768,2,0,P|290:119|247:108,1,86.2500016450882,2|0,0:0|0:0,0:0:0:0:
212,209,82054,2,0,P|243:256|342:269,1,129.375002467632,8|0,0:0|0:0,0:0:0:0:
335,273,82339,6,0,B|388:257|388:257|408:211,1,86.2500016450882,8|0,0:0|0:0,0:0:0:0:
460,48,82625,2,0,B|407:64|407:64|387:110,1,86.2500016450882,8|0,0:0|0:0,0:0:0:0:
322,167,82911,1,8,0:0:0:0:
488,209,83054,2,0,L|472:112,1,86.2500016450882,0|8,0:0|0:0,0:0:0:0:
360,44,83482,5,8,0:0:0:0:
350,38,83553,1,0,0:0:0:0:
340,34,83624,1,0,0:0:0:0:
330,31,83696,1,0,0:0:0:0:
319,29,83767,1,0,0:0:0:0:
308,28,83839,1,0,0:0:0:0:
298,28,83910,1,0,0:0:0:0:
287,30,83981,1,0,0:0:0:0:
276,32,84054,2,0,L|272:94,7,43.1250008225441
273,97,84625,6,0,P|250:182|190:92,1,225,2|0,0:0|0:0,0:0:0:0:
199,37,85196,1,8,0:0:0:0:
113,84,85339,1,0,0:0:0:0:
113,84,85411,1,0,0:0:0:0:
113,84,85482,1,0,0:0:0:0:
113,84,85554,1,0,0:0:0:0:
113,84,85625,1,0,0:0:0:0:
113,84,85696,1,0,0:0:0:0:
113,84,85768,6,0,L|120:172,1,75,8|2,0:0|0:0,0:0:0:0:
114,249,86054,2,0,L|108:340,1,75
203,238,86339,2,8,B|245:226|245:226|295:236,1,75,8|2,0:0|0:0,0:0:0:0:
404,300,86625,2,8,B|362:312|362:312|312:302,1,75,8|2,0:0|0:0,0:0:0:0:
416,169,86911,6,0,L|421:81,1,75,8|2,0:0|0:0,0:0:0:0:
311,63,87196,2,0,L|306:151,1,75,8|2,0:0|0:0,0:0:0:0:
404,195,87482,2,0,L|409:107,1,75,8|2,0:0|0:0,0:0:0:0:
299,89,87768,2,0,L|294:177,1,75,8|2,0:0|0:0,0:0:0:0:
244,266,88054,6,0,P|207:288|150:266,1,75,8|2,0:0|0:0,0:0:0:0:
67,256,88339,1,8,0:0:0:0:
4,178,88482,2,0,L|21:96,1,75,2|8,0:0|0:0,0:0:0:0:
40,17,88768,1,2,0:0:0:0:
102,82,88911,1,8,0:0:0:0:
177,0,89053,1,2,0:0:0:0:
258,78,89196,6,0,P|272:126|268:161,2,75,2|0|8,0:0|0:0|0:0,0:0:0:0:
179,145,89768,2,0,P|165:193|169:228,2,75,2|0|8,0:0|0:0|0:0,0:0:0:0:
252,244,90339,2,0,P|266:292|262:327,2,75,2|0|8,0:0|0:0|0:0,0:0:0:0:
173,311,90911,2,0,P|159:359|163:394,2,75,2|0|8,0:0|0:0|0:0,0:0:0:0:
67,319,91482,6,0,L|50:235,1,75,8|0,0:0|0:0,0:0:0:0:
106,262,91768,2,0,L|34:214,1,75,8|0,0:0|0:0,0:0:0:0:
96,198,92054,2,0,L|11:215,1,75,8|0,0:0|0:0,0:0:0:0:
40,88,92339,1,8,0:0:0:0:
128,56,92482,1,0,0:0:0:0:
128,56,92554,1,0,0:0:0:0:
128,56,92625,6,0,P|176:51|204:76,1,75,8|0,0:0|0:0,0:0:0:0:
203,189,92911,2,0,P|192:232|196:268,1,75,8|0,0:0|0:0,0:0:0:0:
284,136,93196,2,0,P|295:179|291:215,1,75,8|0,0:0|0:0,0:0:0:0:
357,98,93482,2,0,L|437:43,1,75,8|2,0:0|0:0,0:0:0:0:
449,164,93768,6,0,B|457:210|457:210|441:242,1,75,8|2,0:0|0:0,0:0:0:0:
350,299,94054,2,0,B|337:273|337:273|345:227,1,75,8|2,0:0|0:0,0:0:0:0:
244,277,94339,2,0,B|252:231|252:231|239:205,1,75,8|2,0:0|0:0,0:0:0:0:
145,142,94625,2,0,B|132:167|132:167|140:213,1,75,8|2,0:0|0:0,0:0:0:0:
187,318,94911,6,0,P|235:293|247:247,1,75,8|2,0:0|0:0,0:0:0:0:
372,104,95196,2,0,P|324:129|312:175,1,75,8|2,0:0|0:0,0:0:0:0:
157,201,95482,1,8,0:0:0:0:
216,105,95625,1,2,0:0:0:0:
157,201,95768,2,0,L|134:236,1,37.5,8|0,0:0|0:0,0:0:0:0:
216,105,95911,2,0,L|239:70,1,37.5,8|0,0:0|0:0,0:0:0:0:
138,33,96054,6,0,L|53:32,2,75,2|0|8,0:0|0:0|0:0,0:0:0:0:
118,131,96625,2,0,L|203:130,2,75,2|0|8,0:0|0:0|0:0,0:0:0:0:
254,224,97196,2,0,L|169:223,2,75,2|0|8,0:0|0:0|0:0,0:0:0:0:
234,322,97768,2,0,L|319:321,2,75,2|0|8,0:0|0:0|0:0,0:0:0:0:
411,273,98339,6,0,P|449:261|490:266,1,75,8|0,0:0|0:0,0:0:0:0:
441,225,98625,2,0,P|403:222|368:234,1,75,8|0,0:0|0:0,0:0:0:0:
394,183,98911,2,0,P|431:180|466:192,1,75,8|0,0:0|0:0,0:0:0:0:
336,132,99196,1,8,0:0:0:0:
431,85,99339,1,0,0:0:0:0:
431,85,99411,1,0,0:0:0:0:
431,85,99482,6,0,L|406:28,11,37.5,8|0|0|0|0|0|0|0|0|0|0|0,0:0|0:0|0:0|0:0|0:0|0:0|0:0|0:0|0:0|0:0|0:0|0:0,0:0:0:0:
399,34,100339,2,0,P|342:26|311:37,1,75,2|0,0:0|0:0,0:0:0:0:
267,99,100625,2,0,L|242:156,7,37.5
244,154,101196,2,0,L|213:232,1,75,2|0,0:0|0:0,0:0:0:0:
305,240,101482,2,0,L|336:318,1,75,2|0,0:0|0:0,0:0:0:0:
398,246,101768,5,0,0:0:0:0:
403,240,101839,1,0,0:0:0:0:
408,233,101910,1,0,0:0:0:0:
413,225,101982,1,0,0:0:0:0:
417,217,102053,1,0,0:0:0:0:
421,209,102125,1,0,0:0:0:0:
424,201,102196,1,0,0:0:0:0:
426,192,102268,1,0,0:0:0:0:
428,184,102339,2,0,L|438:131,7,37.5
389,67,102911,5,0,0:0:0:0:
389,67,102982,1,0,0:0:0:0:
389,67,103053,2,0,L|346:111,1,37.5
274,73,103196,2,0,L|317:29,1,37.5
376,95,103339,2,0,L|333:139,1,37.5
243,162,103482,1,8,0:0:0:0:
243,162,104054,5,2,0:0:0:0:
243,162,104125,1,0,0:0:0:0:
243,162,104196,1,0,0:0:0:0:
243,162,104268,1,0,0:0:0:0:
243,162,104339,2,0,L|322:170,1,75,8|0,0:0|0:0,0:0:0:0:
356,251,104625,1,2,0:0:0:0:
356,251,104697,1,0,0:0:0:0:
356,251,104768,2,0,L|277:259,1,75,8|0,0:0|0:0,0:0:0:0:
191,270,105054,1,2,0:0:0:0:
174,260,105125,1,0,0:0:0:0:
161,247,105196,6,0,L|114:164,1,75,8|0,0:0|0:0,0:0:0:0:
180,111,105482,2,0,L|204:62,3,37.5,8|8|0|0,0:0|0:0|0:0|0:0,0:0:0:0:
239,90,105768,2,0,L|290:72,3,37.5
278,123,106054,2,0,L|327:146,3,37.5
289,178,106339,6,0,L|316:271,1,75,2|0,0:0|0:0,0:0:0:0:
407,331,106625,2,0,B|487:361|487:361|482:268,1,172.500003290176,8|2,0:0|0:0,0:0:0:0:
482,274,107054,1,2,0:0:0:0:
417,183,107196,2,0,P|396:124|403:75,1,86.2500016450882,8|0,0:0|0:0,0:0:0:0:
492,160,107482,6,0,P|478:237|370:241,1,172.500003290176,2|8,0:0|0:0,0:0:0:0:
394,256,107911,1,2,0:0:0:0:
300,317,108054,2,0,P|241:338|192:331,1,86.2500016450882,2|0,0:0|0:0,0:0:0:0:
140,256,108339,2,0,P|199:235|248:242,1,86.2500016450882,8|0,0:0|0:0,0:0:0:0:
324,187,108625,6,0,B|377:68|377:68|336:83,1,172.500003290176,2|8,0:0|0:0,0:0:0:0:
337,82,109054,1,2,0:0:0:0:
221,235,109196,2,0,P|250:271|298:282,1,86.2500016450882,2|0,0:0|0:0,0:0:0:0:
390,234,109482,2,0,P|361:198|313:187,1,86.2500016450882,8|0,0:0|0:0,0:0:0:0:
256,135,109768,5,8,0:0:0:0:
245,131,109839,1,0,0:0:0:0:
235,127,109910,1,0,0:0:0:0:
225,123,109982,1,0,0:0:0:0:
215,119,110054,2,0,L|169:94,3,43.1250008225441,8|0|0|0,0:0|0:0|0:0|0:0,0:0:0:0:
152,98,110339,5,8,0:0:0:0:
141,98,110410,1,0,0:0:0:0:
130,101,110481,1,0,0:0:0:0:
121,106,110553,1,0,0:0:0:0:
112,112,110625,2,0,L|70:159,3,43.1250008225441,8|0|0|0,0:0|0:0|0:0|0:0,0:0:0:0:
67,165,110911,6,0,B|94:209|94:209|151:222,1,86.2500016450882,2|0,0:0|0:0,0:0:0:0:
238,236,111196,2,0,B|290:235|325:265|325:265|357:245|405:255,1,172.500003290176,8|2,0:0|0:0,0:0:0:0:
401,254,111625,1,2,0:0:0:0:
450,153,111768,2,0,P|461:99|446:67,1,86.2500016450882,8|0,0:0|0:0,0:0:0:0:
353,21,112054,6,0,P|316:66|399:107,1,172.500003290176,2|8,0:0|0:0,0:0:0:0:
392,111,112482,1,2,0:0:0:0:
456,204,112625,2,0,B|433:253|433:253|393:273,1,86.2500016450882,2|0,0:0|0:0,0:0:0:0:
290,269,112911,2,0,B|313:220|313:220|353:200,1,86.2500016450882,8|0,0:0|0:0,0:0:0:0:
334,317,113196,6,0,L|220:316,1,86.2500016450882,2|0,0:0|0:0,0:0:0:0:
301,216,113482,2,0,L|187:215,1,86.2500016450882,10|0,0:0|0:0,0:0:0:0:
261,112,113768,2,0,L|147:111,1,86.2500016450882,2|0,0:0|0:0,0:0:0:0:
223,9,114054,2,0,L|109:8,1,86.2500016450882,10|0,0:0|0:0,0:0:0:0:
65,94,114339,5,8,0:0:0:0:
65,94,114411,1,0,0:0:0:0:
65,94,114482,1,0,0:0:0:0:
65,94,114554,1,0,0:0:0:0:
65,94,114625,2,0,L|109:109,1,43.1250008225441
199,170,114768,5,8,0:0:0:0:
199,170,114840,1,0,0:0:0:0:
199,170,114911,1,0,0:0:0:0:
199,170,114983,1,0,0:0:0:0:
199,170,115054,2,0,L|155:185,1,43.1250008225441
75,258,115196,5,8,0:0:0:0:
85,261,115267,1,0,0:0:0:0:
95,265,115338,1,0,0:0:0:0:
105,269,115410,1,0,0:0:0:0:
115,273,115482,6,0,P|171:290|222:279,1,86.2500016450882,2|0,0:0|0:0,0:0:0:0:
299,261,115768,2,0,P|343:235|271:233,1,172.500003290176,8|2,0:0|0:0,0:0:0:0:
271,214,116196,1,2,0:0:0:0:
317,353,116339,2,0,L|433:346,1,86.2500016450882,8|0,0:0|0:0,0:0:0:0:
504,239,116625,6,0,L|316:249,1,172.500003290176,2|8,0:0|0:0,0:0:0:0:
331,248,117054,1,2,0:0:0:0:
239,294,117196,2,0,B|215:253|215:253|228:207,1,86.2500016450882,2|0,0:0|0:0,0:0:0:0:
318,169,117482,2,0,B|342:210|342:210|329:256,1,86.2500016450882,8|0,0:0|0:0,0:0:0:0:
260,366,117768,6,0,P|196:355|179:253,1,172.500003290176,2|8,0:0|0:0,0:0:0:0:
174,260,118196,1,2,0:0:0:0:
233,176,118339,2,0,P|245:122|222:82,1,86.2500016450882,2|0,0:0|0:0,0:0:0:0:
141,45,118625,2,0,P|129:99|152:139,1,86.2500016450882,8|0,0:0|0:0,0:0:0:0:
233,176,118911,5,8,0:0:0:0:
243,179,118982,1,0,0:0:0:0:
253,182,119053,1,0,0:0:0:0:
263,185,119125,1,0,0:0:0:0:
274,189,119196,2,0,L|323:202,3,43.1250008225441,8|0|0|0,0:0|0:0|0:0|0:0,0:0:0:0:
333,181,119482,5,8,0:0:0:0:
344,184,119553,1,0,0:0:0:0:
354,188,119624,1,0,0:0:0:0:
364,191,119696,1,0,0:0:0:0:
374,194,119767,2,0,L|422:206,3,43.1250008225441,8|0|0|0,0:0|0:0|0:0|0:0,0:0:0:0:
436,189,120054,6,0,P|445:234|418:280,1,86.2500016450882,2|0,0:0|0:0,0:0:0:0:
329,322,120339,2,0,B|241:347|241:347|150:314,1,172.500003290176,8|2,0:0|0:0,0:0:0:0:
164,319,120768,1,2,0:0:0:0:
122,215,120911,2,0,L|95:123,1,86.2500016450882,8|0,0:0|0:0,0:0:0:0:
174,50,121196,6,0,B|311:52|311:52|260:86,1,172.500003290176,2|8,0:0|0:0,0:0:0:0:
281,71,121625,1,2,0:0:0:0:
226,169,121768,2,0,B|226:223|226:223|249:251,1,86.2500016450882,2|0,0:0|0:0,0:0:0:0:
357,268,122054,2,0,B|357:214|357:214|334:186,1,86.2500016450882,8|0,0:0|0:0,0:0:0:0:
269,99,122339,6,0,P|208:90|175:105,1,86.2500016450882,10|0,0:0|0:0,0:0:0:0:
233,200,122625,2,0,P|294:209|327:194,1,86.2500016450882,8|0,0:0|0:0,0:0:0:0:
289,87,122911,2,0,P|228:78|195:93,1,86.2500016450882,2|0,0:0|0:0,0:0:0:0:
253,188,123197,2,0,P|314:197|369:162,1,129.375002467632,10|0,0:0|0:0,0:0:0:0:
382,140,123482,6,0,P|413:184|403:241,1,86.2500016450882,8|0,0:0|0:0,0:0:0:0:
304,360,123768,2,0,P|273:316|283:259,1,86.2500016450882,8|0,0:0|0:0,0:0:0:0:
393,309,124054,1,8,0:0:0:0:
332,225,124196,1,0,0:0:0:0:
332,225,124268,1,0,0:0:0:0:
332,225,124339,2,0,L|280:141,1,86.2500016450882,8|0,0:0|0:0,0:0:0:0:
293,47,124625,5,0,0:0:0:0:
283,41,124696,1,8,0:0:0:0:
273,37,124767,1,0,0:0:0:0:
263,34,124839,1,0,0:0:0:0:
252,32,124910,1,0,0:0:0:0:
241,31,124982,1,0,0:0:0:0:
231,31,125053,1,0,0:0:0:0:
220,33,125124,1,0,0:0:0:0:
209,35,125197,2,0,L|206:90,7,43.1250008225441
205,100,125768,6,0,P|228:185|288:97,1,225,8|0,0:0|0:0,0:0:0:0:
298,21,126339,1,8,0:0:0:0:
393,80,126482,1,0,0:0:0:0:
393,80,126554,1,0,0:0:0:0:
393,80,126625,1,0,0:0:0:0:
393,80,126697,1,0,0:0:0:0:
393,80,126768,1,0,0:0:0:0:
393,80,126839,1,0,0:0:0:0:
393,80,126911,6,0,L|400:141,2,37.5
314,124,127196,2,0,L|275:172,2,37.5
233,83,127482,1,8,0:0:0:0:
159,30,127625,2,0,L|98:37,2,37.5
132,208,128054,6,0,P|105:196|71:207,2,37.5
121,297,128339,2,0,P|148:309|182:298,2,37.5
55,234,128625,2,0,P|59:181|153:123,1,150,8|0,0:0|0:0,0:0:0:0:
303,71,129196,6,0,B|325:93|325:93|319:123,2,37.5
219,106,129482,2,0,B|197:84|197:84|203:54,2,37.5
274,178,129768,1,8,0:0:0:0:
334,245,129911,2,0,L|369:279,2,37.5
403,187,130196,1,0,0:0:0:0:
403,187,130339,5,8,0:0:0:0:
403,187,130911,1,8,0:0:0:0:
403,187,131482,6,0,L|460:200,2,37.5
315,161,131768,2,0,L|258:174,2,37.5
386,104,132054,1,8,0:0:0:0:
309,57,132196,2,0,L|252:44,2,37.5
152,147,132625,6,0,L|131:196,2,37.5
61,148,132911,2,0,L|11:167,2,37.5
24,65,133196,2,0,P|74:46|189:57,1,150,8|0,0:0|0:0,0:0:0:0:
348,71,133768,5,8,0:0:0:0:
348,71,133839,1,0,0:0:0:0:
348,71,133911,2,0,L|296:101,1,37.5
249,151,134054,1,8,0:0:0:0:
249,151,134125,1,0,0:0:0:0:
249,151,134196,1,0,0:0:0:0:
249,151,134268,1,0,0:0:0:0:
249,151,134339,2,0,L|301:184,1,37.5
343,236,134482,1,8,0:0:0:0:
343,236,134554,1,0,0:0:0:0:
343,236,134625,2,0,L|291:266,1,37.5
237,308,134768,2,0,L|289:338,1,37.5
396,364,134911,5,8,0:0:0:0:
396,364,136054,5,0,0:0:0:0:
396,364,136196,1,0,0:0:0:0:
316,273,136482,5,0,0:0:0:0:
316,273,136625,1,10,0:0:0:0:
208,325,136911,6,0,B|151:336|151:336|121:321,1,75
81,221,137339,6,0,B|138:210|138:210|168:225,1,75
266,257,137768,6,0,L|351:294,1,75,8|0,0:0|0:0,0:0:0:0:
441,342,138196,5,0,0:0:0:0:
441,342,138339,5,0,0:0:0:0:
485,263,138482,1,0,0:0:0:0:
336,161,138768,5,0,0:0:0:0:
380,240,138911,1,10,0:0:0:0:
215,311,139196,6,0,L|123:312,1,75
34,165,139625,6,0,L|126:164,1,75
279,223,140054,5,8,0:0:0:0:
362,140,140625,5,0,0:0:0:0:
362,140,140767,1,0,0:0:0:0:
282,231,141053,5,0,0:0:0:0:
282,231,141196,1,10,0:0:0:0:
174,179,141482,6,0,B|117:168|117:168|87:183,1,75
47,283,141911,6,0,B|104:294|104:294|134:279,1,75
232,247,142339,6,0,L|317:210,1,75,8|0,0:0|0:0,0:0:0:0:
407,162,142767,5,0,0:0:0:0:
407,162,142910,5,0,0:0:0:0:
451,241,143053,1,0,0:0:0:0:
302,343,143339,5,0,0:0:0:0:
346,264,143482,1,8,0:0:0:0:
181,193,143768,6,0,L|89:192,1,75
120,101,144054,6,0,L|156:64,3,37.5,8|0|0|0,0:0|0:0|0:0|0:0,0:0:0:0:
185,96,144339,2,0,L|236:95,3,37.5,8|0|0|0,0:0|0:0|0:0|0:0,0:0:0:0:
230,140,144625,2,0,L|267:176,3,37.5,8|0|0|0,0:0|0:0|0:0|0:0,0:0:0:0:
235,205,144910,2,0,L|235:256,3,37.5,8|0|0|0,0:0|0:0|0:0|0:0,0:0:0:0:
190,238,145196,5,0,0:0:0:0:
134,308,145339,1,0,0:0:0:0:
99,131,145625,5,0,0:0:0:0:
186,153,145768,1,10,0:0:0:0:
350,78,146054,5,0,0:0:0:0:
350,78,146196,1,0,0:0:0:0:
420,243,146482,5,0,0:0:0:0:
420,243,146625,1,0,0:0:0:0:
250,183,146911,5,8,0:0:0:0:
250,183,147054,1,0,0:0:0:0:
423,136,147339,5,8,0:0:0:0:
423,136,147482,5,0,0:0:0:0:
346,184,147625,1,0,0:0:0:0:
173,231,147911,5,0,0:0:0:0:
250,183,148054,1,10,0:0:0:0:
338,339,148339,5,0,0:0:0:0:
338,339,148482,1,0,0:0:0:0:
157,344,148768,5,0,0:0:0:0:
157,344,148911,1,0,0:0:0:0:
234,182,149196,5,4,0:0:0:0:
234,182,149768,5,0,0:0:0:0:
307,130,149911,1,0,0:0:0:0:
221,287,150196,5,0,0:0:0:0:
144,239,150339,1,10,0:0:0:0:
324,235,150625,5,0,0:0:0:0:
324,235,150768,1,0,0:0:0:0:
172,138,151054,5,0,0:0:0:0:
172,138,151196,1,0,0:0:0:0:
245,302,151482,5,8,0:0:0:0:
245,302,151625,1,0,0:0:0:0:
305,234,151768,1,0,0:0:0:0:
305,234,151911,1,0,0:0:0:0:
217,212,152054,6,0,L|157:224,3,37.5,8|0|0|0,0:0|0:0|0:0|0:0,0:0:0:0:
156,181,152339,2,0,L|216:193,3,37.5,8|0|0|0,0:0|0:0|0:0|0:0,0:0:0:0:
218,151,152625,2,0,L|158:163,3,37.5,8|0|0|0,0:0|0:0|0:0|0:0,0:0:0:0:
157,120,152910,2,0,L|217:132,3,37.5,8|0|0|0,0:0|0:0|0:0|0:0,0:0:0:0:
207,84,153196,5,12,0:0:0:0:
256,192,155196,5,0,0:0:0:0:
256,192,155482,1,4,0:0:0:0:
153,279,156625,5,4,0:0:0:0:
431,50,157196,1,4,0:0:0:0:
83,144,157768,1,4,0:0:0:0:
103,57,160054,6,0,L|62:156,1,75,2|0,0:0|0:0,0:0:0:0:
158,158,160339,2,0,L|144:264,1,75,2|0,0:0|0:0,0:0:0:0:
237,218,160625,2,0,L|250:324,1,75,2|0,0:0|0:0,0:0:0:0:
335,278,160911,2,0,L|376:376,1,75,2|0,0:0|0:0,0:0:0:0:
256,192,161196,12,0,164339,0:0:0:0:
89,227,164625,6,0,P|163:260|245:218,1,150,2|8,0:0|0:0,0:0:0:0:
286,143,165054,2,0,L|259:310,1,150,0|2,0:0|0:0,0:0:0:0:
367,250,165482,2,0,B|411:267|411:267|455:249,1,75,8|0,0:0|0:0,0:0:0:0:
469,147,165768,6,0,P|465:105|417:158,1,150,2|8,0:0|0:0,0:0:0:0:
367,250,166196,1,2,0:0:0:0:
289,167,166339,2,0,P|252:157|210:173,1,75,2|0,0:0|0:0,0:0:0:0:
149,257,166625,2,0,P|184:267|220:257,1,75,8|0,0:0|0:0,0:0:0:0:
406,146,166911,6,0,B|435:119|445:85|445:85|433:50|374:30,1,150,2|8,0:0|0:0,0:0:0:0:
266,122,167339,1,2,0:0:0:0:
248,233,167482,2,0,L|335:272,1,75,2|0,0:0|0:0,0:0:0:0:
409,315,167768,2,0,L|322:354,1,75,8|0,0:0|0:0,0:0:0:0:
242,341,168054,5,8,0:0:0:0:
232,339,168125,1,0,0:0:0:0:
223,337,168196,1,0,0:0:0:0:
214,336,168268,1,0,0:0:0:0:
205,334,168339,2,0,L|142:314,3,37.5,8|0|0|0,0:0|0:0|0:0|0:0,0:0:0:0:
166,300,168625,5,8,0:0:0:0:
157,299,168696,1,0,0:0:0:0:
147,297,168767,1,0,0:0:0:0:
138,295,168839,1,0,0:0:0:0:
129,294,168910,2,0,L|65:273,3,37.5,8|0|0|0,0:0|0:0|0:0|0:0,0:0:0:0:
70,285,169196,6,0,P|51:243|68:208,1,75,2|0,0:0|0:0,0:0:0:0:
104,113,169482,2,0,L|249:185,1,150,8|2,0:0|0:0,0:0:0:0:
338,232,169911,1,2,0:0:0:0:
393,133,170054,2,0,B|418:93|418:93|402:48,1,75,8|0,0:0|0:0,0:0:0:0:
254,113,170339,6,0,B|230:177|230:177|261:263,1,150,2|8,0:0|0:0,0:0:0:0:
328,342,170768,1,2,0:0:0:0:
216,329,170911,2,0,B|194:331|176:308|155:328|133:322,1,75,2|0,0:0|0:0,0:0:0:0:
64,241,171196,2,0,B|85:243|103:220|124:240|147:234,1,75,8|0,0:0|0:0,0:0:0:0:
251,229,171482,6,0,L|341:233,1,75,2|0,0:0|0:0,0:0:0:0:
435,202,171768,2,0,L|431:292,1,75,8|0,0:0|0:0,0:0:0:0:
337,340,172054,2,0,L|247:336,1,75,2|0,0:0|0:0,0:0:0:0:
153,367,172340,2,0,L|157:277,1,75,8|0,0:0|0:0,0:0:0:0:
161,179,172625,5,8,0:0:0:0:
161,179,172696,1,0,0:0:0:0:
161,179,172768,1,0,0:0:0:0:
161,179,172839,1,0,0:0:0:0:
161,179,172911,2,0,L|194:142,1,37.5
298,164,173054,5,8,0:0:0:0:
298,164,173125,1,0,0:0:0:0:
298,164,173197,1,0,0:0:0:0:
298,164,173268,1,0,0:0:0:0:
298,164,173340,2,0,L|265:201,1,37.5
191,268,173482,5,8,0:0:0:0:
204,280,173553,1,0,0:0:0:0:
220,290,173624,1,0,0:0:0:0:
238,295,173696,1,0,0:0:0:0:
257,297,173768,6,0,P|301:301|350:267,1,75,2|0,0:0|0:0,0:0:0:0:
434,330,174054,2,0,B|456:356|456:356|436:207,1,150,8|2,0:0|0:0,0:0:0:0:
434,94,174482,1,2,0:0:0:0:
334,147,174625,2,0,B|311:186|311:186|330:232,1,75,8|0,0:0|0:0,0:0:0:0:
252,124,174911,6,0,L|346:4,1,150,2|8,0:0|0:0,0:0:0:0:
233,24,175339,1,2,0:0:0:0:
120,30,175482,2,0,P|79:55|60:86,1,75,2|0,0:0|0:0,0:0:0:0:
91,186,175768,2,0,P|132:161|151:130,1,75,8|0,0:0|0:0,0:0:0:0:
233,24,176054,6,0,P|232:99|260:178,1,150,2|8,0:0|0:0,0:0:0:0:
307,269,176482,1,2,0:0:0:0:
394,197,176625,2,0,B|424:169|424:169|436:225,1,75,2|0,0:0|0:0,0:0:0:0:
461,311,176911,2,0,B|431:339|431:339|419:283,1,75,8|0,0:0|0:0,0:0:0:0:
392,197,177196,5,2,0:0:0:0:
391,187,177267,1,0,0:0:0:0:
389,178,177338,1,0,0:0:0:0:
386,170,177410,1,0,0:0:0:0:
380,162,177482,2,0,L|367:108,3,37.5,2|0|0|0,0:0|0:0|0:0|0:0,0:0:0:0:
356,113,177768,5,2,0:0:0:0:
356,103,177839,1,0,0:0:0:0:
358,94,177910,1,0,0:0:0:0:
362,86,177982,1,0,0:0:0:0:
367,78,178054,2,0,L|380:23,3,37.5,2|0|0|0,0:0|0:0|0:0|0:0,0:0:0:0:
394,29,178339,6,0,L|309:19,1,75,2|0,0:0|0:0,0:0:0:0:
223,79,178625,2,0,L|65:64,1,150,8|2,0:0|0:0,0:0:0:0:
2,152,179054,1,2,0:0:0:0:
94,214,179196,2,0,L|192:227,1,75,8|0,0:0|0:0,0:0:0:0:
281,225,179482,6,0,P|316:199|237:167,1,150,2|8,0:0|0:0,0:0:0:0:
171,219,179911,1,2,0:0:0:0:
253,295,180054,2,0,P|312:296|338:260,1,75,2|0,0:0|0:0,0:0:0:0:
320,175,180339,2,0,P|261:174|235:210,1,75,8|0,0:0|0:0,0:0:0:0:
144,324,180625,6,0,B|67:381,1,75,2|0,0:0|0:0,0:0:0:0:
88,224,180911,2,0,B|-7:209,1,75,8|0,0:0|0:0,0:0:0:0:
64,112,181196,2,0,B|7:35,1,75,2|0,0:0|0:0,0:0:0:0:
155,15,181482,2,0,B|227:113,1,112.5,8|0,0:0|0:0,0:0:0:0:
236,122,181768,6,0,P|276:98|295:54,1,75,8|0,0:0|0:0,0:0:0:0:
400,52,182054,2,0,P|360:28|341:-16,1,75,8|0,0:0|0:0,0:0:0:0:
404,135,182339,1,8,0:0:0:0:
420,246,182482,1,0,0:0:0:0:
420,246,182554,1,0,0:0:0:0:
420,246,182625,2,0,L|435:340,1,75,8|0,0:0|0:0,0:0:0:0:
287,291,182911,6,0,B|239:268|239:268|166:271,1,97.4999955368044,2|0,0:0|0:0,0:0:0:0:
209,138,183196,2,0,L|421:134,1,194.999991073609,8|2,0:0|0:0,0:0:0:0:
324,34,183625,1,2,0:0:0:0:
199,60,183768,2,0,P|148:85|132:150,1,97.4999955368044,8|0,0:0|0:0,0:0:0:0:
253,156,184054,6,0,P|292:185|276:104,1,194.999991073609,2|8,0:0|0:0,0:0:0:0:
131,119,184482,1,2,0:0:0:0:
192,240,184625,2,0,L|242:341,1,97.4999955368044,2|0,0:0|0:0,0:0:0:0:
126,308,184911,2,0,L|76:207,1,97.4999955368044,8|0,0:0|0:0,0:0:0:0:
131,119,185196,6,0,B|180:81|180:81|277:72|277:72|238:93,1,194.999991073609,2|8,0:0|0:0,0:0:0:0:
214,200,185625,1,2,0:0:0:0:
332,155,185768,2,0,L|408:89,1,97.4999955368044,2|0,0:0|0:0,0:0:0:0:
417,218,186054,2,0,L|341:284,1,97.4999955368044,8|0,0:0|0:0,0:0:0:0:
221,317,186339,5,8,0:0:0:0:
196,319,186410,1,0,0:0:0:0:
172,316,186481,1,0,0:0:0:0:
150,306,186553,1,0,0:0:0:0:
131,291,186625,2,0,L|104:234,3,48.7499977684022,8|0|0|0,0:0|0:0|0:0|0:0,0:0:0:0:
72,178,186911,5,8,0:0:0:0:
53,162,186982,1,0,0:0:0:0:
39,143,187053,1,0,0:0:0:0:
30,120,187125,1,0,0:0:0:0:
27,96,187197,2,0,L|48:36,3,48.7499977684022,8|0|0|0,0:0|0:0|0:0|0:0,0:0:0:0:
120,40,187482,6,0,B|155:79|155:79|224:97,1,97.4999955368044,2|0,0:0|0:0,0:0:0:0:
326,90,187768,2,0,B|357:51|388:61|388:61|367:143|389:199,1,194.999991073609,8|2,0:0|0:0,0:0:0:0:
443,293,188196,1,2,0:0:0:0:
321,256,188339,2,0,P|268:229|216:247,1,97.4999955368044,8|0,0:0|0:0,0:0:0:0:
118,292,188625,6,0,B|28:330|28:330|55:227,1,194.999991073609,2|8,0:0|0:0,0:0:0:0:
141,143,189054,1,2,0:0:0:0:
191,258,189196,2,0,P|198:318|156:364,1,97.4999955368044,2|0,0:0|0:0,0:0:0:0:
52,235,189482,2,0,P|45:175|87:129,1,97.4999955368044,8|0,0:0|0:0,0:0:0:0:
144,46,189768,6,0,B|194:58|194:58|264:45,1,97.4999955368044,2|0,0:0|0:0,0:0:0:0:
337,131,190054,2,0,B|286:143|286:143|217:130,1,97.4999955368044,8|0,0:0|0:0,0:0:0:0:
144,215,190339,2,0,B|194:227|194:227|264:214,1,97.4999955368044,2|0,0:0|0:0,0:0:0:0:
337,300,190625,2,0,B|286:312|286:312|217:299,1,97.4999955368044,8|0,0:0|0:0,0:0:0:0:
115,287,190911,5,8,0:0:0:0:
93,274,190982,1,0,0:0:0:0:
78,256,191053,1,0,0:0:0:0:
69,233,191125,1,0,0:0:0:0:
69,209,191196,2,0,L|93:147,1,48.7499977684022
144,97,191339,5,8,0:0:0:0:
165,109,191410,1,0,0:0:0:0:
181,128,191481,1,0,0:0:0:0:
190,150,191553,1,0,0:0:0:0:
190,174,191624,2,0,L|166:236,1,48.7499977684022
228,289,191768,5,8,0:0:0:0:
262,275,191839,1,0,0:0:0:0:
296,262,191910,1,0,0:0:0:0:
330,249,191982,1,0,0:0:0:0:
364,236,192054,6,0,L|472:185,1,97.4999955368044,2|0,0:0|0:0,0:0:0:0:
416,72,192339,2,0,L|211:158,1,194.999991073609,8|2,0:0|0:0,0:0:0:0:
120,201,192768,1,2,0:0:0:0:
205,288,192911,2,0,P|265:309|318:282,1,97.4999955368044,8|0,0:0|0:0,0:0:0:0:
412,250,193196,6,0,P|443:193|409:64,1,194.999991073609,2|8,0:0|0:0,0:0:0:0:
296,26,193625,1,2,0:0:0:0:
321,150,193768,2,0,B|379:166|379:166|443:137,1,97.4999955368044,2|0,0:0|0:0,0:0:0:0:
504,249,194054,2,0,B|446:265|446:265|382:236,1,97.4999955368044,8|0,0:0|0:0,0:0:0:0:
285,251,194339,6,0,B|155:270|155:270|212:224,1,194.999991073609,2|8,0:0|0:0,0:0:0:0:
277,125,194768,1,2,0:0:0:0:
356,224,194911,2,0,P|356:282|316:318,1,97.4999955368044,2|0,0:0|0:0,0:0:0:0:
252,211,195196,2,0,P|252:153|292:117,1,97.4999955368044,8|0,0:0|0:0,0:0:0:0:
382,53,195482,5,0,0:0:0:0:
418,51,195553,1,0,0:0:0:0:
450,67,195624,1,0,0:0:0:0:
469,98,195696,1,0,0:0:0:0:
469,134,195767,1,0,0:0:0:0:
452,166,195839,1,0,0:0:0:0:
420,184,195910,1,0,0:0:0:0:
384,183,195982,1,0,0:0:0:0:
353,164,196054,5,0,0:0:0:0:
328,137,196125,1,0,0:0:0:0:
293,127,196196,1,0,0:0:0:0:
258,135,196268,1,0,0:0:0:0:
232,160,196339,1,0,0:0:0:0:
222,195,196411,1,0,0:0:0:0:
231,230,196482,1,0,0:0:0:0:
257,256,196554,1,0,0:0:0:0:
292,265,196625,6,0,L|447:263,1,146.249993305207,2|0,0:0|0:0,0:0:0:0:
454,238,196911,2,0,P|471:292|444:338,1,97.4999955368044,8|0,0:0|0:0,0:0:0:0:
330,351,197196,1,2,0:0:0:0:
356,226,197339,1,2,0:0:0:0:
422,333,197482,1,8,0:0:0:0:
265,278,197625,1,0,0:0:0:0:
365,145,197768,6,0,B|397:62|397:62|310:137,1,194.999991073609,2|8,0:0|0:0,0:0:0:0:
217,210,198196,1,0,0:0:0:0:
224,83,198339,1,2,0:0:0:0:
113,145,198482,1,2,0:0:0:0:
224,83,198625,1,8,0:0:0:0:
217,210,198768,1,0,0:0:0:0:
113,145,198911,6,0,P|56:117|11:130,1,97.4999955368044,2|0,0:0|0:0,0:0:0:0:
62,243,199196,2,0,P|119:271|164:258,1,97.4999955368044,8|0,0:0|0:0,0:0:0:0:
182,141,199482,2,0,P|125:113|80:126,1,97.4999955368044,2|0,0:0|0:0,0:0:0:0:
131,239,199768,2,0,P|188:267|233:254,1,97.4999955368044,8|0,0:0|0:0,0:0:0:0:
306,166,200054,2,0,L|304:280,1,97.4999955368044
391,260,200339,2,0,L|504:264,1,97.4999955368044
486,176,200625,2,0,L|488:72,1,97.4999955368044
399,83,200911,2,0,L|296:80,1,97.4999955368044
192,72,201196,6,0,L|139:70,16,48.7499977684022,0|0|0|0|0|0|0|0|0|0|0|0|0|0|0|0|8,0:0|0:0|0:0|0:0|0:0|0:0|0:0|0:0|0:0|0:0|0:0|0:0|0:0|0:0|0:0|0:0|0:0,0:0:0:0:
118,181,202911,1,8,0:0:0:0:
76,71,203196,1,8,0:0:0:0:
185,28,203482,6,0,L|228:124,1,97.4999955368044,8|0,0:0|0:0,0:0:0:0:
256,189,203768,1,2,0:0:0:0:
256,189,204054,6,0,L|218:287,1,97.4999955368044,8|0,0:0|0:0,0:0:0:0:
193,354,204340,1,2,0:0:0:0:
342,309,204625,6,0,B|394:282|394:282|399:223,1,97.4999955368044,8|0,0:0|0:0,0:0:0:0:
400,164,204911,1,2,0:0:0:0:
400,164,205196,6,0,B|417:108|417:108|379:62,1,97.4999955368044,8|0,0:0|0:0,0:0:0:0:
338,20,205482,1,2,0:0:0:0:
184,50,205768,5,0,0:0:0:0:
152,68,205839,1,0,0:0:0:0:
127,94,205910,1,0,0:0:0:0:
111,127,205982,1,0,0:0:0:0:
105,163,206053,1,0,0:0:0:0:
111,199,206125,1,0,0:0:0:0:
126,232,206196,1,0,0:0:0:0:
151,259,206268,1,0,0:0:0:0:
190,287,206339,5,4,0:0:0:0:
251,154,206482,1,4,0:0:0:0:
294,336,206625,1,4,0:0:0:0:
