osu file format v14

[General]
AudioFilename: audio.mp3
AudioLeadIn: 0
PreviewTime: 192339
Countdown: 1
SampleSet: Soft
StackLeniency: 0.7
Mode: 0
LetterboxInBreaks: 0
WidescreenStoryboard: 0

[Editor]
DistanceSpacing: 1.5
BeatDivisor: 4
GridSize: 8
TimelineZoom: 2.7

[Metadata]
Title:Victims Of Contingency
TitleUnicode:Victims Of Contingency
Artist:Epica
ArtistUnicode:Epica
Creator:Gus
Version:Ignorance
Source:
Tags:
BeatmapID:1368452
BeatmapSetID:645846

[Difficulty]
HPDrainRate:5.5
CircleSize:4.3
OverallDifficulty:9.2
ApproachRate:9.6
SliderMultiplier:1.9
SliderTickRate:1

[Events]
//Background and Video events
0,0,"my_heart_is_dead_but_still_red_by_nanomortis-d8hpg04.png",0,0
//Break Periods
2,153396,154687
2,157968,159545
//Storyboard Layer 0 (Background)
//Storyboard Layer 1 (Fail)
//Storyboard Layer 2 (Pass)
//Storyboard Layer 3 (Foreground)
//Storyboard Layer 4 (Overlay)
//Storyboard Sound Samples

[TimingPoints]
54,285.714285714286,4,2,1,55,1,0
10339,-100,4,2,1,55,0,0
46911,-100,4,2,2,55,0,0
65196,-100,4,2,2,55,0,1
84625,-100,4,2,2,55,0,0
85696,-100,4,2,2,5,0,0
85768,-100,4,2,2,55,0,0
105482,-100,4,2,1,55,0,0
106339,-100,4,2,2,55,0,1
125768,-100,4,2,1,55,0,0
164625,-100,4,2,2,55,0,1
178625,-100,4,2,2,55,0,1
189768,-100,4,2,1,55,0,1
192054,-100,4,2,2,55,0,1
203482,-100,4,2,1,55,0,1
206625,-100,4,2,1,55,0,0

[Colours]
Combo1 : 255,255,168
Combo2 : 255,128,128
Combo3 : 0,128,255
Combo4 : 255,156,108
Combo5 : 98,98,255
Combo6 : 153,0,0
Combo7 : 255,0,0
Combo8 : 0,74,115

[HitObjects]
133,105,10339,6,0,L|76:117,2,47.5
226,82,10625,1,0,0:0:0:0:
193,171,10768,1,0,0:0:0:0:
185,193,10839,1,0,0:0:0:0:
190,216,10910,1,8,0:0:0:0:
288,271,11054,1,0,0:0:0:0:
293,248,11125,1,0,0:0:0:0:
285,226,11196,1,0,0:0:0:0:
377,59,11482,5,0,0:0:0:0:
387,80,11553,1,0,0:0:0:0:
392,103,11624,1,0,0:0:0:0:
392,127,11696,1,0,0:0:0:0:
386,150,11768,1,0,0:0:0:0:
374,170,11839,1,0,0:0:0:0:
371,194,11910,1,0,0:0:0:0:
376,217,11982,1,0,0:0:0:0:
388,237,12053,1,8,0:0:0:0:
19,329,12625,5,0,0:0:0:0:
42,324,12696,1,0,0:0:0:0:
65,320,12767,1,0,0:0:0:0:
89,315,12839,1,0,0:0:0:0:
112,311,12910,1,0,0:0:0:0:
166,232,13054,1,0,0:0:0:0:
142,227,13125,1,0,0:0:0:0:
119,222,13196,1,8,0:0:0:0:
65,144,13339,1,0,0:0:0:0:
88,139,13410,1,0,0:0:0:0:
112,134,13481,1,0,0:0:0:0:
284,53,13768,5,0,0:0:0:0:
271,73,13839,1,0,0:0:0:0:
265,96,13910,1,0,0:0:0:0:
266,119,13982,1,0,0:0:0:0:
273,142,14053,1,0,0:0:0:0:
346,202,14196,1,0,0:0:0:0:
362,185,14267,1,0,0:0:0:0:
372,163,14338,1,10,0:0:0:0:
243,226,14482,1,0,0:0:0:0:
253,247,14553,1,0,0:0:0:0:
269,264,14624,1,0,0:0:0:0:
80,64,14911,5,0,0:0:0:0:
78,87,14982,1,0,0:0:0:0:
76,111,15053,1,0,0:0:0:0:
74,135,15125,1,0,0:0:0:0:
72,158,15196,1,0,0:0:0:0:
70,182,15268,1,0,0:0:0:0:
68,206,15339,1,0,0:0:0:0:
66,229,15410,1,0,0:0:0:0:
64,256,15482,2,0,L|56:360,1,95,8|0,0:0|0:0,0:0:0:0:
184,104,15768,1,8,0:0:0:0:
176,336,15911,1,8,0:0:0:0:
176,336,16625,5,4,0:0:0:0:
406,284,17196,6,0,L|385:333,2,47.5
446,197,17482,1,0,0:0:0:0:
366,145,17625,1,0,0:0:0:0:
355,166,17696,1,0,0:0:0:0:
345,187,17768,1,8,0:0:0:0:
280,114,17911,1,0,0:0:0:0:
291,93,17982,1,0,0:0:0:0:
301,71,18054,1,0,0:0:0:0:
263,256,18339,5,0,0:0:0:0:
241,245,18410,1,0,0:0:0:0:
219,237,18481,1,0,0:0:0:0:
195,233,18553,1,0,0:0:0:0:
172,232,18624,1,0,0:0:0:0:
148,234,18696,1,0,0:0:0:0:
125,240,18767,1,0,0:0:0:0:
103,249,18839,1,0,0:0:0:0:
82,260,18910,1,8,0:0:0:0:
165,40,19482,5,0,0:0:0:0:
170,63,19553,1,0,0:0:0:0:
174,86,19624,1,0,0:0:0:0:
179,110,19696,1,0,0:0:0:0:
183,133,19767,1,0,0:0:0:0:
262,187,19911,1,0,0:0:0:0:
267,163,19982,1,0,0:0:0:0:
272,140,20053,1,8,0:0:0:0:
350,86,20196,1,0,0:0:0:0:
355,109,20267,1,0,0:0:0:0:
360,133,20338,1,0,0:0:0:0:
264,320,20625,5,0,0:0:0:0:
287,320,20696,1,0,0:0:0:0:
311,320,20767,1,0,0:0:0:0:
335,320,20839,1,0,0:0:0:0:
359,320,20910,1,0,0:0:0:0:
264,224,21054,1,0,0:0:0:0:
241,220,21125,1,0,0:0:0:0:
217,223,21196,1,8,0:0:0:0:
278,138,21339,1,0,0:0:0:0:
301,134,21410,1,0,0:0:0:0:
325,138,21481,1,0,0:0:0:0:
69,85,21768,5,0,0:0:0:0:
89,72,21839,1,0,0:0:0:0:
111,64,21910,1,0,0:0:0:0:
134,61,21982,1,0,0:0:0:0:
158,63,22054,1,0,0:0:0:0:
181,70,22125,1,0,0:0:0:0:
204,73,22196,1,0,0:0:0:0:
228,72,22268,1,0,0:0:0:0:
251,67,22339,6,0,P|312:55|355:63,1,95,8|0,0:0|0:0,0:0:0:0:
217,223,22625,1,8,0:0:0:0:
464,72,22768,1,8,0:0:0:0:
464,72,23482,1,4,0:0:0:0:
396,206,24054,6,0,L|408:160,3,47.5
304,112,24339,2,0,L|337:168,3,47.5
392,32,24625,1,8,0:0:0:0:
392,32,24911,1,8,0:0:0:0:
106,131,25054,1,8,0:0:0:0:
106,131,25339,6,0,P|159:111|247:125,1,142.5,8|0,0:0|0:0,0:0:0:0:
186,167,25625,2,0,P|133:147|45:161,1,142.5,8|0,0:0|0:0,0:0:0:0:
113,190,25911,2,0,P|166:170|292:207,1,190,8|0,0:0|0:0,0:0:0:0:
389,307,26339,5,8,0:0:0:0:
402,287,26410,1,0,0:0:0:0:
416,267,26481,1,0,0:0:0:0:
429,248,26553,1,0,0:0:0:0:
443,228,26624,1,0,0:0:0:0:
456,209,26696,1,0,0:0:0:0:
470,189,26767,1,0,0:0:0:0:
483,170,26839,1,0,0:0:0:0:
497,150,26911,5,8,0:0:0:0:
503,185,26982,1,0,0:0:0:0:
486,215,27053,1,0,0:0:0:0:
454,228,27125,1,0,0:0:0:0:
421,218,27196,1,0,0:0:0:0:
401,189,27268,1,0,0:0:0:0:
390,156,27339,1,0,0:0:0:0:
361,136,27410,1,0,0:0:0:0:
326,139,27482,6,0,L|247:154,3,47.5,8|0|0|0,0:0|0:0|0:0|0:0,0:0:0:0:
217,250,27768,2,0,L|296:264,3,47.5,8|0|0|0,0:0|0:0|0:0|0:0,0:0:0:0:
144,273,28054,2,0,P|138:235|157:204,3,47.5,8|0|0|0,0:0|0:0|0:0|0:0,0:0:0:0:
299,329,28339,2,0,P|305:367|286:398,3,47.5,8|0|0|0,0:0|0:0|0:0|0:0,0:0:0:0:
253,189,28625,5,8,0:0:0:0:
238,157,28696,1,0,0:0:0:0:
237,122,28767,1,0,0:0:0:0:
251,90,28839,1,0,0:0:0:0:
277,66,28910,1,0,0:0:0:0:
311,55,28982,1,0,0:0:0:0:
346,59,29053,1,0,0:0:0:0:
376,78,29125,1,0,0:0:0:0:
396,107,29196,5,8,0:0:0:0:
362,118,29267,1,0,0:0:0:0:
327,123,29338,1,0,0:0:0:0:
292,121,29410,1,0,0:0:0:0:
257,112,29481,1,0,0:0:0:0:
225,97,29554,1,0,0:0:0:0:
195,79,29625,1,0,0:0:0:0:
160,69,29696,1,0,0:0:0:0:
125,69,29768,5,8,0:0:0:0:
149,43,29839,1,0,0:0:0:0:
182,31,29910,1,0,0:0:0:0:
217,35,29982,1,0,0:0:0:0:
246,55,30053,1,0,0:0:0:0:
263,86,30125,1,0,0:0:0:0:
263,121,30196,1,0,0:0:0:0:
248,153,30268,1,0,0:0:0:0:
220,174,30339,6,0,L|169:201,7,47.5,8|0|0|0|0|0|0|0,0:0|0:0|0:0|0:0|0:0|0:0|0:0|0:0,0:0:0:0:
346,220,30911,5,2,0:0:0:0:
367,208,30983,1,0,0:0:0:0:
388,197,31054,1,2,0:0:0:0:
409,186,31126,1,0,0:0:0:0:
430,175,31197,1,2,0:0:0:0:
317,90,31339,1,0,0:0:0:0:
312,113,31410,1,0,0:0:0:0:
306,136,31481,1,10,0:0:0:0:
437,78,31625,1,2,0:0:0:0:
442,55,31696,1,0,0:0:0:0:
448,32,31768,1,0,0:0:0:0:
456,269,32054,5,2,0:0:0:0:
437,254,32125,1,0,0:0:0:0:
416,242,32196,1,0,0:0:0:0:
395,233,32268,1,0,0:0:0:0:
372,227,32339,1,2,0:0:0:0:
348,224,32411,1,0,0:0:0:0:
324,224,32482,1,2,0:0:0:0:
301,228,32554,1,0,0:0:0:0:
278,234,32625,6,0,L|146:263,1,95,10|0,0:0|0:0,0:0:0:0:
35,333,32911,1,2,0:0:0:0:
119,375,33054,1,2,0:0:0:0:
97,234,33196,5,2,0:0:0:0:
109,213,33267,1,0,0:0:0:0:
125,196,33338,1,2,0:0:0:0:
145,183,33410,1,0,0:0:0:0:
167,175,33481,1,2,0:0:0:0:
229,45,33625,1,0,0:0:0:0:
221,67,33696,1,0,0:0:0:0:
214,90,33768,1,10,0:0:0:0:
347,35,33911,1,2,0:0:0:0:
354,57,33982,1,0,0:0:0:0:
360,80,34054,1,0,0:0:0:0:
408,214,34339,5,2,0:0:0:0:
420,234,34410,1,0,0:0:0:0:
424,257,34481,1,0,0:0:0:0:
420,280,34553,1,0,0:0:0:0:
408,300,34624,1,2,0:0:0:0:
256,336,34768,1,0,0:0:0:0:
279,332,34840,1,0,0:0:0:0:
299,320,34911,1,10,0:0:0:0:
304,216,35054,1,0,0:0:0:0:
281,220,35126,1,0,0:0:0:0:
261,232,35197,1,2,0:0:0:0:
404,161,35482,5,8,0:0:0:0:
419,129,35553,1,0,0:0:0:0:
421,94,35624,1,0,0:0:0:0:
407,61,35696,1,0,0:0:0:0:
381,37,35767,1,0,0:0:0:0:
348,25,35839,1,0,0:0:0:0:
313,28,35910,1,0,0:0:0:0:
282,46,35982,1,0,0:0:0:0:
261,75,36054,5,8,0:0:0:0:
249,108,36125,1,0,0:0:0:0:
225,134,36196,1,0,0:0:0:0:
194,152,36268,1,0,0:0:0:0:
159,157,36339,1,0,0:0:0:0:
125,151,36411,1,0,0:0:0:0:
94,133,36482,1,0,0:0:0:0:
71,105,36554,1,0,0:0:0:0:
60,72,36625,6,0,L|41:10,3,47.5,8|0|0|0,0:0|0:0|0:0|0:0,0:0:0:0:
160,160,36911,2,0,L|179:222,3,47.5,8|0|0|0,0:0|0:0|0:0|0:0,0:0:0:0:
45,231,37196,2,0,L|25:168,3,47.5,8|0|0|0,0:0|0:0|0:0|0:0,0:0:0:0:
136,320,37482,2,0,L|155:382,3,47.5,8|0|0|0,0:0|0:0|0:0|0:0,0:0:0:0:
292,282,37768,5,8,0:0:0:0:
323,298,37839,1,0,0:0:0:0:
358,298,37910,1,0,0:0:0:0:
389,281,37982,1,0,0:0:0:0:
409,252,38053,1,0,0:0:0:0:
414,217,38125,1,0,0:0:0:0:
402,184,38196,1,0,0:0:0:0:
376,160,38268,1,0,0:0:0:0:
341,151,38339,5,8,0:0:0:0:
313,131,38410,1,0,0:0:0:0:
298,99,38481,1,0,0:0:0:0:
303,64,38553,1,0,0:0:0:0:
326,38,38624,1,0,0:0:0:0:
359,26,38696,1,0,0:0:0:0:
393,35,38767,1,0,0:0:0:0:
418,60,38839,1,0,0:0:0:0:
426,94,38911,5,8,0:0:0:0:
391,98,38982,1,0,0:0:0:0:
355,102,39053,1,0,0:0:0:0:
320,106,39125,1,0,0:0:0:0:
285,110,39196,1,0,0:0:0:0:
249,114,39268,1,0,0:0:0:0:
214,118,39339,1,0,0:0:0:0:
178,122,39411,1,0,0:0:0:0:
143,126,39482,6,0,L|86:133,7,47.5,8|0|0|0|0|0|0|0,0:0|0:0|0:0|0:0|0:0|0:0|0:0|0:0,0:0:0:0:
210,218,40054,5,2,0:0:0:0:
233,213,40125,1,0,0:0:0:0:
256,209,40196,1,2,0:0:0:0:
280,205,40268,1,0,0:0:0:0:
303,201,40339,1,2,0:0:0:0:
195,78,40482,1,0,0:0:0:0:
186,100,40553,1,0,0:0:0:0:
178,122,40624,1,10,0:0:0:0:
312,70,40768,1,2,0:0:0:0:
297,51,40839,1,0,0:0:0:0:
282,33,40911,1,0,0:0:0:0:
170,244,41196,5,2,0:0:0:0:
191,233,41267,1,0,0:0:0:0:
210,218,41339,1,0,0:0:0:0:
368,208,41481,1,2,0:0:0:0:
362,230,41554,1,0,0:0:0:0:
352,252,41624,1,2,0:0:0:0:
482,158,41768,6,0,L|457:42,1,95,10|0,0:0|0:0,0:0:0:0:
336,24,42054,1,2,0:0:0:0:
379,106,42196,1,2,0:0:0:0:
244,58,42339,5,10,0:0:0:0:
225,42,42410,1,0,0:0:0:0:
202,37,42482,2,0,P|166:46|135:42,1,47.5
50,142,42625,1,2,0:0:0:0:
72,149,42696,1,0,0:0:0:0:
96,151,42768,1,0,0:0:0:0:
119,147,42839,1,0,0:0:0:0:
142,139,42911,2,0,P|178:130|209:134,1,47.5,2|0,0:0|0:0,0:0:0:0:
252,259,43054,1,10,0:0:0:0:
252,259,43125,1,0,0:0:0:0:
252,259,43196,2,0,L|272:209,1,47.5
336,87,43339,2,0,L|362:144,1,47.5,2|0,0:0|0:0,0:0:0:0:
458,230,43482,5,10,0:0:0:0:
458,230,43911,1,0,0:0:0:0:
458,230,43982,1,0,0:0:0:0:
458,230,44054,2,6,B|400:240|370:220|370:220|311:237|311:237|248:216|248:216|228:232|166:240,1,285,8|0,0:0|0:0,0:0:0:0:
397,51,44625,5,4,0:0:0:0:
265,96,46054,2,0,B|205:87|205:87|149:103|149:103|79:91,2,190
41,25,46911,6,0,P|7:70|25:136,1,95,8|0,0:0|0:0,0:0:0:0:
56,304,47196,1,8,0:0:0:0:
104,208,47339,1,2,0:0:0:0:
168,304,47482,2,0,L|270:290,1,95,8|0,0:0|0:0,0:0:0:0:
387,119,47768,1,8,0:0:0:0:
280,144,47911,1,2,0:0:0:0:
431,54,48054,6,0,P|465:99|447:165,1,95,8|0,0:0|0:0,0:0:0:0:
414,269,48339,1,8,0:0:0:0:
267,304,48482,1,2,0:0:0:0:
280,144,48625,1,8,0:0:0:0:
327,230,48768,1,2,0:0:0:0:
128,144,48911,1,8,0:0:0:0:
280,144,49054,1,0,0:0:0:0:
128,144,49196,6,0,L|24:147,1,95,10|0,0:0|0:0,0:0:0:0:
200,272,49482,1,8,0:0:0:0:
280,144,49625,2,0,L|329:52,1,95,2|8,0:0|0:0,0:0:0:0:
128,144,49911,1,2,0:0:0:0:
200,272,50054,2,0,L|254:360,1,95,8|0,0:0|0:0,0:0:0:0:
280,144,50339,5,10,0:0:0:0:
128,144,50482,1,0,0:0:0:0:
280,144,50625,2,0,P|329:141|399:150,1,95,8|0,0:0|0:0,0:0:0:0:
294,270,50911,5,10,0:0:0:0:
436,263,51054,1,0,0:0:0:0:
294,270,51197,2,0,P|245:267|175:276,1,95,8|0,0:0|0:0,0:0:0:0:
128,144,51482,5,10,0:0:0:0:
65,265,51625,1,0,0:0:0:0:
128,144,51768,2,0,P|155:103|182:37,1,95,8|0,0:0|0:0,0:0:0:0:
294,270,52054,5,10,0:0:0:0:
217,150,52197,1,0,0:0:0:0:
294,270,52340,2,0,P|315:313|358:370,1,95,8|0,0:0|0:0,0:0:0:0:
359,200,52625,6,0,P|406:173|417:118,1,95,10|0,0:0|0:0,0:0:0:0:
326,46,52839,1,0,0:0:0:0:
326,46,52911,2,0,P|325:100|362:137,1,95,8|0,0:0|0:0,0:0:0:0:
475,94,53125,1,0,0:0:0:0:
475,94,53196,2,0,P|428:66|377:79,1,95,10|0,0:0|0:0,0:0:0:0:
389,72,53411,1,0,0:0:0:0:
389,72,53482,1,8,0:0:0:0:
254,299,53625,1,0,0:0:0:0:
254,299,53696,1,0,0:0:0:0:
254,299,53768,6,0,B|208:320|208:320|156:313,1,95,10|0,0:0|0:0,0:0:0:0:
80,136,54054,1,8,0:0:0:0:
24,237,54196,1,2,0:0:0:0:
153,64,54339,1,8,0:0:0:0:
152,232,54482,1,2,0:0:0:0:
153,64,54625,2,0,P|201:50|251:57,1,95,8|2,0:0|0:0,0:0:0:0:
384,186,54911,6,0,P|336:200|286:193,1,95,8|2,0:0|0:0,0:0:0:0:
160,324,55196,2,0,P|146:276|153:226,1,95,8|2,0:0|0:0,0:0:0:0:
245,55,55482,2,0,P|288:79|319:119,1,95,8|2,0:0|0:0,0:0:0:0:
312,336,55768,2,0,P|268:311|237:271,1,95,8|2,0:0|0:0,0:0:0:0:
464,56,56054,6,0,B|415:38|415:38|366:42,1,95,8|2,0:0|0:0,0:0:0:0:
200,180,56339,2,0,B|249:198|249:198|298:194,1,95,8|2,0:0|0:0,0:0:0:0:
183,92,56625,1,8,0:0:0:0:
51,147,56768,1,2,0:0:0:0:
183,92,56911,2,0,L|240:73,1,47.5,8|0,0:0|0:0,0:0:0:0:
51,147,57054,2,0,L|-3:165,1,47.5,8|0,0:0|0:0,0:0:0:0:
104,224,57196,5,10,0:0:0:0:
236,171,57339,1,0,0:0:0:0:
104,224,57482,2,0,L|5:266,1,95,8|0,0:0|0:0,0:0:0:0:
272,256,57768,5,10,0:0:0:0:
140,309,57911,1,0,0:0:0:0:
272,256,58054,2,0,L|371:214,1,95,8|0,0:0|0:0,0:0:0:0:
456,248,58339,5,10,0:0:0:0:
403,116,58482,1,0,0:0:0:0:
456,248,58625,2,0,P|469:296|466:354,1,95,8|0,0:0|0:0,0:0:0:0:
304,64,58911,5,10,0:0:0:0:
435,10,59054,1,0,0:0:0:0:
304,64,59197,2,0,P|256:77|197:74,1,95,8|0,0:0|0:0,0:0:0:0:
136,128,59482,6,0,L|87:216,1,95,10|0,0:0|0:0,0:0:0:0:
71,141,59696,1,0,0:0:0:0:
71,141,59768,2,0,L|46:238,1,95,8|0,0:0|0:0,0:0:0:0:
20,165,59982,1,0,0:0:0:0:
20,165,60054,2,0,L|21:265,1,95,10|0,0:0|0:0,0:0:0:0:
21,259,60268,1,0,0:0:0:0:
21,259,60339,1,8,0:0:0:0:
133,311,60482,1,0,0:0:0:0:
133,311,60554,1,0,0:0:0:0:
133,311,60625,5,0,0:0:0:0:
161,290,60696,1,0,0:0:0:0:
193,274,60767,1,0,0:0:0:0:
227,264,60839,1,8,0:0:0:0:
263,259,60910,1,0,0:0:0:0:
298,261,60982,1,0,0:0:0:0:
333,268,61053,1,0,0:0:0:0:
366,281,61125,1,0,0:0:0:0:
396,300,61196,1,0,0:0:0:0:
429,314,61267,1,0,0:0:0:0:
463,307,61338,1,0,0:0:0:0:
488,282,61410,1,8,0:0:0:0:
494,248,61481,1,0,0:0:0:0:
479,216,61553,1,8,0:0:0:0:
449,198,61625,1,0,0:0:0:0:
415,190,61696,1,0,0:0:0:0:
393,163,61768,5,0,0:0:0:0:
418,138,61839,1,0,0:0:0:0:
453,131,61910,1,0,0:0:0:0:
486,143,61982,1,0,0:0:0:0:
508,170,62053,1,0,0:0:0:0:
512,205,62125,1,0,0:0:0:0:
499,237,62196,1,0,0:0:0:0:
471,258,62268,1,0,0:0:0:0:
436,260,62339,1,0,0:0:0:0:
404,244,62411,1,0,0:0:0:0:
376,223,62482,1,0,0:0:0:0:
344,207,62553,1,0,0:0:0:0:
310,196,62625,1,0,0:0:0:0:
275,191,62696,1,0,0:0:0:0:
240,192,62768,1,0,0:0:0:0:
205,199,62839,1,0,0:0:0:0:
171,212,62911,6,0,L|111:227,7,47.5
37,134,63482,2,0,L|97:149,7,47.5
68,43,64054,1,0,0:0:0:0:
115,38,64125,1,0,0:0:0:0:
161,47,64196,1,0,0:0:0:0:
202,70,64268,1,0,0:0:0:0:
235,104,64339,1,0,0:0:0:0:
256,146,64411,1,0,0:0:0:0:
264,193,64482,1,0,0:0:0:0:
257,240,64554,1,0,0:0:0:0:
237,283,64625,1,0,0:0:0:0:
103,242,65196,6,0,B|138:266|138:266|241:283,1,142.5,2|0,0:0|0:0,0:0:0:0:
304,328,65482,2,0,P|350:332|400:352,1,95,8|0,0:0|0:0,0:0:0:0:
367,237,65768,1,2,0:0:0:0:
103,242,65911,1,2,0:0:0:0:
280,136,66054,1,8,0:0:0:0:
152,352,66196,1,0,0:0:0:0:
367,237,66339,6,0,L|495:237,1,95,2|0,0:0|0:0,0:0:0:0:
248,40,66625,1,8,0:0:0:0:
128,152,66768,2,2,P|80:169|30:166,1,95
160,40,67053,1,0,0:0:0:0:
230,200,67196,2,0,P|280:216|328:214,1,95,8|0,0:0|0:0,0:0:0:0:
362,35,67482,5,2,0:0:0:0:
128,152,67625,1,0,0:0:0:0:
456,112,67768,1,10,0:0:0:0:
291,91,67911,2,0,B|236:126|180:102|180:102|146:117|122:161,1,190,2|0,0:0|0:0,0:0:0:0:
199,286,68339,2,0,P|228:230|224:171,1,95,8|0,0:0|0:0,0:0:0:0:
86,270,68625,5,8,0:0:0:0:
86,270,68696,1,0,0:0:0:0:
86,270,68768,2,0,L|103:333,1,47.5
293,350,68911,5,8,0:0:0:0:
293,350,68982,1,0,0:0:0:0:
293,350,69054,2,0,L|305:304,1,47.5
376,200,69196,5,8,0:0:0:0:
410,194,69267,1,0,0:0:0:0:
441,175,69338,1,0,0:0:0:0:
461,147,69410,1,0,0:0:0:0:
469,112,69481,1,8,0:0:0:0:
462,77,69553,1,0,0:0:0:0:
443,48,69624,1,0,0:0:0:0:
414,28,69695,1,0,0:0:0:0:
379,21,69768,6,0,B|284:21|284:21|287:52|316:46,1,142.5,2|0,0:0|0:0,0:0:0:0:
278,118,70054,2,0,B|269:171|269:171|294:212,1,95,8|2,0:0|0:0,0:0:0:0:
368,120,70339,1,2,0:0:0:0:
151,188,70482,1,0,0:0:0:0:
368,120,70625,1,8,0:0:0:0:
152,98,70768,1,0,0:0:0:0:
368,288,70911,6,0,P|418:305|466:302,1,95,2|0,0:0|0:0,0:0:0:0:
239,179,71196,1,8,0:0:0:0:
294,360,71339,1,2,0:0:0:0:
384,192,71482,1,2,0:0:0:0:
213,277,71625,1,0,0:0:0:0:
168,52,71768,1,8,0:0:0:0:
104,224,71911,1,0,0:0:0:0:
384,192,72054,6,0,L|436:105,1,95,2|0,0:0|0:0,0:0:0:0:
364,276,72339,2,0,L|463:252,1,95,10|0,0:0|0:0,0:0:0:0:
273,329,72625,2,0,L|359:381,1,95,2|0,0:0|0:0,0:0:0:0:
171,300,72911,2,0,L|195:399,1,95,10|0,0:0|0:0,0:0:0:0:
238,169,73196,5,8,0:0:0:0:
253,137,73267,1,0,0:0:0:0:
258,102,73338,1,0,0:0:0:0:
250,67,73410,1,0,0:0:0:0:
230,37,73482,2,0,L|180:17,1,47.5
149,133,73625,5,8,0:0:0:0:
183,140,73696,1,0,0:0:0:0:
219,141,73767,1,0,0:0:0:0:
254,138,73839,1,0,0:0:0:0:
289,128,73911,2,0,L|349:99,1,47.5
423,31,74054,5,8,0:0:0:0:
434,81,74125,1,0,0:0:0:0:
434,133,74196,1,0,0:0:0:0:
422,184,74268,1,0,0:0:0:0:
399,231,74339,6,0,B|368:264|368:264|360:296|360:296|336:312|314:350,1,142.5,2|0,0:0|0:0,0:0:0:0:
286,220,74625,2,0,P|278:164|291:122,1,95,8|2,0:0|0:0,0:0:0:0:
168,48,74911,1,2,0:0:0:0:
176,272,75054,1,0,0:0:0:0:
272,56,75196,1,8,0:0:0:0:
105,188,75339,1,0,0:0:0:0:
272,56,75482,6,0,P|326:43|394:61,1,95,2|0,0:0|0:0,0:0:0:0:
221,181,75768,1,8,0:0:0:0:
135,11,75911,1,2,0:0:0:0:
19,161,76054,1,2,0:0:0:0:
44,45,76196,1,0,0:0:0:0:
93,294,76339,1,8,0:0:0:0:
177,96,76482,1,0,0:0:0:0:
93,294,76625,6,0,L|202:325,1,95,2|0,0:0|0:0,0:0:0:0:
143,182,76911,1,8,0:0:0:0:
275,318,77054,1,2,0:0:0:0:
301,131,77196,1,2,0:0:0:0:
275,318,77339,1,0,0:0:0:0:
224,94,77482,1,8,0:0:0:0:
368,217,77625,1,0,0:0:0:0:
179,189,77768,5,0,0:0:0:0:
147,173,77839,1,0,0:0:0:0:
111,171,77910,1,0,0:0:0:0:
78,183,77982,1,0,0:0:0:0:
53,208,78053,1,8,0:0:0:0:
39,240,78125,1,0,0:0:0:0:
39,276,78196,1,0,0:0:0:0:
54,308,78267,1,0,0:0:0:0:
80,332,78339,5,8,0:0:0:0:
127,332,78410,1,0,0:0:0:0:
170,314,78481,1,0,0:0:0:0:
205,281,78553,1,0,0:0:0:0:
224,238,78624,1,8,0:0:0:0:
227,191,78696,1,0,0:0:0:0:
212,146,78767,1,0,0:0:0:0:
182,110,78838,1,0,0:0:0:0:
141,87,78911,6,0,B|94:70|61:88|37:108|37:108|28:153|28:153,1,142.5,2|0,0:0|0:0,0:0:0:0:
39,240,79196,2,0,P|47:294|27:340,1,95,8|2,0:0|0:0,0:0:0:0:
120,192,79482,1,2,0:0:0:0:
297,91,79625,1,0,0:0:0:0:
201,273,79768,1,8,0:0:0:0:
192,132,79911,1,0,0:0:0:0:
122,308,80054,6,0,B|77:332|77:332|16:330,1,95,2|0,0:0|0:0,0:0:0:0:
192,132,80339,1,8,0:0:0:0:
245,314,80482,1,2,0:0:0:0:
192,132,80625,1,2,0:0:0:0:
13,198,80768,1,0,0:0:0:0:
300,225,80911,1,8,0:0:0:0:
152,345,81054,1,0,0:0:0:0:
283,148,81196,5,8,0:0:0:0:
318,146,81267,1,0,0:0:0:0:
350,160,81338,1,0,0:0:0:0:
372,188,81410,1,0,0:0:0:0:
380,222,81482,2,0,L|390:283,1,47.5,8|0,0:0|0:0,0:0:0:0:
415,55,81625,2,0,L|405:-5,1,47.5,0|0,0:0|0:0,0:0:0:0:
464,215,81768,2,0,L|473:275,1,47.5,8|0,0:0|0:0,0:0:0:0:
342,89,81911,2,0,L|332:28,1,47.5,0|0,0:0|0:0,0:0:0:0:
280,270,82054,2,0,L|98:296,1,142.5,8|0,0:0|0:0,0:0:0:0:
60,342,82339,6,0,P|45:270|84:225,1,95,8|0,0:0|0:0,0:0:0:0:
52,253,82554,1,0,0:0:0:0:
52,253,82625,1,8,0:0:0:0:
198,131,82768,1,2,0:0:0:0:
16,113,82911,1,8,0:0:0:0:
174,217,83054,1,0,0:0:0:0:
174,217,83125,1,0,0:0:0:0:
174,217,83196,2,0,L|279:215,1,95,8|0,0:0|0:0,0:0:0:0:
436,308,83482,5,8,0:0:0:0:
453,291,83553,1,0,0:0:0:0:
466,272,83624,1,0,0:0:0:0:
476,250,83696,1,0,0:0:0:0:
482,227,83767,1,0,0:0:0:0:
483,204,83839,1,0,0:0:0:0:
479,180,83910,1,0,0:0:0:0:
471,158,83981,1,0,0:0:0:0:
459,137,84054,5,0,0:0:0:0:
424,147,84125,1,0,0:0:0:0:
390,157,84196,1,0,0:0:0:0:
356,168,84268,1,0,0:0:0:0:
322,178,84339,1,0,0:0:0:0:
288,189,84411,1,0,0:0:0:0:
254,199,84482,1,0,0:0:0:0:
220,210,84553,1,0,0:0:0:0:
186,220,84625,5,8,0:0:0:0:
256,192,84696,12,0,85696,0:0:0:0:
124,307,85768,6,0,L|226:301,1,95,8|0,0:0|0:0,0:0:0:0:
317,137,86054,1,8,0:0:0:0:
264,230,86196,1,2,0:0:0:0:
280,71,86339,2,0,P|325:62|370:83,1,95,8|2,0:0|0:0,0:0:0:0:
336,336,86625,1,8,0:0:0:0:
408,200,86768,1,2,0:0:0:0:
185,149,86911,6,0,L|77:160,1,95,8|2,0:0|0:0,0:0:0:0:
136,304,87196,1,8,0:0:0:0:
96,56,87339,1,2,0:0:0:0:
160,224,87482,1,8,0:0:0:0:
184,64,87625,1,2,0:0:0:0:
72,240,87768,1,8,0:0:0:0:
24,104,87911,1,2,0:0:0:0:
136,304,88054,6,0,L|239:292,1,95,8|2,0:0|0:0,0:0:0:0:
401,231,88339,2,0,L|298:219,1,95,8|2,0:0|0:0,0:0:0:0:
371,39,88625,2,0,L|383:142,1,95,8|2,0:0|0:0,0:0:0:0:
488,336,88911,2,0,L|476:233,1,95,8|2,0:0|0:0,0:0:0:0:
120,280,89196,5,10,0:0:0:0:
257,241,89339,1,0,0:0:0:0:
107,181,89482,2,0,L|-5:178,1,95,8|2,0:0|0:0,0:0:0:0:
203,163,89768,5,10,0:0:0:0:
344,183,89911,1,0,0:0:0:0:
216,64,90054,2,0,L|328:61,1,95,8|0,0:0|0:0,0:0:0:0:
437,229,90339,5,10,0:0:0:0:
341,335,90482,1,0,0:0:0:0:
344,183,90625,2,0,P|389:135|458:119,1,95,8|0,0:0|0:0,0:0:0:0:
75,229,90911,5,10,0:0:0:0:
171,335,91054,1,0,0:0:0:0:
168,183,91197,2,0,P|123:135|54:119,1,95,8|0,0:0|0:0,0:0:0:0:
359,200,91482,6,0,P|406:173|417:118,1,95,10|0,0:0|0:0,0:0:0:0:
326,46,91696,1,0,0:0:0:0:
326,46,91768,2,0,P|325:100|362:137,1,95,8|0,0:0|0:0,0:0:0:0:
475,94,91982,1,0,0:0:0:0:
475,94,92053,2,0,P|428:66|377:79,1,95,10|0,0:0|0:0,0:0:0:0:
389,72,92268,1,0,0:0:0:0:
389,72,92339,1,8,0:0:0:0:
400,328,92482,1,0,0:0:0:0:
400,328,92554,1,0,0:0:0:0:
400,328,92625,6,0,B|446:349|446:349|498:342,1,95,10|0,0:0|0:0,0:0:0:0:
376,162,92911,1,8,0:0:0:0:
434,242,93054,1,2,0:0:0:0:
264,192,93196,1,8,0:0:0:0:
488,144,93339,1,2,0:0:0:0:
316,28,93482,2,0,L|426:17,1,95,8|2,0:0|0:0,0:0:0:0:
216,74,93768,6,0,L|106:85,1,95,8|2,0:0|0:0,0:0:0:0:
306,133,94054,2,0,L|416:122,1,95,8|2,0:0|0:0,0:0:0:0:
206,179,94340,2,0,L|96:190,1,95,8|2,0:0|0:0,0:0:0:0:
301,213,94625,2,0,L|411:202,1,95,8|2,0:0|0:0,0:0:0:0:
124,283,94911,6,0,B|77:292|77:292|34:271,1,95,8|2,0:0|0:0,0:0:0:0:
56,64,95196,2,0,B|103:55|103:55|146:76,1,95,8|2,0:0|0:0,0:0:0:0:
305,79,95482,1,8,0:0:0:0:
176,192,95625,1,2,0:0:0:0:
305,79,95768,2,0,L|352:41,1,47.5,8|0,0:0|0:0,0:0:0:0:
176,192,95911,2,0,L|129:230,1,47.5,8|0,0:0|0:0,0:0:0:0:
324,189,96054,5,10,0:0:0:0:
205,110,96196,1,0,0:0:0:0:
242,259,96339,2,0,B|273:314|273:314|301:330,1,95,8|0,0:0|0:0,0:0:0:0:
176,192,96625,5,10,0:0:0:0:
305,79,96767,1,0,0:0:0:0:
242,259,96911,2,0,B|211:314|211:314|183:330,1,95,8|0,0:0|0:0,0:0:0:0:
243,148,97196,5,10,0:0:0:0:
378,103,97339,1,0,0:0:0:0:
243,148,97482,2,0,L|116:181,1,95,8|0,0:0|0:0,0:0:0:0:
384,112,97768,5,10,0:0:0:0:
255,50,97911,1,0,0:0:0:0:
384,112,98054,2,0,L|493:141,1,95,8|0,0:0|0:0,0:0:0:0:
435,261,98339,6,0,B|382:246|382:246|327:264,1,95,10|0,0:0|0:0,0:0:0:0:
261,310,98554,1,0,0:0:0:0:
261,310,98625,2,0,B|314:295|314:295|369:313,1,95,8|0,0:0|0:0,0:0:0:0:
441,340,98839,1,0,0:0:0:0:
441,340,98911,2,0,B|388:325|388:325|333:343,1,95,10|0,0:0|0:0,0:0:0:0:
350,337,99125,1,0,0:0:0:0:
350,337,99196,1,8,0:0:0:0:
242,180,99339,1,0,0:0:0:0:
242,180,99411,1,0,0:0:0:0:
242,180,99482,5,0,0:0:0:0:
225,148,99553,1,0,0:0:0:0:
221,113,99624,1,0,0:0:0:0:
230,79,99696,1,0,0:0:0:0:
251,51,99767,1,0,0:0:0:0:
281,32,99839,1,0,0:0:0:0:
316,27,99910,1,0,0:0:0:0:
351,34,99981,1,0,0:0:0:0:
380,54,100053,1,0,0:0:0:0:
400,83,100124,1,0,0:0:0:0:
407,118,100196,1,0,0:0:0:0:
401,153,100267,1,0,0:0:0:0:
383,183,100339,1,0,0:0:0:0:
360,210,100410,1,0,0:0:0:0:
353,244,100481,1,0,0:0:0:0:
363,278,100553,1,0,0:0:0:0:
389,302,100625,5,0,0:0:0:0:
409,273,100696,1,0,0:0:0:0:
421,240,100767,1,0,0:0:0:0:
422,204,100839,1,0,0:0:0:0:
412,170,100910,1,0,0:0:0:0:
393,140,100982,1,0,0:0:0:0:
366,117,101053,1,0,0:0:0:0:
334,102,101124,1,0,0:0:0:0:
299,98,101196,1,0,0:0:0:0:
264,105,101267,1,0,0:0:0:0:
232,121,101339,1,0,0:0:0:0:
207,146,101410,1,0,0:0:0:0:
190,177,101482,1,0,0:0:0:0:
183,212,101554,1,0,0:0:0:0:
167,244,101625,1,0,0:0:0:0:
139,264,101696,1,0,0:0:0:0:
104,269,101768,6,0,L|35:272,5,47.5
23,182,102196,2,0,L|92:184,5,47.5
102,93,102625,2,0,L|32:95,3,47.5
181,41,102911,5,0,0:0:0:0:
236,51,102982,1,0,0:0:0:0:
282,84,103053,1,0,0:0:0:0:
310,133,103125,1,0,0:0:0:0:
316,189,103196,1,0,0:0:0:0:
297,242,103268,1,0,0:0:0:0:
258,283,103339,1,0,0:0:0:0:
205,303,103410,1,0,0:0:0:0:
149,300,103482,1,0,0:0:0:0:
108,292,104054,5,0,0:0:0:0:
131,295,104125,1,0,0:0:0:0:
155,298,104196,1,0,0:0:0:0:
178,302,104268,1,0,0:0:0:0:
205,303,104339,2,0,L|275:223,1,95,4|0,0:0|0:0,0:0:0:0:
388,155,104625,5,0,0:0:0:0:
323,127,104696,1,0,0:0:0:0:
253,128,104768,2,0,L|183:208,1,95,4|0,0:0|0:0,0:0:0:0:
75,54,105054,5,0,0:0:0:0:
146,50,105125,1,0,0:0:0:0:
217,46,105196,2,0,L|326:35,1,95,12|0,0:0|0:0,0:0:0:0:
451,25,105482,5,8,0:0:0:0:
467,42,105553,1,8,0:0:0:0:
476,64,105624,1,0,0:0:0:0:
477,87,105696,1,0,0:0:0:0:
470,110,105768,5,2,0:0:0:0:
448,138,105839,1,0,0:0:0:0:
433,170,105910,1,0,0:0:0:0:
426,205,105982,1,0,0:0:0:0:
428,240,106054,5,2,0:0:0:0:
386,220,106125,1,0,0:0:0:0:
339,214,106196,1,0,0:0:0:0:
293,225,106268,1,0,0:0:0:0:
253,250,106339,6,0,P|195:259|111:203,1,142.5,2|0,0:0|0:0,0:0:0:0:
52,234,106625,2,0,L|22:353,1,95,8|2,0:0|0:0,0:0:0:0:
33,134,106911,1,2,0:0:0:0:
110,307,107054,1,0,0:0:0:0:
230,161,107196,1,8,0:0:0:0:
52,234,107339,1,0,0:0:0:0:
151,72,107482,5,2,0:0:0:0:
177,235,107625,1,0,0:0:0:0:
33,134,107768,1,8,0:0:0:0:
110,307,107911,1,2,0:0:0:0:
292,64,108054,2,0,P|340:80|381:120,1,95,2|0,0:0|0:0,0:0:0:0:
230,161,108339,1,8,0:0:0:0:
33,134,108482,1,0,0:0:0:0:
174,60,108625,5,2,0:0:0:0:
292,215,108768,1,0,0:0:0:0:
33,134,108911,1,10,0:0:0:0:
292,64,109054,2,0,B|364:71|364:71|410:99|410:99|493:106,1,190,2|0,0:0|0:0,0:0:0:0:
292,215,109482,2,0,B|197:226,1,95,8|0,0:0|0:0,0:0:0:0:
86,298,109768,5,8,0:0:0:0:
86,298,109839,1,0,0:0:0:0:
86,298,109911,2,0,L|149:314,1,47.5
79,154,110054,5,8,0:0:0:0:
79,154,110125,1,0,0:0:0:0:
79,154,110197,2,0,L|33:142,1,47.5
120,30,110339,5,8,0:0:0:0:
166,41,110410,1,0,0:0:0:0:
212,52,110481,1,0,0:0:0:0:
258,64,110553,1,0,0:0:0:0:
304,75,110624,1,8,0:0:0:0:
350,87,110696,1,0,0:0:0:0:
396,98,110767,1,0,0:0:0:0:
442,110,110838,1,0,0:0:0:0:
488,121,110911,6,0,B|495:173|480:223|480:223|444:178,1,142.5,2|0,0:0|0:0,0:0:0:0:
376,206,111196,2,0,P|354:296|337:314,1,95,8|2,0:0|0:0,0:0:0:0:
267,156,111482,1,2,0:0:0:0:
158,312,111625,1,0,0:0:0:0:
267,156,111768,1,8,0:0:0:0:
268,353,111911,1,0,0:0:0:0:
192,213,112054,6,0,L|94:199,1,95,2|0,0:0|0:0,0:0:0:0:
180,40,112339,1,8,0:0:0:0:
36,123,112482,1,2,0:0:0:0:
267,156,112625,1,2,0:0:0:0:
64,38,112768,1,0,0:0:0:0:
88,215,112911,1,8,0:0:0:0:
180,40,113054,1,0,0:0:0:0:
88,215,113196,6,0,B|133:242|133:242|194:233,1,95,2|0,0:0|0:0,0:0:0:0:
180,40,113482,2,0,B|153:85|153:85|162:146,1,95,10|0,0:0|0:0,0:0:0:0:
402,149,113768,2,0,B|357:122|357:122|296:131,1,95,2|0,0:0|0:0,0:0:0:0:
320,312,114054,2,0,B|347:267|347:267|338:206,1,95,10|0,0:0|0:0,0:0:0:0:
156,77,114339,5,8,0:0:0:0:
142,117,114410,1,0,0:0:0:0:
139,159,114481,1,0,0:0:0:0:
145,202,114553,1,0,0:0:0:0:
162,241,114625,2,0,L|191:295,1,47.5
257,226,114768,5,8,0:0:0:0:
227,189,114839,1,0,0:0:0:0:
186,166,114910,1,0,0:0:0:0:
139,159,114982,1,0,0:0:0:0:
93,170,115054,2,0,L|51:221,1,47.5
42,316,115196,5,8,0:0:0:0:
103,318,115267,1,0,0:0:0:0:
165,321,115338,1,0,0:0:0:0:
227,323,115410,1,0,0:0:0:0:
288,326,115482,6,0,B|388:326|388:326|349:288,1,142.5,2|0,0:0|0:0,0:0:0:0:
336,208,115768,2,0,B|320:159|320:159|348:106,1,95,8|2,0:0|0:0,0:0:0:0:
422,40,116054,1,2,0:0:0:0:
223,222,116196,1,0,0:0:0:0:
339,34,116339,1,8,0:0:0:0:
336,299,116482,1,0,0:0:0:0:
193,106,116625,6,0,P|129:81|67:103,1,95,2|0,0:0|0:0,0:0:0:0:
58,270,116911,1,8,0:0:0:0:
189,256,117054,1,2,0:0:0:0:
115,367,117196,1,2,0:0:0:0:
74,181,117339,1,0,0:0:0:0:
216,352,117482,1,8,0:0:0:0:
74,181,117625,1,0,0:0:0:0:
274,190,117768,6,0,L|397:197,1,95,2|0,0:0|0:0,0:0:0:0:
192,122,118054,1,8,0:0:0:0:
289,283,118196,1,2,0:0:0:0:
290,92,118339,1,2,0:0:0:0:
171,240,118482,1,0,0:0:0:0:
130,54,118625,1,8,0:0:0:0:
274,190,118768,1,0,0:0:0:0:
245,11,118911,5,8,0:0:0:0:
291,2,118982,1,0,0:0:0:0:
335,18,119053,1,0,0:0:0:0:
365,54,119125,1,0,0:0:0:0:
372,100,119196,1,8,0:0:0:0:
355,144,119268,1,0,0:0:0:0:
318,173,119339,1,0,0:0:0:0:
274,190,119410,1,0,0:0:0:0:
245,227,119481,5,8,0:0:0:0:
238,274,119553,1,0,0:0:0:0:
256,318,119624,1,0,0:0:0:0:
292,347,119696,1,0,0:0:0:0:
338,355,119767,1,8,0:0:0:0:
382,338,119838,1,0,0:0:0:0:
413,302,119910,1,0,0:0:0:0:
421,256,119981,1,0,0:0:0:0:
405,212,120054,6,0,P|390:150|456:55,1,142.5,2|0,0:0|0:0,0:0:0:0:
478,150,120339,2,0,L|493:249,1,95,8|2,0:0|0:0,0:0:0:0:
289,141,120625,1,2,0:0:0:0:
311,319,120768,1,0,0:0:0:0:
344,64,120911,1,8,0:0:0:0:
207,257,121054,1,0,0:0:0:0:
435,229,121196,6,0,B|471:193|471:193|480:133,1,95,2|0,0:0|0:0,0:0:0:0:
240,56,121482,1,8,0:0:0:0:
311,319,121625,1,2,0:0:0:0:
192,128,121768,1,2,0:0:0:0:
477,149,121911,1,0,0:0:0:0:
207,257,122054,1,8,0:0:0:0:
496,280,122196,1,0,0:0:0:0:
176,352,122339,5,8,0:0:0:0:
129,346,122410,1,0,0:0:0:0:
85,326,122481,1,0,0:0:0:0:
50,295,122553,1,0,0:0:0:0:
26,254,122625,2,0,L|38:175,1,47.5,8|0,0:0|0:0,0:0:0:0:
141,113,122768,2,0,L|129:192,1,47.5
0,297,122911,2,0,L|11:217,1,47.5,8|0,0:0|0:0,0:0:0:0:
117,93,123054,2,0,L|105:172,1,47.5
207,257,123196,2,0,B|252:249|280:283|280:283|317:245|378:255,1,142.5,8|0,0:0|0:0,0:0:0:0:
417,172,123482,6,0,P|430:110|409:59,1,95,8|0,0:0|0:0,0:0:0:0:
421,80,123696,1,0,0:0:0:0:
421,80,123768,1,8,0:0:0:0:
250,162,123911,1,2,0:0:0:0:
366,11,124054,1,8,0:0:0:0:
332,254,124196,1,0,0:0:0:0:
332,254,124268,1,0,0:0:0:0:
332,254,124339,2,0,L|221:277,1,95,8|0,0:0|0:0,0:0:0:0:
47,77,124625,5,8,0:0:0:0:
82,71,124696,1,0,0:0:0:0:
117,65,124767,1,0,0:0:0:0:
152,59,124839,1,0,0:0:0:0:
187,54,124910,1,0,0:0:0:0:
222,48,124982,1,0,0:0:0:0:
258,42,125053,1,0,0:0:0:0:
293,37,125124,1,0,0:0:0:0:
328,31,125196,5,0,0:0:0:0:
361,18,125267,1,0,0:0:0:0:
396,21,125338,1,0,0:0:0:0:
426,39,125410,1,0,0:0:0:0:
446,68,125481,1,0,0:0:0:0:
451,103,125553,1,0,0:0:0:0:
440,136,125624,1,0,0:0:0:0:
416,162,125695,1,0,0:0:0:0:
383,175,125767,5,8,0:0:0:0:
256,192,125839,12,0,126839,0:0:0:0:
148,270,126911,5,0,0:0:0:0:
218,205,127054,1,0,0:0:0:0:
131,167,127196,1,0,0:0:0:0:
120,145,127267,1,0,0:0:0:0:
109,124,127338,1,0,0:0:0:0:
72,36,127482,1,8,0:0:0:0:
167,39,127625,1,0,0:0:0:0:
188,48,127696,1,0,0:0:0:0:
210,57,127767,1,0,0:0:0:0:
377,149,128054,5,0,0:0:0:0:
353,151,128125,1,0,0:0:0:0:
329,153,128196,1,0,0:0:0:0:
279,234,128339,1,0,0:0:0:0:
303,237,128410,1,0,0:0:0:0:
326,239,128481,1,0,0:0:0:0:
416,312,128625,2,0,B|366:306|343:325|343:325|321:339|321:339|298:334|298:334|274:352|209:350,1,190,8|0,0:0|0:0,0:0:0:0:
117,169,129196,5,2,0:0:0:0:
102,150,129267,1,0,0:0:0:0:
97,127,129338,1,0,0:0:0:0:
206,52,129482,1,0,0:0:0:0:
202,75,129553,1,0,0:0:0:0:
187,94,129624,1,0,0:0:0:0:
113,32,129768,1,10,0:0:0:0:
23,63,129911,1,0,0:0:0:0:
16,85,129982,1,0,0:0:0:0:
10,108,130053,1,0,0:0:0:0:
29,202,130196,1,0,0:0:0:0:
29,202,130339,5,2,0:0:0:0:
29,202,130911,1,14,0:0:0:0:
29,202,131482,5,0,0:0:0:0:
52,205,131553,1,0,0:0:0:0:
75,209,131624,1,0,0:0:0:0:
126,291,131769,1,0,0:0:0:0:
102,294,131840,1,0,0:0:0:0:
81,298,131911,1,0,0:0:0:0:
176,191,132054,1,8,0:0:0:0:
210,103,132196,1,0,0:0:0:0:
217,80,132267,1,0,0:0:0:0:
225,58,132338,1,0,0:0:0:0:
407,199,132625,5,0,0:0:0:0:
402,176,132696,1,0,0:0:0:0:
387,159,132767,1,0,0:0:0:0:
267,214,132911,1,0,0:0:0:0:
290,220,132982,1,0,0:0:0:0:
313,216,133053,1,0,0:0:0:0:
393,53,133196,2,0,L|185:109,1,190
413,292,133768,5,8,0:0:0:0:
413,292,133839,1,0,0:0:0:0:
413,292,133911,2,0,L|369:242,1,47.5
421,169,134054,1,8,0:0:0:0:
423,133,134125,1,0,0:0:0:0:
412,99,134196,1,0,0:0:0:0:
390,72,134268,1,0,0:0:0:0:
359,55,134339,2,0,L|300:37,1,47.5
201,95,134482,1,8,0:0:0:0:
201,95,134554,1,0,0:0:0:0:
201,95,134625,2,0,L|261:114,1,47.5
319,203,134768,2,0,L|254:197,1,47.5
49,283,134911,5,12,0:0:0:0:
120,117,136054,5,2,0:0:0:0:
241,44,136196,1,0,0:0:0:0:
290,202,136482,5,0,0:0:0:0:
148,211,136624,1,14,0:0:0:0:
126,300,136911,5,0,0:0:0:0:
126,300,137054,1,0,0:0:0:0:
206,128,137339,5,0,0:0:0:0:
206,128,137482,1,0,0:0:0:0:
267,307,137768,5,8,0:0:0:0:
267,307,137911,1,0,0:0:0:0:
368,146,138196,5,0,0:0:0:0:
368,146,138339,5,2,0:0:0:0:
432,328,138482,1,0,0:0:0:0:
144,146,138768,5,0,0:0:0:0:
80,328,138911,1,14,0:0:0:0:
187,308,139196,5,0,0:0:0:0:
187,308,139339,1,0,0:0:0:0:
270,152,139625,5,0,0:0:0:0:
270,152,139768,1,0,0:0:0:0:
436,244,140054,5,12,0:0:0:0:
93,81,140625,5,2,0:0:0:0:
231,45,140768,1,0,0:0:0:0:
272,143,141054,5,0,0:0:0:0:
175,246,141196,1,14,0:0:0:0:
87,189,141482,5,0,0:0:0:0:
87,189,141625,1,0,0:0:0:0:
266,250,141911,5,0,0:0:0:0:
266,250,142054,1,0,0:0:0:0:
83,300,142339,5,8,0:0:0:0:
83,300,142482,1,0,0:0:0:0:
384,296,142768,5,0,0:0:0:0:
384,296,142911,5,2,0:0:0:0:
202,360,143054,1,0,0:0:0:0:
384,72,143340,5,0,0:0:0:0:
202,8,143483,1,14,0:0:0:0:
101,182,143768,5,0,0:0:0:0:
101,182,143911,1,0,0:0:0:0:
181,131,144054,6,0,L|241:164,3,47.5,8|0|0|0,0:0|0:0|0:0|0:0,0:0:0:0:
316,144,144339,6,0,L|299:210,3,47.5,8|0|0|0,0:0|0:0|0:0|0:0,0:0:0:0:
351,273,144625,6,0,L|282:274,3,47.5,8|0|0|0,0:0|0:0|0:0|0:0,0:0:0:0:
225,329,144911,6,0,L|205:263,3,47.5,8|0|0|0,0:0|0:0|0:0|0:0,0:0:0:0:
125,245,145196,5,0,0:0:0:0:
228,146,145339,1,0,0:0:0:0:
358,81,145625,5,0,0:0:0:0:
228,146,145768,1,14,0:0:0:0:
76,127,146054,5,0,0:0:0:0:
76,127,146196,1,0,0:0:0:0:
348,212,146482,5,0,0:0:0:0:
348,212,146625,1,0,0:0:0:0:
126,32,146911,5,8,0:0:0:0:
126,32,147054,1,0,0:0:0:0:
176,224,147339,5,0,0:0:0:0:
176,224,147482,5,2,0:0:0:0:
259,50,147625,1,0,0:0:0:0:
136,120,147911,5,0,0:0:0:0:
318,183,148054,1,14,0:0:0:0:
368,80,148339,5,0,0:0:0:0:
236,136,148482,1,0,0:0:0:0:
304,288,148768,5,0,0:0:0:0:
436,232,148911,1,0,0:0:0:0:
11,230,149196,5,4,0:0:0:0:
291,93,149768,5,2,0:0:0:0:
221,270,149911,1,0,0:0:0:0:
127,249,150196,5,0,0:0:0:0:
302,174,150339,1,14,0:0:0:0:
61,144,150625,5,0,0:0:0:0:
61,144,150768,1,0,0:0:0:0:
410,293,151054,5,0,0:0:0:0:
410,293,151196,1,0,0:0:0:0:
256,259,151482,5,8,0:0:0:0:
256,124,151625,1,0,0:0:0:0:
188,192,151768,1,0,0:0:0:0:
323,192,151911,1,8,0:0:0:0:
151,109,152054,6,0,L|78:137,3,47.5
61,209,152339,6,0,L|134:237,3,47.5
165,151,152625,6,0,L|92:179,3,47.5
75,251,152910,6,0,L|148:279,3,47.5
212,245,153196,5,4,0:0:0:0:
81,43,155196,5,0,0:0:0:0:
298,227,155482,5,4,0:0:0:0:
116,311,156625,5,0,0:0:0:0:
434,188,157196,5,0,0:0:0:0:
49,44,157768,5,4,0:0:0:0:
293,307,160054,5,0,0:0:0:0:
293,76,160339,1,0,0:0:0:0:
157,263,160625,1,0,0:0:0:0:
377,192,160911,1,0,0:0:0:0:
157,120,161196,5,0,0:0:0:0:
122,127,161267,1,0,0:0:0:0:
92,146,161338,1,0,0:0:0:0:
69,173,161410,1,0,0:0:0:0:
56,206,161481,1,0,0:0:0:0:
55,241,161553,1,0,0:0:0:0:
65,275,161624,1,0,0:0:0:0:
85,304,161696,1,0,0:0:0:0:
114,325,161767,1,0,0:0:0:0:
148,335,161838,1,0,0:0:0:0:
183,334,161910,1,0,0:0:0:0:
216,322,161981,1,0,0:0:0:0:
244,299,162054,1,0,0:0:0:0:
261,269,162125,1,0,0:0:0:0:
293,253,162196,1,0,0:0:0:0:
327,258,162268,1,0,0:0:0:0:
353,281,162339,5,0,0:0:0:0:
307,274,162410,1,0,0:0:0:0:
266,251,162481,1,0,0:0:0:0:
236,214,162553,1,0,0:0:0:0:
222,169,162624,1,0,0:0:0:0:
225,122,162696,1,0,0:0:0:0:
245,79,162767,1,0,0:0:0:0:
279,46,162839,1,0,0:0:0:0:
323,28,162910,1,0,0:0:0:0:
370,27,162981,1,0,0:0:0:0:
414,43,163053,1,0,0:0:0:0:
450,75,163124,1,0,0:0:0:0:
472,117,163196,6,0,L|488:171,3,47.5
402,209,163482,2,0,L|386:262,5,47.5
292,254,163911,1,0,0:0:0:0:
253,226,163982,1,0,0:0:0:0:
208,212,164053,1,0,0:0:0:0:
160,212,164125,1,0,0:0:0:0:
115,226,164196,1,0,0:0:0:0:
77,253,164268,1,0,0:0:0:0:
48,290,164339,5,0,0:0:0:0:
107,343,164410,1,0,0:0:0:0:
186,341,164481,1,0,0:0:0:0:
243,287,164553,1,0,0:0:0:0:
249,208,164625,6,0,P|248:141|335:99,1,142.5,2|0,0:0|0:0,0:0:0:0:
400,144,164911,2,0,P|360:170|314:172,1,95,8|2,0:0|0:0,0:0:0:0:
172,48,165196,1,2,0:0:0:0:
115,226,165339,1,0,0:0:0:0:
313,171,165482,1,8,0:0:0:0:
27,153,165625,1,0,0:0:0:0:
269,246,165768,5,2,0:0:0:0:
100,78,165911,1,0,0:0:0:0:
196,295,166054,1,8,0:0:0:0:
313,90,166196,1,2,0:0:0:0:
115,226,166339,2,0,L|18:286,1,95,2|2,0:0|0:0,0:0:0:0:
197,111,166625,1,8,0:0:0:0:
122,320,166768,1,0,0:0:0:0:
358,254,166911,5,2,0:0:0:0:
197,111,167054,1,0,0:0:0:0:
448,112,167196,1,10,0:0:0:0:
220,288,167339,2,0,B|157:299|157:299|110:281|110:281|65:298|16:288,1,190,2|2,0:0|0:0,0:0:0:0:
197,111,167768,2,0,L|290:95,1,95,8|2,0:0|0:0,0:0:0:0:
73,59,168054,5,8,0:0:0:0:
73,59,168125,1,0,0:0:0:0:
73,59,168196,2,0,L|91:121,1,47.5
153,250,168339,5,8,0:0:0:0:
153,250,168410,1,0,0:0:0:0:
153,250,168482,2,0,L|135:188,1,47.5
216,68,168625,5,8,0:0:0:0:
272,62,168696,1,0,0:0:0:0:
326,78,168767,1,0,0:0:0:0:
370,113,168839,1,0,0:0:0:0:
397,163,168910,1,8,0:0:0:0:
404,219,168982,1,0,0:0:0:0:
388,274,169053,1,0,0:0:0:0:
353,318,169125,1,0,0:0:0:0:
303,346,169196,6,0,B|252:347|223:315|223:315|183:318|146:360,1,142.5,2|2,0:0|0:0,0:0:0:0:
153,250,169482,2,0,P|141:197|164:158,1,95,8|2,0:0|0:0,0:0:0:0:
396,55,169768,1,2,0:0:0:0:
388,274,169911,1,0,0:0:0:0:
289,24,170054,1,8,0:0:0:0:
488,248,170196,1,0,0:0:0:0:
203,94,170339,6,0,P|144:88|99:113,1,95,2|2,0:0|0:0,0:0:0:0:
208,192,170625,1,8,0:0:0:0:
289,24,170768,1,2,0:0:0:0:
48,224,170911,1,2,0:0:0:0:
38,37,171054,1,0,0:0:0:0:
145,270,171196,1,8,0:0:0:0:
38,37,171339,1,0,0:0:0:0:
145,270,171482,6,0,B|199:275|199:275|240:252,1,95,2|2,0:0|0:0,0:0:0:0:
412,184,171768,2,0,B|358:179|358:179|317:202,1,95,10|2,0:0|0:0,0:0:0:0:
158,162,172054,2,0,B|212:167|212:167|253:144,1,95,2|2,0:0|0:0,0:0:0:0:
425,76,172340,2,0,B|371:71|371:71|330:94,1,95,10|2,0:0|0:0,0:0:0:0:
112,58,172625,5,8,0:0:0:0:
127,92,172696,1,0,0:0:0:0:
142,127,172767,1,0,0:0:0:0:
158,162,172839,1,0,0:0:0:0:
173,196,172911,2,0,L|202:266,1,47.5
48,226,173054,5,8,0:0:0:0:
68,183,173125,1,0,0:0:0:0:
100,149,173196,1,0,0:0:0:0:
142,127,173268,1,0,0:0:0:0:
189,120,173339,2,0,L|248:130,1,47.5
273,233,173482,5,8,0:0:0:0:
340,251,173553,1,0,0:0:0:0:
408,232,173624,1,0,0:0:0:0:
456,181,173696,1,0,0:0:0:0:
470,112,173768,6,0,B|462:154|462:154|481:213|481:213|468:286,1,142.5,2|0,0:0|0:0,0:0:0:0:
422,313,174054,2,0,B|376:334|376:334|317:318,1,95,8|2,0:0|0:0,0:0:0:0:
273,233,174339,1,2,0:0:0:0:
470,112,174482,1,0,0:0:0:0:
489,361,174625,1,8,0:0:0:0:
364,112,174768,1,0,0:0:0:0:
283,322,174911,6,0,L|151:347,1,95,2|2,0:0|0:0,0:0:0:0:
274,117,175196,1,8,0:0:0:0:
475,243,175339,1,2,0:0:0:0:
273,233,175482,1,2,0:0:0:0:
449,126,175625,1,0,0:0:0:0:
489,361,175768,1,8,0:0:0:0:
364,112,175911,1,0,0:0:0:0:
189,339,176054,6,0,B|155:291|155:291|151:237,1,95,2|2,0:0|0:0,0:0:0:0:
147,67,176339,1,8,0:0:0:0:
273,233,176482,1,2,0:0:0:0:
221,26,176625,1,2,0:0:0:0:
364,112,176768,1,0,0:0:0:0:
158,161,176911,1,8,0:0:0:0:
312,32,177054,1,0,0:0:0:0:
448,195,177196,5,8,0:0:0:0:
419,243,177267,1,0,0:0:0:0:
376,281,177338,1,0,0:0:0:0:
324,304,177410,1,0,0:0:0:0:
268,310,177481,1,8,0:0:0:0:
212,299,177553,1,0,0:0:0:0:
163,272,177625,1,0,0:0:0:0:
128,228,177696,1,0,0:0:0:0:
73,222,177767,5,8,0:0:0:0:
30,258,177839,1,0,0:0:0:0:
24,313,177910,1,0,0:0:0:0:
59,356,177982,1,0,0:0:0:0:
115,366,178053,1,8,0:0:0:0:
169,350,178124,1,0,0:0:0:0:
210,311,178196,1,0,0:0:0:0:
228,258,178267,1,0,0:0:0:0:
219,202,178339,6,0,B|190:161|207:130|207:130|240:129|306:160,1,142.5,2|0,0:0|0:0,0:0:0:0:
340,186,178625,2,0,P|360:227|350:273,1,95,4|0,3:0|3:0,3:0:0:0:
103,134,178911,1,2,0:0:0:0:
350,100,179054,1,0,0:0:0:0:
210,311,179196,1,8,0:0:0:0:
223,73,179339,1,0,0:0:0:0:
173,376,179482,6,0,P|226:385|269:355,1,95,2|2,0:0|0:0,0:0:0:0:
425,193,179768,1,8,0:0:0:0:
187,204,179911,1,2,0:0:0:0:
350,100,180054,1,2,0:0:0:0:
210,311,180196,1,0,0:0:0:0:
329,9,180339,1,8,0:0:0:0:
354,293,180482,1,0,0:0:0:0:
189,59,180625,5,0,0:0:0:0:
143,46,180696,1,0,0:0:0:0:
98,57,180767,1,8,0:0:0:0:
64,90,180839,1,8,0:0:0:0:
52,135,180911,2,0,L|46:209,1,47.5
210,271,181054,2,8,L|163:268,1,47.5
79,153,181196,2,0,L|72:226,1,47.5
238,289,181339,2,8,L|190:285,1,47.5
377,219,181482,2,0,L|397:261,1,47.5
187,184,181625,2,0,L|214:144,1,47.5,2|10,0:0|0:0,0:0:0:0:
356,58,181768,5,0,0:0:0:0:
395,99,181839,1,0,0:0:0:0:
416,151,181910,1,8,0:0:0:0:
417,208,181982,1,0,0:0:0:0:
397,261,182053,1,0,0:0:0:0:
359,303,182125,1,0,0:0:0:0:
308,329,182196,1,0,0:0:0:0:
252,334,182268,1,0,0:0:0:0:
198,318,182339,5,0,0:0:0:0:
193,248,182410,1,0,0:0:0:0:
222,183,182481,1,0,0:0:0:0:
277,139,182553,1,0,0:0:0:0:
346,125,182624,1,0,0:0:0:0:
414,144,182696,1,0,0:0:0:0:
465,193,182767,1,0,0:0:0:0:
489,259,182839,1,0,0:0:0:0:
482,331,182911,6,0,B|456:254|456:254|470:158,1,142.5,2|0,0:0|0:0,0:0:0:0:
478,99,183196,2,0,L|492:3,1,95,8|2,0:0|0:0,0:0:0:0:
376,268,183482,1,2,0:0:0:0:
205,39,183625,1,0,0:0:0:0:
271,267,183768,1,8,0:0:0:0:
366,49,183911,1,0,0:0:0:0:
138,117,184054,5,2,0:0:0:0:
421,124,184196,1,0,0:0:0:0:
150,214,184339,1,8,0:0:0:0:
435,218,184482,1,2,0:0:0:0:
83,258,184625,2,0,P|68:205|97:157,1,95,2|0,0:0|0:0,0:0:0:0:
293,57,184911,1,8,0:0:0:0:
208,329,185054,1,0,0:0:0:0:
127,57,185196,5,2,0:0:0:0:
435,218,185339,1,0,0:0:0:0:
160,136,185482,1,8,0:0:0:0:
443,126,185625,1,2,0:0:0:0:
229,22,185768,1,2,0:0:0:0:
364,273,185911,1,0,0:0:0:0:
96,208,186054,1,8,0:0:0:0:
367,180,186196,1,0,0:0:0:0:
102,285,186339,5,8,0:0:0:0:
66,284,186410,1,0,0:0:0:0:
34,269,186481,1,0,0:0:0:0:
13,241,186553,1,0,0:0:0:0:
5,207,186625,5,8,0:0:0:0:
29,166,186696,1,0,0:0:0:0:
41,120,186767,1,0,0:0:0:0:
40,72,186839,1,0,0:0:0:0:
27,27,186911,5,8,0:0:0:0:
87,64,186982,1,0,0:0:0:0:
155,86,187053,1,0,0:0:0:0:
226,90,187125,1,0,0:0:0:0:
295,76,187196,2,0,L|419:47,1,95,10|0,0:0|0:0,0:0:0:0:
247,304,187482,6,0,L|123:333,1,95,2|0,0:0|0:0,0:0:0:0:
422,222,187768,1,8,0:0:0:0:
139,183,187911,1,2,0:0:0:0:
315,255,188054,1,2,0:0:0:0:
295,76,188196,1,0,0:0:0:0:
154,325,188339,1,8,0:0:0:0:
381,139,188482,1,0,0:0:0:0:
104,67,188625,5,2,0:0:0:0:
216,220,188768,1,0,0:0:0:0:
15,92,188911,1,8,0:0:0:0:
381,139,189054,1,2,0:0:0:0:
208,117,189196,1,2,0:0:0:0:
401,44,189339,1,0,0:0:0:0:
154,325,189482,1,8,0:0:0:0:
208,117,189625,1,0,0:0:0:0:
390,294,189768,6,0,L|466:363,1,95,2|0,0:0|0:0,0:0:0:0:
250,243,190054,2,0,L|296:334,1,95,10|0,0:0|0:0,0:0:0:0:
129,155,190339,2,0,L|150:255,1,95,2|0,0:0|0:0,0:0:0:0:
24,43,190625,2,0,L|19:145,1,95,10|0,0:0|0:0,0:0:0:0:
246,63,190911,5,8,0:0:0:0:
264,106,190982,1,0,0:0:0:0:
263,153,191053,1,0,0:0:0:0:
244,196,191125,1,0,0:0:0:0:
210,228,191196,2,0,L|166:270,1,47.5
115,100,191339,5,8,0:0:0:0:
176,65,191410,1,0,0:0:0:0:
246,63,191481,1,0,0:0:0:0:
309,95,191553,1,0,0:0:0:0:
350,152,191625,2,0,L|380:217,1,47.5
447,286,191768,5,8,0:0:0:0:
366,295,191839,1,0,0:0:0:0:
286,304,191910,1,0,0:0:0:0:
206,313,191982,1,0,0:0:0:0:
126,323,192054,6,0,B|43:328|43:328|17:308|17:308|42:260,1,142.5,2|0,0:0|0:0,0:0:0:0:
96,218,192339,2,0,P|133:165|120:115,1,95,10|2,0:0|0:0,0:0:0:0:
224,214,192625,1,2,0:0:0:0:
41,61,192768,1,0,0:0:0:0:
224,214,192911,1,8,0:0:0:0:
52,345,193054,1,0,0:0:0:0:
160,80,193196,6,0,L|266:60,1,95,2|2,0:0|0:0,0:0:0:0:
368,296,193482,1,8,0:0:0:0:
390,63,193625,1,2,0:0:0:0:
372,300,193768,1,2,0:0:0:0:
224,214,193911,1,0,0:0:0:0:
477,193,194054,1,8,0:0:0:0:
235,341,194196,1,0,0:0:0:0:
390,63,194339,6,0,L|396:159,1,95,2|2,0:0|0:0,0:0:0:0:
163,101,194625,1,8,0:0:0:0:
372,300,194768,1,2,0:0:0:0:
271,27,194911,1,2,0:0:0:0:
71,175,195054,1,0,0:0:0:0:
264,138,195196,1,8,0:0:0:0:
118,24,195339,1,0,0:0:0:0:
69,280,195482,5,0,0:0:0:0:
122,327,195553,1,0,0:0:0:0:
193,325,195624,1,0,0:0:0:0:
244,277,195696,1,0,0:0:0:0:
249,206,195768,1,0,0:0:0:0:
264,138,195839,1,0,0:0:0:0:
326,103,195910,1,0,0:0:0:0:
392,128,195982,1,0,0:0:0:0:
417,193,196054,5,0,0:0:0:0:
395,262,196125,1,0,0:0:0:0:
344,311,196196,1,0,0:0:0:0:
273,330,196268,1,0,0:0:0:0:
204,314,196339,1,0,0:0:0:0:
150,265,196411,1,0,0:0:0:0:
126,198,196482,1,0,0:0:0:0:
138,127,196554,1,0,0:0:0:0:
182,70,196625,6,0,P|233:56|338:72,1,142.5,2|0,0:0|0:0,0:0:0:0:
406,69,196911,2,0,L|444:168,1,95,8|2,0:0|0:0,0:0:0:0:
493,340,197196,1,2,0:0:0:0:
241,206,197339,1,0,0:0:0:0:
480,232,197482,1,8,0:0:0:0:
203,308,197625,1,0,0:0:0:0:
390,276,197768,5,2,0:0:0:0:
279,121,197911,1,0,0:0:0:0:
307,314,198054,1,8,0:0:0:0:
496,103,198196,1,2,0:0:0:0:
334,202,198339,1,2,0:0:0:0:
403,12,198482,1,0,0:0:0:0:
493,340,198625,1,8,0:0:0:0:
415,155,198768,1,0,0:0:0:0:
175,327,198911,5,10,0:0:0:0:
336,208,199054,1,0,0:0:0:0:
336,208,199125,1,0,0:0:0:0:
336,208,199196,1,8,0:0:0:0:
160,88,199339,1,2,0:0:0:0:
317,325,199482,1,10,0:0:0:0:
415,155,199625,1,0,0:0:0:0:
415,155,199696,1,0,0:0:0:0:
415,155,199768,1,8,0:0:0:0:
223,312,199911,1,0,0:0:0:0:
363,10,200054,5,10,0:0:0:0:
160,88,200196,1,0,0:0:0:0:
336,208,200339,1,8,0:0:0:0:
252,69,200482,1,2,0:0:0:0:
154,232,200625,1,10,0:0:0:0:
415,155,200768,1,0,0:0:0:0:
160,88,200911,1,8,0:0:0:0:
317,325,201054,1,0,0:0:0:0:
74,138,201196,5,8,0:0:0:0:
48,162,201267,1,0,0:0:0:0:
30,193,201338,1,0,0:0:0:0:
22,228,201410,1,0,0:0:0:0:
24,263,201481,1,0,0:0:0:0:
36,296,201553,1,0,0:0:0:0:
57,325,201624,1,0,0:0:0:0:
86,346,201696,1,0,0:0:0:0:
119,359,201768,2,0,L|174:368,7,47.5
194,252,202339,5,8,0:0:0:0:
229,255,202410,1,0,0:0:0:0:
264,258,202481,1,0,0:0:0:0:
300,261,202553,1,0,0:0:0:0:
335,265,202624,1,0,0:0:0:0:
371,268,202696,1,0,0:0:0:0:
406,271,202767,1,8,0:0:0:0:
442,274,202839,1,0,0:0:0:0:
477,278,202911,2,0,L|497:218,7,47.5,8|0|0|0|0|0|0|0,0:0|0:0|0:0|0:0|0:0|0:0|0:0|0:0,0:0:0:0:
402,155,203482,6,0,L|443:49,1,95,10|0,0:0|0:0,0:0:0:0:
353,291,203768,1,2,0:0:0:0:
353,291,204054,2,0,L|459:332,1,95,10|0,0:0|0:0,0:0:0:0:
217,242,204340,1,2,0:0:0:0:
217,242,204625,2,0,L|128:313,1,95,10|0,0:0|0:0,0:0:0:0:
327,148,204911,1,2,0:0:0:0:
327,148,205196,2,0,L|309:35,1,95,10|0,0:0|0:0,0:0:0:0:
353,290,205482,1,2,0:0:0:0:
50,308,205768,5,0,0:0:0:0:
57,237,205839,1,0,0:0:0:0:
96,178,205910,1,0,0:0:0:0:
157,143,205982,1,0,0:0:0:0:
227,139,206053,1,0,0:0:0:0:
292,167,206125,1,0,0:0:0:0:
337,221,206196,1,0,0:0:0:0:
353,290,206268,1,0,0:0:0:0:
333,367,206339,5,6,0:0:0:0:
468,171,206482,1,6,0:0:0:0:
202,279,206625,1,6,0:0:0:0:
