osu file format v14

[General]
AudioFilename: audio.mp3
AudioLeadIn: 0
PreviewTime: 192339
Countdown: 1
SampleSet: Soft
StackLeniency: 0.7
Mode: 0
LetterboxInBreaks: 0
WidescreenStoryboard: 1

[Editor]
DistanceSpacing: 1.1
BeatDivisor: 2
GridSize: 8
TimelineZoom: 1.5

[Metadata]
Title:Victims Of Contingency
TitleUnicode:Victims Of Contingency
Artist:Epica
ArtistUnicode:Epica
Creator:Gus
Version:Collab Normal
Source:
Tags:
BeatmapID:1384245
BeatmapSetID:645846

[Difficulty]
HPDrainRate:3.9
CircleSize:2.9
OverallDifficulty:3.9
ApproachRate:4.9
SliderMultiplier:0.799999999999999
SliderTickRate:1

[Events]
//Background and Video events
0,0,"my_heart_is_dead_but_still_red_by_nanomortis-d8hpg04.png",0,0
//Break Periods
2,83682,84557
2,124825,125700
//Storyboard Layer 0 (Background)
//Storyboard Layer 1 (Fail)
//Storyboard Layer 2 (Pass)
//Storyboard Layer 3 (Foreground)
//Storyboard Layer 4 (Overlay)
//Storyboard Sound Samples

[TimingPoints]
54,285.714285714286,4,2,1,55,1,0
10339,-100,4,2,1,55,0,0
46911,-100,4,2,2,55,0,0
65196,-100,4,2,2,55,0,1
84625,-100,4,2,2,55,0,0
105482,-100,4,2,1,55,0,0
106339,-100,4,2,2,55,0,1
125768,-100,4,2,1,55,0,0
164625,-100,4,2,2,55,0,1
173696,-100,4,2,2,55,0,0
173768,-100,4,2,2,55,0,1
182839,-100,4,2,2,55,0,0
182911,-100,4,2,2,55,0,1
206911,-100,4,2,2,55,0,0

[Colours]
Combo1 : 255,255,168
Combo2 : 255,128,128
Combo3 : 0,128,255
Combo4 : 255,156,108
Combo5 : 98,98,255
Combo6 : 153,0,0
Combo7 : 255,0,0
Combo8 : 0,74,115

[HitObjects]
83,122,10339,6,0,B|163:115|163:115|238:140|238:140|340:131,1,240
405,125,11482,2,0,B|407:171|378:197|378:197|369:293,1,160,0|8,0:0|0:0,0:0:0:0:
217,364,12625,6,0,B|224:284|224:284|199:209|199:209|206:128,1,240
280,80,13768,2,0,P|326:68|376:82,1,79.9999999999999
425,129,14339,2,0,P|433:167|425:206,1,79.9999999999999,8|0,0:0|0:0,0:0:0:0:
381,283,14911,6,0,B|333:283|333:283|269:299|269:299|213:299,1,160
134,299,15768,2,0,L|85:299,1,40,8|8,0:0|0:0,0:0:0:0:
75,79,17196,6,0,B|153:72|153:72|210:160|309:143,1,240
372,168,18339,2,0,B|378:219|378:219|404:267|404:267|408:323,1,160,0|8,0:0|0:0,0:0:0:0:
232,336,19482,6,0,B|154:342|154:342|104:288|118:190,1,240
190,138,20625,2,0,B|270:129|270:129|369:168,1,160,0|8,0:0|0:0,0:0:0:0:
437,279,21768,6,0,P|494:229|477:139,1,160,0|8,0:0|0:0,0:0:0:0:
423,89,22625,2,0,P|404:77|381:71,1,40,8|8,0:0|0:0,0:0:0:0:
171,112,24054,6,0,B|171:166|171:166|150:214|150:214|150:270,1,160,0|8,0:0|0:0,0:0:0:0:
212,330,24911,2,0,L|253:342,1,40,8|8,0:0|0:0,0:0:0:0:
338,335,25339,1,0,0:0:0:0:
409,283,25625,1,0,0:0:0:0:
426,196,25911,2,0,P|417:147|395:119,1,79.9999999999999
357,107,26339,6,0,P|291:145|219:116,2,160,8|8|8,0:0|0:0|0:0,0:0:0:0:
285,57,27768,1,8,0:0:0:0:
202,27,28054,2,0,B|159:29|159:29|114:41,1,79.9999999999999,8|8,0:0|0:0,0:0:0:0:
65,105,28625,6,0,L|81:289,1,160,8|8,0:0|0:0,0:0:0:0:
243,327,29768,2,0,B|331:334|331:334|391:376|391:376|471:384,1,240,8|0,0:0|0:0,0:0:0:0:
494,299,30911,5,0,0:0:0:0:
449,223,31196,2,0,B|441:182|441:182|447:140,1,79.9999999999999,0|8,0:0|0:0,0:0:0:0:
465,57,31768,1,0,0:0:0:0:
381,83,32054,2,0,P|311:118|221:78,1,160,0|8,0:0|0:0,0:0:0:0:
73,28,33196,5,0,0:0:0:0:
65,115,33482,2,0,L|56:214,1,79.9999999999999,0|8,0:0|0:0,0:0:0:0:
54,283,34054,1,0,0:0:0:0:
122,337,34339,2,0,B|239:355|239:355|354:308,1,240
388,233,35482,6,0,P|438:292|418:367,2,160,8|8|8,0:0|0:0|0:0,0:0:0:0:
305,205,36911,1,8,0:0:0:0:
223,178,37196,2,0,P|189:159|170:119,1,79.9999999999999,8|8,0:0|0:0,0:0:0:0:
219,48,37768,2,0,B|297:32|297:32|383:47,1,160,8|8,0:0|0:0,0:0:0:0:
502,169,38911,2,0,B|478:205|490:245|490:245|433:315|322:284,1,240,8|0,0:0|0:0,0:0:0:0:
277,232,40054,6,0,L|164:241,1,79.9999999999999
146,311,40625,2,0,L|33:301,1,79.9999999999999,8|0,0:0|0:0,0:0:0:0:
11,234,41196,2,0,P|39:161|15:79,1,160,0|8,0:0|0:0,0:0:0:0:
195,73,42339,5,0,0:0:0:0:
272,115,42625,1,0,0:0:0:0:
351,152,42911,2,0,L|452:143,2,79.9999999999999,8|0|0,0:0|0:0|0:0,0:0:0:0:
249,296,44054,2,0,B|225:300|202:320|202:320|172:280|172:280|140:311|99:305,1,160,8|8,0:0|0:0,0:0:0:0:
85,97,46054,5,0,0:0:0:0:
170,118,46339,2,0,P|218:134|281:128,1,79.9999999999999
335,115,46911,6,0,P|410:139|446:240,1,160,0|0,0:0|0:0,0:0:0:0:
412,287,47768,1,0,0:0:0:0:
331,323,48054,2,0,P|255:324|211:269,2,120,0|0|0,0:0|0:0|0:0,0:0:0:0:
294,243,49196,2,0,P|307:200|305:160,1,79.9999999999999,0|0,0:0|0:0,0:0:0:0:
280,128,49625,2,0,B|238:103|238:103|193:99,1,79.9999999999999
165,105,50054,1,0,0:0:0:0:
108,37,50339,6,0,P|77:104|116:176,1,160,0|0,0:0|0:0,0:0:0:0:
245,293,51482,2,0,L|415:307,1,160,0|0,0:0|0:0,0:0:0:0:
507,163,52625,2,0,P|468:126|426:120,1,79.9999999999999,0|0,0:0|0:0,0:0:0:0:
356,106,53196,2,0,P|318:92|292:62,1,79.9999999999999
214,22,53768,6,0,B|173:37|173:37|145:66,1,79.9999999999999,0|0,0:0|0:0,0:0:0:0:
132,104,54196,2,0,P|117:156|83:185,1,79.9999999999999
67,203,54625,1,0,0:0:0:0:
118,274,54911,2,0,L|204:281,1,79.9999999999999,0|0,0:0|0:0,0:0:0:0:
285,282,55482,1,0,0:0:0:0:
350,222,55768,1,0,0:0:0:0:
432,252,56054,2,0,P|472:288|480:365,2,120,0|0|0,0:0|0:0|0:0,0:0:0:0:
398,333,57196,6,0,B|351:333|351:333|290:357|290:357|212:357,1,160,0|0,0:0|0:0,0:0:0:0:
110,240,58339,2,0,P|80:168|116:94,1,160,0|0,0:0|0:0,0:0:0:0:
282,54,59482,2,0,B|328:63|328:63|377:56,1,79.9999999999999,0|0,0:0|0:0,0:0:0:0:
445,83,60054,2,0,B|454:129|454:129|447:178,1,79.9999999999999
391,228,60625,6,0,P|321:263|227:227,1,160,0|0,0:0|0:0,0:0:0:0:
175,189,61482,1,0,0:0:0:0:
160,102,61768,2,0,P|128:38|22:36,1,160,0|0,0:0|0:0,0:0:0:0:
73,107,62625,1,0,0:0:0:0:
69,195,62911,2,0,B|56:274|56:274|76:352,1,160,0|0,0:0|0:0,0:0:0:0:
251,365,64054,2,0,L|412:350,1,160
473,186,65196,5,0,0:0:0:0:
384,189,65482,2,0,P|339:189|295:166,1,79.9999999999999
235,124,66054,1,0,0:0:0:0:
149,143,66339,2,0,P|95:162|57:218,2,120
148,231,67482,6,0,P|166:287|223:322,2,120
235,237,68625,2,0,L|320:211,1,79.9999999999999
394,183,69196,1,0,0:0:0:0:
446,112,69482,2,0,P|445:63|416:24,1,79.9999999999999
342,22,70054,6,0,L|175:37,1,160
114,91,70911,2,0,P|40:114|-20:101,2,120
189,136,72054,6,0,P|225:208|203:299,1,160
267,352,72911,1,0,0:0:0:0:
354,347,73196,2,0,P|399:348|443:325,1,79.9999999999999
458,299,73625,2,0,B|453:253|453:253|429:209,1,79.9999999999999
406,190,74054,1,0,0:0:0:0:
414,102,74339,5,0,0:0:0:0:
334,63,74625,2,0,P|290:53|242:67,1,79.9999999999999
170,79,75196,1,0,0:0:0:0:
119,151,75482,2,0,L|113:278,2,120
206,161,76625,6,0,P|263:173|322:141,2,120
254,87,77768,2,0,P|288:65|340:65,1,79.9999999999999
399,111,78339,1,0,0:0:0:0:
410,198,78625,2,0,L|419:303,1,79.9999999999999
352,337,79196,6,0,B|274:355|274:355|166:326,1,160
112,306,80054,2,0,P|58:328|28:388,2,120
179,250,81196,6,0,L|193:84,1,160
270,48,82054,1,0,0:0:0:0:
346,91,82339,2,0,B|390:102|390:102|440:94,1,79.9999999999999
455,128,82768,2,0,P|467:166|453:216,1,79.9999999999999
441,244,83196,1,0,0:0:0:0:
256,192,83482,5,0,0:0:0:0:
57,89,85768,6,0,B|42:168|42:168|70:262,1,160
137,294,86625,1,0,0:0:0:0:
224,281,86911,2,0,L|322:272,1,79.9999999999999
340,298,87339,2,0,L|419:304,1,79.9999999999999
463,310,87768,1,0,0:0:0:0:
509,235,88054,6,0,P|515:195|503:158,1,79.9999999999999
436,100,88625,2,0,P|400:81|361:81,1,79.9999999999999
288,131,89196,6,0,P|219:169|141:132,1,160
40,280,90339,2,0,L|199:266,1,160
5,163,91482,2,0,P|44:126|86:120,1,79.9999999999999
156,106,92053,2,0,P|194:92|220:62,1,79.9999999999999
298,22,92625,6,0,B|339:37|339:37|367:66,1,79.9999999999999
380,104,93053,2,0,P|395:156|429:185,1,79.9999999999999
445,203,93482,1,0,0:0:0:0:
394,274,93768,2,0,L|308:281,1,79.9999999999999
227,282,94339,1,0,0:0:0:0:
162,222,94625,1,0,0:0:0:0:
80,252,94911,2,0,P|40:288|32:365,2,120
114,333,96053,6,0,B|161:333|161:333|222:357|222:357|300:357,1,160
402,240,97196,2,0,P|432:168|396:94,1,160
230,54,98339,2,0,B|184:63|184:63|135:56,1,79.9999999999999
67,83,98911,2,0,B|58:129|58:129|65:178,1,79.9999999999999
121,228,99482,6,0,P|191:263|285:227,1,160
337,189,100339,1,0,0:0:0:0:
352,102,100625,2,0,P|384:38|490:36,1,160
439,107,101482,1,0,0:0:0:0:
443,195,101768,2,0,B|456:274|456:274|436:352,1,160
335,207,102911,2,0,B|322:286|322:286|342:364,1,160
166,350,104054,5,0,0:0:0:0:
100,291,104339,2,0,B|111:247|111:247|105:212,1,79.9999999999999
136,181,104768,2,0,P|173:169|212:175,1,79.9999999999999
252,196,105196,1,0,0:0:0:0:
98,101,106339,5,0,0:0:0:0:
178,63,106625,2,0,P|222:53|270:66,1,79.9999999999999
342,79,107196,1,0,0:0:0:0:
393,151,107482,2,0,L|399:278,2,120
306,161,108625,6,0,P|249:173|190:140,2,120
258,87,109768,2,0,P|224:64|172:65,1,79.9999999999999
113,110,110339,1,0,0:0:0:0:
102,198,110625,2,0,L|93:303,1,79.9999999999999
160,337,111196,6,0,B|238:355|238:355|346:326,1,160
400,306,112054,2,0,P|453:328|483:387,2,120
333,250,113196,6,0,L|319:84,1,160
242,48,114054,1,0,0:0:0:0:
166,91,114339,2,0,B|122:102|122:102|72:94,1,79.9999999999999
57,127,114768,2,0,P|45:166|58:216,1,79.9999999999999
71,243,115196,1,0,0:0:0:0:
98,341,115482,5,0,0:0:0:0:
163,280,115768,2,0,P|195:248|210:201,1,79.9999999999999
222,129,116340,1,0,0:0:0:0:
297,81,116625,2,0,P|348:56|415:69,2,120
359,143,117768,6,0,P|386:195|371:260,2,120
302,208,118911,2,0,L|224:250,1,79.9999999999999
152,283,119482,1,0,0:0:0:0:
65,269,119768,2,0,P|31:234|24:186,1,79.9999999999999
74,132,120340,6,0,L|203:25,1,160
296,40,121197,2,0,P|369:63|430:50,2,120
240,128,122340,6,0,P|265:204|345:253,1,160
408,296,123197,1,0,0:0:0:0:
328,336,123482,2,0,P|296:368|249:383,1,79.9999999999999
224,376,123911,2,0,B|195:339|195:339|180:291,1,79.9999999999999
176,264,124340,1,0,0:0:0:0:
256,192,124625,5,0,0:0:0:0:
120,104,126911,6,0,P|168:80|280:112,1,160
432,176,128054,2,0,P|387:146|358:33,1,160
288,216,129196,6,0,B|241:216|241:216|180:240|180:240|102:240,1,160
288,320,130339,5,0,0:0:0:0:
288,320,130911,1,0,0:0:0:0:
288,320,131482,2,0,L|432:240,1,160
144,168,132625,2,0,L|299:206,1,160
440,104,133768,6,0,B|400:122|400:122|360:121,1,79.9999999999999
324,104,134196,2,0,P|276:77|232:81,1,79.9999999999999
208,79,134625,1,0,0:0:0:0:
145,21,134911,1,0,0:0:0:0:
145,21,136054,2,0,P|145:77|113:181,1,160
193,221,136911,2,0,L|209:277,1,40
288,248,137339,2,0,L|304:304,1,40
384,272,137768,2,0,L|400:328,1,40
472,256,138339,6,0,B|454:178|454:178|483:70,1,160
384,96,139196,2,0,L|368:40,1,40
289,69,139625,2,0,L|273:13,1,40
193,45,140054,1,0,0:0:0:0:
193,45,140625,6,0,L|179:204,1,160
200,288,141482,2,0,L|250:316,1,40
286,239,141911,2,0,L|336:267,1,40
371,189,142339,2,0,L|421:217,1,40
408,72,142911,6,0,B|360:72|360:72|299:96|299:96|252:96,1,160
168,120,143768,2,0,L|117:148,1,40
96,160,144054,1,0,0:0:0:0:
64,240,144339,1,0,0:0:0:0:
112,312,144625,1,0,0:0:0:0:
200,312,144911,1,0,0:0:0:0:
280,280,145196,2,0,P|320:264|448:288,1,160
480,208,146054,2,0,P|464:168|464:144,1,40
376,152,146482,2,0,P|392:112|409:95,1,40
336,48,146911,2,0,P|376:32|400:32,1,40
256,96,147482,6,0,B|209:96|209:96|148:72|148:72|100:72,1,160
56,152,148339,2,0,B|40:192,1,40
128,200,148768,2,0,B|112:240,1,40
200,248,149196,1,0,0:0:0:0:
200,248,149768,6,0,P|253:237|353:296,1,160
424,240,150625,2,0,P|408:200|408:176,1,40
336,152,151053,2,0,P|352:112|369:95,1,40
304,40,151482,2,0,P|344:24|368:24,1,40
231,135,152054,6,0,B|191:153|191:153|151:152,1,79.9999999999999
136,56,152625,2,0,B|176:38|176:38|216:39,1,79.9999999999999
304,40,153196,1,0,0:0:0:0:
256,192,155196,1,0,0:0:0:0:
256,192,155482,1,0,0:0:0:0:
168,248,156625,5,0,0:0:0:0:
256,96,157196,1,0,0:0:0:0:
352,248,157768,1,0,0:0:0:0:
256,254,160054,5,0,0:0:0:0:
193,192,160339,1,0,0:0:0:0:
256,129,160625,1,0,0:0:0:0:
318,192,160911,1,0,0:0:0:0:
256,192,161196,12,0,164339,0:0:0:0:
440,280,164625,5,0,0:0:0:0:
410,196,164911,2,0,P|385:157|342:133,1,79.9999999999999
283,91,165482,1,0,0:0:0:0:
196,106,165768,2,0,L|101:191,2,120
256,176,166911,2,0,L|249:303,2,120
283,91,168054,2,0,L|200:72,1,79.9999999999999
136,128,168625,1,0,0:0:0:0:
88,200,168911,2,0,P|89:249|118:288,1,79.9999999999999
184,312,169482,6,0,B|231:312|231:312|292:336|292:336|370:336,1,160
392,264,170339,2,0,P|466:241|526:254,2,120
317,219,171482,6,0,P|281:147|303:56,1,160
224,24,172339,1,0,0:0:0:0:
136,24,172625,2,0,P|91:23|47:46,1,79.9999999999999
32,72,173053,2,0,B|37:118|37:118|61:162,1,79.9999999999999
84,181,173482,1,0,0:0:0:0:
88,272,173767,5,0,0:0:0:0:
176,296,174053,2,0,P|220:306|268:292,1,79.9999999999999
336,272,174624,1,0,0:0:0:0:
296,192,174911,2,0,P|271:141|284:74,2,120
352,128,176054,6,0,P|404:101|469:116,2,120
288,192,177197,2,0,L|210:234,1,79.9999999999999
152,288,177768,1,0,0:0:0:0:
64,272,178054,2,0,P|30:237|23:189,1,79.9999999999999
80,136,178626,6,0,L|209:29,1,160
296,40,179483,2,0,P|369:63|430:50,2,120
240,128,180626,6,0,P|265:204|345:253,1,160
408,296,181483,1,0,0:0:0:0:
328,336,181768,2,0,P|296:368|249:383,1,79.9999999999999
224,376,182197,2,0,B|195:339|195:339|180:291,1,79.9999999999999
176,264,182626,1,0,0:0:0:0:
120,184,182911,5,0,0:0:0:0:
192,120,183196,2,0,L|304:120,1,79.9999999999999
352,176,183768,1,0,0:0:0:0:
416,104,184054,2,0,P|440:144|416:240,2,120
328,72,185196,6,0,L|200:64,2,120
424,80,186339,1,0,0:0:0:0:
440,176,186625,1,0,0:0:0:0:
440,272,186911,1,0,0:0:0:0:
376,344,187196,1,0,0:0:0:0:
280,336,187482,6,0,L|96:328,1,160
72,248,188339,1,0,0:0:0:0:
128,168,188625,6,0,L|312:160,1,160
328,72,189482,1,0,0:0:0:0:
232,56,189768,5,0,0:0:0:0:
136,48,190054,1,0,0:0:0:0:
40,72,190339,1,0,0:0:0:0:
8,160,190625,1,0,0:0:0:0:
32,256,190911,6,0,P|56:304|112:328,1,79.9999999999999
120,336,191339,2,0,L|227:330,1,79.9999999999999
248,328,191768,1,0,0:0:0:0:
336,288,192054,5,0,0:0:0:0:
392,208,192339,2,0,P|408:160|408:128,1,79.9999999999999
344,64,192911,1,0,0:0:0:0:
248,64,193196,2,0,L|112:80,2,120
296,144,194339,6,0,P|288:192|224:264,2,120
344,64,195482,6,0,P|392:80|440:256,1,240
400,328,196625,6,0,B|352:328|352:328|291:304|291:304|244:304,1,160
152,296,197482,1,0,0:0:0:0:
88,224,197768,2,0,P|72:176|80:136,1,79.9999999999999
160,96,198339,2,0,P|176:144|168:184,1,79.9999999999999
152,296,198911,1,0,0:0:0:0:
240,264,199196,1,0,0:0:0:0:
328,224,199482,1,0,0:0:0:0:
400,160,199768,1,0,0:0:0:0:
464,88,200054,6,0,L|437:341,1,240
256,192,201196,12,0,203196,0:0:0:0:
256,192,203482,6,0,L|232:280,1,79.9999999999999
152,224,204054,2,0,L|72:269,1,79.9999999999999
48,176,204625,2,0,P|40:136|48:88,1,79.9999999999999
128,48,205196,2,0,P|136:88|128:136,1,79.9999999999999
152,224,205768,1,0,0:0:0:0:
232,272,206054,1,0,0:0:0:0:
328,264,206339,1,0,0:0:0:0:
416,216,206625,1,0,0:0:0:0:
