osu file format v14

[General]
AudioFilename: audio.mp3
AudioLeadIn: 0
PreviewTime: 248674
Countdown: 0
SampleSet: Drum
StackLeniency: 0.4
Mode: 0
LetterboxInBreaks: 1
EpilepsyWarning: 1
WidescreenStoryboard: 1

[Editor]
Bookmarks: 1174,1653,5004,5482,8674,12663,13142,17929,18887,20801,25270,28142,29099,31653,35163,36121,37078,37716,38035,38993,39950,40908,41865,42823,43780,44738,45376,60216,61014,67716,68035,68355,68674,75376,76333,80163,83993,87823,88780,89259,89738,118461,119418,120376,121333,122291,123248,124206,131546,132025,182929,183567,228248,228567,231280,232238,232397,234153,235110,236067,236227,241014,241653,241812,242291,242929,244525,244844,248195,260163,275482,276121,286972,288248,288567,288887,289206,289844,290801,313142,313301,319365,319866,338674,340589,342504,342982,343222,345376,346333,346653,348248
DistanceSpacing: 1
BeatDivisor: 4
GridSize: 4
TimelineZoom: 1.8

[Metadata]
Title:Unleashed
TitleUnicode:Unleashed
Artist:Epica
ArtistUnicode:Epica
Creator:Anosan
Version:Man shot to death by burglar in his home
Source:
Tags:metal Simona Simons fast symphonic featured artist fa english storyboard sb
BeatmapID:2792376
BeatmapSetID:1348528

[Difficulty]
HPDrainRate:6
CircleSize:4.6
OverallDifficulty:9.2
ApproachRate:9.4
SliderMultiplier:2
SliderTickRate:1

[Events]
//Background and Video events
0,0,"bg.jpg",0,0
//Break Periods
//Storyboard Layer 0 (Background)
//Storyboard Layer 1 (Fail)
//Storyboard Layer 2 (Pass)
//Storyboard Layer 3 (Foreground)
//Storyboard Layer 4 (Overlay)
//Storyboard Sound Samples

[TimingPoints]
1661,319.148936170213,3,3,1,70,1,0
1661,-100,3,3,1,60,0,0
2618,-100,3,3,1,5,0,0
2937,-100,3,3,1,60,0,0
6448,-100,3,3,1,5,0,0
6767,-100,3,3,1,60,0,0
8690,319.148936170213,3,3,1,60,1,0
10286,-100,3,3,1,5,0,0
10605,-100,3,3,1,60,0,0
14115,-100,3,3,1,5,0,0
14434,-100,3,3,1,60,0,0
18903,-80,3,3,1,60,0,0
36137,-80,3,3,1,60,0,0
39009,-80,3,2,1,60,0,0
39966,-80,3,3,1,55,0,0
40924,-100,3,2,1,55,0,0
41881,-80,3,3,1,50,0,0
42839,-133.333333333333,3,2,1,50,0,0
43796,-80,3,3,1,50,0,0
44434,-80,3,3,1,55,0,0
44754,-80,3,3,1,60,0,0
45711,-90.9090909090909,3,3,1,60,0,0
60232,-90.9090909090909,3,3,1,30,0,0
60392,-90.9090909090909,3,3,1,35,0,0
60551,-90.9090909090909,3,3,1,40,0,0
60711,-90.9090909090909,3,3,1,45,0,0
60871,-90.9090909090909,3,3,1,50,0,0
61030,-80,3,3,1,60,0,0
61110,-80,3,3,1,5,0,0
61190,-80,3,3,1,60,0,0
61429,-80,3,3,1,5,0,0
61509,-80,3,3,1,60,0,0
61748,-80,3,3,1,5,0,0
61828,-80,3,3,1,60,0,0
61908,-80,3,3,1,5,0,0
61988,-500,3,3,1,60,0,0
62227,-500,3,3,1,5,0,0
62307,-80,3,3,1,60,0,0
62546,-80,3,3,1,5,0,0
62626,-80,3,3,1,60,0,0
62945,-80,3,3,1,60,0,0
63025,-80,3,3,1,5,0,0
63105,-80,3,3,1,60,0,0
63344,-80,3,3,1,5,0,0
63424,-80,3,3,1,60,0,0
63663,-80,3,3,1,5,0,0
63743,-80,3,3,1,60,0,0
63823,-80,3,3,1,5,0,0
63903,-500,3,3,1,60,0,0
64142,-500,3,3,1,5,0,0
64222,-80,3,3,1,60,0,0
64461,-80,3,3,1,5,0,0
64541,-80,3,3,1,60,0,0
64860,-80,3,3,1,60,0,0
64940,-80,3,3,1,5,0,0
65020,-80,3,3,1,60,0,0
65259,-80,3,3,1,5,0,0
65339,-80,3,3,1,60,0,0
65578,-80,3,3,1,5,0,0
65658,-80,3,3,1,60,0,0
65738,-80,3,3,1,5,0,0
65817,-500,3,3,1,60,0,0
66057,-80,3,3,1,5,0,0
66137,-80,3,3,1,60,0,0
66376,-80,3,3,1,5,0,0
66456,-80,3,3,1,60,0,0
66775,-80,3,3,1,60,0,0
66855,-80,3,3,1,5,0,0
66934,-80,3,3,1,60,0,0
67174,-80,3,3,1,5,0,0
67254,-80,3,3,1,60,0,0
67493,-80,3,3,1,5,0,0
67573,-80,3,3,1,60,0,0
67653,-80,3,3,1,5,0,0
67732,-66.6666666666667,3,3,1,60,0,0
67972,-66.6666666666667,3,3,1,5,0,0
68051,-66.6666666666667,3,3,1,60,0,0
68291,-66.6666666666667,3,3,1,5,0,0
68371,-66.6666666666667,3,3,1,60,0,0
68610,-66.6666666666667,3,3,1,5,0,0
68690,-50,3,3,1,60,0,0
68849,-66.6666666666667,3,3,1,5,0,0
69169,-80,3,3,1,60,0,0
69647,-500,3,3,1,60,0,0
69887,-500,3,3,1,5,0,0
69966,-80,3,3,1,60,0,0
70206,-80,3,3,1,5,0,0
70286,-80,3,3,1,60,0,0
70605,-80,3,3,1,60,0,0
70685,-80,3,3,1,5,0,0
70765,-80,3,3,1,60,0,0
71004,-80,3,3,1,5,0,0
71084,-80,3,3,1,60,0,0
71323,-80,3,3,1,5,0,0
71403,-80,3,3,1,60,0,0
71483,-80,3,3,1,5,0,0
71562,-500,3,3,1,60,0,0
71801,-500,3,3,1,5,0,0
71881,-80,3,3,1,60,0,0
72121,-80,3,3,1,5,0,0
72201,-80,3,3,1,60,0,0
72520,-80,3,3,1,60,0,0
72600,-80,3,3,1,5,0,0
72680,-80,3,3,1,60,0,0
72919,-80,3,3,1,5,0,0
72999,-80,3,3,1,60,0,0
73238,-80,3,3,1,5,0,0
73318,-80,3,3,1,60,0,0
73398,-80,3,3,1,5,0,0
73477,-500,3,3,1,60,0,0
73716,-500,3,3,1,5,0,0
73796,-80,3,3,1,60,0,0
74036,-80,3,3,1,5,0,0
74115,-80,3,3,1,70,0,0
76349,-100,3,3,1,60,0,0
89275,-400,3,3,1,25,0,0
89355,-400,3,3,1,35,0,0
89434,-400,3,3,1,45,0,0
89514,-400,3,3,1,55,0,0
89594,-400,3,3,1,65,0,0
89674,-400,3,3,1,5,0,0
89753,-66.6666666666667,3,3,1,80,0,1
90312,-66.6666666666667,3,3,1,5,0,1
90392,-66.6666666666667,3,3,1,80,0,1
90631,-66.6666666666667,3,3,1,5,0,1
90711,-200,3,3,1,80,0,1
91270,-200,3,3,1,5,0,1
91349,-66.6666666666667,3,3,1,80,0,1
91589,-66.6666666666667,3,3,1,5,0,1
91669,-200,3,3,1,80,0,1
92067,-200,3,3,1,5,0,1
92147,-66.6666666666667,3,3,1,80,0,1
92386,-66.6666666666667,3,3,1,5,0,1
92466,-66.6666666666667,3,3,1,60,0,1
92546,-66.6666666666667,3,3,1,5,0,1
92626,-200,3,3,1,80,0,1
93025,-200,3,3,1,5,0,1
93105,-66.6666666666667,3,3,1,80,0,1
93184,-66.6666666666667,3,3,1,5,0,1
93264,-66.6666666666667,3,3,1,80,0,1
93503,-66.6666666666667,3,3,1,5,0,1
93583,-200,3,3,1,80,0,1
94142,-200,3,3,1,5,0,1
94222,-66.6666666666667,3,3,1,80,0,1
94461,-66.6666666666667,3,3,1,5,0,1
94541,-200,3,3,1,80,0,1
95099,-200,3,3,1,5,0,1
95179,-66.6666666666667,3,3,1,80,0,1
95419,-66.6666666666667,3,3,1,5,0,1
95498,-200,3,3,1,80,0,1
95897,-200,3,3,1,5,0,1
95977,-66.6666666666667,3,3,1,80,0,1
96216,-66.6666666666667,3,3,1,5,0,1
96296,-66.6666666666667,3,3,1,80,0,1
96376,-66.6666666666667,3,3,1,5,0,1
96456,-200,3,3,1,80,0,1
96855,-200,3,3,1,5,0,1
96934,-66.6666666666667,3,3,1,80,0,1
97014,-66.6666666666667,3,3,1,5,0,1
97094,-66.6666666666667,3,3,1,80,0,1
97333,-66.6666666666667,3,3,1,5,0,1
97413,-200,3,3,1,80,0,1
97972,-200,3,3,1,5,0,1
98051,-66.6666666666667,3,3,1,80,0,1
98291,-66.6666666666667,3,3,1,5,0,1
98371,-200,3,3,1,80,0,1
98929,-200,3,3,1,5,0,1
99009,-66.6666666666667,3,3,1,80,0,1
99248,-66.6666666666667,3,3,1,5,0,1
99328,-200,3,3,1,80,0,1
99727,-200,3,3,1,5,0,1
99807,-66.6666666666667,3,3,1,80,0,1
100046,-66.6666666666667,3,3,1,5,0,1
100126,-66.6666666666667,3,3,1,60,0,1
100205,-66.6666666666667,3,3,1,5,0,1
100286,-200,3,3,1,80,0,1
100684,-66.6666666666667,3,3,1,5,0,1
100764,-66.6666666666667,3,3,1,80,0,1
100844,-66.6666666666667,3,3,1,5,0,1
100924,-66.6666666666667,3,3,1,80,0,1
101163,-66.6666666666667,3,3,1,5,0,1
101243,-200,3,3,1,80,0,1
101801,-200,3,3,1,5,0,1
101881,-66.6666666666667,3,3,1,80,0,1
102120,-66.6666666666667,3,3,1,5,0,1
102200,-200,3,3,1,80,0,1
102599,-200,3,3,1,5,0,1
102679,-100,3,3,1,80,0,1
102918,-100,3,3,1,5,0,1
102998,-100,3,3,1,80,0,1
103078,-100,3,3,1,5,0,1
103158,-100,3,3,1,80,0,1
105073,-66.6666666666667,3,3,1,80,0,1
105631,-66.6666666666667,3,3,1,5,0,1
105711,-66.6666666666667,3,3,1,80,0,1
105950,-66.6666666666667,3,3,1,5,0,1
106030,-200,3,3,1,80,0,1
106588,-200,3,3,1,5,0,1
106668,-66.6666666666667,3,3,1,80,0,1
106908,-66.6666666666667,3,3,1,5,0,1
106988,-200,3,3,1,80,0,1
107386,-200,3,3,1,5,0,1
107466,-66.6666666666667,3,3,1,80,0,1
107705,-66.6666666666667,3,3,1,5,0,1
107785,-66.6666666666667,3,3,1,60,0,1
107865,-66.6666666666667,3,3,1,5,0,1
107945,-200,3,3,1,80,0,1
108344,-200,3,3,1,5,0,1
108424,-66.6666666666667,3,3,1,80,0,1
108503,-66.6666666666667,3,3,1,5,0,1
108583,-66.6666666666667,3,3,1,80,0,1
108823,-66.6666666666667,3,3,1,5,0,1
108902,-200,3,3,1,80,0,1
109461,-200,3,3,1,5,0,1
109541,-66.6666666666667,3,3,1,80,0,1
109780,-66.6666666666667,3,3,1,5,0,1
109860,-200,3,3,1,80,0,1
110418,-200,3,3,1,5,0,1
110498,-66.6666666666667,3,3,1,80,0,1
110738,-66.6666666666667,3,3,1,5,0,1
110817,-200,3,3,1,80,0,1
111216,-200,3,3,1,5,0,1
111296,-66.6666666666667,3,3,1,80,0,1
111535,-66.6666666666667,3,3,1,5,0,1
111615,-66.6666666666667,3,3,1,80,0,1
111695,-66.6666666666667,3,3,1,5,0,1
111775,-200,3,3,1,80,0,1
112732,-200,3,3,1,80,0,1
113291,-200,3,3,1,5,0,1
113370,-66.6666666666667,3,3,1,80,0,1
113610,-66.6666666666667,3,3,1,5,0,1
113690,-200,3,3,1,80,0,1
114248,-200,3,3,1,5,0,1
114328,-66.6666666666667,3,3,1,80,0,1
114567,-66.6666666666667,3,3,1,5,0,1
114647,-200,3,3,1,80,0,1
115046,-200,3,3,1,5,0,1
115126,-66.6666666666667,3,3,1,80,0,1
115365,-66.6666666666667,3,3,1,5,0,1
115445,-66.6666666666667,3,3,1,60,0,1
115525,-66.6666666666667,3,3,1,5,0,1
115605,-200,3,3,1,80,0,1
116003,-66.6666666666667,3,3,1,5,0,1
116083,-66.6666666666667,3,3,1,80,0,1
116163,-66.6666666666667,3,3,1,5,0,1
116243,-66.6666666666667,3,3,1,80,0,1
116482,-66.6666666666667,3,3,1,5,0,1
116562,-200,3,3,1,80,0,1
117120,-200,3,3,1,5,0,1
117200,-66.6666666666667,3,3,1,80,0,1
117440,-66.6666666666667,3,3,1,5,0,1
117519,-200,3,3,1,80,0,1
118078,-200,3,3,1,5,0,1
118158,-250,3,3,1,80,0,1
118397,-133.333333333333,3,3,1,5,0,1
118477,-100,3,3,1,80,0,1
120392,-100,3,3,1,80,0,0
124222,-80,3,3,1,60,0,0
124301,-80,3,3,1,5,0,0
124381,-80,3,3,1,60,0,0
124621,-80,3,3,1,5,0,0
124700,-80,3,3,1,60,0,0
124940,-80,3,3,1,5,0,0
125020,-80,3,3,1,60,0,0
125099,-80,3,3,1,5,0,0
125179,-500,3,3,1,60,0,0
125419,-500,3,3,1,5,0,0
125498,-80,3,3,1,60,0,0
125738,-80,3,3,1,5,0,0
125818,-80,3,3,1,60,0,0
126137,-80,3,3,1,60,0,0
126217,-80,3,3,1,5,0,0
126297,-80,3,3,1,60,0,0
126536,-80,3,3,1,5,0,0
126616,-80,3,3,1,60,0,0
126855,-80,3,3,1,5,0,0
126935,-80,3,3,1,60,0,0
127015,-80,3,3,1,5,0,0
127094,-500,3,3,1,60,0,0
127334,-500,3,3,1,5,0,0
127413,-80,3,3,1,60,0,0
127653,-80,3,3,1,5,0,0
127732,-80,3,3,1,60,0,0
128051,-80,3,3,1,60,0,0
128131,-80,3,3,1,5,0,0
128211,-80,3,3,1,60,0,0
128450,-80,3,3,1,5,0,0
128530,-80,3,3,1,60,0,0
128769,-80,3,3,1,5,0,0
128849,-80,3,3,1,60,0,0
128929,-80,3,3,1,5,0,0
129008,-500,3,3,1,60,0,0
129248,-80,3,3,1,5,0,0
129328,-80,3,3,1,60,0,0
129567,-80,3,3,1,5,0,0
129647,-200,3,3,1,60,0,0
129887,-133.333333333333,3,3,1,5,0,0
129966,-80,3,3,1,60,0,0
130046,-80,3,3,1,5,0,0
130126,-80,3,3,1,60,0,0
130365,-80,3,3,1,5,0,0
130445,-80,3,3,1,60,0,0
130684,-80,3,3,1,5,0,0
130764,-80,3,3,1,60,0,0
130844,-80,3,3,1,5,0,0
130923,-50,3,3,1,60,0,0
131163,-66.6666666666667,3,3,1,5,0,0
131243,-50,3,3,1,60,0,0
131323,-66.6666666666667,3,3,1,5,0,0
131403,-50,3,3,1,60,0,0
131482,-66.6666666666667,3,3,1,5,0,0
131562,-50,3,3,1,60,0,0
131881,-50,3,3,1,60,0,0
131960,-66.6666666666667,3,3,1,5,0,0
132040,-500,3,3,1,60,0,0
132280,-80,3,3,1,5,0,0
132360,-80,3,3,1,60,0,0
132599,-80,3,3,1,5,0,0
132679,-80,3,3,1,60,0,0
132759,-80,3,3,1,5,0,0
132838,-500,3,3,1,60,0,0
133078,-500,3,3,1,5,0,0
133157,-80,3,3,1,60,0,0
133397,-80,3,3,1,5,0,0
133477,-80,3,3,1,60,0,0
133796,-80,3,3,1,60,0,0
133876,-80,3,3,1,5,0,0
133956,-80,3,3,1,60,0,0
134195,-80,3,3,1,5,0,0
134275,-80,3,3,1,60,0,0
134514,-80,3,3,1,5,0,0
134594,-80,3,3,1,60,0,0
134674,-80,3,3,1,5,0,0
134753,-500,3,3,1,60,0,0
134992,-500,3,3,1,5,0,0
135072,-80,3,3,1,60,0,0
135312,-80,3,3,1,5,0,0
135392,-80,3,3,1,60,0,0
135711,-80,3,3,1,60,0,0
135791,-80,3,3,1,5,0,0
135871,-80,3,3,1,60,0,0
136110,-80,3,3,1,5,0,0
136190,-80,3,3,1,60,0,0
136429,-80,3,3,1,5,0,0
136509,-80,3,3,1,60,0,0
136589,-80,3,3,1,5,0,0
136668,-500,3,3,1,60,0,0
136907,-500,3,3,1,5,0,0
136987,-80,3,3,1,60,0,0
137227,-80,3,3,1,5,0,0
137306,-80,3,3,1,70,0,0
137387,-80,3,3,1,5,0,0
137466,-200,3,3,1,70,0,0
137626,-100,3,3,1,70,0,0
137706,-100,3,3,1,5,0,0
137786,-200,3,3,1,70,0,0
138025,-200,3,3,1,5,0,0
138105,-200,3,3,1,70,0,0
138424,-100,3,3,1,70,0,0
138504,-100,3,3,1,5,0,0
138584,-133.333333333333,3,3,1,70,0,0
138743,-133.333333333333,3,3,1,50,0,0
139540,-100,3,3,1,60,0,0
152466,-400,3,3,1,25,0,0
152546,-400,3,3,1,35,0,0
152625,-400,3,3,1,45,0,0
152705,-400,3,3,1,55,0,0
152785,-400,3,3,1,65,0,0
152865,-400,3,3,1,5,0,0
152945,-62.5,3,3,1,80,0,1
153503,-62.5,3,3,1,5,0,1
153583,-62.5,3,3,1,80,0,1
153822,-62.5,3,3,1,5,0,1
153902,-200,3,3,1,80,0,1
154461,-200,3,3,1,5,0,1
154540,-62.5,3,3,1,80,0,1
154780,-62.5,3,3,1,5,0,1
154860,-200,3,3,1,80,0,1
155258,-200,3,3,1,5,0,1
155338,-62.5,3,3,1,80,0,1
155578,-62.5,3,3,1,5,0,1
155657,-62.5,3,3,1,60,0,1
155737,-62.5,3,3,1,5,0,1
155817,-200,3,3,1,80,0,1
156216,-200,3,3,1,5,0,1
156296,-62.5,3,3,1,80,0,1
156376,-62.5,3,3,1,5,0,1
156455,-62.5,3,3,1,80,0,1
156695,-62.5,3,3,1,5,0,1
156774,-200,3,3,1,80,0,1
157333,-200,3,3,1,5,0,1
157413,-62.5,3,3,1,80,0,1
157652,-62.5,3,3,1,5,0,1
157732,-200,3,3,1,80,0,1
158290,-200,3,3,1,5,0,1
158370,-62.5,3,3,1,80,0,1
158610,-62.5,3,3,1,5,0,1
158689,-200,3,3,1,80,0,1
159088,-200,3,3,1,5,0,1
159168,-62.5,3,3,1,80,0,1
159408,-62.5,3,3,1,5,0,1
159487,-62.5,3,3,1,80,0,1
159567,-62.5,3,3,1,5,0,1
159647,-200,3,3,1,80,0,1
160046,-200,3,3,1,5,0,1
160125,-62.5,3,3,1,80,0,1
160205,-62.5,3,3,1,5,0,1
160285,-62.5,3,3,1,80,0,1
160525,-62.5,3,3,1,5,0,1
160604,-200,3,3,1,80,0,1
161163,-200,3,3,1,5,0,1
161242,-62.5,3,3,1,80,0,1
161482,-62.5,3,3,1,5,0,1
161562,-200,3,3,1,80,0,1
162120,-200,3,3,1,5,0,1
162200,-62.5,3,3,1,80,0,1
162439,-62.5,3,3,1,5,0,1
162519,-200,3,3,1,80,0,1
162918,-200,3,3,1,5,0,1
162998,-62.5,3,3,1,80,0,1
163237,-62.5,3,3,1,5,0,1
163317,-62.5,3,3,1,60,0,1
163397,-62.5,3,3,1,5,0,1
163477,-200,3,3,1,80,0,1
163876,-62.5,3,3,1,5,0,1
163955,-62.5,3,3,1,80,0,1
164035,-62.5,3,3,1,5,0,1
164115,-62.5,3,3,1,80,0,1
164354,-62.5,3,3,1,5,0,1
164434,-200,3,3,1,80,0,1
164992,-200,3,3,1,5,0,1
165072,-62.5,3,3,1,80,0,1
165312,-62.5,3,3,1,5,0,1
165391,-200,3,3,1,80,0,1
165950,-200,3,3,1,5,0,1
166030,-200,3,3,1,80,0,1
166269,-100,3,3,1,5,0,1
166349,-100,3,3,1,80,0,1
168264,-62.5,3,3,1,80,0,1
168822,-62.5,3,3,1,5,0,1
168902,-62.5,3,3,1,80,0,1
169142,-62.5,3,3,1,5,0,1
169221,-200,3,3,1,80,0,1
169780,-200,3,3,1,5,0,1
169859,-62.5,3,3,1,80,0,1
170099,-62.5,3,3,1,5,0,1
170179,-200,3,3,1,80,0,1
170577,-200,3,3,1,5,0,1
170657,-62.5,3,3,1,80,0,1
170897,-62.5,3,3,1,5,0,1
170976,-62.5,3,3,1,60,0,1
171057,-62.5,3,3,1,5,0,1
171136,-200,3,3,1,80,0,1
171535,-200,3,3,1,5,0,1
171615,-62.5,3,3,1,80,0,1
171695,-62.5,3,3,1,5,0,1
171774,-62.5,3,3,1,80,0,1
172014,-62.5,3,3,1,5,0,1
172093,-200,3,3,1,80,0,1
172652,-200,3,3,1,5,0,1
172732,-62.5,3,3,1,80,0,1
172971,-62.5,3,3,1,5,0,1
173051,-200,3,3,1,80,0,1
173609,-200,3,3,1,5,0,1
173689,-62.5,3,3,1,80,0,1
173929,-62.5,3,3,1,5,0,1
174008,-200,3,3,1,80,0,1
174407,-200,3,3,1,5,0,1
174487,-62.5,3,3,1,80,0,1
174727,-62.5,3,3,1,5,0,1
174806,-62.5,3,3,1,80,0,1
174886,-62.5,3,3,1,5,0,1
174966,-200,3,3,1,80,0,1
175923,-200,3,3,1,80,0,1
176482,-200,3,3,1,5,0,1
176561,-62.5,3,3,1,80,0,1
176801,-62.5,3,3,1,5,0,1
176881,-200,3,3,1,80,0,1
177439,-200,3,3,1,5,0,1
177519,-62.5,3,3,1,80,0,1
177758,-62.5,3,3,1,5,0,1
177838,-200,3,3,1,80,0,1
178237,-200,3,3,1,5,0,1
178317,-62.5,3,3,1,80,0,1
178556,-62.5,3,3,1,5,0,1
178636,-62.5,3,3,1,60,0,1
178716,-62.5,3,3,1,5,0,1
178796,-200,3,3,1,80,0,1
179194,-62.5,3,3,1,5,0,1
179274,-62.5,3,3,1,80,0,1
179354,-62.5,3,3,1,5,0,1
179434,-62.5,3,3,1,80,0,1
179673,-62.5,3,3,1,5,0,1
179753,-200,3,3,1,80,0,1
180311,-200,3,3,1,5,0,1
180391,-62.5,3,3,1,80,0,1
180631,-62.5,3,3,1,5,0,1
180710,-200,3,3,1,80,0,1
181269,-200,3,3,1,5,0,1
181349,-250,3,3,1,80,0,1
181588,-250,3,3,1,5,0,1
181668,-100,3,3,1,80,0,1
183663,-100,3,2,1,80,0,0
184541,-100,3,2,1,70,0,0
185498,-100,3,2,1,60,0,0
186456,-100,3,2,1,45,0,0
187413,-100,3,2,1,30,0,0
191243,-100,3,2,1,30,0,0
195073,-133.333333333333,3,2,1,30,0,0
196030,-100,3,2,1,30,0,0
202732,-133.333333333333,3,2,1,30,0,0
203690,-100,3,2,1,30,0,0
210392,-100,3,2,1,30,0,0
218051,-133.333333333333,3,2,1,30,0,0
219009,-100,3,2,1,30,0,0
219966,-100,3,3,1,60,0,0
220605,-100,3,3,1,40,0,0
220924,-100,3,3,1,50,0,0
221243,-100,3,3,1,60,0,0
221562,-100,3,3,1,70,0,0
221881,-66.6666666666667,3,3,1,80,0,0
221961,-66.6666666666667,3,3,1,5,0,0
222041,-66.6666666666667,3,3,1,80,0,0
222121,-66.6666666666667,3,3,1,5,0,0
222200,-66.6666666666667,3,3,1,80,0,0
222839,-66.6666666666667,3,3,1,80,0,0
222919,-66.6666666666667,3,3,1,5,0,0
222999,-66.6666666666667,3,3,1,80,0,0
223079,-66.6666666666667,3,3,1,5,0,0
223158,-66.6666666666667,3,3,1,80,0,0
223796,-66.6666666666667,3,3,1,80,0,0
223876,-66.6666666666667,3,3,1,5,0,0
223956,-66.6666666666667,3,3,1,80,0,0
224036,-66.6666666666667,3,3,1,5,0,0
224115,-66.6666666666667,3,3,1,80,0,0
225711,-66.6666666666667,3,3,1,80,0,0
225791,-66.6666666666667,3,3,1,5,0,0
225871,-66.6666666666667,3,3,1,80,0,0
225951,-66.6666666666667,3,3,1,5,0,0
226030,-66.6666666666667,3,3,1,80,0,0
226669,-66.6666666666667,3,3,1,80,0,0
226749,-66.6666666666667,3,3,1,5,0,0
226829,-66.6666666666667,3,3,1,80,0,0
226909,-66.6666666666667,3,3,1,5,0,0
226988,-66.6666666666667,3,3,1,80,0,0
227626,-66.6666666666667,3,3,1,80,0,0
227706,-66.6666666666667,3,3,1,5,0,0
227786,-66.6666666666667,3,3,1,80,0,0
227866,-66.6666666666667,3,3,1,5,0,0
227945,-66.6666666666667,3,3,1,80,0,0
229541,-66.6666666666667,3,3,1,80,0,0
229621,-66.6666666666667,3,3,1,5,0,0
229701,-66.6666666666667,3,3,1,80,0,0
229781,-66.6666666666667,3,3,1,5,0,0
229860,-66.6666666666667,3,3,1,80,0,0
230498,-66.6666666666667,3,3,1,80,0,0
230578,-66.6666666666667,3,3,1,5,0,0
230658,-66.6666666666667,3,3,1,80,0,0
230738,-66.6666666666667,3,3,1,5,0,0
230817,-66.6666666666667,3,3,1,80,0,0
231456,-66.6666666666667,3,3,1,80,0,0
231536,-66.6666666666667,3,3,1,5,0,0
231616,-66.6666666666667,3,3,1,80,0,0
231696,-66.6666666666667,3,3,1,5,0,0
231775,-66.6666666666667,3,3,1,80,0,0
233371,-66.6666666666667,3,3,1,80,0,0
233451,-66.6666666666667,3,3,1,5,0,0
233531,-66.6666666666667,3,3,1,80,0,0
233611,-66.6666666666667,3,3,1,5,0,0
233690,-66.6666666666667,3,3,1,80,0,0
234328,-66.6666666666667,3,3,1,80,0,0
234408,-66.6666666666667,3,3,1,5,0,0
234488,-66.6666666666667,3,3,1,80,0,0
234568,-66.6666666666667,3,3,1,5,0,0
234647,-66.6666666666667,3,3,1,80,0,0
235286,-66.6666666666667,3,3,1,80,0,0
235366,-66.6666666666667,3,3,1,5,0,0
235446,-66.6666666666667,3,3,1,80,0,0
235526,-66.6666666666667,3,3,1,5,0,0
235605,-66.6666666666667,3,3,1,80,0,0
237200,-200,3,3,1,70,0,0
238397,-200,3,3,1,5,0,0
238477,-100,3,3,1,70,0,0
241030,-200,3,3,1,70,0,0
241589,-200,3,3,1,5,0,0
241669,-100,3,3,1,70,0,0
242945,-200,3,3,1,70,0,0
243663,-200,3,3,1,5,0,0
243743,-133.333333333333,3,3,1,70,0,0
248211,-133.333333333333,3,3,1,30,0,0
248291,-133.333333333333,3,3,1,35,0,0
248371,-133.333333333333,3,3,1,40,0,0
248450,-133.333333333333,3,3,1,45,0,0
248530,-133.333333333333,3,3,1,50,0,0
248610,-133.333333333333,3,3,1,55,0,0
248690,-80,3,3,1,60,0,0
248770,-80,3,3,1,5,0,0
248850,-80,3,3,1,60,0,0
249089,-80,3,3,1,5,0,0
249169,-80,3,3,1,60,0,0
249408,-80,3,3,1,5,0,0
249488,-80,3,3,1,60,0,0
249568,-80,3,3,1,5,0,0
249647,-500,3,3,1,60,0,0
249887,-500,3,3,1,5,0,0
249966,-80,3,3,1,60,0,0
250206,-80,3,3,1,5,0,0
250286,-80,3,3,1,60,0,0
250605,-80,3,3,1,60,0,0
250685,-80,3,3,1,5,0,0
250765,-80,3,3,1,60,0,0
251004,-80,3,3,1,5,0,0
251083,-80,3,3,1,60,0,0
251323,-80,3,3,1,5,0,0
251403,-80,3,3,1,60,0,0
251482,-80,3,3,1,5,0,0
251562,-500,3,3,1,60,0,0
251801,-500,3,3,1,5,0,0
251881,-80,3,3,1,60,0,0
252121,-80,3,3,1,5,0,0
252200,-80,3,3,1,60,0,0
252520,-80,3,3,1,60,0,0
252600,-80,3,3,1,5,0,0
252680,-80,3,3,1,60,0,0
252919,-80,3,3,1,5,0,0
252999,-80,3,3,1,60,0,0
253238,-80,3,3,1,5,0,0
253318,-80,3,3,1,60,0,0
253398,-80,3,3,1,5,0,0
253477,-500,3,3,1,60,0,0
253717,-80,3,3,1,5,0,0
253796,-80,3,3,1,60,0,0
254036,-80,3,3,1,5,0,0
254115,-80,3,3,1,60,0,0
254434,-80,3,3,1,60,0,0
254514,-80,3,3,1,5,0,0
254594,-80,3,3,1,60,0,0
254833,-80,3,3,1,5,0,0
254913,-80,3,3,1,60,0,0
255153,-80,3,3,1,5,0,0
255232,-80,3,3,1,60,0,0
255312,-80,3,3,1,5,0,0
255392,-50,3,3,1,60,0,0
255631,-50,3,3,1,5,0,0
255710,-50,3,3,1,60,0,0
255791,-50,3,3,1,5,0,0
255871,-50,3,3,1,60,0,0
255950,-50,3,3,1,5,0,0
256030,-50,3,3,1,60,0,0
256349,-500,3,3,1,60,0,0
256748,-500,3,3,1,5,0,0
256828,-66.6666666666667,3,3,1,60,0,0
257067,-66.6666666666667,3,3,1,5,0,0
257147,-66.6666666666667,3,3,1,60,0,0
257227,-66.6666666666667,3,3,1,5,0,0
257307,-66.6666666666667,3,3,1,60,0,0
257546,-66.6666666666667,3,3,1,5,0,0
257626,-100,3,3,1,60,0,0
257706,-100,3,3,1,5,0,0
257786,-100,3,3,1,60,0,0
257866,-100,3,3,1,5,0,0
257945,-66.6666666666667,3,3,1,60,0,0
258025,-66.6666666666667,3,3,1,5,0,0
258105,-100,3,3,1,60,0,0
258185,-66.6666666666667,3,3,1,5,0,0
258264,-66.6666666666667,3,3,1,60,0,0
258344,-66.6666666666667,3,3,1,5,0,0
258424,-66.6666666666667,3,3,1,60,0,0
258743,-66.6666666666667,3,3,1,60,0,0
258982,-66.6666666666667,3,3,1,5,0,0
259062,-100,3,3,1,60,0,0
259142,-100,3,3,1,5,0,0
259222,-66.6666666666667,3,3,1,60,0,0
259302,-66.6666666666667,3,3,1,5,0,0
259381,-100,3,3,1,60,0,0
259461,-100,3,3,1,5,0,0
259541,-100,3,3,1,60,0,0
259860,-500,3,3,1,60,0,0
260099,-500,3,3,1,5,0,0
260179,-100,3,3,1,70,0,0
274541,-133.333333333333,3,3,1,70,0,0
274860,-80,3,3,1,70,0,0
275179,-100,3,3,1,70,0,0
290817,-55.5555555555556,3,3,1,80,0,1
291375,-55.5555555555556,3,3,1,5,0,1
291455,-55.5555555555556,3,3,1,80,0,1
291694,-55.5555555555556,3,3,1,5,0,1
291774,-200,3,3,1,80,0,1
292333,-200,3,3,1,5,0,1
292412,-55.5555555555556,3,3,1,80,0,1
292652,-55.5555555555556,3,3,1,5,0,1
292732,-200,3,3,1,80,0,1
293130,-200,3,3,1,5,0,1
293210,-55.5555555555556,3,3,1,80,0,1
293450,-55.5555555555556,3,3,1,5,0,1
293529,-55.5555555555556,3,3,1,60,0,1
293610,-55.5555555555556,3,3,1,5,0,1
293689,-200,3,3,1,80,0,1
294088,-200,3,3,1,5,0,1
294168,-55.5555555555556,3,3,1,80,0,1
294248,-55.5555555555556,3,3,1,5,0,1
294327,-55.5555555555556,3,3,1,80,0,1
294567,-55.5555555555556,3,3,1,5,0,1
294646,-200,3,3,1,80,0,1
295205,-200,3,3,1,5,0,1
295285,-55.5555555555556,3,3,1,80,0,1
295524,-55.5555555555556,3,3,1,5,0,1
295604,-200,3,3,1,80,0,1
296162,-200,3,3,1,5,0,1
296242,-55.5555555555556,3,3,1,80,0,1
296482,-55.5555555555556,3,3,1,5,0,1
296561,-200,3,3,1,80,0,1
296960,-200,3,3,1,5,0,1
297040,-55.5555555555556,3,3,1,80,0,1
297279,-55.5555555555556,3,3,1,5,0,1
297359,-55.5555555555556,3,3,1,80,0,1
297440,-55.5555555555556,3,3,1,5,0,1
297519,-200,3,3,1,80,0,1
297918,-200,3,3,1,5,0,1
297997,-55.5555555555556,3,3,1,80,0,1
298078,-55.5555555555556,3,3,1,5,0,1
298157,-55.5555555555556,3,3,1,80,0,1
298396,-55.5555555555556,3,3,1,5,0,1
298476,-200,3,3,1,80,0,1
299035,-200,3,3,1,5,0,1
299114,-55.5555555555556,3,3,1,80,0,1
299354,-55.5555555555556,3,3,1,5,0,1
299434,-200,3,3,1,80,0,1
299992,-200,3,3,1,5,0,1
300072,-55.5555555555556,3,3,1,80,0,1
300311,-55.5555555555556,3,3,1,5,0,1
300391,-200,3,3,1,80,0,1
300790,-200,3,3,1,5,0,1
300870,-55.5555555555556,3,3,1,80,0,1
301109,-55.5555555555556,3,3,1,5,0,1
301189,-55.5555555555556,3,3,1,60,0,1
301269,-55.5555555555556,3,3,1,5,0,1
301349,-200,3,3,1,80,0,1
301747,-200,3,3,1,5,0,1
301827,-55.5555555555556,3,3,1,80,0,1
301908,-55.5555555555556,3,3,1,5,0,1
301987,-55.5555555555556,3,3,1,80,0,1
302226,-55.5555555555556,3,3,1,5,0,1
302306,-200,3,3,1,80,0,1
302864,-200,3,3,1,5,0,1
302944,-55.5555555555556,3,3,1,80,0,1
303184,-55.5555555555556,3,3,1,5,0,1
303263,-200,3,3,1,80,0,1
303823,-200,3,3,1,5,0,1
303903,-200,3,3,1,80,0,1
304142,-200,3,3,1,5,0,1
304221,-100,3,3,1,80,0,1
306136,-55.5555555555556,3,3,1,80,0,1
306694,-55.5555555555556,3,3,1,5,0,1
306774,-55.5555555555556,3,3,1,80,0,1
307013,-55.5555555555556,3,3,1,5,0,1
307093,-200,3,3,1,80,0,1
307972,-200,3,3,1,5,0,1
308051,-200,3,3,1,80,0,1
308449,-200,3,3,1,5,0,1
308529,-55.5555555555556,3,3,1,80,0,1
308769,-55.5555555555556,3,3,1,5,0,1
308848,-55.5555555555556,3,3,1,60,0,1
308929,-55.5555555555556,3,3,1,5,0,1
309008,-200,3,3,1,80,0,1
309407,-200,3,3,1,5,0,1
309487,-55.5555555555556,3,3,1,80,0,1
309567,-55.5555555555556,3,3,1,5,0,1
309646,-55.5555555555556,3,3,1,80,0,1
309886,-55.5555555555556,3,3,1,5,0,1
309965,-200,3,3,1,80,0,1
310524,-200,3,3,1,5,0,1
310604,-55.5555555555556,3,3,1,80,0,1
310843,-55.5555555555556,3,3,1,5,0,1
310923,-200,3,3,1,80,0,1
311801,-200,3,3,1,5,0,1
311880,-200,3,3,1,80,0,1
312279,-200,3,3,1,5,0,1
312359,-55.5555555555556,3,3,1,80,0,1
312598,-55.5555555555556,3,3,1,5,0,1
312678,-55.5555555555556,3,3,1,80,0,1
312759,-55.5555555555556,3,3,1,5,0,1
312838,-55.5555555555556,3,3,1,80,0,1
313158,-55.5555555555556,3,3,1,40,0,1
313317,-55.5555555555556,3,3,1,50,0,1
313477,-55.5555555555556,3,3,1,60,0,1
313637,-55.5555555555556,3,3,1,70,0,1
313795,-200,3,3,1,80,0,1
314354,-200,3,3,1,5,0,1
314433,-55.5555555555556,3,3,1,80,0,1
314673,-55.5555555555556,3,3,1,5,0,1
314753,-200,3,3,1,80,0,1
315311,-200,3,3,1,5,0,1
315391,-55.5555555555556,3,3,1,80,0,1
315630,-55.5555555555556,3,3,1,5,0,1
315710,-200,3,3,1,80,0,1
316109,-200,3,3,1,5,0,1
316189,-55.5555555555556,3,3,1,80,0,1
316428,-55.5555555555556,3,3,1,5,0,1
316508,-55.5555555555556,3,3,1,60,0,1
316588,-55.5555555555556,3,3,1,5,0,1
316668,-200,3,3,1,80,0,1
317066,-55.5555555555556,3,3,1,5,0,1
317146,-55.5555555555556,3,3,1,80,0,1
317227,-55.5555555555556,3,3,1,5,0,1
317306,-55.5555555555556,3,3,1,80,0,1
317545,-55.5555555555556,3,3,1,5,0,1
317625,-200,3,3,1,80,0,1
317865,-200,3,3,1,5,0,1
317945,-55.5555555555556,3,3,1,80,0,1
318344,-55.5555555555556,3,3,1,5,0,1
318424,-80,3,3,1,80,0,1
318823,-80,3,3,1,5,0,1
318903,-100,3,3,1,80,0,1
318982,-100,3,3,1,5,0,1
319062,-55.5555555555556,3,3,1,80,0,1
319301,-55.5555555555556,3,3,1,5,0,1
319381,-55.5555555555556,3,3,1,80,0,1
319540,-100,3,3,1,80,0,1
319620,-100,3,3,1,5,0,1
319700,-100,3,3,1,60,0,1
319780,-100,3,3,1,5,0,1
319860,-100,3,3,1,80,0,1
321455,-80,3,3,1,70,0,0
338690,-100,3,3,1,70,0,0
340605,-66.6666666666667,3,3,1,70,0,0
342520,-80,3,3,1,70,0,0
343477,-66.6666666666667,3,3,1,75,0,0
344434,-50,3,3,1,80,0,0
345392,-50,3,3,1,85,0,0
345631,-50,3,3,1,5,0,0

[Colours]
Combo1 : 201,239,143
Combo2 : 0,0,128
Combo3 : 68,0,159
Combo4 : 128,128,255
Combo5 : 255,255,128

[HitObjects]
144,48,1661,5,12,0:0:0:0:
256,192,1740,12,0,2618,0:0:0:0:
144,48,2937,5,0,0:0:0:0:
176,176,3256,1,0,0:0:0:0:
192,239,3575,53,4,0:0:0:0:
144,48,5490,5,12,0:0:0:0:
256,192,5570,12,0,6448,0:0:0:0:
144,48,6766,53,0,0:0:0:0:
176,176,7085,1,0,0:0:0:0:
160,112,7404,5,4,0:0:0:0:
160,112,8690,53,0,0:0:0:0:
189,105,8769,1,0,0:0:0:0:
219,98,8849,1,0,0:0:0:0:
248,90,8929,1,0,0:0:0:0:
280,80,9009,6,0,L|344:96,1,50
240,192,9168,2,0,L|176:208,1,50
208,304,9328,53,12,0:0:0:0:
256,192,9407,12,0,10285,0:0:0:0:
208,304,10604,5,0,0:0:0:0:
176,176,10924,1,0,0:0:0:0:
160,112,11243,53,4,0:0:0:0:
208,304,13158,5,12,0:0:0:0:
256,192,13238,12,0,14115,0:0:0:0:
208,304,14434,53,0,0:0:0:0:
176,176,14754,1,0,0:0:0:0:
192,240,15073,5,4,0:0:0:0:
192,240,16349,1,0,0:0:0:0:
232,80,16509,1,0,0:0:0:0:
392,120,16669,1,0,0:0:0:0:
352,280,16828,1,0,0:0:0:0:
288,192,16987,53,0,0:0:0:0:
288,192,17945,5,8,0:0:0:0:
256,177,18024,1,0,0:0:0:0:
222,179,18104,1,0,0:0:0:0:
193,198,18184,1,0,0:0:0:0:
176,224,18264,53,8,0:0:0:0:
215,252,18343,1,0,0:0:0:0:
265,256,18423,1,0,0:0:0:0:
309,234,18503,1,0,0:0:0:0:
348,203,18583,1,8,0:0:0:0:
393,181,18662,1,0,0:0:0:0:
442,186,18742,1,0,0:0:0:0:
480,224,18822,1,0,0:0:0:0:
480,224,18903,6,0,B|384:200|384:200|416:192,1,125,8|0,0:0|0:0,0:0:0:0:
496,16,19222,2,0,B|472:112|472:112|464:80,1,125,8|0,0:0|0:0,0:0:0:0:
272,64,19541,2,0,B|368:88|368:88|336:96,1,125,8|0,0:0|0:0,0:0:0:0:
272,184,19860,53,8,0:0:0:0:
80,144,20020,1,0,0:0:0:0:
128,336,20179,5,8,0:0:0:0:
384,272,20339,1,0,0:0:0:0:
292,112,20498,53,8,0:0:0:0:
340,304,20658,1,0,0:0:0:0:
340,304,20738,1,0,0:0:0:0:
340,304,20817,6,0,B|372:312|372:312|340:184,1,125,12|0,0:0|0:0,0:0:0:0:
164,160,21137,2,0,B|156:192|156:192|284:160,1,125,8|0,0:0|0:0,0:0:0:0:
340,0,21456,2,0,B|308:-8|308:-8|340:120,1,125,8|0,0:0|0:0,0:0:0:0:
496,192,21775,53,8,0:0:0:0:
304,144,21935,1,0,0:0:0:0:
352,336,22094,5,8,0:0:0:0:
384,208,22254,1,0,0:0:0:0:
288,320,22413,53,8,0:0:0:0:
480,368,22573,1,0,0:0:0:0:
480,368,22653,1,0,0:0:0:0:
480,368,22732,5,8,0:0:0:0:
464,240,22892,1,0,0:0:0:0:
368,304,23051,53,8,0:0:0:0:
384,176,23211,1,0,0:0:0:0:
384,176,23291,1,0,0:0:0:0:
384,176,23371,5,8,0:0:0:0:
256,208,23530,1,0,0:0:0:0:
256,208,23690,54,0,L|217:362,1,125,8|0,0:0|0:0,0:0:0:0:
416,288,24009,2,0,L|456:128,1,125,8|0,0:0|0:0,0:0:0:0:
432,96,24328,5,0,0:0:0:0:
424,128,24408,1,0,0:0:0:0:
416,160,24488,1,0,0:0:0:0:
472,208,24647,53,0,0:0:0:0:
440,200,24727,1,0,0:0:0:0:
408,192,24807,1,0,0:0:0:0:
376,184,24887,1,0,0:0:0:0:
344,176,24966,5,0,0:0:0:0:
284,191,25045,1,0,0:0:0:0:
223,207,25125,1,0,0:0:0:0:
163,222,25205,1,0,0:0:0:0:
112,240,25286,54,0,B|136:144|136:144|144:176,1,125,12|0,0:0|0:0,0:0:0:0:
320,256,25605,2,0,B|224:232|224:232|256:224,1,125,8|0,0:0|0:0,0:0:0:0:
272,32,25924,2,0,B|248:128|248:128|240:96,1,125,8|0,0:0|0:0,0:0:0:0:
176,16,26243,5,8,0:0:0:0:
368,64,26403,1,0,0:0:0:0:
336,192,26562,53,8,0:0:0:0:
80,256,26722,1,0,0:0:0:0:
208,288,26881,5,8,0:0:0:0:
256,96,27041,1,0,0:0:0:0:
256,96,27121,1,0,0:0:0:0:
256,96,27200,54,0,B|288:88|288:88|256:216,1,125,8|0,0:0|0:0,0:0:0:0:
64,80,27520,2,0,B|56:48|56:48|184:80,1,125,8|0,0:0|0:0,0:0:0:0:
160,256,27839,2,0,B|128:264|128:264|160:136,1,125,8|0,0:0|0:0,0:0:0:0:
272,32,28158,5,12,0:0:0:0:
264,64,28238,1,0,0:0:0:0:
256,96,28317,2,0,L|240:160,1,62.5
368,192,28477,53,8,0:0:0:0:
360,160,28557,1,0,0:0:0:0:
352,128,28636,2,0,L|336:64,1,62.5
256,160,28796,5,8,0:0:0:0:
264,192,28876,1,0,0:0:0:0:
272,224,28956,2,0,L|288:288,1,62.5
376,224,29115,53,12,0:0:0:0:
384,192,29195,1,0,0:0:0:0:
392,160,29275,2,0,L|408:96,1,62.5
280,64,29434,5,0,0:0:0:0:
296,128,29514,1,0,0:0:0:0:
312,192,29594,1,0,0:0:0:0:
328,256,29674,1,0,0:0:0:0:
344,320,29754,54,0,B|360:384|360:384|296:368,1,125,8|0,0:0|0:0,0:0:0:0:
320,224,30073,2,0,B|304:160|304:160|368:176,1,125,8|0,0:0|0:0,0:0:0:0:
240,288,30392,2,0,B|176:304|176:304|192:240,1,125,8|0,0:0|0:0,0:0:0:0:
224,112,30711,5,8,0:0:0:0:
416,160,30871,1,0,0:0:0:0:
256,240,31030,53,8,0:0:0:0:
304,48,31190,1,0,0:0:0:0:
208,48,31349,5,8,0:0:0:0:
464,112,31509,1,0,0:0:0:0:
464,112,31589,1,0,0:0:0:0:
464,112,31669,54,0,B|488:208|488:208|456:200,1,125,12|0,0:0|0:0,0:0:0:0:
312,312,31988,2,0,B|288:216|288:216|320:224,1,125,8|0,0:0|0:0,0:0:0:0:
272,96,32307,2,0,B|368:72|368:72|360:104,1,125,8|0,0:0|0:0,0:0:0:0:
192,192,32626,5,8,0:0:0:0:
240,0,32786,1,0,0:0:0:0:
432,48,32945,1,8,0:0:0:0:
384,240,33105,1,0,0:0:0:0:
448,256,33264,53,8,0:0:0:0:
416,128,33423,1,0,0:0:0:0:
288,160,33583,1,8,0:0:0:0:
320,288,33742,1,0,0:0:0:0:
384,272,33903,5,8,0:0:0:0:
256,240,34061,1,0,0:0:0:0:
256,240,34142,1,0,0:0:0:0:
256,240,34222,54,0,B|224:368,1,125,8|0,0:0|0:0,0:0:0:0:
96,272,34541,2,0,B|64:144,1,125,8|0,0:0|0:0,0:0:0:0:
160,128,34860,2,0,B|288:160,1,125,8|0,0:0|0:0,0:0:0:0:
416,192,35179,5,12,0:0:0:0:
384,80,35339,1,0,0:0:0:0:
288,160,35498,53,8,0:0:0:0:
480,208,35658,1,0,0:0:0:0:
304,272,35817,5,8,0:0:0:0:
368,16,35976,1,0,0:0:0:0:
368,16,36057,1,0,0:0:0:0:
368,16,36137,53,2,0:0:0:0:
392,112,36296,1,2,0:0:0:0:
312,136,36456,5,2,0:0:0:0:
288,232,36615,1,2,0:0:0:0:
368,208,36775,53,2,0:0:0:0:
240,176,36934,1,2,0:0:0:0:
240,176,37094,5,0,0:0:0:0:
213,121,37173,1,0,0:0:0:0:
233,64,37253,1,0,0:0:0:0:
289,39,37333,1,0,0:0:0:0:
343,55,37413,54,0,B|327:119,1,62.5
256,160,37573,2,0,B|272:224,1,62.5
304,288,37732,5,8,0:0:0:0:
304,288,38051,53,4,0:0:0:0:
277,303,38130,1,0,0:0:0:0:
246,309,38210,1,0,0:0:0:0:
216,303,38290,1,0,0:0:0:0:
190,286,38370,1,0,0:0:0:0:
172,261,38449,1,0,0:0:0:0:
162,232,38529,1,0,0:0:0:0:
159,200,38609,1,0,0:0:0:0:
162,169,38690,5,0,0:0:0:0:
221,150,38769,1,0,0:0:0:0:
283,157,38849,1,0,0:0:0:0:
336,188,38929,1,0,0:0:0:0:
376,240,39009,22,0,P|320:256|264:224,1,125,8|0,3:0|0:0,0:0:0:0:
424,144,39328,2,0,P|472:184|480:256,1,125
344,368,39647,2,0,L|376:240,1,125
374,237,39966,21,0,0:0:0:0:
343,245,40045,1,0,0:0:0:0:
312,248,40125,1,0,0:0:0:0:
281,246,40205,1,0,0:0:0:0:
251,238,40285,1,0,0:0:0:0:
223,225,40364,1,0,0:0:0:0:
197,208,40444,1,0,0:0:0:0:
174,186,40524,1,0,0:0:0:0:
156,161,40605,5,0,0:0:0:0:
217,162,40684,1,0,0:0:0:0:
253,210,40764,1,0,0:0:0:0:
257,272,40844,1,0,0:0:0:0:
248,336,40924,22,0,P|184:320|120:360,1,100,8|0,3:0|0:0,0:0:0:0:
120,232,41243,2,0,P|120:176|176:128,1,100
216,208,41562,2,0,L|248:336,1,100
246,334,41881,37,0,0:0:0:0:
229,319,41960,1,0,0:0:0:0:
216,301,42040,1,0,0:0:0:0:
209,281,42120,1,0,0:0:0:0:
206,259,42200,1,0,0:0:0:0:
210,238,42279,1,0,0:0:0:0:
218,218,42359,1,0,0:0:0:0:
232,200,42439,1,0,0:0:0:0:
249,187,42520,53,0,0:0:0:0:
251,247,42599,1,0,0:0:0:0:
204,286,42679,1,0,0:0:0:0:
143,295,42759,1,0,0:0:0:0:
80,288,42839,38,0,P|80:240|112:208,1,75.0000028610231,8|0,3:0|0:0,0:0:0:0:
192,240,43158,2,0,P|160:208|112:208,1,75.0000028610231
88,120,43477,2,0,P|88:176|112:208,1,75.0000028610231
112,208,43796,21,8,0:0:0:0:
115,202,43875,1,0,0:0:0:0:
120,198,43956,1,0,0:0:0:0:
129,191,44036,1,0,0:0:0:0:
147,183,44115,1,0,0:0:0:0:
171,181,44195,1,0,0:0:0:0:
195,189,44275,1,0,0:0:0:0:
227,208,44355,1,0,0:0:0:0:
256,232,44434,5,0,0:0:0:0:
296,256,44514,1,0,0:0:0:0:
344,256,44594,1,0,0:0:0:0:
400,224,44674,1,0,0:0:0:0:
416,160,44754,5,8,0:0:0:0:
416,160,45711,37,0,0:0:0:0:
256,240,45871,2,0,B|448:288|448:288|432:224,1,220.000006713867
384,32,46349,6,0,L|416:160,2,110.000003356934,0|0|8,0:0|0:0|0:0,0:0:0:0:
304,352,46988,53,0,0:0:0:0:
384,32,47307,5,0,0:0:0:0:
352,160,47466,1,0,0:0:0:0:
224,128,47626,53,0,0:0:0:0:
480,192,47786,2,0,B|464:128|464:128|416:320,1,220.000006713867
400,384,48264,5,0,0:0:0:0:
496,360,48424,1,0,0:0:0:0:
304,312,48583,1,8,0:0:0:0:
384,48,48903,53,0,0:0:0:0:
304,312,49222,5,0,0:0:0:0:
272,184,49381,1,0,0:0:0:0:
416,208,49541,53,0,0:0:0:0:
160,272,49700,2,0,B|176:336|176:336|224:144,1,220.000006713867
256,16,50179,6,0,L|224:144,2,110.000003356934,0|0|8,0:0|0:0|0:0,0:0:0:0:
512,80,50817,53,0,0:0:0:0:
256,16,51137,5,0,0:0:0:0:
128,48,51296,1,0,0:0:0:0:
320,96,51456,53,0,0:0:0:0:
64,160,51615,2,0,B|128:176|128:176|152:272|152:272|216:288,1,220.000006713867
384,240,52094,6,0,L|256:208,1,110.000003356934
320,16,52413,1,8,0:0:0:0:
64,80,52732,53,8,0:0:0:0:
320,16,53051,5,8,0:0:0:0:
64,80,53371,53,0,0:0:0:0:
96,208,53530,2,0,B|288:256|288:256|272:192,1,220.000006713867
224,0,54009,6,0,L|256:128,1,110.000003356934
448,160,54329,1,8,0:0:0:0:
192,224,54648,53,0,0:0:0:0:
448,160,54966,6,0,L|320:128,1,110.000003356934
368,0,55286,53,0,0:0:0:0:
304,256,55445,2,0,B|496:304|496:304|432:320,2,220.000006713867
368,0,56243,5,8,0:0:0:0:
304,256,56563,53,0,0:0:0:0:
368,0,56882,5,0,0:0:0:0:
240,32,57041,1,0,0:0:0:0:
432,80,57200,1,0,0:0:0:0:
320,112,57360,2,0,B|256:128|256:128|448:176,2,220.000006713867
64,48,58158,53,8,0:0:0:0:
320,112,58477,5,0,0:0:0:0:
64,48,58797,53,0,0:0:0:0:
192,80,58956,1,0,0:0:0:0:
216,176,59115,5,0,0:0:0:0:
336,148,59275,2,0,B|400:132|400:132|208:84,2,220.000006713867
368,32,60073,53,8,0:0:0:0:
368,32,60232,5,0,0:0:0:0:
341,38,60311,1,0,0:0:0:0:
314,45,60391,1,0,0:0:0:0:
287,52,60471,1,0,0:0:0:0:
256,64,60551,53,0,0:0:0:0:
298,74,60630,1,0,0:0:0:0:
341,85,60710,1,0,0:0:0:0:
384,96,60790,1,0,0:0:0:0:
426,106,60870,1,0,0:0:0:0:
469,117,60949,1,0,0:0:0:0:
511,128,61030,6,0,L|495:192,1,62.5,0|0,0:0|0:0,0:0:0:0:
320,176,61190,2,0,L|272:368,1,187.5
136,192,61509,54,0,B|128:224|128:224|320:176,1,187.5
207,352,61828,2,0,L|143:336,1,62.5
15,304,61988,22,0,L|47:312,1,30,8|0,0:0|0:0,0:0:0:0:
271,368,62307,38,0,B|263:384|263:384|215:192,1,187.5
191,96,62626,1,0,0:0:0:0:
416,152,62786,1,0,0:0:0:0:
287,336,62945,6,0,L|351:320,1,62.5
416,152,63105,2,0,L|224:200,1,187.5
32,264,63424,54,0,B|0:256|0:256|160:216,1,187.5
256,80,63743,2,0,L|192:96,1,62.5
336,8,63903,22,0,L|368:0,1,30
472,64,64222,54,0,L|280:112,1,187.5,8|0,0:0|0:0,0:0:0:0:
88,160,64541,53,0,0:0:0:0:
136,352,64700,1,8,0:0:0:0:
328,304,64860,6,0,L|264:288,1,62.5
136,352,65020,2,0,B|296:312|296:312|264:304,1,187.5
271,128,65339,54,0,B|399:160|399:160|335:176,1,187.5
207,208,65658,2,0,L|143:224,1,62.5
335,48,65817,22,0,L|367:40,1,30,8|0,0:0|0:0,0:0:0:0:
463,176,66137,54,0,B|495:184|495:184|335:224,1,187.5
143,272,66456,1,0,0:0:0:0:
399,336,66615,1,0,0:0:0:0:
143,272,66775,54,0,L|127:336,1,62.5
399,336,66934,2,0,B|407:304|407:304|247:344,1,187.5
79,256,67254,6,0,L|271:208,1,187.5
463,256,67573,2,0,L|399:272,1,62.5
207,320,67732,54,0,P|79:256|95:176,1,225.000008583069,12|0,0:0|0:0,0:0:0:0:
239,176,68051,2,0,P|207:320|111:304,1,225.000008583069,12|0,0:0|0:0,0:0:0:0:
79,240,68371,2,0,P|239:176|255:208,1,225.000008583069,12|0,0:0|0:0,0:0:0:0:
207,320,68690,6,0,B|-17:376,1,200,12|0,0:0|0:0,0:0:0:0:
95,48,69169,53,0,0:0:0:0:
415,128,69488,5,0,0:0:0:0:
159,32,69647,6,0,L|191:24,1,30,8|0,0:0|0:0,0:0:0:0:
415,128,69966,54,0,B|255:168|255:168|287:176,1,187.5
447,256,70286,1,0,0:0:0:0:
383,0,70445,1,0,0:0:0:0:
279,72,70605,54,0,L|215:88,1,62.5
239,232,70764,2,0,B|231:264|231:264|391:224,1,187.5
159,40,71083,6,0,B|103:264,1,187.5
207,360,71403,2,0,L|223:296,1,62.5
375,96,71562,6,0,L|367:128,1,30,8|0,0:0|0:0,0:0:0:0:
431,320,71881,38,0,L|479:128,1,187.5
479,128,72200,5,0,0:0:0:0:
223,192,72360,1,0,0:0:0:0:
351,224,72520,54,0,L|415:208,1,62.5
239,128,72679,2,0,B|79:168|79:168|87:136,1,187.5
255,64,72998,6,0,L|207:256,1,187.5
95,96,73317,2,0,L|159:80,1,62.5
199,352,73477,6,0,L|167:360,1,30,8|0,0:0|0:0,0:0:0:0:
287,240,73796,38,0,L|95:288,1,187.5
96,288,74115,5,0,0:0:0:0:
144,96,74275,1,0,0:0:0:0:
256,160,74434,53,8,0:0:0:0:
64,112,74594,1,0,0:0:0:0:
112,304,74754,1,8,0:0:0:0:
304,352,74914,1,0,0:0:0:0:
272,224,75073,5,0,0:0:0:0:
80,272,75233,1,0,0:0:0:0:
208,304,75392,53,0,0:0:0:0:
256,112,75552,1,0,0:0:0:0:
288,120,75631,1,2,0:0:0:0:
320,128,75711,1,2,0:0:0:0:
352,256,75871,1,2,0:0:0:0:
224,288,76030,1,2,0:0:0:0:
192,160,76190,1,2,0:0:0:0:
320,128,76349,38,0,P|304:208|256:240,1,100,4|0,0:0|0:0,0:0:0:0:
112,160,76669,2,0,P|208:144|240:160,1,100
304,304,76988,5,0,0:0:0:0:
272,296,77067,1,0,0:0:0:0:
240,288,77147,1,0,0:0:0:0:
208,280,77227,1,0,0:0:0:0:
176,272,77307,54,0,L|144:144,1,100,8|0,0:0|0:0,0:0:0:0:
80,352,77626,2,0,L|208:384,1,100
48,240,77945,5,0,0:0:0:0:
80,248,78024,1,0,0:0:0:0:
112,256,78104,1,0,0:0:0:0:
144,264,78184,1,0,0:0:0:0:
176,272,78264,54,0,P|240:256|256:192,1,100,4|0,0:0|0:0,0:0:0:0:
64,224,78583,2,0,P|48:288|64:336,1,100
272,232,78903,5,0,0:0:0:0:
240,240,78982,1,0,0:0:0:0:
208,248,79062,1,0,0:0:0:0:
176,256,79142,1,0,0:0:0:0:
144,264,79222,54,0,L|272:296,1,100,8|0,0:0|0:0,0:0:0:0:
432,192,79541,2,0,L|304:160,1,100
368,320,79860,2,0,L|496:352,1,100
416,128,80179,5,4,0:0:0:0:
384,120,80339,1,0,0:0:0:0:
352,112,80498,1,0,0:0:0:0:
320,104,80658,1,0,0:0:0:0:
288,232,80817,54,0,L|352:248,3,50
208,144,81137,5,8,0:0:0:0:
240,152,81296,1,0,0:0:0:0:
272,160,81455,1,0,0:0:0:0:
304,168,81615,1,0,0:0:0:0:
336,40,81775,54,0,L|272:24,3,50
272,160,82094,5,8,0:0:0:0:
336,176,82254,1,0,0:0:0:0:
400,192,82413,1,0,0:0:0:0:
464,208,82573,1,0,0:0:0:0:
432,64,82732,54,0,L|368:48,3,50
344,128,83051,5,8,0:0:0:0:
272,192,83211,1,0,0:0:0:0:
368,216,83370,1,0,0:0:0:0:
464,240,83530,1,0,0:0:0:0:
416,48,83690,53,0,0:0:0:0:
408,80,83769,1,0,0:0:0:0:
400,112,83849,1,0,0:0:0:0:
392,144,83929,1,0,0:0:0:0:
384,176,84009,6,0,L|512:144,1,100,12|0,0:0|0:0,0:0:0:0:
416,48,84328,53,0,0:0:0:0:
288,80,84487,1,0,0:0:0:0:
368,240,84647,5,0,0:0:0:0:
376,208,84726,1,0,0:0:0:0:
384,176,84806,1,0,0:0:0:0:
392,144,84886,1,0,0:0:0:0:
400,112,84966,54,0,P|336:128|304:192,1,100,8|0,0:0|0:0,0:0:0:0:
208,224,85286,2,0,P|224:176|208:112,1,100
160,16,85605,2,0,P|208:0|272:16,1,100
80,112,85924,6,0,P|48:80|32:16,1,100,4|0,0:0|0:0,0:0:0:0:
160,208,86243,2,0,P|96:240|32:224,1,100
192,64,86562,53,0,0:0:0:0:
200,96,86641,1,0,0:0:0:0:
208,128,86721,1,0,0:0:0:0:
216,160,86801,1,0,0:0:0:0:
224,192,86881,5,8,0:0:0:0:
352,224,87041,1,0,0:0:0:0:
384,96,87200,1,0,0:0:0:0:
256,64,87360,1,0,0:0:0:0:
128,96,87520,53,0,0:0:0:0:
320,48,87679,1,0,0:0:0:0:
240,0,87839,5,12,0:0:0:0:
240,0,89275,38,0,L|256:64,1,62.5
401,244,89753,54,0,P|217:284|374:178,1,525.000020027161,12|0,0:0|0:0,0:0:0:0:
304,248,90392,54,0,B|336:240|336:240|112:184,1,225.000008583069
64,32,90711,22,0,L|256:80,1,175,8|0,0:0|0:0,0:0:0:0:
448,128,91349,54,0,B|480:136|480:136|256:192,1,225.000008583069
64,240,91669,6,0,B|32:248|32:248|128:272,1,125
448,352,92147,38,0,B|192:288|192:288,1,225.000008583069
256,192,92466,2,0,L|128:160,1,75.0000028610231
128,48,92626,22,0,L|256:80,1,125,8|0,0:0|0:0,0:0:0:0:
384,224,93105,54,0,L|256:192,1,75.0000028610231
240,16,93264,2,0,B|432:64|432:64|368:80,1,225.000008583069
256,192,93583,6,0,B|224:200|224:200|384:240,1,175,12|0,0:0|0:0,0:0:0:0:
224,320,94222,38,0,B|256:328|256:328|64:376,1,225.000008583069
128,224,94541,22,0,B|256:192|256:192|192:176,1,175,8|0,0:0|0:0,0:0:0:0:
464,144,95179,54,0,B|288:104|288:104|352:88,1,225.000008583069
464,60,95498,6,0,B|496:52|496:52|472:148,1,125
416,312,95977,38,0,B|408:344|408:344|360:144,1,225.000008583069
176,112,96296,2,0,L|208:240,1,75.0000028610231
384,176,96456,22,0,B|360:80|360:80|352:112,1,125,8|0,0:0|0:0,0:0:0:0:
328,304,96934,54,0,L|352:208,1,75.0000028610231
192,48,97094,2,0,B|144:248|144:248|176:240,1,225.000008583069
352,208,97413,6,0,B|480:176|480:176|416:160,1,175,12|0,0:0|0:0,0:0:0:0:
208,112,98051,38,0,B|176:104|176:104|224:296,1,225.000008583069
432,320,98371,22,0,L|384:128,1,175,8|0,0:0|0:0,0:0:0:0:
224,96,99009,54,0,B|272:288|272:288|280:256,1,225.000008583069
336,32,99328,6,0,B|344:0|344:0|368:96,1,125,8|0,0:0|0:0,0:0:0:0:
400,224,99807,38,0,B|408:256|408:256|184:200,1,225.000008583069
96,64,100126,2,0,L|192:88,1,75.0000028610231
240,336,100286,22,0,B|144:312|144:312|176:304,1,125,8|0,0:0|0:0,0:0:0:0:
368,368,100764,54,0,L|464:344,1,75.0000028610231
416,112,100924,2,0,B|224:160|224:160|256:168,1,225.000008583069
448,288,101243,6,0,B|480:296|480:296|416:312|416:312|384:304|384:304|320:320|320:320,1,175
64,384,101881,38,0,B|256:336|256:336|224:328,1,225.000008583069
256,208,102200,22,0,B|352:232|352:232|320:240,1,125,8|0,0:0|0:0,0:0:0:0:
112,176,102679,54,0,B|240:144|240:144|176:128,1,150
160,48,102998,2,0,L|224:64,1,50
224,64,103158,53,0,0:0:0:0:
288,80,103317,1,0,0:0:0:0:
352,64,103477,1,0,0:0:0:0:
224,96,103637,5,0,0:0:0:0:
352,128,103796,1,0,0:0:0:0:
320,0,103956,1,0,0:0:0:0:
240,160,104115,53,8,0:0:0:0:
432,112,104275,1,0,0:0:0:0:
304,80,104434,1,0,0:0:0:0:
256,272,104594,5,0,0:0:0:0:
512,208,104754,1,0,0:0:0:0:
320,176,104913,1,0,0:0:0:0:
256,272,105073,54,0,P|400:96|208:160,1,525.000020027161,12|0,0:0|0:0,0:0:0:0:
320,176,105711,6,0,B|224:152|224:152|192:160|192:160|64:128,1,225.000008583069
48,16,106030,6,0,L|240:64,1,175,8|0,0:0|0:0,0:0:0:0:
336,240,106669,38,0,B|152:192|152:192|160:232,1,225.000008583069
368,368,106988,22,0,L|336:240,1,125
128,104,107466,54,0,B|176:296|176:296|192:232,1,225.000008583069
336,232,107786,2,0,L|360:136,1,75.0000028610231
224,104,107945,6,0,B|216:136|216:136|192:40,1,125,8|0,0:0|0:0,0:0:0:0:
344,24,108424,38,0,L|368:120,1,75.0000028610231
336,232,108583,2,0,B|344:264|344:264|184:224|184:224|192:256,1,225.000008583069
424,352,108903,22,0,B|432:384|432:384|472:224|472:224,1,175,8|0,0:0|0:0,0:0:0:0:
192,208,109541,54,0,B|200:176|200:176|224:272|224:272|216:304|216:304|232:376,1,225.000008583069
344,216,109860,6,0,B|304:56|304:56|296:88,1,175,8|0,0:0|0:0,0:0:0:0:
256,248,110498,38,0,B|248:280|248:280|80:320|80:320|112:328,1,225.000008583069
440,176,110817,22,0,B|472:184|472:184|376:208,1,125,8|0,0:0|0:0,0:0:0:0:
112,328,111296,54,0,B|304:280|304:280|272:272,1,225.000008583069
216,48,111615,2,0,L|120:24,1,75.0000028610231
120,24,111775,53,10,0:0:0:0:
88,120,111934,1,2,0:0:0:0:
88,120,112014,1,2,0:0:0:0:
88,120,112094,1,2,0:0:0:0:
120,256,112254,1,2,0:0:0:0:
280,296,112413,1,2,0:0:0:0:
480,248,112573,1,2,0:0:0:0:
416,56,112732,22,0,B|352:72|352:72|320:64|320:64|224:88,1,175,12|0,0:0|0:0,0:0:0:0:
320,160,113371,54,0,B|512:112|512:112|448:96,1,225.000008583069
224,40,113690,6,0,B|192:32|192:32|232:192,1,175,8|0,0:0|0:0,0:0:0:0:
376,320,114328,38,0,B|328:128|328:128|320:160,1,225.000008583069
280,320,114647,22,0,B|272:352|272:352|368:328,1,125,8|0,0:0|0:0,0:0:0:0:
504,144,115126,54,0,B|312:192|312:192|320:160,1,225.000008583069
160,120,115445,2,0,L|136:216,1,75.0000028610231
360,0,115605,6,0,L|328:128,1,125,8|0,0:0|0:0,0:0:0:0:
120,280,116083,38,0,L|144:184,1,75.0000028610231,8|0,0:0|0:0,0:0:0:0:
360,120,116243,2,0,B|312:304|312:304|296:248,1,225.000008583069
176,128,116562,22,0,B|168:96|168:96|136:216|136:216|128:184,1,175,8|0,0:0|0:0,0:0:0:0:
264,72,117200,38,0,B|312:264|312:264|320:232,1,225.000008583069
368,40,117520,22,0,B|376:8|376:8|416:168,1,175,8|0,0:0|0:0,0:0:0:0:
288,196,118158,54,0,B|272:128,1,60
272,128,118477,53,8,0:0:0:0:
144,160,118637,1,0,0:0:0:0:
176,288,118796,1,8,0:0:0:0:
304,256,118956,5,0,0:0:0:0:
256,64,119115,1,8,0:0:0:0:
64,112,119275,1,0,0:0:0:0:
192,224,119434,53,8,0:0:0:0:
384,272,119593,1,8,0:0:0:0:
336,80,119753,1,0,0:0:0:0:
264,128,119913,5,8,0:0:0:0:
244,208,120073,1,8,0:0:0:0:
224,288,120232,1,8,0:0:0:0:
224,288,120392,53,0,0:0:0:0:
251,300,120471,1,0,0:0:0:0:
280,304,120551,1,0,0:0:0:0:
310,300,120631,1,0,0:0:0:0:
338,288,120711,1,0,0:0:0:0:
361,269,120790,1,0,0:0:0:0:
378,244,120870,1,0,0:0:0:0:
387,216,120950,1,0,0:0:0:0:
387,181,121030,5,0,0:0:0:0:
344,155,121109,1,0,0:0:0:0:
295,145,121189,1,0,0:0:0:0:
246,150,121269,1,0,0:0:0:0:
200,171,121349,1,8,0:0:0:0:
200,171,122307,53,0,0:0:0:0:
219,193,122386,1,0,0:0:0:0:
244,209,122466,1,0,0:0:0:0:
273,218,122546,1,0,0:0:0:0:
303,217,122626,1,0,0:0:0:0:
331,209,122705,1,0,0:0:0:0:
356,192,122785,1,0,0:0:0:0:
376,170,122865,1,0,0:0:0:0:
391,142,122945,5,0,0:0:0:0:
342,147,123024,1,0,0:0:0:0:
308,182,123104,1,0,0:0:0:0:
305,231,123184,1,0,0:0:0:0:
336,272,123264,1,8,0:0:0:0:
336,272,124222,54,0,L|400:288,1,62.5,4|0,0:0|0:0,0:0:0:0:
368,144,124381,2,0,L|176:96,1,187.5
400,16,124700,6,0,B|464:32|464:32|336:64,1,187.5
144,112,125020,2,0,B|80:128|80:128,1,62.5
304,160,125179,6,0,L|336:152,1,30,8|0,0:0|0:0,0:0:0:0:
288,16,125498,38,0,L|96:64,1,187.5
32,80,125817,1,0,0:0:0:0:
96,336,125977,1,0,0:0:0:0:
144,144,126137,6,0,L|80:160,1,62.5
224,272,126296,2,0,B|384:232|384:232|352:224|352:224,1,187.5
512,384,126615,54,0,L|320:336,1,187.5
192,144,126934,2,0,L|256:160,1,62.5
160,16,127094,22,0,L|128:8,1,30,8|0,0:0|0:0,0:0:0:0:
208,208,127413,54,0,B|272:224|272:224|240:96,1,187.5
240,96,127732,1,0,0:0:0:0:
176,352,127892,1,0,0:0:0:0:
176,80,128051,54,0,L|192:144,1,62.5
368,128,128211,2,0,B|400:256|400:256|416:192,1,187.5
192,144,128530,6,0,L|144:336,1,187.5
64,112,128849,2,0,L|80:48,1,62.5
320,176,129009,6,0,L|312:208,1,30,8|0,0:0|0:0,0:0:0:0:
136,240,129328,38,0,B|144:272|144:272|184:112,1,187.5
64,112,129647,6,0,B|56:80|56:80|40:144,1,75
136,240,129966,54,0,L|120:304,1,62.5
304,240,130126,2,0,L|352:48,1,187.5
80,48,130445,6,0,L|32:240,1,187.5
320,304,130764,2,0,L|336:240,1,62.5
32,240,130924,54,0,P|48:304|192:208,1,300,8|0,0:0|0:0,0:0:0:0:
144,128,131243,6,0,P|160:192|272:224,1,100
192,320,131403,2,0,P|288:336|336:288,1,100
256,128,131562,54,0,P|240:48|112:16,1,200,12|0,0:0|0:0,0:0:0:0:
256,240,131881,6,0,L|384:208,1,100,4|0,0:0|0:0,0:0:0:0:
80,144,132041,6,0,L|48:152,1,30
128,304,132360,38,0,B|64:288|64:288|192:256,1,187.5
384,208,132679,2,0,L|320:224,1,62.5
144,128,132839,22,0,L|176:120,1,30,8|0,0:0|0:0,0:0:0:0:
160,304,133158,54,0,B|96:320|96:320|128:192,1,187.5
368,144,133477,53,0,0:0:0:0:
48,224,133637,1,0,0:0:0:0:
16,96,133796,6,0,L|0:32,1,62.5
224,208,133956,2,0,B|240:272|240:272|112:240,1,187.5
304,128,134275,54,0,B|432:160|432:160|464:168|464:168|456:136,1,187.5
336,0,134594,2,0,L|352:64,1,62.5
400,256,134754,22,0,L|408:288,1,30,8|0,0:0|0:0,0:0:0:0:
288,192,135073,54,0,B|248:32|248:32|240:64,1,187.5
240,64,135392,53,0,0:0:0:0:
496,128,135551,1,0,0:0:0:0:
240,64,135711,6,0,L|224:128,1,62.5
192,256,135871,2,0,B|176:320|176:320|304:288,1,187.5
352,176,136190,54,0,B|288:192|288:192|320:64,1,187.5
480,144,136509,2,0,L|464:208,1,62.5
240,64,136669,22,0,L|248:32,1,30,8|0,0:0|0:0,0:0:0:0:
288,192,136988,54,0,L|240:384,1,187.5
112,256,137307,54,0,L|128:192,1,62.5
144,128,137466,5,0,0:0:0:0:
352,176,137626,2,0,P|352:208|336:240,1,50,8|0,0:0|0:0,0:0:0:0:
272,112,137786,2,0,P|304:80|352:80,1,75
368,80,138105,53,0,0:0:0:0:
368,80,138424,6,0,P|336:80|304:64,1,50,8|0,0:0|0:0,0:0:0:0:
448,144,138584,2,0,P|416:176|368:176,1,75.0000028610231,0|2,0:0|0:0,0:0:0:0:
368,176,138823,1,2,0:0:0:0:
368,176,138903,53,2,0:0:0:0:
176,128,139062,1,2,0:0:0:0:
304,96,139222,5,2,0:0:0:0:
272,224,139381,1,2,0:0:0:0:
176,248,139541,22,0,P|192:168|240:136,1,100,4|0,0:0|0:0,0:0:0:0:
384,208,139860,2,0,P|320:240|256:208,1,100
304,48,140180,5,0,0:0:0:0:
336,56,140259,1,0,0:0:0:0:
368,64,140339,1,0,0:0:0:0:
400,72,140419,1,0,0:0:0:0:
432,80,140499,54,0,L|464:208,1,100,8|0,0:0|0:0,0:0:0:0:
256,224,140818,2,0,L|288:96,1,100
464,208,141137,5,0,0:0:0:0:
432,216,141216,1,0,0:0:0:0:
400,224,141296,1,0,0:0:0:0:
368,232,141376,1,0,0:0:0:0:
336,240,141456,54,0,P|352:304|416:320,1,100,4|0,0:0|0:0,0:0:0:0:
480,144,141775,2,0,P|432:80|368:64,1,100
208,208,142095,5,0,0:0:0:0:
240,216,142174,1,0,0:0:0:0:
272,224,142254,1,0,0:0:0:0:
304,232,142334,1,0,0:0:0:0:
336,240,142414,54,0,L|208:272,1,100,8|0,0:0|0:0,0:0:0:0:
168,48,142732,2,0,L|296:16,1,100
208,272,143052,2,0,L|80:304,1,100
96,128,143371,5,4,0:0:0:0:
128,120,143531,1,0,0:0:0:0:
160,112,143690,1,0,0:0:0:0:
192,104,143850,1,0,0:0:0:0:
224,232,144009,54,0,L|160:248,3,50
304,144,144328,5,8,0:0:0:0:
272,152,144488,1,0,0:0:0:0:
240,160,144647,1,0,0:0:0:0:
208,168,144807,1,0,0:0:0:0:
176,40,144967,54,0,L|240:24,3,50
240,160,145286,5,8,0:0:0:0:
176,176,145446,1,0,0:0:0:0:
112,192,145605,1,0,0:0:0:0:
48,208,145765,1,0,0:0:0:0:
80,64,145924,54,0,L|144:48,3,50
168,128,146243,5,8,0:0:0:0:
240,192,146403,1,0,0:0:0:0:
144,216,146562,1,0,0:0:0:0:
48,240,146722,1,0,0:0:0:0:
96,48,146882,53,0,0:0:0:0:
104,80,146961,1,0,0:0:0:0:
112,112,147041,1,0,0:0:0:0:
120,144,147121,1,0,0:0:0:0:
128,176,147201,6,0,L|0:144,1,100,8|0,0:0|0:0,0:0:0:0:
96,48,147520,53,0,0:0:0:0:
224,80,147679,1,0,0:0:0:0:
144,240,147839,5,0,0:0:0:0:
136,208,147918,1,0,0:0:0:0:
128,176,147998,1,0,0:0:0:0:
120,144,148078,1,0,0:0:0:0:
112,112,148158,54,0,P|176:128|208:192,1,100,8|0,0:0|0:0,0:0:0:0:
288,288,148478,2,0,P|272:240|288:176,1,100
336,64,148797,2,0,P|288:48|224:64,1,100
432,176,149116,6,0,P|464:144|480:80,1,100,4|0,0:0|0:0,0:0:0:0:
352,304,149435,2,0,P|416:336|480:320,1,100
320,128,149754,53,0,0:0:0:0:
312,160,149833,1,0,0:0:0:0:
304,192,149913,1,0,0:0:0:0:
296,224,149993,1,0,0:0:0:0:
288,256,150073,5,8,0:0:0:0:
160,288,150233,1,0,0:0:0:0:
128,160,150392,1,0,0:0:0:0:
256,128,150552,1,0,0:0:0:0:
144,96,150712,53,0,0:0:0:0:
192,288,150871,1,0,0:0:0:0:
112,224,151031,5,12,0:0:0:0:
112,224,152466,38,0,L|176:240,1,62.5
400,224,152945,38,0,P|294:76|338:278,1,560,12|0,0:0|0:0,0:0:0:0:
304,184,153583,6,0,B|112:232|112:232|176:248,1,240
128,80,153903,6,0,B|0:48|0:48|64:32,1,175,8|0,0:0|0:0,0:0:0:0:
192,96,154541,38,0,L|448:32,1,240
144,224,154860,22,0,L|16:256,1,125
256,112,155339,54,0,B|448:160|448:160|432:96,1,240
288,240,155658,2,0,L|320:368,1,80
128,168,155817,6,0,L|96:40,1,125,8|0,0:0|0:0,0:0:0:0:
256,112,156296,38,0,L|288:240,1,80
312,336,156456,2,0,B|320:368|320:368|96:312,1,240
320,136,156775,22,0,B|384:152|384:152|448:136|448:136|512:152,1,175,12|0,0:0|0:0,0:0:0:0:
208,160,157413,54,0,B|176:168|176:168|400:224,1,240
32,200,157732,6,0,B|0:208|0:208|160:248,1,175,8|0,0:0|0:0,0:0:0:0:
448,320,158371,38,0,L|192:256,1,240
176,32,158690,22,0,L|304:64,1,125
432,96,159169,54,0,B|496:112|496:112|304:160,1,240
304,288,159488,2,0,L|432:256,1,80
240,144,159647,6,0,L|112:176,1,125,8|0,0:0|0:0,0:0:0:0:
304,288,160126,38,0,L|432:256,1,80,8|0,0:0|0:0,0:0:0:0:
224,80,160286,2,0,B|32:128|32:128|48:64,1,240
176,160,160605,22,0,B|160:224|160:224|176:288|176:288|160:352,1,175,12|0,0:0|0:0,0:0:0:0:
24,168,161243,54,0,B|16:200|16:200|240:144,1,240
160,352,161562,6,0,B|32:384|32:384|48:320,1,175,8|0,0:0|0:0,0:0:0:0:
112,64,162200,38,0,B|64:256|64:256|128:240,1,240
320,192,162520,22,0,B|352:184|352:184|256:160,1,125
224,32,162998,54,0,L|480:96,1,240
288,288,163317,2,0,L|160:256,1,80
64,72,163477,6,0,L|192:104,1,125,8|0,0:0|0:0,0:0:0:0:
272,224,163956,38,0,L|144:192,1,80
288,16,164115,2,0,L|544:80,1,240
336,240,164434,22,0,B|368:248|368:248|304:264|304:264|272:256|272:256|208:272|208:272,1,175
256,384,165073,54,0,B|448:336|448:336|384:320,1,240
208,272,165392,6,0,B|80:240|80:240|144:224,1,175,8|0,0:0|0:0,0:0:0:0:
208,104,166030,38,0,L|112:80,1,75
112,80,166350,5,8,0:0:0:0:
128,144,166509,1,0,0:0:0:0:
112,208,166669,1,0,0:0:0:0:
144,80,166828,53,8,0:0:0:0:
176,208,166988,1,0,0:0:0:0:
48,176,167148,1,0,0:0:0:0:
208,96,167307,5,8,0:0:0:0:
168,240,167466,1,0,0:0:0:0:
120,48,167625,1,0,0:0:0:0:
320,112,167786,53,0,0:0:0:0:
272,304,167946,1,0,0:0:0:0:
208,48,168105,1,0,0:0:0:0:
344,8,168264,6,0,P|321:152|80:-16,1,560,12|0,0:0|0:0,0:0:0:0:
208,48,168903,54,0,B|160:240|160:240|224:224,1,240
336,16,169222,22,0,L|144:64,1,175,8|0,0:0|0:0,0:0:0:0:
128,192,169860,54,0,B|320:144|320:144|304:208,1,240
96,320,170179,6,0,L|128:192,1,125
320,144,170658,38,0,B|328:112|328:112|352:208|352:208|344:240|344:240|368:336,1,240
224,288,170977,2,0,L|192:160,1,80
440,144,171137,22,0,B|448:176|448:176|352:152,1,125,8|0,0:0|0:0,0:0:0:0:
224,64,171615,54,0,L|96:32,1,80
192,192,171775,2,0,B|0:144|0:144|16:208,1,240
48,336,172094,6,0,B|56:368|56:368|84:256|84:256|92:288,1,175,12|0,0:0|0:0,0:0:0:0:
240,384,172732,38,0,B|192:192|192:192|176:256,1,240
320,64,173051,22,0,B|288:192|288:192|352:176,1,175,8|0,0:0|0:0,0:0:0:0:
448,32,173690,54,0,L|192:96,1,240
96,240,174009,6,0,L|224:208,1,125
400,328,174488,38,0,B|208:280|208:280|272:264,1,240,8|0,0:0|0:0,0:0:0:0:
296,48,174807,2,0,L|392:24,1,80
392,24,174967,5,10,0:0:0:0:
424,120,175126,1,2,0:0:0:0:
424,120,175206,1,2,0:0:0:0:
424,120,175286,1,2,0:0:0:0:
392,256,175446,1,2,0:0:0:0:
232,296,175605,1,2,0:0:0:0:
32,248,175765,1,2,0:0:0:0:
96,56,175924,6,0,B|160:72|160:72|192:64|192:64|288:88,1,175,12|0,0:0|0:0,0:0:0:0:
192,160,176563,38,0,B|0:112|0:112|64:96,1,240
320,32,176881,22,0,B|352:24|352:24|312:184,1,175,8|0,0:0|0:0,0:0:0:0:
160,288,177520,54,0,B|208:96|208:96|224:144,1,240
272,336,177839,6,0,B|280:368|280:368|184:344,1,125,4|0,0:0|0:0,0:0:0:0:
80,176,178317,38,0,L|336:240,1,240
96,272,178637,2,0,L|-32:240,1,80
272,112,178796,22,0,B|304:120|304:120|208:144,1,125,8|0,0:0|0:0,0:0:0:0:
400,144,179275,54,0,L|528:176,1,80
224,304,179434,2,0,B|160:288|160:288|128:160|128:160|112:224,1,240
80,32,179754,6,0,B|88:0|88:0|120:128|120:128|128:96,1,175,12|0,0:0|0:0,0:0:0:0:
320,64,180392,38,0,B|304:128|304:128|328:224|328:224|304:320,1,240
160,320,180711,22,0,B|176:384|176:384|208:256,1,175,8|0,0:0|0:0,0:0:0:0:
16,224,181349,54,0,L|0:288,1,60
0,288,181669,53,8,0:0:0:0:
352,200,181828,1,0,0:0:0:0:
96,136,181988,1,0,0:0:0:0:
160,256,182147,5,8,0:0:0:0:
224,0,182307,1,0,0:0:0:0:
264,160,182466,1,0,0:0:0:0:
136,64,182626,53,0,0:0:0:0:
392,128,182786,1,0,0:0:0:0:
264,160,182945,1,0,0:0:0:0:
184,256,183105,5,0,0:0:0:0:
312,224,183264,1,0,0:0:0:0:
280,96,183424,1,0,0:0:0:0:
264,160,183583,5,0,0:0:0:0:
256,192,183663,12,0,187413,0:0:0:0:
192,192,191243,6,0,P|256:208|288:256,1,100,2|0,0:0|0:0,0:0:0:0:
200,288,191562,1,0,0:0:0:0:
96,248,191722,1,0,0:0:0:0:
96,248,191881,2,0,P|80:168|112:120,1,100
120,88,192200,6,0,B|280:128|280:128|264:64,2,200,2|0|0,0:0|0:0|0:0,0:0:0:0:
264,64,192998,53,0,0:0:0:0:
296,200,193158,2,0,L|72:144,2,200,2|0|0,0:0|0:0|0:0,0:0:0:0:
184,232,193956,5,0,0:0:0:0:
184,232,194115,2,0,P|216:296|280:312,1,100,2|0,0:0|0:0,0:0:0:0:
360,216,194434,2,0,L|328:344,1,100
272,224,194754,1,0,0:0:0:0:
320,152,194913,1,0,0:0:0:0:
320,152,195073,54,0,P|272:184|336:88,1,450.000017166138,2|2,0:0|0:0,0:0:0:0:
336,88,196988,21,2,0:0:0:0:
336,88,197945,21,2,0:0:0:0:
336,88,198903,5,2,0:0:0:0:
272,176,199062,2,0,P|232:144|232:64,1,100
272,8,199381,1,0,0:0:0:0:
336,88,199541,2,0,L|464:120,1,100
360,184,199860,6,0,L|160:232,2,200,2|0|0,0:0|0:0|0:0,0:0:0:0:
224,96,200817,53,2,0:0:0:0:
128,48,200977,2,0,P|112:96|136:152,1,100
216,192,201296,2,0,P|224:264|184:312,1,100
120,232,201615,1,0,0:0:0:0:
216,192,201775,6,0,B|384:232|384:232|376:200,2,200,2|0|0,0:0|0:0|0:0,0:0:0:0:
216,32,202732,54,0,B|128:32|120:184|208:152|312:160|272:336|176:336|128:320|96:288|96:248,1,450.000017166138,2|2,0:0|0:0,0:0:0:0:
96,240,204647,21,2,0:0:0:0:
96,240,205604,5,2,0:0:0:0:
96,240,206562,21,2,0:0:0:0:
24,160,206722,2,0,P|80:128|136:136,1,100
208,192,207041,2,0,P|272:192|320:144,2,100
232,88,207520,6,0,L|288:312,2,200,2|0|0,0:0|0:0|0:0,0:0:0:0:
152,168,208477,54,0,P|104:72|184:-16,2,200,2|0|0,0:0|0:0|0:0,0:0:0:0:
240,120,209275,1,0,0:0:0:0:
240,224,209434,2,0,P|200:264|128:264,1,100
96,256,209754,2,0,P|160:272|88:320,1,200
96,152,210232,1,0,0:0:0:0:
96,152,210392,6,0,B|128:216|224:216|280:168|248:112|256:40|336:0|392:8|472:72|472:144|448:200|376:232|320:208|304:176,1,600,2|2,0:0|0:0,0:0:0:0:
304,176,212307,5,2,0:0:0:0:
304,176,213264,5,2,0:0:0:0:
304,176,214062,21,0,0:0:0:0:
304,176,214222,1,2,0:0:0:0:
336,304,214381,2,0,L|208:336,1,100
144,232,214700,2,0,L|272:264,2,100
48,280,215179,6,0,P|40:192|144:128,2,200,2|0|0,0:0|0:0|0:0,0:0:0:0:
128,320,216137,53,2,0:0:0:0:
224,296,216296,1,0,0:0:0:0:
256,384,216456,1,0,0:0:0:0:
328,312,216615,2,0,P|328:256|264:208,2,100
224,296,217094,6,0,P|184:224|272:112,2,200,2|0|0,0:0|0:0|0:0,0:0:0:0:
296,216,218051,54,0,B|264:240|264:320|336:352|416:352|456:288|440:192|440:136|288:208|320:56,1,450.000017166138,2|2,0:0|0:0,0:0:0:0:
320,64,220605,21,0,0:0:0:0:
192,32,220764,1,0,0:0:0:0:
160,160,220924,1,0,0:0:0:0:
288,192,221083,1,0,0:0:0:0:
240,112,221243,5,0,0:0:0:0:
192,304,221403,1,0,0:0:0:0:
384,352,221562,1,0,0:0:0:0:
432,160,221722,1,0,0:0:0:0:
240,112,221881,22,0,L|208:240,1,75.0000028610231,12|0,0:0|0:0,0:0:0:0:
352,224,222041,2,0,L|320:352,1,75.0000028610231
496,176,222200,1,0,0:0:0:0:
176,96,222360,1,0,0:0:0:0:
288,208,222520,1,0,0:0:0:0:
200,0,222679,1,0,0:0:0:0:
200,0,222759,1,0,0:0:0:0:
200,0,222839,6,0,L|72:32,1,75.0000028610231,8|0,0:0|0:0,0:0:0:0:
160,160,222998,2,0,L|32:192,1,75.0000028610231
120,304,223158,1,0,0:0:0:0:
440,224,223318,1,0,0:0:0:0:
328,336,223478,1,0,0:0:0:0:
416,128,223637,1,0,0:0:0:0:
416,128,223796,54,0,L|544:160,1,75.0000028610231
336,272,223956,2,0,L|208:304,1,75.0000028610231
304,144,224115,1,0,0:0:0:0:
496,192,224275,1,0,0:0:0:0:
456,32,224434,1,0,0:0:0:0:
448,64,224514,1,0,0:0:0:0:
440,96,224594,1,0,0:0:0:0:
432,128,224674,1,0,0:0:0:0:
424,160,224754,22,0,P|352:176|288:112,1,150.000005722046,8|0,0:0|0:0,0:0:0:0:
376,72,225073,2,0,L|336:232,1,150.000005722046
304,320,225392,2,0,P|384:320|448:240,1,150.000005722046
304,88,225711,38,0,L|280:184,1,75.0000028610231,8|0,0:0|0:0,0:0:0:0:
240,336,225871,2,0,L|264:240,1,75.0000028610231
112,272,226030,1,0,0:0:0:0:
368,336,226190,1,0,0:0:0:0:
320,144,226349,1,0,0:0:0:0:
224,272,226509,1,0,0:0:0:0:
416,224,226669,6,0,L|288:256,1,75.0000028610231,8|0,0:0|0:0,0:0:0:0:
256,128,226828,2,0,L|128:160,1,75.0000028610231
64,176,226988,53,0,0:0:0:0:
32,304,227147,1,0,0:0:0:0:
160,336,227307,1,0,0:0:0:0:
192,208,227466,1,0,0:0:0:0:
128,224,227626,6,0,L|256:256,1,75.0000028610231
384,256,227786,2,0,L|256:224,1,75.0000028610231
352,384,227945,1,0,0:0:0:0:
400,192,228105,1,0,0:0:0:0:
336,320,228264,53,0,0:0:0:0:
368,328,228344,1,0,0:0:0:0:
400,336,228424,1,0,0:0:0:0:
432,344,228504,1,0,0:0:0:0:
464,352,228583,22,0,P|480:272|384:208,1,150.000005722046,8|0,0:0|0:0,0:0:0:0:
384,48,228903,2,0,P|360:80|400:192,1,150.000005722046
240,256,229222,2,0,P|360:264|408:192,1,150.000005722046
304,160,229541,38,0,L|176:192,1,75.0000028610231,8|0,0:0|0:0,0:0:0:0:
240,360,229700,2,0,L|368:328,1,75.0000028610231
496,192,229860,1,0,0:0:0:0:
176,272,230020,1,0,0:0:0:0:
368,328,230179,1,0,0:0:0:0:
304,64,230339,1,0,0:0:0:0:
304,64,230419,1,0,0:0:0:0:
304,64,230498,6,0,L|336:192,1,75.0000028610231,8|0,0:0|0:0,0:0:0:0:
248,288,230658,2,0,L|216:160,1,75.0000028610231
200,96,230817,1,0,0:0:0:0:
8,160,230977,1,0,0:0:0:0:
200,208,231137,1,0,0:0:0:0:
128,16,231296,1,0,0:0:0:0:
128,16,231376,1,0,0:0:0:0:
128,16,231456,54,0,L|96:144,1,75.0000028610231
200,208,231615,2,0,L|232:80,1,75.0000028610231
240,16,231775,5,0,0:0:0:0:
272,144,231934,1,0,0:0:0:0:
144,176,232094,1,0,0:0:0:0:
112,48,232253,1,0,0:0:0:0:
112,48,232333,1,0,0:0:0:0:
112,48,232413,6,0,P|176:64|240:16,1,150.000005722046,8|0,0:0|0:0,0:0:0:0:
352,32,232732,2,0,P|352:128|432:176,1,150.000005722046
448,72,233051,2,0,L|256:120,1,150.000005722046
96,160,233371,38,0,L|224:192,1,75.0000028610231,8|0,0:0|0:0,0:0:0:0:
416,240,233530,2,0,L|288:272,1,75.0000028610231
160,304,233690,1,0,0:0:0:0:
224,48,233849,1,0,0:0:0:0:
288,240,234009,1,0,0:0:0:0:
96,192,234169,1,0,0:0:0:0:
96,192,234248,1,0,0:0:0:0:
96,192,234328,6,0,L|224:160,1,75.0000028610231,8|0,0:0|0:0,0:0:0:0:
352,256,234488,2,0,L|208:288,1,75.0000028610231
128,304,234647,1,0,0:0:0:0:
176,112,234807,1,0,0:0:0:0:
384,64,234966,1,0,0:0:0:0:
336,256,235126,1,0,0:0:0:0:
336,256,235206,1,0,0:0:0:0:
336,256,235286,54,0,L|208:224,1,75.0000028610231,8|0,0:0|0:0,0:0:0:0:
368,128,235445,2,0,L|496:160,1,75.0000028610231
464,288,235605,1,0,0:0:0:0:
272,336,235764,1,0,0:0:0:0:
336,144,235924,1,0,0:0:0:0:
400,368,236083,1,0,0:0:0:0:
400,368,236163,1,0,0:0:0:0:
400,368,236243,22,0,B|272:336|272:336|336:320,1,150.000005722046,8|0,0:0|0:0,0:0:0:0:
336,240,236562,2,0,B|464:208|464:208|400:192,1,150.000005722046
368,112,236881,37,0,0:0:0:0:
368,112,236961,1,0,0:0:0:0:
368,112,237041,1,0,0:0:0:0:
368,112,237121,1,0,0:0:0:0:
368,112,237200,54,0,B|240:144|240:144|136:120|136:120|16:152|16:152|48:160|48:160,1,375,8|0,0:0|0:0,0:0:0:0:
48,160,238477,5,2,0:0:0:0:
64,224,238796,1,2,0:0:0:0:
64,96,239115,1,6,0:0:0:0:
64,96,239754,21,0,0:0:0:0:
103,66,239833,1,0,0:0:0:0:
152,64,239913,1,0,0:0:0:0:
194,90,239993,1,0,0:0:0:0:
224,128,240073,6,0,L|160:144,3,50
288,160,240392,53,0,0:0:0:0:
321,218,240471,1,0,0:0:0:0:
294,279,240551,1,0,0:0:0:0:
228,293,240631,1,0,0:0:0:0:
178,248,240711,1,0,0:0:0:0:
186,181,240790,1,0,0:0:0:0:
251,165,240871,1,0,0:0:0:0:
283,106,240950,1,0,0:0:0:0:
251,52,241030,22,0,P|225:34|225:113,1,175
416,80,241669,37,0,0:0:0:0:
416,80,241748,1,0,0:0:0:0:
416,80,241828,2,0,L|352:96,1,50,8|0,0:0|0:0,0:0:0:0:
224,176,241988,5,0,0:0:0:0:
282,190,242067,1,0,0:0:0:0:
340,205,242147,1,0,0:0:0:0:
398,219,242227,1,0,0:0:0:0:
456,234,242307,54,0,L|440:170,1,50,8|0,0:0|0:0,0:0:0:0:
416,80,242466,5,0,0:0:0:0:
379,30,242545,1,0,0:0:0:0:
315,28,242625,1,0,0:0:0:0:
265,68,242705,1,0,0:0:0:0:
233,124,242785,1,0,0:0:0:0:
182,163,242864,1,0,0:0:0:0:
118,164,242945,6,0,B|134:100|134:100|174:268,1,225,8|0,0:0|0:0,0:0:0:0:
176,272,243743,37,0,0:0:0:0:
336,312,243902,1,0,0:0:0:0:
208,344,244062,5,0,0:0:0:0:
256,152,244222,1,0,0:0:0:0:
376,208,244381,53,0,0:0:0:0:
120,272,244541,1,0,0:0:0:0:
120,272,248211,5,0,0:0:0:0:
156,281,248290,1,0,0:0:0:0:
192,288,248371,53,0,0:0:0:0:
151,298,248450,1,0,0:0:0:0:
111,308,248530,1,0,0:0:0:0:
71,318,248610,1,0,0:0:0:0:
32,328,248690,6,0,L|96:344,1,62.5,4|0,0:0|0:0,0:0:0:0:
384,336,248849,2,0,L|192:288,1,187.5
144,96,249168,54,0,B|208:112|208:112|80:144,1,187.5
400,160,249488,2,0,B|336:176|336:176,1,62.5
208,112,249647,22,0,L|240:104,1,30,8|0,0:0|0:0,0:0:0:0:
464,176,249966,54,0,L|272:224,1,187.5
80,272,250285,1,0,0:0:0:0:
144,16,250445,1,0,0:0:0:0:
112,144,250605,54,0,L|48:160,1,62.5
64,336,250764,2,0,B|224:296|224:296|192:288|192:288,1,187.5
96,80,251083,6,0,L|288:128,1,187.5
256,304,251402,2,0,L|320:320,1,62.5
312,168,251562,6,0,L|280:160,1,30,8|0,0:0|0:0,0:0:0:0:
320,320,251881,38,0,B|384:336|384:336|352:208,1,187.5
336,144,252200,1,0,0:0:0:0:
80,80,252360,1,0,0:0:0:0:
208,112,252519,6,0,L|224:176,1,62.5
400,160,252679,2,0,B|432:288|432:288|448:224,1,187.5
304,48,252998,54,0,L|256:240,1,187.5
64,272,253317,2,0,L|80:208,1,62.5
320,256,253477,22,0,L|312:288,1,30,8|0,0:0|0:0,0:0:0:0:
48,336,253796,54,0,B|56:368|56:368|96:208,1,187.5
128,80,254115,1,0,0:0:0:0:
384,144,254275,1,0,0:0:0:0:
64,224,254434,54,0,L|144:240,1,62.5
384,144,254594,2,0,B|256:112|256:112|272:176,1,187.5
304,304,254913,6,0,B|320:368|320:368|352:240,1,187.5
192,96,255232,2,0,L|176:160,1,62.5
360,208,255392,54,0,P|272:86|176:166,1,300,8|0,0:0|0:0,0:0:0:0:
144,288,255711,6,0,P|240:280|272:224,1,100
347,126,255871,2,0,P|356:73|318:0,1,100
112,46,256030,54,0,P|96:110|192:94,1,200,8|8,0:0|0:0,0:0:0:0:
160,224,256349,22,0,L|148:272,1,50,12|0,0:0|0:0,0:0:0:0:
304,367,256828,54,0,B|352:175|352:175|288:191,1,225.000008583069
160,224,257147,2,0,L|288:192,1,75.0000028610231
320,304,257307,54,0,B|512:256|512:256|448:240,1,225.000008583069,8|0,0:0|0:0,0:0:0:0:
416,96,257626,6,0,L|352:80,1,50
384,224,257786,2,0,L|320:208,1,50
208,112,257945,54,0,L|336:144,1,75.0000028610231,8|0,0:0|0:0,0:0:0:0:
400,288,258105,2,0,L|336:272,1,50
144,128,258264,6,0,L|272:160,1,75.0000028610231,8|0,0:0|0:0,0:0:0:0:
480,208,258424,1,0,0:0:0:0:
224,272,258584,1,0,0:0:0:0:
272,64,258743,54,0,B|336:80|336:80|144:128,1,225.000008583069
160,288,259062,2,0,L|224:272,1,50
208,80,259222,6,0,L|80:112,1,75.0000028610231,8|0,0:0|0:0,0:0:0:0:
224,272,259381,53,0,0:0:0:0:
80,112,259541,5,0,0:0:0:0:
71,145,259620,1,0,0:0:0:0:
63,179,259700,1,0,0:0:0:0:
54,213,259780,1,0,0:0:0:0:
48,248,259860,6,0,L|80:240,1,30,8|0,0:0|0:0,0:0:0:0:
272,192,260179,6,0,P|240:112|192:96,1,100,4|0,0:0|0:0,0:0:0:0:
208,288,260499,2,0,P|272:320|336:288,1,100
400,160,260818,5,0,0:0:0:0:
368,168,260897,1,0,0:0:0:0:
336,176,260977,1,0,0:0:0:0:
304,184,261057,1,0,0:0:0:0:
272,192,261137,54,0,L|400:224,1,100,8|0,0:0|0:0,0:0:0:0:
360,0,261456,2,0,L|232:32,1,100
104,64,261775,1,0,0:0:0:0:
320,112,261934,1,0,0:0:0:0:
128,176,262094,6,0,P|96:128|112:48,1,100,4|0,0:0|0:0,0:0:0:0:
320,112,262413,2,0,P|352:160|336:240,1,100
96,304,262733,53,0,0:0:0:0:
104,272,262812,1,0,0:0:0:0:
112,240,262892,1,0,0:0:0:0:
120,208,262972,1,0,0:0:0:0:
128,176,263052,6,0,L|160:304,1,100,8|0,0:0|0:0,0:0:0:0:
352,208,263371,2,0,L|384:80,1,100
144,112,263690,2,0,L|176:240,1,100
288,192,264009,53,4,0:0:0:0:
280,160,264169,1,0,0:0:0:0:
272,128,264328,1,0,0:0:0:0:
264,96,264488,1,0,0:0:0:0:
392,64,264647,6,0,L|408:128,3,50
280,160,264966,53,8,0:0:0:0:
288,192,265126,1,0,0:0:0:0:
296,224,265285,1,0,0:0:0:0:
304,256,265445,1,0,0:0:0:0:
176,288,265605,6,0,L|160:224,3,50
304,256,265924,53,8,0:0:0:0:
288,192,266084,1,0,0:0:0:0:
272,128,266243,1,0,0:0:0:0:
256,64,266403,1,0,0:0:0:0:
400,96,266562,6,0,L|416:160,3,50
264,96,266881,53,8,0:0:0:0:
288,192,267041,1,0,0:0:0:0:
312,288,267200,1,0,0:0:0:0:
336,384,267360,1,0,0:0:0:0:
144,336,267520,5,0,0:0:0:0:
152,304,267599,1,0,0:0:0:0:
160,272,267679,1,0,0:0:0:0:
168,240,267759,1,0,0:0:0:0:
176,208,267839,54,0,L|48:240,1,100,12|0,0:0|0:0,0:0:0:0:
16,368,268158,5,0,0:0:0:0:
208,320,268317,1,0,0:0:0:0:
160,128,268477,53,0,0:0:0:0:
152,160,268556,1,0,0:0:0:0:
144,192,268636,1,0,0:0:0:0:
136,224,268716,1,0,0:0:0:0:
128,256,268796,6,0,P|144:304|208:320,1,100,8|0,0:0|0:0,0:0:0:0:
288,160,269115,2,0,P|240:224|256:272,1,100
400,352,269434,2,0,P|368:320|288:320,1,100
400,176,269754,54,0,P|384:96|352:64,1,100,4|0,0:0|0:0,0:0:0:0:
176,144,270073,2,0,P|192:224|224:256,1,100
208,16,270392,5,0,0:0:0:0:
176,24,270471,1,0,0:0:0:0:
144,32,270551,1,0,0:0:0:0:
112,40,270631,1,0,0:0:0:0:
80,48,270711,53,8,0:0:0:0:
48,176,270871,1,0,0:0:0:0:
176,208,271030,1,0,0:0:0:0:
208,80,271190,1,0,0:0:0:0:
96,112,271350,5,0,0:0:0:0:
288,160,271509,1,0,0:0:0:0:
288,160,271669,54,0,L|256:32,1,100,4|0,0:0|0:0,0:0:0:0:
96,112,271988,2,0,L|128:240,1,100
304,224,272307,5,0,0:0:0:0:
336,232,272386,1,0,0:0:0:0:
368,240,272466,1,0,0:0:0:0:
400,248,272546,1,0,0:0:0:0:
432,256,272626,53,8,0:0:0:0:
432,256,272786,1,0,0:0:0:0:
400,128,272945,1,0,0:0:0:0:
400,128,273105,1,0,0:0:0:0:
352,320,273264,5,0,0:0:0:0:
320,328,273343,1,0,0:0:0:0:
288,336,273423,1,0,0:0:0:0:
256,344,273503,1,0,0:0:0:0:
224,352,273583,53,12,0:0:0:0:
176,160,273743,1,0,0:0:0:0:
256,224,273903,5,0,0:0:0:0:
0,288,274062,1,0,0:0:0:0:
48,128,274222,53,0,0:0:0:0:
80,136,274301,1,0,0:0:0:0:
112,144,274381,1,0,0:0:0:0:
144,152,274461,1,0,0:0:0:0:
176,160,274541,5,12,0:0:0:0:
144,288,274700,1,0,0:0:0:0:
432,224,274860,53,10,0:0:0:0:
416,160,275020,1,2,0:0:0:0:
304,256,275179,5,0,0:0:0:0:
312,288,275258,1,0,0:0:0:0:
320,320,275338,1,0,0:0:0:0:
328,352,275418,1,0,0:0:0:0:
336,384,275498,54,0,P|392:360|424:288,1,100,4|0,0:0|0:0,0:0:0:0:
304,256,275817,2,0,L|176:288,1,100
144,160,276137,5,0,0:0:0:0:
176,152,276216,1,0,0:0:0:0:
208,144,276296,1,0,0:0:0:0:
240,136,276376,1,0,0:0:0:0:
272,128,276456,54,0,P|304:176|288:256,1,100,8|0,0:0|0:0,0:0:0:0:
224,48,276775,2,0,P|272:32|336:64,1,100
192,208,277094,1,0,0:0:0:0:
160,32,277254,1,0,0:0:0:0:
0,72,277413,6,0,P|32:144|80:160,1,100,4|0,0:0|0:0,0:0:0:0:
304,144,277732,2,0,P|320:176|304:272,1,100
112,288,278051,53,0,0:0:0:0:
104,256,278130,1,0,0:0:0:0:
96,224,278210,1,0,0:0:0:0:
88,192,278290,1,0,0:0:0:0:
80,160,278370,6,0,L|208:192,1,100,8|0,0:0|0:0,0:0:0:0:
416,120,278690,2,0,L|288:152,1,100
16,176,279009,2,0,L|144:208,1,100
272,224,279328,53,4,0:0:0:0:
264,256,279488,1,0,0:0:0:0:
256,288,279647,1,0,0:0:0:0:
248,320,279807,1,0,0:0:0:0:
376,352,279966,6,0,L|392:288,3,50
264,256,280286,53,8,0:0:0:0:
272,224,280445,1,0,0:0:0:0:
280,192,280604,1,0,0:0:0:0:
288,160,280764,1,0,0:0:0:0:
160,128,280924,6,0,L|144:192,3,50
288,160,281243,53,8,0:0:0:0:
272,224,281403,1,0,0:0:0:0:
256,288,281562,1,0,0:0:0:0:
240,352,281722,1,0,0:0:0:0:
384,320,281881,6,0,L|400:256,3,50
248,320,282200,53,8,0:0:0:0:
272,224,282360,1,0,0:0:0:0:
296,128,282519,1,0,0:0:0:0:
320,32,282679,1,0,0:0:0:0:
128,80,282839,5,0,0:0:0:0:
136,112,282918,1,0,0:0:0:0:
144,144,282998,1,0,0:0:0:0:
152,176,283078,1,0,0:0:0:0:
160,208,283158,54,0,L|32:176,1,100,12|0,0:0|0:0,0:0:0:0:
32,32,283477,5,0,0:0:0:0:
224,80,283636,1,0,0:0:0:0:
176,272,283796,53,0,0:0:0:0:
168,240,283875,1,0,0:0:0:0:
160,208,283955,1,0,0:0:0:0:
152,176,284035,1,0,0:0:0:0:
144,144,284115,6,0,P|160:96|224:80,1,100,8|0,0:0|0:0,0:0:0:0:
384,32,284434,2,0,P|384:96|352:128,1,100
320,288,284754,2,0,P|272:272|256:224,1,100
384,32,285073,54,0,L|416:160,1,100,8|0,0:0|0:0,0:0:0:0:
144,144,285392,2,0,L|112:16,1,100
320,16,285711,5,0,0:0:0:0:
352,24,285790,1,0,0:0:0:0:
384,32,285870,1,0,0:0:0:0:
416,40,285950,1,0,0:0:0:0:
448,48,286030,53,8,0:0:0:0:
496,240,286190,1,0,0:0:0:0:
192,256,286349,5,8,0:0:0:0:
256,0,286509,1,0,0:0:0:0:
320,224,286669,53,0,0:0:0:0:
288,216,286748,1,0,0:0:0:0:
256,208,286828,1,0,0:0:0:0:
224,200,286908,1,0,0:0:0:0:
192,192,286988,21,8,0:0:0:0:
192,192,288264,21,2,0:0:0:0:
224,320,288583,1,2,0:0:0:0:
240,256,288903,37,6,0:0:0:0:
240,256,289222,5,0,0:0:0:0:
192,268,289301,1,0,0:0:0:0:
144,280,289381,1,0,0:0:0:0:
96,292,289461,1,0,0:0:0:0:
48,304,289541,53,0,0:0:0:0:
72,312,289621,1,0,0:0:0:0:
96,320,289700,1,0,0:0:0:0:
120,328,289780,1,0,0:0:0:0:
144,336,289860,5,8,0:0:0:0:
208,80,290020,1,8,0:0:0:0:
48,120,290179,53,8,0:0:0:0:
396,208,290339,1,8,0:0:0:0:
272,64,290498,5,8,0:0:0:0:
344,352,290658,1,8,0:0:0:0:
344,352,290817,54,0,P|360:168|317:360,1,629.999980773926,12|0,0:0|0:0,0:0:0:0:
304,256,291456,6,0,B|272:248|272:248|224:64|224:64|208:128,1,269.999991760254
48,256,291775,6,0,B|32:320|32:320|0:192,1,175,8|0,0:0|0:0,0:0:0:0:
256,64,292413,38,0,B|304:256|304:256|328:160,1,269.999991760254
80,128,292732,22,0,L|48:256,1,125
304,256,293211,54,0,B|288:320|288:320|512:264,1,269.999991760254
112,240,293530,2,0,L|-16:272,1,89.9999972534181
320,336,293690,6,0,L|448:304,1,125,8|0,0:0|0:0,0:0:0:0:
96,304,294169,38,0,L|-32:336,1,89.9999972534181
448,304,294328,2,0,B|512:288|512:288|288:232,1,269.999991760254
240,0,294647,22,0,B|304:16|304:16|368:0|368:0|432:16,1,175,12|0,0:0|0:0,0:0:0:0:
240,144,295286,54,0,B|16:88|16:88|80:72,1,269.999991760254
304,16,295605,6,0,B|336:8|336:8|296:168,1,175,8|0,0:0|0:0,0:0:0:0:
48,320,296243,38,0,L|120:32,1,269.999991760254
432,48,296562,22,0,L|400:176,1,125
32,256,297041,54,0,B|88:32|88:32|104:96,1,269.999991760254
144,256,297360,2,0,L|176:384,1,89.9999972534181
432,384,297520,6,0,L|400:256,1,125,8|0,0:0|0:0,0:0:0:0:
240,112,297998,38,0,L|208:240,1,89.9999972534181,8|0,0:0|0:0,0:0:0:0:
0,384,298158,2,0,B|56:160|56:160|64:200,1,269.999991760254
384,192,298477,22,0,B|392:224|392:224|408:160|408:160|400:128|400:128|416:64|416:64,1,175,12|0,0:0|0:0,0:0:0:0:
416,320,299115,54,0,B|400:384|400:384|344:160,1,269.999991760254
64,128,299434,6,0,B|80:192|80:192|64:256|64:256|80:320,1,175,8|0,0:0|0:0,0:0:0:0:
312,272,300073,38,0,B|368:48|368:48|304:64,1,269.999991760254
56,336,300392,22,0,L|184:304,1,125
304,32,300870,54,0,B|72:88|72:88|136:104,1,269.999991760254
248,288,301190,2,0,L|344:312,1,89.9999972534181
272,160,301349,6,0,B|304:168|304:168|208:192,1,125,8|0,0:0|0:0,0:0:0:0:
304,32,301828,38,0,L|208:56,1,89.9999972534181
48,96,301987,2,0,B|80:88|80:88|32:280|32:280|96:264,1,269.999991760254
320,208,302307,22,0,B|352:200|352:200|192:160|192:160,1,175,8|0,0:0|0:0,0:0:0:0:
112,16,302945,54,0,B|176:32|176:32|240:16|240:16|336:40|336:40|272:56,1,269.999991760254
320,208,303264,6,0,B|160:248|160:248|168:216|168:216,1,175,8|0,0:0|0:0,0:0:0:0:
208,56,303903,38,0,L|184:152,1,75
184,152,304222,5,8,0:0:0:0:
216,280,304381,1,0,0:0:0:0:
344,248,304541,1,0,0:0:0:0:
312,120,304700,1,0,0:0:0:0:
56,120,304860,1,0,0:0:0:0:
88,248,305019,1,0,0:0:0:0:
408,232,305179,53,8,0:0:0:0:
376,104,305338,1,0,0:0:0:0:
120,104,305498,1,0,0:0:0:0:
152,232,305657,1,0,0:0:0:0:
280,200,305817,1,0,0:0:0:0:
248,72,305976,1,0,0:0:0:0:
192,280,306137,6,0,P|224:304|160:208,1,629.999980773926,12|0,0:0|0:0,0:0:0:0:
280,200,306775,54,0,B|504:144|504:144|440:128,1,269.999991760254
88,152,307094,22,0,B|24:136|24:136|248:80,1,275,8|0,0:0|0:0,0:0:0:0:
336,208,308051,2,0,L|208:240,1,125
80,272,308530,38,0,B|16:288|16:288|72:64,1,269.999991760254
336,208,308849,2,0,L|304:336,1,89.9999972534181
64,176,309009,22,0,L|96:48,1,125,8|0,0:0|0:0,0:0:0:0:
368,80,309488,54,0,P|336:208|336:208,1,89.9999972534181
64,96,309647,2,0,B|80:32|80:32|136:256,1,269.999991760254
384,208,309966,6,0,B|376:176|376:176|384:144|384:144|368:80|368:80|352:144,1,175,12|0,0:0|0:0,0:0:0:0:
296,368,310605,38,0,B|352:144|352:144|288:160|288:160,1,269.999991760254
64,216,310924,22,0,B|0:232|0:232|160:272|160:272|96:288,1,275,8|0,0:0|0:0,0:0:0:0:
296,368,311881,2,0,L|424:336,1,125
288,160,312360,38,0,B|64:216|64:216|80:152,1,269.999991760254
384,80,312679,2,0,L|352:208,1,89.9999972534181
336,272,312839,5,8,0:0:0:0:
272,16,312998,1,0,0:0:0:0:
384,80,313158,53,0,0:0:0:0:
356,130,313237,1,0,0:0:0:0:
300,151,313317,1,0,0:0:0:0:
243,137,313397,1,0,0:0:0:0:
198,98,313477,1,0,0:0:0:0:
150,63,313556,1,0,0:0:0:0:
91,54,313636,1,0,0:0:0:0:
37,78,313716,1,0,0:0:0:0:
16,136,313796,22,0,B|176:176|176:176|168:144,1,175,12|0,0:0|0:0,0:0:0:0:
64,336,314434,54,0,B|72:368|72:368|200:336|200:336|328:368,1,269.999991760254
392,96,314754,6,0,L|200:48,1,175,8|0,0:0|0:0,0:0:0:0:
400,368,315392,38,0,B|464:384|464:384|408:160,1,269.999991760254
160,112,315711,22,0,L|192:240,1,125
448,224,316190,54,0,B|392:0|392:0|376:64,1,269.999991760254
160,112,316509,2,0,L|192:-16,1,89.9999972534181
448,224,316669,6,0,L|416:352,1,125,8|0,0:0|0:0,0:0:0:0:
176,176,317147,38,0,L|208:48,1,89.9999972534181
400,288,317307,2,0,B|392:320|392:320|200:368|200:368|264:384,1,269.999991760254
176,176,317626,6,0,L|80:152,1,75
80,152,317945,53,0,0:0:0:0:
464,56,318105,2,0,L|400:320,1,269.999991760254
80,152,318424,5,0,0:0:0:0:
432,64,318583,2,0,L|384:256,1,187.5,8|0,0:0|0:0,0:0:0:0:
96,216,318903,54,0,L|80:152,1,50
400,72,319062,2,0,B|344:296|344:296|328:232,1,269.999991760254
328,232,319381,5,0,0:0:0:0:
104,152,319541,54,0,L|88:88,1,50,8|0,0:0|0:0,0:0:0:0:
312,168,319700,2,0,L|328:232,1,50
208,160,319860,5,0,0:0:0:0:
236,199,319939,1,0,0:0:0:0:
237,248,320019,1,0,0:0:0:0:
210,289,320099,1,0,0:0:0:0:
163,306,320179,1,0,0:0:0:0:
116,294,320258,1,0,0:0:0:0:
84,256,320338,1,0,0:0:0:0:
80,207,320418,1,0,0:0:0:0:
112,176,320498,53,0,0:0:0:0:
173,160,320577,1,0,0:0:0:0:
233,183,320657,1,0,0:0:0:0:
286,221,320737,1,0,0:0:0:0:
348,236,320817,1,0,0:0:0:0:
408,213,320896,1,0,0:0:0:0:
432,144,320977,5,0,0:0:0:0:
390,88,321056,1,0,0:0:0:0:
324,69,321136,1,0,0:0:0:0:
260,93,321216,1,0,0:0:0:0:
223,151,321296,1,0,0:0:0:0:
228,219,321375,1,0,0:0:0:0:
272,272,321455,54,0,B|368:248|368:248|336:240,1,125,8|0,0:0|0:0,0:0:0:0:
160,48,321775,2,0,B|184:144|184:144|192:112,1,125,8|0,0:0|0:0,0:0:0:0:
432,80,322094,2,0,B|336:56|336:56|368:48,1,125,8|0,0:0|0:0,0:0:0:0:
256,192,322413,5,8,0:0:0:0:
448,232,322573,1,0,0:0:0:0:
400,40,322732,53,8,0:0:0:0:
112,112,322892,1,0,0:0:0:0:
272,8,323051,5,8,0:0:0:0:
336,264,323211,1,0,0:0:0:0:
336,264,323291,1,0,0:0:0:0:
336,264,323371,54,0,B|368:272|368:272|336:144,1,125,12|0,0:0|0:0,0:0:0:0:
176,128,323690,2,0,B|184:96|184:96|56:128,1,125,8|0,0:0|0:0,0:0:0:0:
128,320,324009,2,0,B|120:352|120:352|248:320,1,125,8|0,0:0|0:0,0:0:0:0:
368,176,324328,5,8,0:0:0:0:
176,128,324488,1,0,0:0:0:0:
248,320,324647,53,8,0:0:0:0:
288,160,324807,1,0,0:0:0:0:
192,192,324966,5,8,0:0:0:0:
384,240,325126,1,0,0:0:0:0:
384,240,325206,1,0,0:0:0:0:
384,240,325285,53,8,0:0:0:0:
256,272,325445,1,0,0:0:0:0:
320,288,325604,5,8,0:0:0:0:
288,160,325764,1,0,0:0:0:0:
288,160,325844,1,0,0:0:0:0:
288,160,325924,53,8,0:0:0:0:
256,272,326083,1,0,0:0:0:0:
256,272,326243,6,0,L|410:233,1,125,8|0,0:0|0:0,0:0:0:0:
224,144,326562,2,0,L|64:104,1,125,8|0,0:0|0:0,0:0:0:0:
32,96,326881,53,0,0:0:0:0:
40,128,326961,1,0,0:0:0:0:
48,160,327041,1,0,0:0:0:0:
160,128,327200,5,0,0:0:0:0:
168,160,327280,1,0,0:0:0:0:
176,192,327360,1,0,0:0:0:0:
184,224,327440,1,0,0:0:0:0:
192,256,327519,53,0,0:0:0:0:
252,271,327598,1,0,0:0:0:0:
313,287,327678,1,0,0:0:0:0:
373,302,327758,1,0,0:0:0:0:
432,312,327839,6,0,B|408:216|408:216|400:248,1,125,12|0,0:0|0:0,0:0:0:0:
192,256,328158,2,0,B|288:232|288:232|256:224,1,125,8|0,0:0|0:0,0:0:0:0:
368,48,328477,2,0,B|344:144|344:144|336:112,1,125,8|0,0:0|0:0,0:0:0:0:
112,16,328796,53,8,0:0:0:0:
304,64,328956,1,0,0:0:0:0:
256,256,329115,5,8,0:0:0:0:
0,320,329275,1,0,0:0:0:0:
128,352,329434,53,8,0:0:0:0:
192,96,329594,1,0,0:0:0:0:
192,96,329674,1,0,0:0:0:0:
192,96,329753,6,0,B|224:88|224:88|192:216,1,125,12|0,0:0|0:0,0:0:0:0:
16,32,330073,2,0,B|8:0|8:0|136:32,1,125,8|0,0:0|0:0,0:0:0:0:
64,240,330392,2,0,B|32:248|32:248|64:120,1,125,8|0,0:0|0:0,0:0:0:0:
192,96,330711,53,12,0:0:0:0:
184,128,330791,1,0,0:0:0:0:
176,160,330870,2,0,L|160:224,1,62.5
144,288,331030,5,8,0:0:0:0:
176,280,331110,1,0,0:0:0:0:
208,272,331190,2,0,L|272:256,1,62.5
336,240,331349,53,8,0:0:0:0:
328,208,331429,1,0,0:0:0:0:
320,176,331509,2,0,L|304:112,1,62.5
288,48,331669,5,12,0:0:0:0:
280,80,331748,1,0,0:0:0:0:
272,112,331828,2,0,L|256:176,1,62.5
240,240,331987,53,8,0:0:0:0:
304,224,332067,1,0,0:0:0:0:
368,208,332147,1,0,0:0:0:0:
432,192,332227,1,0,0:0:0:0:
496,176,332307,6,0,B|528:168|528:168|504:264,1,125,8|0,0:0|0:0,0:0:0:0:
304,224,332626,2,0,B|272:216|272:216|296:312,1,125,8|0,0:0|0:0,0:0:0:0:
432,72,332945,2,0,B|464:64|464:64|440:160,1,125,8|0,0:0|0:0,0:0:0:0:
416,256,333264,53,8,0:0:0:0:
160,192,333424,1,0,0:0:0:0:
288,288,333583,5,8,0:0:0:0:
352,32,333743,1,0,0:0:0:0:
448,128,333902,53,8,0:0:0:0:
128,208,334062,1,0,0:0:0:0:
128,208,334142,1,0,0:0:0:0:
128,208,334222,6,0,B|104:304|104:304|136:296,1,125,12|0,0:0|0:0,0:0:0:0:
320,256,334541,2,0,B|344:352|344:352|312:344,1,125,8|0,0:0|0:0,0:0:0:0:
208,96,334860,2,0,B|184:192|184:192|216:184,1,125,8|0,0:0|0:0,0:0:0:0:
320,160,335179,53,8,0:0:0:0:
272,352,335339,1,0,0:0:0:0:
80,304,335498,1,8,0:0:0:0:
128,112,335658,1,0,0:0:0:0:
320,160,335817,5,8,0:0:0:0:
288,32,335976,1,0,0:0:0:0:
160,64,336136,1,8,0:0:0:0:
192,192,336295,1,0,0:0:0:0:
320,160,336456,53,8,0:0:0:0:
448,192,336614,1,0,0:0:0:0:
448,192,336695,1,0,0:0:0:0:
448,192,336775,6,0,B|480:320,1,125,8|0,0:0|0:0,0:0:0:0:
224,384,337094,2,0,B|256:256,1,125,8|0,0:0|0:0,0:0:0:0:
384,224,337413,2,0,B|416:352,1,125,8|0,0:0|0:0,0:0:0:0:
288,384,337732,53,8,0:0:0:0:
256,256,337892,1,0,0:0:0:0:
352,176,338051,5,8,0:0:0:0:
400,368,338211,1,0,0:0:0:0:
240,320,338370,53,8,0:0:0:0:
288,128,338529,1,0,0:0:0:0:
288,128,338610,1,0,0:0:0:0:
288,128,338690,38,0,P|352:176|352:208,1,100,8|0,0:0|0:0,0:0:0:0:
208,224,339009,2,0,P|144:256|96:208,1,100
160,112,339328,2,0,P|169:32|197:16,1,100
288,128,339647,6,0,L|256:256,1,100,8|0,0:0|0:0,0:0:0:0:
32,80,339966,2,0,L|160:112,1,100
96,336,340286,2,0,L|64:208,1,100
168,208,340605,37,8,0:0:0:0:
168,208,340764,37,0,0:0:0:0:
132,218,340843,1,0,0:0:0:0:
94,216,340923,1,0,0:0:0:0:
60,201,341003,1,0,0:0:0:0:
33,176,341083,1,0,0:0:0:0:
15,143,341162,1,0,0:0:0:0:
9,106,341242,1,0,0:0:0:0:
17,69,341322,1,0,0:0:0:0:
36,37,341402,1,0,0:0:0:0:
64,13,341482,1,0,0:0:0:0:
104,0,341562,5,8,0:0:0:0:
147,27,341641,1,0,0:0:0:0:
170,74,341721,1,0,0:0:0:0:
165,126,341801,1,0,0:0:0:0:
136,168,341881,1,0,0:0:0:0:
106,210,341960,1,0,0:0:0:0:
110,261,342040,1,0,0:0:0:0:
146,298,342120,1,0,0:0:0:0:
197,303,342200,1,0,0:0:0:0:
240,280,342279,1,0,0:0:0:0:
239,279,342360,1,0,0:0:0:0:
240,280,342440,1,0,0:0:0:0:
240,280,342520,54,0,L|176:264,1,62.5,8|0,0:0|0:0,0:0:0:0:
80,240,342679,1,0,0:0:0:0:
31,203,342758,1,0,0:0:0:0:
26,143,342838,1,0,0:0:0:0:
68,99,342918,1,0,0:0:0:0:
128,104,342998,6,0,L|192:120,1,62.5,8|0,0:0|0:0,0:0:0:0:
288,40,343158,53,0,0:0:0:0:
288,40,343238,2,0,L|224:24,1,62.5,8|0,0:0|0:0,0:0:0:0:
208,184,343397,5,0,0:0:0:0:
208,184,343477,2,0,L|304:208,1,75.0000028610231,8|0,0:0|0:0,0:0:0:0:
432,240,343637,53,0,0:0:0:0:
443,204,343716,1,0,0:0:0:0:
438,167,343796,1,0,0:0:0:0:
418,136,343876,1,0,0:0:0:0:
387,115,343956,1,0,0:0:0:0:
351,109,344035,1,0,0:0:0:0:
315,120,344115,1,0,0:0:0:0:
287,144,344195,1,0,0:0:0:0:
271,178,344275,1,0,0:0:0:0:
271,215,344355,1,0,0:0:0:0:
286,252,344434,5,8,0:0:0:0:
286,320,344513,1,8,0:0:0:0:
239,369,344593,1,8,0:0:0:0:
171,372,344673,1,8,0:0:0:0:
120,327,344753,1,8,0:0:0:0:
116,258,344832,1,8,0:0:0:0:
160,206,344912,1,8,0:0:0:0:
229,203,344993,53,8,0:0:0:0:
305,191,345072,1,8,0:0:0:0:
344,124,345152,1,8,0:0:0:0:
317,52,345232,1,8,0:0:0:0:
244,42,345312,1,8,0:0:0:0:
176,64,345392,6,2,B|160:128|160:128|208:312|208:312|192:376|192:376,1,300,8|0,3:3|2:2,2:2:0:0:
