osu file format v14

[General]
AudioFilename: Epica - Natural Corruption.mp3
AudioLeadIn: 2000
PreviewTime: 170534
Countdown: 1
SampleSet: Normal
StackLeniency: 0.7
Mode: 0
LetterboxInBreaks: 0
WidescreenStoryboard: 0

[Editor]
Bookmarks: 16428,31586,54328,64433,74539,89697,109907,130118,156644,160433,190749,196433,217276,247591,265276,276644,277907,319591
DistanceSpacing: 0.8
BeatDivisor: 4
GridSize: 4
TimelineZoom: 2.599998

[Metadata]
Title:Natural Corruption
TitleUnicode:Natural Corruption
Artist:Epica
ArtistUnicode:Epica
Creator:xDarxen
Version:Demise
Source:
Tags:symphonic gothic metal marathon quantum enigma
BeatmapID:1194373
BeatmapSetID:565061

[Difficulty]
HPDrainRate:6
CircleSize:4.2
OverallDifficulty:8.5
ApproachRate:9.3
SliderMultiplier:1.8
SliderTickRate:1

[Events]
//Background and Video events
0,0,"wlpr.jpg",0,0
//Break Periods
2,199897,215880
//Storyboard Layer 0 (Background)
//Storyboard Layer 1 (Fail)
//Storyboard Layer 2 (Pass)
//Storyboard Layer 3 (Foreground)
//Storyboard Sound Samples

[TimingPoints]
1382,315.789473684211,4,2,1,30,1,0
1382,-142.857142857143,4,2,1,30,0,0
8960,-125,4,1,1,80,0,0
15039,-125,4,1,1,5,0,0
15118,-125,4,1,1,80,0,0
15197,-125,4,1,1,5,0,0
15276,-125,4,1,1,80,0,0
15355,-125,4,1,1,5,0,0
15434,-125,4,1,1,80,0,0
15671,-125,4,1,1,50,0,0
15750,-125,4,1,1,80,0,0
15829,-125,4,1,1,50,0,0
15908,-125,4,1,1,80,0,0
16460,-125,4,1,1,5,0,0
16539,-100,4,1,1,80,0,0
19618,-100,4,1,1,5,0,0
19697,-90.9090909090909,4,1,1,80,0,0
19934,-90.9090909090909,4,1,1,5,0,0
20013,-83.3333333333333,4,1,1,80,0,0
20250,-100,4,1,1,5,0,0
20329,-100,4,1,1,80,0,0
22460,-100,4,1,1,5,0,0
22539,-100,4,1,1,80,0,0
23408,-100,4,1,1,5,0,0
23487,-100,4,1,1,80,0,0
27197,-100,4,1,1,5,0,0
27276,-90.9090909090909,4,1,1,80,0,0
27513,-90.9090909090909,4,1,1,5,0,0
27592,-83.3333333333333,4,1,1,80,0,0
27829,-83.3333333333333,4,1,1,5,0,0
27908,-100,4,1,1,80,0,0
30039,-100,4,1,1,5,0,0
30118,-100,4,1,1,80,0,0
30987,-100,4,1,1,5,0,0
31066,-100,4,1,1,80,0,0
33908,-100,4,1,1,5,0,0
34145,-100,4,1,1,50,0,0
34224,-100,4,1,1,80,0,0
36039,-100,4,1,1,5,0,0
36118,-100,4,1,1,80,0,0
36197,-100,4,1,1,5,0,0
36276,-100,4,1,1,80,0,0
36355,-100,4,1,1,5,0,0
36434,-100,4,1,1,80,0,0
38566,-100,4,1,1,5,0,0
38645,-100,4,1,1,80,0,0
38724,-100,4,1,1,5,0,0
38803,-100,4,1,1,80,0,0
38882,-100,4,1,1,5,0,0
38960,-100,4,1,1,80,0,0
39039,-100,4,1,1,5,0,0
39118,-100,4,1,1,80,0,0
41092,-100,4,1,1,5,0,0
41171,-100,4,1,1,80,0,0
41250,-100,4,1,1,5,0,0
41329,-100,4,1,1,80,0,0
41408,-100,4,1,1,5,0,0
41487,-100,4,1,1,80,0,0
46145,-100,4,1,1,5,0,0
46224,-100,4,1,1,80,0,0
46303,-100,4,1,1,5,0,0
46382,-100,4,1,1,80,0,0
46460,-100,4,1,1,5,0,0
46539,-100,4,1,1,80,0,0
48671,-100,4,1,1,5,0,0
48750,-100,4,1,1,80,0,0
48829,-100,4,1,1,5,0,0
48908,-100,4,1,1,80,0,0
48987,-100,4,1,1,5,0,0
49066,-100,4,1,1,80,0,0
49145,-100,4,1,1,5,0,0
49224,-100,4,1,1,80,0,0
51197,-100,4,1,1,5,0,0
51276,-100,4,1,1,80,0,0
51355,-100,4,1,1,5,0,0
51434,-100,4,1,1,80,0,0
51513,-100,4,1,1,5,0,0
51592,-100,4,1,1,80,0,0
59566,-100,4,1,1,5,0,0
59645,-100,4,1,1,80,0,0
59724,-100,4,1,1,5,0,0
59803,-100,4,1,2,80,0,0
60829,-100,4,1,1,5,0,0
60908,-100,4,1,1,80,0,0
61460,-100,4,1,1,5,0,0
61539,-100,4,1,1,80,0,0
61618,-100,4,1,1,5,0,0
61697,-100,4,1,1,80,0,0
61776,-100,4,1,1,5,0,0
61855,-100,4,1,2,80,0,0
63355,-100,4,1,1,5,0,0
63434,-100,4,1,1,80,0,0
63829,-100,4,1,1,5,0,0
63908,-100,4,1,1,80,0,0
63987,-100,4,1,1,5,0,0
64066,-100,4,1,1,80,0,0
64145,-100,4,1,1,5,0,0
64224,-100,4,1,1,80,0,0
64303,-100,4,1,1,5,0,0
64382,-100,4,1,1,80,0,0
64460,-100,4,1,1,5,0,0
64539,-100,4,1,1,80,0,0
73697,-83.3333333333333,4,1,1,80,0,0
74645,-111.111111111111,4,1,1,80,0,1
77724,-111.111111111111,4,1,1,5,0,1
77803,-100,4,1,1,80,0,1
78039,-100,4,1,1,5,0,1
78118,-83.3333333333333,4,1,1,80,0,1
78355,-83.3333333333333,4,1,1,5,0,1
78434,-111.111111111111,4,1,1,80,0,1
81197,-111.111111111111,4,1,1,5,0,1
81276,-111.111111111111,4,1,1,80,0,1
82145,-111.111111111111,4,1,1,5,0,1
82224,-111.111111111111,4,1,1,70,0,1
85303,-111.111111111111,4,1,1,5,0,1
85382,-100,4,1,1,80,0,1
85618,-100,4,1,1,5,0,1
85697,-83.3333333333333,4,1,1,80,0,1
85934,-83.3333333333333,4,1,1,5,0,1
86013,-111.111111111111,4,1,1,80,0,1
88776,-111.111111111111,4,1,1,5,0,1
88855,-111.111111111111,4,1,1,80,0,1
89803,-100,4,1,1,80,0,0
91618,-100,4,1,1,5,0,0
91697,-100,4,1,1,80,0,0
91776,-100,4,1,1,5,0,0
91855,-100,4,1,1,80,0,0
91934,-100,4,1,1,5,0,0
92013,-100,4,1,1,80,0,0
94145,-100,4,1,1,5,0,0
94224,-100,4,1,1,80,0,0
94303,-100,4,1,1,5,0,0
94382,-100,4,1,1,80,0,0
94460,-100,4,1,1,5,0,0
94539,-100,4,1,1,80,0,0
94618,-100,4,1,1,5,0,0
94697,-100,4,1,1,80,0,0
96671,-100,4,1,1,5,0,0
96750,-100,4,1,1,80,0,0
96829,-100,4,1,1,5,0,0
96908,-100,4,1,1,80,0,0
96987,-100,4,1,1,5,0,0
97066,-100,4,1,1,80,0,0
101724,-100,4,1,1,5,0,0
101803,-100,4,1,1,80,0,0
101882,-100,4,1,1,5,0,0
101960,-100,4,1,1,80,0,0
102039,-100,4,1,1,5,0,0
102118,-100,4,1,1,80,0,0
104250,-100,4,1,1,5,0,0
104329,-100,4,1,1,80,0,0
104408,-100,4,1,1,5,0,0
104487,-100,4,1,1,80,0,0
104566,-100,4,1,1,5,0,0
104645,-100,4,1,1,80,0,0
104724,-100,4,1,1,5,0,0
104803,-100,4,1,1,80,0,0
106776,-100,4,1,1,5,0,0
106855,-100,4,1,1,80,0,0
106934,-100,4,1,1,5,0,0
107013,-100,4,1,1,80,0,0
107092,-100,4,1,1,5,0,0
107171,-100,4,1,1,80,0,0
115145,-100,4,1,1,5,0,0
115224,-100,4,1,1,80,0,0
115303,-100,4,1,1,5,0,0
115382,-100,4,1,2,80,0,0
116408,-100,4,1,1,5,0,0
116487,-100,4,1,1,80,0,0
116882,-100,4,1,1,5,0,0
116960,-100,4,1,1,80,0,0
117039,-100,4,1,1,5,0,0
117118,-100,4,1,1,80,0,0
117197,-100,4,1,1,5,0,0
117276,-100,4,1,1,80,0,0
117355,-100,4,1,1,5,0,0
117434,-100,4,1,2,80,0,0
118934,-100,4,1,1,5,0,0
119013,-100,4,1,1,80,0,0
119408,-100,4,1,1,5,0,0
119487,-100,4,1,1,80,0,0
119566,-100,4,1,1,5,0,0
119645,-100,4,1,1,80,0,0
119724,-100,4,1,1,5,0,0
119803,-100,4,1,1,80,0,0
119882,-100,4,1,1,5,0,0
119960,-100,4,1,1,80,0,0
120039,-100,4,1,1,5,0,0
120118,-100,4,1,1,80,0,0
129276,-83.3333333333333,4,1,1,80,0,0
130224,-111.111111111111,4,1,1,80,0,1
133303,-111.111111111111,4,1,1,5,0,1
133382,-100,4,1,1,80,0,1
133618,-100,4,1,1,5,0,1
133697,-111.111111111111,4,1,1,80,0,1
136776,-111.111111111111,4,1,1,5,0,1
136855,-100,4,1,1,80,0,1
137092,-100,4,1,1,5,0,1
137171,-83.3333333333333,4,1,1,80,0,1
137408,-83.3333333333333,4,1,1,5,0,1
137487,-111.111111111111,4,1,1,80,0,1
140882,-111.111111111111,4,1,1,5,0,1
140960,-111.111111111111,4,1,1,80,0,1
148460,-111.111111111111,4,1,1,5,0,1
148539,-100,4,1,1,80,0,1
148776,-100,4,1,1,5,0,1
148855,-111.111111111111,4,1,1,80,0,1
151934,-111.111111111111,4,1,1,5,0,1
152013,-99.9999999999999,4,1,1,80,0,1
152250,-99.9999999999999,4,1,1,5,0,1
152329,-83.3333333333333,4,1,1,80,0,1
152566,-83.3333333333333,4,1,1,5,0,1
152645,-111.111111111111,4,1,1,80,0,1
156039,-111.111111111111,4,1,1,5,0,1
156118,-111.111111111111,4,1,1,80,0,1
158882,-111.111111111111,4,1,1,5,0,1
158960,-111.111111111111,4,1,1,80,0,1
160539,-83.3333333333333,4,1,1,80,0,0
162118,-71.4285714285714,4,1,1,80,0,0
162434,-62.5,4,1,1,80,0,0
162908,-83.3333333333333,4,1,1,80,0,0
164645,-71.4285714285714,4,1,1,80,0,0
164960,-83.3333333333333,4,1,1,80,0,0
165513,-83.3333333333333,4,1,1,5,0,0
165592,-83.3333333333333,4,1,1,80,0,0
166460,-83.3333333333333,4,1,1,5,0,0
166539,-90.9090909090909,4,1,1,80,0,0
166776,-90.9090909090909,4,1,1,5,0,0
166855,-100,4,1,1,80,0,0
167092,-100,4,1,1,5,0,0
167171,-111.111111111111,4,1,1,80,0,0
167408,-111.111111111111,4,1,1,5,0,0
167487,-125,4,1,1,80,0,0
167724,-125,4,1,1,5,0,0
167803,-142.857142857143,4,1,1,80,0,0
168039,-142.857142857143,4,1,1,5,0,0
168118,-125,4,1,1,80,0,0
168355,-125,4,1,1,5,0,0
168434,-111.111111111111,4,1,1,80,0,0
168671,-111.111111111111,4,1,1,5,0,0
168750,-100,4,1,1,80,0,0
168987,-100,4,1,1,5,0,0
169066,-90.9090909090909,4,1,1,80,0,0
169382,-83.3333333333333,4,1,1,80,0,0
172224,-71.4285714285714,4,1,1,80,0,0
172539,-62.5,4,1,1,80,0,0
173013,-83.3333333333333,4,1,1,80,0,0
174750,-71.4285714285714,4,1,1,80,0,0
175066,-83.3333333333333,4,1,1,80,0,0
176566,-83.3333333333333,4,1,1,5,0,0
176645,-90.9090909090909,4,1,1,80,0,0
176882,-90.9090909090909,4,1,1,5,0,0
176960,-100,4,1,1,80,0,0
177197,-100,4,1,1,5,0,0
177276,-111.111111111111,4,1,1,80,0,0
177513,-111.111111111111,4,1,1,5,0,0
177592,-125,4,1,1,80,0,0
177829,-125,4,1,1,5,0,0
177908,-142.857142857143,4,1,1,80,0,0
178145,-142.857142857143,4,1,1,5,0,0
178224,-125,4,1,1,80,0,0
178460,-125,4,1,1,5,0,0
178539,-111.111111111111,4,1,1,80,0,0
178776,-111.111111111111,4,1,1,5,0,0
178855,-100,4,1,1,80,0,0
179092,-100,4,1,1,5,0,0
179171,-90.9090909090909,4,1,1,80,0,0
179408,-90.9090909090909,4,1,1,5,0,0
179487,-83.3333333333333,4,1,1,80,0,0
180750,-100,4,1,1,80,0,0
196618,-100,4,1,1,15,0,0
217382,-166.666666666667,4,2,1,50,0,0
247697,-125,4,1,1,80,0,0
259303,-125,4,1,1,5,0,0
259382,-111.111111111111,4,1,1,80,0,0
259618,-111.111111111111,4,1,1,5,0,0
259697,-100,4,1,1,80,0,0
259934,-100,4,1,1,5,0,0
260013,-90.9090909090909,4,1,1,80,0,0
260250,-90.9090909090909,4,1,1,5,0,0
260329,-125,4,1,1,80,0,0
276750,-83.3333333333333,4,1,1,80,0,0
278013,-111.111111111111,4,1,1,80,0,1
281092,-111.111111111111,4,1,1,5,0,1
281171,-111.111111111111,4,1,1,80,0,1
281408,-111.111111111111,4,1,1,5,0,1
281487,-111.111111111111,4,1,1,80,0,1
284566,-111.111111111111,4,1,1,5,0,1
284645,-99.9999999999999,4,1,1,80,0,1
284882,-99.9999999999999,4,1,1,5,0,1
284960,-83.3333333333333,4,1,1,80,0,1
285197,-83.3333333333333,4,1,1,5,0,1
285276,-111.111111111111,4,1,1,80,0,1
288671,-111.111111111111,4,1,1,5,0,1
288750,-111.111111111111,4,1,1,80,0,1
296250,-111.111111111111,4,1,1,5,0,1
296329,-111.111111111111,4,1,1,80,0,1
296566,-111.111111111111,4,1,1,5,0,1
296645,-111.111111111111,4,1,1,80,0,1
299724,-111.111111111111,4,1,1,5,0,1
299803,-99.9999999999999,4,1,1,80,0,1
300039,-99.9999999999999,4,1,1,5,0,1
300118,-83.3333333333333,4,1,1,80,0,1
300355,-83.3333333333333,4,1,1,5,0,1
300434,-111.111111111111,4,1,1,80,0,1
303829,-111.111111111111,4,1,1,5,0,1
303908,-111.111111111111,4,1,1,80,0,1
312118,-111.111111111111,4,1,1,80,0,0

[Colours]
Combo1 : 221,221,0
Combo2 : 225,73,0

[HitObjects]
29,81,1382,5,2,0:0:0:0:
64,159,1539,1,0,0:0:0:0:
124,96,1697,1,0,0:0:0:0:
135,85,2013,2,0,L|276:78,1,125.999996154785
334,27,2487,1,0,0:0:0:0:
310,168,2645,6,0,B|305:229|305:229|320:317,1,125.999996154785,2|0,0:0|0:0,0:0:0:0:
400,241,3118,1,0,0:0:0:0:
324,322,3276,6,0,L|249:315,1,62.9999980773926,2|0,0:0|0:0,0:0:0:0:
168,231,3592,2,0,L|244:224,1,62.9999980773926
329,117,3908,5,0,2:0:0:0:
246,143,4066,1,0,2:0:0:0:
310,201,4224,1,0,2:0:0:0:
324,215,4539,2,0,P|390:197|457:221,1,125.999996154785,2|0,0:0|0:0,0:0:0:0:
465,226,5171,6,0,L|460:152,1,62.9999980773926,2|0,0:0|0:0,0:0:0:0:
454,73,5487,1,0,0:0:0:0:
453,52,5803,2,0,B|423:48|400:57|400:57|373:49|373:49|350:57|301:46,1,125.999996154785
249,12,6276,1,0,0:0:0:0:
307,129,6434,6,0,P|327:195|298:266,1,125.999996154785,2|0,0:0|0:0,0:0:0:0:
235,189,6908,1,0,0:0:0:0:
296,271,7066,6,0,L|440:261,1,125.999996154785,2|0,0:0|0:0,0:0:0:0:
455,180,7539,1,0,0:0:0:0:
421,262,7697,1,0,0:0:0:0:
214,304,8013,6,0,B|204:270|214:241|214:241|205:217|205:217|211:156,1,125.999996154785,2|0,0:0|0:0,0:0:0:0:
286,139,8487,1,0,0:0:0:0:
208,180,8645,1,0,0:0:0:0:
208,180,8960,6,0,L|127:174,1,72,6|0,0:0|0:0,0:0:0:0:
65,111,9276,1,0,0:0:0:0:
48,100,9592,2,0,B|54:150|54:150|42:252,1,144
32,354,10066,1,0,0:0:0:0:
150,221,10224,6,0,P|219:197|300:229,1,144,2|0,0:0|0:0,0:0:0:0:
356,289,10697,1,0,0:0:0:0:
346,97,10855,6,0,L|342:22,1,72,2|0,0:0|0:0,0:0:0:0:
449,177,11171,1,0,0:0:0:0:
236,108,11329,1,8,0:0:0:0:
225,104,11408,1,8,0:0:0:0:
214,100,11487,1,8,0:0:0:0:
455,64,11645,1,8,0:0:0:0:
288,227,11803,1,0,0:0:0:0:
346,97,11960,1,0,0:0:0:0:
409,289,12118,6,0,P|414:330|405:370,1,72,2|0,0:0|0:0,0:0:0:0:
288,227,12434,1,0,0:0:0:0:
452,179,12592,1,0,0:0:0:0:
302,339,12750,6,0,L|203:326,1,72,2|0,0:0|0:0,0:0:0:0:
130,315,13066,1,0,0:0:0:0:
111,314,13382,2,0,P|134:246|104:168,1,144
37,112,13855,1,0,0:0:0:0:
228,190,14013,6,0,B|282:195|282:195|318:183|318:183|370:188,1,144,2|0,0:0|0:0,0:0:0:0:
329,278,14487,1,0,0:0:0:0:
273,99,14645,5,6,0:0:0:0:
271,88,14724,1,0,0:0:0:0:
269,77,14803,1,0,0:0:0:0:
267,66,14882,1,0,0:0:0:0:
266,55,14960,2,0,L|273:0,1,36
365,152,15118,2,0,L|372:207,1,36,2|0,0:0|0:0,0:0:0:0:
447,70,15276,2,0,L|454:15,1,36
480,228,15434,1,0,0:0:0:0:
265,202,15592,5,2,0:0:0:0:
229,197,15671,1,0,0:0:0:0:
193,192,15750,1,0,0:0:0:0:
157,188,15829,1,0,0:0:0:0:
122,183,15908,1,0,0:0:0:0:
163,359,16066,1,2,0:0:0:0:
342,260,16224,2,0,P|362:207|337:143,1,108
282,105,16539,6,0,L|177:93,1,90,6|0,0:0|0:0,0:0:0:0:
0,200,16855,1,0,0:0:0:0:
69,20,17013,1,2,0:0:0:0:
191,223,17171,1,0,0:0:0:0:
191,223,17329,1,0,0:0:0:0:
78,42,17487,5,2,0:0:0:0:
97,287,17645,1,2,0:0:0:0:
282,105,17803,6,0,P|367:72|456:110,1,180,2|2,0:0|0:0,0:0:0:0:
274,0,18276,1,2,0:0:0:0:
368,186,18434,6,0,B|372:231|372:231|358:286,1,90,2|0,0:0|0:0,0:0:0:0:
251,179,18750,1,0,0:0:0:0:
478,254,18908,1,2,0:0:0:0:
424,31,19066,1,0,0:0:0:0:
472,231,19224,1,2,0:0:0:0:
310,110,19382,6,0,P|257:90|182:118,1,135,2|0,0:0|0:0,0:0:0:0:
251,324,19697,6,0,B|265:274|265:274|249:167,1,148.50000453186,2|0,0:0|0:0,0:0:0:0:
12,276,20013,6,0,L|180:265,1,161.999995056153,2|0,0:0|0:0,0:0:0:0:
251,324,20329,6,0,L|359:317,1,90,2|0,0:0|0:0,0:0:0:0:
492,145,20645,1,0,0:0:0:0:
445,323,20803,1,2,0:0:0:0:
336,118,20960,1,0,0:0:0:0:
336,118,21118,1,0,0:0:0:0:
512,255,21276,5,2,0:0:0:0:
466,20,21434,1,2,0:0:0:0:
380,207,21592,6,0,B|327:226|283:196|283:196|248:221|197:207,1,180,2|2,0:0|0:0,0:0:0:0:
231,98,22066,1,2,0:0:0:0:
335,312,22224,6,0,L|470:305,1,135,2|0,0:0|0:0,0:0:0:0:
511,301,22539,1,2,0:0:0:0:
346,122,22697,1,2,0:0:0:0:
512,63,22855,5,2,0:0:0:0:
408,270,23013,1,0,0:0:0:0:
231,98,23171,6,0,B|183:92|183:92|145:106|145:106|80:98,1,135,2|0,0:0|0:0,0:0:0:0:
51,92,23487,1,2,0:0:0:0:
236,216,23645,1,2,0:0:0:0:
336,48,23803,5,2,0:0:0:0:
408,270,23960,1,0,0:0:0:0:
141,246,24118,6,0,B|40:236,1,90,2|0,0:0|0:0,0:0:0:0:
253,134,24434,1,0,0:0:0:0:
214,323,24592,1,2,0:0:0:0:
94,123,24750,1,0,0:0:0:0:
94,123,24908,1,0,0:0:0:0:
312,237,25066,5,2,0:0:0:0:
87,296,25224,1,2,0:0:0:0:
201,52,25382,6,0,B|267:41|267:41|320:56|320:56|382:45,1,180,2|2,0:0|0:0,0:0:0:0:
265,167,25855,1,2,0:0:0:0:
464,94,26013,6,0,L|473:3,1,90,2|0,0:0|0:0,0:0:0:0:
265,167,26329,2,0,L|274:258,1,90,0|2,0:0|0:0,0:0:0:0:
351,89,26645,1,0,0:0:0:0:
154,167,26803,1,2,0:0:0:0:
404,332,26960,6,0,P|384:274|425:182,1,135,2|0,0:0|0:0,0:0:0:0:
491,98,27276,6,0,P|432:115|335:75,1,148.50000453186,2|0,0:0|0:0,0:0:0:0:
248,10,27592,6,0,B|263:70|263:70|240:174,1,161.999995056153,2|0,0:0|0:0,0:0:0:0:
81,75,27908,6,0,P|127:64|177:76,1,90,2|0,0:0|0:0,0:0:0:0:
351,171,28224,1,0,0:0:0:0:
248,10,28382,1,2,0:0:0:0:
210,231,28539,1,0,0:0:0:0:
210,231,28697,1,0,0:0:0:0:
394,52,28855,5,2,0:0:0:0:
152,97,29013,1,2,0:0:0:0:
318,269,29171,6,0,B|366:260|400:275|400:275|441:259|441:259|498:266,1,180,2|2,0:0|0:0,0:0:0:0:
351,369,29645,1,2,0:0:0:0:
401,179,29803,6,0,L|407:41,1,135,2|0,0:0|0:0,0:0:0:0:
410,5,30118,1,2,0:0:0:0:
271,185,30276,1,2,0:0:0:0:
133,52,30434,5,2,0:0:0:0:
182,282,30592,1,0,0:0:0:0:
341,97,30750,6,0,B|389:91|389:91|427:105|427:105|492:97,1,135,2|0,0:0|0:0,0:0:0:0:
512,94,31066,1,2,0:0:0:0:
475,314,31224,1,2,0:0:0:0:
341,97,31382,5,2,0:0:0:0:
462,292,31539,1,0,0:0:0:0:
249,355,31697,6,0,L|136:346,1,90,6|0,0:0|0:0,0:0:0:0:
12,338,32013,1,0,0:0:0:0:
220,189,32171,6,0,P|228:140|212:91,1,90,6|0,0:0|0:0,0:0:0:0:
104,13,32487,1,6,0:0:0:0:
337,84,32645,1,0,0:0:0:0:
358,91,32724,1,0,0:0:0:0:
378,98,32803,1,0,0:0:0:0:
398,107,32882,1,0,0:0:0:0:
419,114,32960,6,0,L|412:221,1,90,6|0,0:0|0:0,0:0:0:0:
232,357,33276,2,0,L|225:250,1,90,6|0,0:0|0:0,0:0:0:0:
70,86,33592,2,0,P|190:155|158:52,1,315,6|0,0:0|0:0,0:0:0:0:
132,117,34224,6,0,L|315:104,1,180,0|8,0:0|0:0,0:0:0:0:
390,23,34697,2,0,P|357:105|411:181,1,180
449,94,35171,1,8,0:0:0:0:
331,242,35329,2,0,B|264:233|264:233|216:253|216:253|145:243,1,180
188,25,35803,6,0,L|205:164,1,135,8|0,0:0|0:0,0:0:0:0:
63,83,36118,2,0,P|92:77|119:80,1,45
238,235,36276,2,0,P|209:241|182:238,1,45
43,179,36434,6,0,P|50:232|26:281,1,90,8|0,0:0|0:0,0:0:0:0:
0,348,36671,1,0,0:0:0:0:
0,348,36750,6,0,L|192:335,1,180,0|8,0:0|0:0,0:0:0:0:
256,194,37224,2,0,B|266:258|266:258|256:292|256:292|273:331|258:374,1,180
163,235,37697,1,8,0:0:0:0:
347,324,37855,2,0,P|440:342|527:298,1,180
409,104,38329,6,0,L|426:246,1,135,8|0,0:0|0:0,0:0:0:0:
508,158,38645,2,0,L|515:95,1,45
307,23,38803,2,0,L|314:86,1,45
248,262,38960,2,0,P|250:233|244:210,1,45,8|0,0:0|0:0,0:0:0:0:
78,128,39118,1,0,0:0:0:0:
78,128,39197,1,0,0:0:0:0:
78,128,39276,6,0,L|194:118,1,90
307,23,39592,1,8,0:0:0:0:
248,262,39750,2,0,P|170:230|74:271,1,180
165,334,40224,1,8,0:0:0:0:
319,198,40382,2,0,B|324:131|324:131|303:76|303:76|307:17,1,180
512,64,40855,6,0,P|444:82|373:57,1,135,8|0,0:0|0:0,0:0:0:0:
306,22,41171,2,0,L|301:83,1,45
447,225,41329,2,0,L|442:164,1,45
185,203,41487,6,0,B|232:192|232:192|348:200,1,135,8|0,0:0|0:0,0:0:0:0:
357,203,41803,5,0,0:0:0:0:
237,347,41960,2,0,L|126:338,1,90,8|0,0:0|0:0,0:0:0:0:
368,185,42276,5,0,0:0:0:0:
248,329,42434,2,0,L|137:320,1,90,8|0,0:0|0:0,0:0:0:0:
61,63,42750,5,0,0:0:0:0:
181,208,42908,2,0,P|224:217|268:208,1,90,8|0,0:0|0:0,0:0:0:0:
454,21,43224,5,0,0:0:0:0:
368,185,43382,2,0,P|362:231|386:288,1,90,8|0,0:0|0:0,0:0:0:0:
512,133,43697,6,0,L|444:119,1,45,8|0,0:0|0:0,0:0:0:0:
268,96,43855,2,0,L|336:82,1,45,8|0,0:0|0:0,0:0:0:0:
413,0,44013,6,0,L|406:69,1,45,8|0,0:0|0:0,0:0:0:0:
372,229,44171,2,0,L|367:184,1,45,8|0,0:0|0:0,0:0:0:0:
136,31,44329,6,0,P|178:103|118:184,1,180,0|8,0:0|0:0,0:0:0:0:
88,105,44803,2,0,L|291:94,1,180
383,16,45276,1,8,0:0:0:0:
328,170,45434,2,0,B|299:249|368:267|319:361,1,180
115,308,45908,6,0,L|271:296,1,135,8|0,0:0|0:0,0:0:0:0:
166,215,46224,2,0,L|106:206,1,45
30,81,46382,2,0,L|90:72,1,45
203,15,46539,6,0,P|192:59|216:111,1,90,8|0,0:0|0:0,0:0:0:0:
406,59,46776,1,0,0:0:0:0:
406,59,46855,6,0,B|356:54|327:107|327:107|314:63|270:54,1,180,0|8,0:0|0:0,0:0:0:0:
261,309,47329,2,0,B|234:243|234:243|251:124,1,180
341,240,47803,1,8,0:0:0:0:
183,344,47960,2,0,L|-4:323,1,180
121,111,48434,6,0,P|139:174|106:251,1,135,8|0,0:0|0:0,0:0:0:0:
0,178,48750,2,0,L|69:168,1,45
182,31,48908,2,0,L|113:21,1,45
271,167,49066,2,0,L|340:157,1,45,8|0,0:0|0:0,0:0:0:0:
457,40,49224,1,0,0:0:0:0:
457,40,49303,1,0,0:0:0:0:
457,40,49382,6,0,P|448:88|460:136,1,90
504,275,49697,1,8,0:0:0:0:
348,116,49855,2,0,P|277:80|186:126,1,180
323,0,50329,1,8,0:0:0:0:
271,167,50487,2,0,B|263:227|263:227|274:347,1,180
472,238,50960,6,0,P|413:259|330:230,1,135,8|0,0:0|0:0,0:0:0:0:
411,126,51276,2,0,L|406:184,1,45
289,79,51434,2,0,L|284:21,1,45
145,185,51592,2,0,B|199:161|222:213|303:169,1,135,8|0,0:0|0:0,0:0:0:0:
320,166,51908,5,0,0:0:0:0:
178,275,52066,2,0,P|168:321|183:370,1,90,8|0,0:0|0:0,0:0:0:0:
340,160,52382,5,0,0:0:0:0:
200,269,52539,2,0,P|190:315|205:364,1,90,8|0,0:0|0:0,0:0:0:0:
386,280,52855,5,0,0:0:0:0:
225,166,53013,2,0,L|126:157,1,90,8|0,0:0|0:0,0:0:0:0:
394,300,53329,5,0,0:0:0:0:
233,186,53487,2,0,L|134:177,1,90,8|0,0:0|0:0,0:0:0:0:
187,352,53803,6,0,L|182:282,1,45,8|0,0:0|0:0,0:0:0:0:
336,167,53960,2,0,L|331:237,1,45,8|0,0:0|0:0,0:0:0:0:
177,90,54118,2,0,L|172:20,1,45,8|0,0:0|0:0,0:0:0:0:
229,230,54276,2,0,L|234:160,1,45,8|0,0:0|0:0,0:0:0:0:
390,55,54434,6,0,L|275:41,1,90
391,240,54750,2,0,L|506:226,1,90,8|0,0:0|0:0,0:0:0:0:
250,195,55066,1,0,0:0:0:0:
229,230,55145,1,0,0:0:0:0:
229,270,55224,1,0,0:0:0:0:
247,306,55303,1,0,0:0:0:0:
279,330,55382,1,8,0:0:0:0:
122,263,55539,1,0,0:0:0:0:
304,88,55697,6,0,L|394:81,1,90
459,285,56013,2,0,P|446:236|458:191,1,90,8|0,0:0|0:0,0:0:0:0:
511,28,56329,1,0,0:0:0:0:
493,30,56408,1,0,0:0:0:0:
475,32,56487,1,0,0:0:0:0:
457,34,56566,1,0,0:0:0:0:
439,37,56645,1,8,0:0:0:0:
512,162,56803,1,0,0:0:0:0:
295,95,56960,6,0,B|282:50|282:50|285:-1,1,90
411,170,57276,2,0,B|411:216|411:216|395:265,1,90,8|0,0:0|0:0,0:0:0:0:
160,222,57592,1,0,0:0:0:0:
200,218,57671,1,0,0:0:0:0:
240,213,57750,1,0,0:0:0:0:
280,209,57829,1,0,0:0:0:0:
320,206,57908,1,8,0:0:0:0:
211,324,58066,1,0,0:0:0:0:
76,145,58224,6,0,L|68:46,1,90
247,123,58539,2,0,L|239:222,1,90,8|0,0:0|0:0,0:0:0:0:
49,339,58855,1,0,0:0:0:0:
84,311,58934,1,0,0:0:0:0:
127,299,59013,1,0,0:0:0:0:
172,303,59092,1,0,0:0:0:0:
211,324,59171,1,8,0:0:0:0:
123,188,59329,1,0,0:0:0:0:
344,237,59487,6,0,P|382:237|408:226,1,45
407,128,59645,2,0,P|439:108|456:85,1,45
404,5,59803,1,10,0:0:0:0:
510,228,59960,1,2,0:0:0:0:
317,62,60118,6,0,B|241:29|220:97|143:52,1,180,2|8,0:0|0:0,0:0:0:0:
262,307,60592,2,0,L|271:150,1,135
273,135,60908,1,0,0:0:0:0:
378,309,61066,6,0,P|431:327|515:300,1,135,8|0,0:0|0:0,0:0:0:0:
437,190,61382,2,0,L|441:241,1,45
258,351,61539,2,0,L|262:300,1,45
163,127,61697,2,0,P|159:164|146:187,1,45,8|0,0:0|0:0,0:0:0:0:
23,330,61855,1,0,0:0:0:0:
26,316,61934,1,0,0:0:0:0:
29,302,62013,6,0,P|71:289|115:299,1,90
258,351,62329,1,10,0:0:0:0:
163,127,62487,1,2,0:0:0:0:
354,232,62645,6,0,P|436:267|531:213,1,180,2|8,0:0|0:0,0:0:0:0:
430,10,63118,2,0,B|421:62|421:62|433:153,1,135
436,180,63434,1,0,0:0:0:0:
322,42,63592,6,0,L|172:28,1,135,8|0,0:0|0:0,0:0:0:0:
128,151,63908,2,0,L|120:88,1,45
268,217,64066,2,0,L|260:280,1,45
133,327,64224,2,0,P|126:299|129:266,1,45,8|0,0:0|0:0,0:0:0:0:
247,121,64382,2,0,P|277:119|311:127,1,45
406,270,64539,6,0,B|397:225|397:225|406:161,1,90
288,32,64855,2,0,B|297:77|297:77|288:141,1,90,8|0,0:0|0:0,0:0:0:0:
138,221,65171,2,0,L|208:235,1,45
291,367,65329,2,0,L|285:317,1,45
269,200,65487,1,8,0:0:0:0:
174,350,65645,1,0,0:0:0:0:
380,247,65803,6,0,L|470:238,1,90
340,103,66118,2,0,L|250:94,1,90,8|0,0:0|0:0,0:0:0:0:
166,257,66434,2,0,L|177:195,1,45
40,67,66592,2,0,L|51:129,1,45
70,236,66750,1,8,0:0:0:0:
168,68,66908,1,0,0:0:0:0:
272,250,67066,6,0,B|278:298|278:298|271:340,1,90
220,173,67382,2,0,P|263:158|321:172,1,90,8|0,0:0|0:0,0:0:0:0:
442,296,67697,2,0,P|432:273|432:244,1,45
399,84,67855,2,0,P|389:107|389:136,1,45
509,188,68013,1,8,0:0:0:0:
329,298,68171,1,0,0:0:0:0:
277,89,68329,6,0,L|270:0,1,90
133,98,68645,2,0,L|126:187,1,90,8|0,0:0|0:0,0:0:0:0:
303,203,68960,2,0,P|281:198|258:201,1,45
86,208,69118,2,0,P|103:194|125:187,1,45
212,292,69276,1,8,0:0:0:0:
277,89,69434,1,0,0:0:0:0:
405,279,69592,6,0,B|410:329|410:329|400:372,1,90
212,292,69908,2,0,B|207:242|207:242|217:199,1,90,8|0,0:0|0:0,0:0:0:0:
398,124,70224,2,0,L|335:135,1,45
216,203,70382,2,0,L|279:214,1,45
395,227,70539,1,8,0:0:0:0:
330,39,70697,1,0,0:0:0:0:
141,160,70855,6,0,P|129:213|154:262,1,90
329,124,71171,2,0,P|341:71|316:22,1,90,8|0,0:0|0:0,0:0:0:0:
197,71,71487,2,0,L|259:79,1,45
256,221,71645,2,0,P|231:206|204:202,1,45
63,222,71803,1,8,0:0:0:0:
228,330,71960,1,0,0:0:0:0:
329,124,72118,6,0,L|334:18,1,90
444,201,72434,2,0,L|449:307,1,90,8|0,0:0|0:0,0:0:0:0:
293,235,72750,2,0,L|355:226,1,45
228,330,72908,2,0,L|166:321,1,45
132,221,73066,1,8,0:0:0:0:
32,354,73224,1,0,0:0:0:0:
10,102,73382,5,0,0:0:0:0:
10,102,73539,1,0,0:0:0:0:
219,155,73697,2,0,B|267:162|267:162|347:149,1,107.999996704102,6|0,0:0|0:0,0:0:0:0:
480,17,74013,5,0,0:0:0:0:
480,17,74171,1,0,0:0:0:0:
419,224,74329,2,0,P|407:275|429:348,1,107.999996704102,6|0,0:0|0:0,0:0:0:0:
325,152,74645,6,0,L|224:140,1,80.9999975280763,6|0,0:0|0:0,0:0:0:0:
181,31,74960,1,0,0:0:0:0:
181,31,75118,1,2,0:0:0:0:
142,212,75276,2,0,B|114:274|172:310|132:380,1,161.999995056153,0|2,0:0|0:0,0:0:0:0:
46,322,75750,1,2,0:0:0:0:
227,254,75908,6,0,L|401:244,1,161.999995056153,2|2,0:0|0:0,0:0:0:0:
488,335,76382,1,2,0:0:0:0:
466,156,76539,6,0,L|457:62,1,80.9999975280763,2|0,0:0|0:0,0:0:0:0:
388,244,76855,2,0,L|379:338,1,80.9999975280763,0|2,0:0|0:0,0:0:0:0:
487,244,77171,1,0,0:0:0:0:
466,156,77329,1,2,0:0:0:0:
441,70,77487,6,0,B|390:83|390:83|311:73,1,121.499996292114,2|0,0:0|0:0,0:0:0:0:
231,30,77803,6,0,B|224:80|224:80|240:122|240:122|236:180,1,135,2|0,0:0|0:0,0:0:0:0:
308,220,78118,6,0,P|249:251|155:208,1,161.999995056153,2|0,0:0|0:0,0:0:0:0:
86,143,78434,6,0,L|75:230,1,80.9999975280763,2|0,0:0|0:0,0:0:0:0:
142,336,78750,1,0,0:0:0:0:
142,336,78908,1,2,0:0:0:0:
233,165,79066,2,0,B|243:119|230:91|230:91|235:62|235:62|225:40|231:6,1,161.999995056153,0|2,0:0|0:0,0:0:0:0:
325,35,79539,1,2,0:0:0:0:
153,129,79697,6,0,P|74:154|-13:112,1,161.999995056153,2|2,0:0|0:0,0:0:0:0:
79,57,80171,1,2,0:0:0:0:
166,225,80329,6,0,B|172:270|172:270|161:354,1,121.499996292114,2|0,0:0|0:0,0:0:0:0:
162,345,80645,1,2,0:0:0:0:
250,336,80803,1,2,0:0:0:0:
337,324,80960,2,0,P|398:320|453:361,1,121.499996292114,2|0,0:0|0:0,0:0:0:0:
446,352,81276,6,0,L|434:227,1,121.499996292114,2|0,0:0|0:0,0:0:0:0:
434,231,81592,1,2,0:0:0:0:
347,211,81750,1,2,0:0:0:0:
260,191,81908,2,0,B|269:140|269:140|255:53,1,121.499996292114,2|0,0:0|0:0,0:0:0:0:
80,158,82224,6,0,L|178:152,1,80.9999975280763,2|0,0:0|0:0,0:0:0:0:
257,71,82539,1,0,0:0:0:0:
257,71,82697,1,2,0:0:0:0:
185,274,82855,2,0,B|122:299|88:240|16:278,1,161.999995056153,0|2,0:0|0:0,0:0:0:0:
69,366,83329,1,2,0:0:0:0:
148,188,83487,6,0,B|160:92|160:92|147:23,1,161.999995056153,2|0,0:0|0:0,0:0:0:0:
59,103,83960,1,2,0:0:0:0:
256,71,84118,6,0,P|296:63|337:70,1,80.9999975280763,2|0,0:0|0:0,0:0:0:0:
445,221,84434,2,0,B|437:181|437:181|447:120,1,80.9999975280763,0|2,0:0|0:0,0:0:0:0:
486,12,84750,1,0,0:0:0:0:
397,21,84908,1,2,0:0:0:0:
308,29,85066,6,0,P|315:90|283:152,1,121.499996292114,2|0,0:0|0:0,0:0:0:0:
139,200,85382,6,0,B|175:206|208:164|208:164|213:198|252:220,1,135,2|0,0:0|0:0,0:0:0:0:
92,270,85697,6,0,P|53:202|90:134,1,161.999995056153,2|0,0:0|0:0,0:0:0:0:
176,79,86013,6,0,L|283:68,1,80.9999975280763,2|0,0:0|0:0,0:0:0:0:
385,58,86329,1,0,0:0:0:0:
385,58,86487,1,2,0:0:0:0:
297,206,86645,2,0,P|277:277|319:360,1,161.999995056153,0|2,0:0|0:0,0:0:0:0:
374,273,87118,1,2,0:0:0:0:
212,158,87276,6,0,L|42:144,1,161.999995056153,2|2,0:0|0:0,0:0:0:0:
88,252,87750,1,2,0:0:0:0:
186,39,87908,6,0,B|314:31,1,121.499996292114,2|0,0:0|0:0,0:0:0:0:
307,32,88224,1,2,0:0:0:0:
300,121,88382,1,2,0:0:0:0:
290,209,88539,2,0,P|293:269|340:319,1,121.499996292114,2|0,0:0|0:0,0:0:0:0:
368,331,88855,5,2,0:0:0:0:
331,314,88934,1,0,0:0:0:0:
290,314,89013,1,0,0:0:0:0:
250,320,89092,1,0,0:0:0:0:
214,340,89171,1,2,0:0:0:0:
175,352,89250,1,0,0:0:0:0:
135,342,89329,1,2,0:0:0:0:
107,312,89408,1,0,0:0:0:0:
104,271,89487,1,2,0:0:0:0:
124,236,89566,1,0,0:0:0:0:
135,197,89645,1,0,0:0:0:0:
123,158,89724,1,0,0:0:0:0:
69,104,89803,6,0,L|252:91,1,180,0|8,0:0|0:0,0:0:0:0:
424,96,90276,2,0,B|369:94|326:48|326:48|350:100|321:140,1,180
413,9,90750,1,8,0:0:0:0:
373,197,90908,2,0,B|292:219|278:149|181:191,1,180
111,328,91382,6,0,L|101:188,1,135,8|0,0:0|0:0,0:0:0:0:
239,269,91697,2,0,B|214:276|214:276|182:274,1,45
65,116,91855,2,0,B|90:109|90:109|122:111,1,45
260,166,92013,6,0,P|247:114|270:63,1,90,8|0,0:0|0:0,0:0:0:0:
462,154,92250,1,0,0:0:0:0:
462,154,92329,6,0,B|402:135|354:177|354:177|354:131|320:111,1,180,0|8,0:0|0:0,0:0:0:0:
424,235,92803,2,0,P|429:288|323:344,1,180
502,354,93276,1,8,0:0:0:0:
341,257,93434,2,0,B|278:251|278:251|233:270|233:270|160:262,1,180
71,140,93908,6,0,L|79:281,1,135,8|0,0:0|0:0,0:0:0:0:
165,160,94224,2,0,L|173:104,1,45
242,246,94382,2,0,L|250:302,1,45
72,319,94539,2,0,L|80:263,1,45,8|0,0:0|0:0,0:0:0:0:
271,158,94697,1,0,0:0:0:0:
271,158,94776,1,0,0:0:0:0:
271,158,94855,6,0,L|387:148,1,90
454,34,95171,1,8,0:0:0:0:
501,259,95329,2,0,P|426:229|332:279,1,180
423,330,95803,1,8,0:0:0:0:
280,194,95960,2,0,B|248:117|316:97|273:19,1,180
60,80,96434,6,0,L|199:69,1,135,8|0,0:0|0:0,0:0:0:0:
273,20,96750,2,0,L|278:81,1,45
132,223,96908,2,0,L|137:162,1,45
386,186,97066,6,0,P|323:166|240:204,1,135,8|0,0:0|0:0,0:0:0:0:
225,209,97382,5,0,0:0:0:0:
316,364,97539,2,0,L|324:252,1,90,8|0,0:0|0:0,0:0:0:0:
214,192,97855,5,0,0:0:0:0:
305,347,98013,2,0,L|313:235,1,90,8|0,0:0|0:0,0:0:0:0:
327,37,98329,5,0,0:0:0:0:
214,192,98487,2,0,P|168:202|117:186,1,90,8|0,0:0|0:0,0:0:0:0:
340,18,98803,5,0,0:0:0:0:
447,172,98960,2,0,B|456:219|456:219|444:282,1,90,8|0,0:0|0:0,0:0:0:0:
273,258,99276,6,0,L|340:241,1,45,8|0,0:0|0:0,0:0:0:0:
491,179,99434,2,0,L|422:167,1,45,8|0,0:0|0:0,0:0:0:0:
346,109,99592,6,0,L|355:177,1,45,8|0,0:0|0:0,0:0:0:0:
415,330,99750,2,0,L|418:284,1,45,8|0,0:0|0:0,0:0:0:0:
223,182,99908,6,0,P|181:259|225:336,1,180,0|8,0:0|0:0,0:0:0:0:
273,258,100382,2,0,L|82:250,1,180
4,350,100855,1,8,0:0:0:0:
54,146,101013,2,0,B|131:177|152:109|244:161,1,180
247,41,101487,6,0,L|99:58,1,135,8|0,0:0|0:0,0:0:0:0:
230,154,101803,2,0,L|290:163,1,45
407,31,101960,2,0,L|347:40,1,45
395,250,102118,6,0,B|388:203|388:203|397:142,1,90,8|0,0:0|0:0,0:0:0:0:
472,287,102355,1,0,0:0:0:0:
472,287,102434,6,0,P|398:334|321:295,1,180,0|8,0:0|0:0,0:0:0:0:
194,209,102908,2,0,B|223:220|244:276|244:276|254:223|334:208,1,180
432,191,103382,1,8,0:0:0:0:
248,123,103539,2,0,B|180:117|180:117|123:136|123:136|60:127,1,180
182,343,104013,6,0,L|194:203,1,135,8|0,0:0|0:0,0:0:0:0:
72,130,104329,2,0,L|85:198,1,45
199,22,104487,2,0,L|186:88,1,45
357,5,104645,2,0,L|316:59,1,45,8|0,0:0|0:0,0:0:0:0:
193,208,104803,1,0,0:0:0:0:
199,196,104882,1,0,0:0:0:0:
204,185,104960,6,0,L|315:175,1,90
245,325,105276,1,8,0:0:0:0:
84,186,105434,2,0,B|73:129|73:129|86:89|86:89|70:47|89:-1,1,180
177,51,105908,1,8,0:0:0:0:
161,234,106066,2,0,P|93:275|3:236,1,180
73,51,106539,6,0,L|84:187,1,135,8|0,0:0|0:0,0:0:0:0:
16,284,106855,2,0,L|1:217,1,45
180,105,107013,2,0,L|166:171,1,45
118,323,107171,6,0,P|181:300|243:323,1,135,8|0,0:0|0:0,0:0:0:0:
271,344,107487,5,0,0:0:0:0:
379,189,107645,2,0,L|374:79,1,90,8|0,0:0|0:0,0:0:0:0:
256,361,107960,5,0,0:0:0:0:
364,205,108118,2,0,L|359:96,1,90,8|0,0:0|0:0,0:0:0:0:
174,14,108434,5,0,0:0:0:0:
195,201,108592,2,0,B|192:247|192:247|169:295,1,90,8|0,0:0|0:0,0:0:0:0:
11,141,108908,5,0,0:0:0:0:
196,102,109066,2,0,B|242:95|242:95|294:107,1,90,8|0,0:0|0:0,0:0:0:0:
415,259,109382,6,0,L|406:200,1,45,8|0,0:0|0:0,0:0:0:0:
291,60,109539,2,0,L|282:118,1,45,8|0,0:0|0:0,0:0:0:0:
217,278,109697,2,0,P|219:250|211:219,1,45,8|0,0:0|0:0,0:0:0:0:
100,71,109855,2,0,P|72:68|40:74,1,45,8|0,0:0|0:0,0:0:0:0:
26,276,110013,6,0,P|71:265|136:277,1,90
284,104,110329,2,0,P|240:114|195:106,1,90,8|0,0:0|0:0,0:0:0:0:
383,22,110645,1,0,0:0:0:0:
388,52,110724,1,0,0:0:0:0:
392,83,110803,1,0,0:0:0:0:
396,114,110882,1,0,0:0:0:0:
400,145,110960,1,8,0:0:0:0:
496,37,111118,1,0,0:0:0:0:
414,277,111276,6,0,L|323:268,1,90
227,73,111592,2,0,P|232:123|213:165,1,90,8|0,0:0|0:0,0:0:0:0:
98,284,111908,1,0,0:0:0:0:
116,284,111987,1,0,0:0:0:0:
134,285,112066,1,0,0:0:0:0:
152,286,112145,1,0,0:0:0:0:
171,287,112224,1,8,0:0:0:0:
118,151,112382,1,0,0:0:0:0:
322,251,112539,6,0,B|327:297|327:297|316:347,1,90
218,159,112855,2,0,B|218:113|218:113|233:64,1,90,8|0,0:0|0:0,0:0:0:0:
474,138,113171,1,0,0:0:0:0:
434,136,113250,1,0,0:0:0:0:
394,134,113329,1,0,0:0:0:0:
354,132,113408,1,0,0:0:0:0:
314,129,113487,1,8,0:0:0:0:
440,29,113645,1,0,0:0:0:0:
495,253,113803,6,0,L|487:352,1,90
320,218,114118,2,0,L|312:118,1,90,8|0,0:0|0:0,0:0:0:0:
395,322,114434,1,0,0:0:0:0:
363,313,114513,1,0,0:0:0:0:
330,317,114592,1,0,0:0:0:0:
301,331,114671,1,0,0:0:0:0:
279,356,114750,1,8,0:0:0:0:
320,218,114908,1,0,0:0:0:0:
96,262,115066,6,0,P|67:262|36:254,1,45
186,173,115224,2,0,P|215:171|246:178,1,45
201,301,115382,1,10,0:0:0:0:
88,106,115539,1,2,0:0:0:0:
311,43,115697,6,0,B|286:122|352:140|320:218,1,180,2|8,0:0|0:0,0:0:0:0:
70,183,116171,2,0,L|228:175,1,135
244,176,116487,1,0,0:0:0:0:
437,45,116645,6,0,P|379:65|304:38,1,135,8|0,0:0|0:0,0:0:0:0:
212,0,116960,2,0,L|202:50,1,45
252,220,117118,2,0,L|242:170,1,45
75,66,117276,2,0,L|65:116,1,45,8|0,0:0|0:0,0:0:0:0:
0,260,117434,1,0,0:0:0:0:
15,255,117513,1,0,0:0:0:0:
30,251,117592,6,0,L|133:242,1,90
281,346,117908,1,10,0:0:0:0:
217,109,118066,1,2,0:0:0:0:
108,349,118224,6,0,B|159:362|203:334|203:334|238:357|289:343,1,180,2|8,0:0|0:0,0:0:0:0:
217,109,118697,2,0,P|191:167|214:239,1,135
243,261,119013,1,0,0:0:0:0:
421,179,119171,2,0,B|373:168|373:168|276:176,1,135,8|0,0:0|0:0,0:0:0:0:
198,263,119487,6,0,B|224:264|224:264|259:258,1,45
326,76,119645,2,0,B|299:74|299:74|264:80,1,45
136,175,119803,2,0,P|138:144|135:123,1,45,8|0,0:0|0:0,0:0:0:0:
8,21,119960,2,0,P|10:52|7:73,1,45
7,279,120118,6,0,L|120:267,1,90,0|0,2:0|2:0,2:0:0:0:
225,139,120434,2,0,L|112:127,1,90,8|0,0:0|2:0,2:0:0:0:
248,317,120750,2,0,L|259:262,1,45
357,115,120908,2,0,L|368:170,1,45
394,289,121066,1,8,0:0:0:0:
473,91,121224,1,0,0:0:0:0:
225,139,121382,6,0,P|177:148|121:132,1,90
32,288,121697,2,0,P|80:279|136:295,1,90,8|0,0:0|0:0,0:0:0:0:
290,339,122013,2,0,P|280:316|280:287,1,45
225,139,122171,2,0,P|215:162|215:191,1,45
354,230,122329,1,8,0:0:0:0:
171,353,122487,1,0,0:0:0:0:
105,151,122645,6,0,L|98:62,1,90
308,100,122960,2,0,B|311:144|311:144|301:189,1,90,8|0,0:0|0:0,0:0:0:0:
131,256,123276,2,0,P|150:245|173:241,1,45
339,331,123434,2,0,P|318:322|295:321,1,45
171,353,123592,1,8,0:0:0:0:
301,188,123750,1,0,0:0:0:0:
105,72,123908,6,0,B|7:67,1,90
195,121,124224,2,0,P|207:75|193:25,1,90,8|0,0:0|0:0,0:0:0:0:
58,165,124539,2,0,P|57:197|67:229,1,45
201,332,124697,2,0,P|200:300|210:268,1,45
269,180,124855,1,8,0:0:0:0:
88,308,125013,1,0,0:0:0:0:
343,341,125171,6,0,B|391:346|391:346|436:337,1,90
510,157,125487,2,0,B|465:150|465:150|416:158,1,90,8|0,0:0|0:0,0:0:0:0:
343,341,125803,2,0,L|354:277,1,45
421,157,125960,2,0,L|432:219,1,45
453,340,126118,1,8,0:0:0:0:
254,270,126276,1,0,0:0:0:0:
378,87,126434,6,0,P|420:74|463:86,1,90
339,269,126750,2,0,P|296:281|253:269,1,90,8|0,0:0|0:0,0:0:0:0:
165,97,127066,2,0,P|172:125|168:152,1,45
296,192,127224,2,0,P|288:163|292:136,1,45
326,13,127382,1,8,0:0:0:0:
416,181,127539,1,0,0:0:0:0:
214,291,127697,6,0,L|112:282,1,90
0,123,128013,2,0,L|102:114,1,90,8|0,0:0|0:0,0:0:0:0:
33,281,128329,2,0,L|44:221,1,45
183,116,128487,2,0,L|194:176,1,45
214,291,128645,1,8,0:0:0:0:
327,134,128803,1,0,0:0:0:0:
492,337,128960,5,0,0:0:0:0:
492,337,129118,1,0,0:0:0:0:
442,145,129276,2,0,B|432:93|432:93|440:33,1,107.999996704102,6|0,0:0|0:0,0:0:0:0:
292,263,129592,5,0,0:0:0:0:
292,263,129750,1,0,0:0:0:0:
104,166,129908,2,0,P|53:155|-19:178,1,107.999996704102,6|0,2:0|2:0,2:0:0:0:
202,330,130224,6,0,L|193:228,1,80.9999975280763,6|0,0:0|0:0,0:0:0:0:
104,166,130539,1,0,0:0:0:0:
104,166,130697,1,2,0:0:0:0:
288,95,130855,2,0,B|350:69|384:128|456:90,1,161.999995056153,0|2,0:0|0:0,0:0:0:0:
401,4,131329,1,2,0:0:0:0:
327,181,131487,6,0,L|310:354,1,161.999995056153,2|2,0:0|0:0,0:0:0:0:
445,246,131960,1,2,0:0:0:0:
312,342,132118,6,0,L|218:333,1,80.9999975280763,2|0,0:0|0:0,0:0:0:0:
147,223,132434,2,0,L|241:214,1,80.9999975280763,0|2,0:0|0:0,0:0:0:0:
56,314,132750,1,0,0:0:0:0:
36,225,132908,1,2,0:0:0:0:
17,137,133066,6,0,B|68:145|68:145|148:132,1,121.499996292114,2|0,0:0|0:0,0:0:0:0:
223,95,133382,6,0,B|231:144|231:144|224:180|224:180|232:231,1,135,2|0,0:0|0:0,0:0:0:0:
242,320,133697,1,2,0:0:0:0:
119,133,133855,1,2,0:0:0:0:
333,186,134013,6,0,L|434:174,1,80.9999975280763,2|0,0:0|0:0,0:0:0:0:
479,74,134329,1,2,0:0:0:0:
512,288,134487,2,0,B|466:299|437:287|437:287|409:293|409:293|386:284|353:291,1,161.999995056153,2|0,0:0|0:0,0:0:0:0:
477,204,134960,1,2,0:0:0:0:
436,378,135118,1,2,0:0:0:0:
333,186,135276,6,0,B|327:144|327:144|333:95,1,80.9999975280763,2|0,0:0|0:0,0:0:0:0:
477,204,135592,1,2,0:0:0:0:
311,291,135750,1,2,0:0:0:0:
426,124,135908,6,0,L|522:114,1,80.9999975280763,2|0,0:0|0:0,0:0:0:0:
402,300,136224,1,2,0:0:0:0:
311,291,136382,1,2,0:0:0:0:
221,285,136539,6,0,B|89:300,1,121.499996292114,2|0,0:0|0:0,0:0:0:0:
44,368,136855,6,0,P|11:314|48:232,1,135,2|0,0:0|0:0,0:0:0:0:
240,164,137171,6,0,B|190:170|190:170|144:151|144:151|82:158,1,161.999995056153,2|0,0:0|0:0,0:0:0:0:
0,162,137487,1,2,0:0:0:0:
126,262,137645,1,0,0:0:0:0:
210,89,137803,6,0,L|213:8,1,80.9999975280763,2|0,0:0|0:0,0:0:0:0:
106,126,138118,1,0,0:0:0:0:
106,126,138276,1,2,0:0:0:0:
326,90,138434,2,0,B|371:78|400:90|400:90|428:84|428:84|451:93|484:86,1,161.999995056153,0|2,0:0|0:0,0:0:0:0:
402,0,138908,1,2,0:0:0:0:
366,177,139066,6,0,P|368:258|446:308,1,161.999995056153,2|2,0:0|0:0,0:0:0:0:
454,216,139539,1,2,0:0:0:0:
267,153,139697,6,0,B|224:148|224:148|171:156,1,80.9999975280763,2|0,0:0|0:0,0:0:0:0:
95,302,140013,2,0,B|137:308|137:308|193:300,1,80.9999975280763,0|2,0:0|0:0,0:0:0:0:
267,153,140329,1,0,0:0:0:0:
277,241,140487,1,2,0:0:0:0:
287,330,140645,2,0,B|338:321|338:321|426:329,1,121.499996292114,2|0,0:0|0:0,0:0:0:0:
498,353,140960,6,0,L|488:253,1,80.9999975280763,2|0,0:0|0:0,0:0:0:0:
512,152,141276,1,2,0:0:0:0:
512,152,141434,1,2,0:0:0:0:
331,237,141592,6,0,B|270:262|232:213|162:246,1,161.999995056153,2|2,0:0|0:0,0:0:0:0:
56,64,142066,2,0,L|70:227,1,161.999995056153,2|0,0:0|0:0,0:0:0:0:
138,313,142539,6,0,P|164:278|169:224,1,80.9999975280763,2|0,0:0|0:0,0:0:0:0:
56,64,142855,2,0,P|108:138|180:147,1,161.999995056153,2|0,0:0|0:0,0:0:0:0:
154,55,143329,1,0,0:0:0:0:
34,200,143487,6,0,L|23:383,1,161.999995056153,2|0,0:0|0:0,0:0:0:0:
141,260,143960,1,0,0:0:0:0:
294,360,144118,2,0,L|427:347,1,121.499996292114,2|0,0:0|0:0,0:0:0:0:
478,281,144434,5,8,0:0:0:0:
470,258,144513,1,0,0:0:0:0:
470,233,144592,1,0,0:0:0:0:
477,209,144671,1,0,0:0:0:0:
504,139,144750,5,8,0:0:0:0:
512,116,144829,1,0,0:0:0:0:
512,91,144908,1,0,0:0:0:0:
505,67,144987,1,0,0:0:0:0:
461,8,145066,5,8,0:0:0:0:
440,0,145145,1,0,0:0:0:0:
416,0,145224,1,0,0:0:0:0:
391,6,145303,1,0,0:0:0:0:
424,82,145382,6,0,L|257:71,1,161.999995056153,6|0,0:0|0:0,0:0:0:0:
71,193,145855,2,0,L|238:182,1,161.999995056153,2|0,0:0|0:0,0:0:0:0:
162,76,146329,1,2,0:0:0:0:
162,76,146487,1,2,0:0:0:0:
331,143,146645,6,0,B|360:203|303:240|344:310,1,161.999995056153,2|2,0:0|0:0,0:0:0:0:
428,255,147118,1,2,0:0:0:0:
232,182,147276,6,0,L|138:175,1,80.9999975280763,2|0,0:0|0:0,0:0:0:0:
258,307,147592,2,0,L|351:299,1,80.9999975280763,0|2,0:0|0:0,0:0:0:0:
410,159,147908,1,0,0:0:0:0:
321,170,148066,1,2,0:0:0:0:
232,182,148224,6,2,L|95:172,1,121.499996292114
9,55,148539,6,0,L|24:193,1,135,2|0,0:0|0:0,0:0:0:0:
32,270,148855,1,2,0:0:0:0:
139,89,149013,1,0,0:0:0:0:
231,277,149171,6,0,P|235:318|220:376,1,80.9999975280763,2|0,0:0|0:0,0:0:0:0:
128,218,149487,1,0,0:0:0:0:
331,135,149645,6,0,B|376:123|405:135|405:135|433:129|433:129|456:138|489:131,1,161.999995056153,2|0,0:0|0:0,0:0:0:0:
369,219,150118,1,2,0:0:0:0:
419,45,150276,1,2,0:0:0:0:
511,234,150434,6,0,P|520:272|508:321,1,80.9999975280763,2|0,0:0|0:0,0:0:0:0:
369,219,150750,1,2,0:0:0:0:
425,369,150908,1,2,0:0:0:0:
259,239,151066,6,0,L|252:129,1,80.9999975280763,2|0,0:0|0:0,0:0:0:0:
413,75,151382,1,2,0:0:0:0:
396,162,151539,1,2,0:0:0:0:
380,249,151697,6,0,B|243:237,1,121.499996292114,2|0,0:0|0:0,0:0:0:0:
176,132,152013,6,0,B|169:175|169:175|178:206|178:206|167:239|181:281,1,135,2|0,0:0|0:0,0:0:0:0:
291,348,152329,6,0,B|230:319|192:368|131:343,1,161.999995056153,2|0,0:0|0:0,0:0:0:0:
56,312,152645,1,2,0:0:0:0:
24,136,152803,1,0,0:0:0:0:
258,238,152960,6,0,L|363:230,1,80.9999975280763,2|0,0:0|0:0,0:0:0:0:
412,110,153276,1,0,0:0:0:0:
452,356,153434,2,0,L|284:347,1,161.999995056153,2|0,0:0|0:0,0:0:0:0:
167,208,153908,1,2,0:0:0:0:
199,369,154066,1,2,0:0:0:0:
332,191,154224,6,0,P|373:183|433:200,1,80.9999975280763,2|0,0:0|0:0,0:0:0:0:
290,347,154539,1,2,0:0:0:0:
441,273,154697,1,2,0:0:0:0:
280,112,154855,6,0,B|274:73|274:73|280:26,1,80.9999975280763,2|0,0:0|0:0,0:0:0:0:
440,192,155171,2,0,B|446:231|446:231|440:278,1,80.9999975280763,0|2,0:0|0:0,0:0:0:0:
192,102,155487,1,0,0:0:0:0:
280,112,155645,1,2,0:0:0:0:
369,122,155803,2,0,B|360:173|360:173|368:261,1,121.499996292114,2|0,0:0|0:0,0:0:0:0:
391,334,156118,6,0,L|295:321,1,80.9999975280763,2|0,0:0|0:0,0:0:0:0:
215,216,156434,1,2,0:0:0:0:
215,216,156592,1,2,0:0:0:0:
332,43,156750,6,0,B|393:16|429:66|491:43,1,161.999995056153,2|2,2:0|2:0,2:0:0:0:
374,278,157224,2,0,B|383:229|383:229|370:192|370:192|382:163|369:113,1,161.999995056153,2|0,0:0|0:0,0:0:0:0:
272,260,157697,1,2,0:0:0:0:
472,184,157855,1,0,0:0:0:0:
278,53,158013,2,0,L|182:44,1,80.9999975280763,2|0,0:0|0:0,0:0:0:0:
74,204,158329,2,0,L|170:195,1,80.9999975280763,2|0,0:0|0:0,0:0:0:0:
397,53,158645,6,0,B|337:42|337:42|266:55,1,121.499996292114,2|0,0:0|0:0,0:0:0:0:
194,69,158960,1,2,0:0:0:0:
324,273,159118,1,2,0:0:0:0:
74,204,159276,2,0,L|65:80,1,121.499996292114,2|0,0:0|0:0,0:0:0:0:
59,0,159592,5,2,0:0:0:0:
248,184,159750,1,8,0:0:0:0:
259,194,159829,1,8,0:0:0:0:
270,204,159908,1,8,0:0:0:0:
194,69,160066,1,8,0:0:0:0:
217,343,160224,1,8,0:0:0:0:
402,196,160382,1,8,0:0:0:0:
124,247,160539,6,0,L|-4:232,1,107.999996704102,4|0,0:0|0:0,0:0:0:0:
194,69,160855,2,0,L|322:54,1,107.999996704102,8|0,0:0|0:0,0:0:0:0:
402,196,161171,1,0,0:0:0:0:
434,7,161329,1,0,0:0:0:0:
289,179,161487,2,0,P|227:190|173:176,1,107.999996704102,8|0,0:0|0:0,0:0:0:0:
41,25,161803,6,0,L|52:145,1,107.999996704102
156,348,162118,6,0,L|169:222,1,125.999996154785,8|0,0:0|0:0,0:0:0:0:
283,16,162434,6,0,L|301:161,1,144
326,337,162750,1,8,0:0:0:0:
170,109,162908,6,0,P|95:97|15:204,1,215.999993408203
17,219,163303,1,0,0:0:0:0:
22,239,163382,1,8,0:0:0:0:
0,21,163539,1,0,0:0:0:0:
135,220,163697,2,0,L|271:210,1,107.999996704102
327,68,164013,1,8,0:0:0:0:
386,280,164171,1,0,0:0:0:0:
204,64,164329,6,0,P|153:51|101:66,1,107.999996704102
136,338,164645,6,0,P|153:273|128:211,1,125.999996154785,8|0,0:0|0:0,0:0:0:0:
0,63,164960,1,0,0:0:0:0:
38,286,165118,1,0,0:0:0:0:
224,138,165276,2,0,B|281:109|326:163|405:122,1,161.999995056153,8|0,0:0|0:0,0:0:0:0:
423,107,165592,6,0,B|419:165|419:165|432:214|432:214|423:287,1,161.999995056153,4|0,0:0|0:0,0:0:0:0:
423,312,165908,1,8,0:0:0:0:
512,153,166066,1,0,0:0:0:0:
298,228,166224,6,0,P|225:260|139:217,1,161.999995056153
235,27,166539,6,0,L|223:175,1,148.50000453186,8|0,0:0|0:0,0:0:0:0:
16,53,166855,6,0,B|67:45|67:45|105:58|105:58|168:41,1,135
70,255,167171,6,0,B|53:209|53:209|57:113,1,121.499996292114,8|0,0:0|0:0,0:0:0:0:
255,208,167487,6,0,L|126:198,1,108
337,161,167803,6,0,P|348:210|325:275,1,94.499997116089,8|0,0:0|0:0,0:0:0:0:
244,350,168118,6,0,L|365:345,1,108
446,193,168434,6,0,P|430:258|464:322,1,121.499996292114,8|0,0:0|0:0,0:0:0:0:
512,109,168750,6,0,B|476:110|476:110|443:102|443:102|413:117|368:103,1,135
292,209,169066,6,0,B|329:156|267:109|311:47,1,148.50000453186,8|0,0:0|2:0,2:0:0:0:
317,22,169382,5,8,0:0:0:0:
102,201,169539,1,0,0:0:0:0:
410,175,169697,1,8,0:0:0:0:
129,198,169855,1,0,0:0:0:0:
371,325,170013,5,8,0:0:0:0:
234,79,170171,1,0,0:0:0:0:
113,360,170329,1,8,0:0:0:0:
225,102,170487,1,0,0:0:0:0:
371,325,170645,6,0,P|427:337|488:316,1,107.999996704102
328,100,170960,2,0,P|272:88|211:109,1,107.999996704102,8|0,0:0|0:0,0:0:0:0:
136,248,171276,1,0,0:0:0:0:
87,46,171434,1,0,0:0:0:0:
279,194,171592,2,0,B|285:250|285:250|271:318,1,107.999996704102,8|0,0:0|0:0,0:0:0:0:
34,262,171908,6,0,P|82:239|135:247,1,107.999996704102
191,62,172224,6,0,P|173:112|198:189,1,125.999996154785,8|0,0:0|0:0,0:0:0:0:
409,171,172539,6,0,P|340:159|278:193,1,144
364,302,172855,1,8,0:0:0:0:
401,63,173013,2,0,B|332:54|332:54|281:72|281:72|232:51|179:64,1,215.999993408203
169,65,173408,1,0,0:0:0:0:
147,69,173487,1,8,0:0:0:0:
250,258,173645,1,0,0:0:0:0:
486,127,173803,6,0,L|495:7,1,107.999996704102
323,177,174118,1,8,0:0:0:0:
512,249,174276,1,0,0:0:0:0:
374,76,174434,6,0,P|326:62|259:85,1,107.999996704102
334,302,174750,6,0,L|322:176,1,125.999996154785,8|0,0:0|0:0,0:0:0:0:
160,10,175066,1,0,0:0:0:0:
374,76,175224,1,0,0:0:0:0:
194,233,175382,2,0,B|137:262|92:208|15:247,1,161.999995056153,8|0,0:0|0:0,0:0:0:0:
0,266,175697,6,0,L|12:89,1,161.999995056153
15,58,176013,1,8,0:0:0:0:
108,228,176171,1,0,0:0:0:0:
294,63,176329,6,0,L|456:49,1,161.999995056153
503,154,176645,6,0,L|344:145,1,148.50000453186,8|0,0:0|0:0,0:0:0:0:
294,63,176960,6,0,P|308:148|274:197,1,135
107,107,177276,6,0,L|235:118,1,121.499996292114,8|0,0:0|0:0,0:0:0:0:
177,208,177592,6,0,L|51:218,1,108
11,58,177908,6,0,P|20:110|1:167,1,94.499997116089,8|0,0:0|0:0,0:0:0:0:
68,319,178224,6,0,P|54:265|82:200,1,108
261,275,178539,6,0,L|139:268,1,121.499996292114,8|0,0:0|0:0,0:0:0:0:
352,183,178855,6,0,B|348:231|348:231|359:266|359:266|354:316,1,135
248,89,179171,6,0,B|301:130|349:68|411:111,1,148.50000453186,8|0,0:0|2:0,2:0:0:0:
430,115,179487,5,8,0:0:0:0:
242,310,179645,1,0,0:0:0:0:
303,11,179803,1,8,0:0:0:0:
248,285,179960,1,0,0:0:0:0:
88,47,180118,5,8,0:0:0:0:
58,322,180276,1,0,0:0:0:0:
306,144,180434,1,8,0:0:0:0:
81,306,180592,1,0,0:0:0:0:
29,149,180750,5,8,0:0:0:0:
62,162,180829,1,0,0:0:0:0:
98,162,180908,1,0,0:0:0:0:
129,154,180987,1,0,0:0:0:0:
166,143,181066,1,8,0:0:0:0:
201,144,181145,1,0,0:0:0:0:
234,157,181224,1,0,0:0:0:0:
265,173,181303,1,0,0:0:0:0:
286,202,181382,1,8,0:0:0:0:
293,236,181460,1,0,0:0:0:0:
282,270,181539,1,2,0:3:0:0:
258,297,181618,1,0,0:0:0:0:
227,314,181697,6,0,L|180:305,1,45,10|0,0:3|0:0,0:0:0:0:
372,160,181855,2,0,L|418:152,1,45,2|0,0:3|0:0,0:0:0:0:
129,154,182013,5,8,0:0:0:0:
125,170,182092,1,0,0:0:0:0:
121,186,182171,1,0,0:0:0:0:
117,202,182250,1,0,0:0:0:0:
113,218,182329,1,8,0:0:0:0:
109,234,182408,1,0,0:0:0:0:
105,250,182487,1,0,0:0:0:0:
101,267,182566,1,0,0:0:0:0:
97,284,182645,6,0,L|104:339,1,45,8|0,0:0|0:0,0:0:0:0:
227,235,182803,2,0,L|234:180,1,45
21,123,182960,2,0,L|28:178,1,45,8|0,0:0|0:0,0:0:0:0:
163,49,183118,2,0,L|156:4,1,45
232,190,183276,5,8,0:0:0:0:
264,205,183355,1,0,0:0:0:0:
299,207,183434,1,0,0:0:0:0:
334,199,183513,1,0,0:0:0:0:
361,176,183592,1,8,0:0:0:0:
377,144,183671,1,0,0:0:0:0:
373,108,183750,1,0,0:0:0:0:
351,78,183829,1,0,0:0:0:0:
320,58,183908,5,8,0:0:0:0:
337,54,183987,1,0,0:0:0:0:
353,50,184066,1,2,0:3:0:0:
370,44,184145,1,0,0:0:0:0:
387,39,184224,2,0,L|449:21,1,45,10|0,0:3|0:0,0:0:0:0:
483,147,184382,2,0,L|475:218,1,45,2|0,0:3|0:0,0:0:0:0:
403,328,184539,5,8,0:0:0:0:
378,317,184618,1,0,0:0:0:0:
351,313,184697,1,0,0:0:0:0:
324,316,184776,1,0,0:0:0:0:
298,325,184855,1,8,0:0:0:0:
272,334,184934,1,0,0:0:0:0:
245,339,185013,1,0,0:0:0:0:
218,333,185092,1,0,0:0:0:0:
197,314,185171,6,0,L|211:250,1,45,8|0,0:0|0:0,0:0:0:0:
261,92,185329,2,0,L|275:156,1,45
379,235,185487,2,0,L|311:222,1,45,8|0,0:0|0:0,0:0:0:0:
117,178,185645,2,0,L|185:165,1,45
475,246,185803,5,8,0:0:0:0:
466,282,185882,1,0,0:0:0:0:
444,308,185960,1,0,0:0:0:0:
412,325,186039,1,0,0:0:0:0:
376,330,186118,1,8,0:0:0:0:
340,325,186197,1,0,0:0:0:0:
307,308,186276,1,0,0:0:0:0:
283,280,186355,1,0,0:0:0:0:
280,244,186434,1,8,0:0:0:0:
291,210,186513,1,0,0:0:0:0:
311,181,186592,1,0,0:0:0:0:
332,151,186671,1,0,0:0:0:0:
343,117,186750,1,8,0:0:0:0:
345,81,186829,1,0,0:0:0:0:
328,48,186908,1,0,0:0:0:0:
298,28,186987,1,0,0:0:0:0:
251,28,187066,5,8,0:0:0:0:
212,52,187145,1,0,0:0:0:0:
199,96,187224,1,0,0:0:0:0:
208,140,187303,1,0,0:0:0:0:
214,185,187382,1,8,0:0:0:0:
196,226,187460,1,0,0:0:0:0:
156,249,187539,1,0,0:0:0:0:
110,253,187618,1,0,0:0:0:0:
64,236,187697,1,8,0:0:0:0:
37,198,187776,1,0,0:0:0:0:
36,151,187855,1,0,0:0:0:0:
58,109,187934,1,0,0:0:0:0:
94,81,188013,1,8,0:0:0:0:
139,74,188092,1,0,0:0:0:0:
182,89,188171,1,0,0:0:0:0:
207,126,188250,1,0,0:0:0:0:
213,167,188329,5,8,0:0:0:0:
205,211,188408,1,0,0:0:0:0:
189,254,188487,1,0,0:0:0:0:
155,285,188566,1,0,0:0:0:0:
200,278,188645,1,8,0:0:0:0:
246,279,188724,1,0,0:0:0:0:
291,286,188803,1,0,0:0:0:0:
330,307,188882,1,0,0:0:0:0:
369,331,188960,1,8,0:0:0:0:
414,327,189039,1,0,0:0:0:0:
452,301,189118,1,0,0:0:0:0:
470,258,189197,1,0,0:0:0:0:
470,211,189276,1,8,0:0:0:0:
461,166,189355,1,0,0:0:0:0:
467,119,189434,1,0,0:0:0:0:
433,87,189513,1,0,0:0:0:0:
387,89,189592,5,8,0:0:0:0:
343,102,189671,1,0,0:0:0:0:
297,105,189750,1,0,0:0:0:0:
250,100,189829,1,0,0:0:0:0:
206,83,189908,1,8,0:0:0:0:
170,54,189987,1,0,0:0:0:0:
128,33,190066,1,0,0:0:0:0:
81,37,190145,1,0,0:0:0:0:
41,58,190224,5,8,0:0:0:0:
3,106,190303,1,0,0:0:0:0:
0,166,190382,1,0,0:0:0:0:
25,219,190460,1,0,0:0:0:0:
77,245,190539,1,8,0:0:0:0:
138,244,190618,1,0,0:0:0:0:
196,226,190697,1,0,0:0:0:0:
256,230,190776,1,0,0:0:0:0:
303,253,190855,6,0,L|291:152,1,90,12|0,0:0|0:0,0:0:0:0:
188,46,191171,1,0,0:0:0:0:
403,128,191329,6,0,P|451:133|510:113,1,90,8|0,0:0|0:0,0:0:0:0:
326,23,191645,1,8,0:0:0:0:
402,224,191803,1,0,0:0:0:0:
408,239,191882,1,0,0:0:0:0:
414,255,191960,1,0,0:0:0:0:
421,271,192039,1,0,0:0:0:0:
427,287,192118,6,0,L|516:271,1,90,8|0,0:0|0:0,0:0:0:0:
403,128,192434,2,0,L|314:112,1,90,8|0,0:0|0:0,0:0:0:0:
136,260,192750,1,8,0:0:0:0:
166,252,192829,1,0,0:0:0:0:
196,258,192908,1,0,0:0:0:0:
224,270,192987,1,0,0:0:0:0:
255,274,193066,1,0,0:0:0:0:
285,266,193145,1,0,0:0:0:0:
307,244,193224,1,0,0:0:0:0:
309,210,193303,1,0,0:0:0:0:
291,183,193382,6,0,L|193:166,1,90,8|0,0:0|0:0,0:0:0:0:
22,140,193697,1,0,0:0:0:0:
245,86,193855,6,0,L|343:69,1,90,8|0,0:0|0:0,0:0:0:0:
511,36,194171,1,8,0:0:0:0:
449,227,194329,1,0,0:0:0:0:
444,243,194408,1,0,0:0:0:0:
439,260,194487,1,0,0:0:0:0:
433,277,194566,1,0,0:0:0:0:
429,294,194645,5,8,0:0:0:0:
264,154,194855,1,0,0:0:0:0:
171,349,195066,1,0,0:0:0:0:
398,145,195276,5,8,0:0:0:0:
331,351,195487,1,0,0:0:0:0:
162,216,195697,1,0,0:0:0:0:
466,268,195908,5,8,0:0:0:0:
255,220,196118,1,0,0:0:0:0:
378,41,196329,1,0,0:0:0:0:
466,268,196539,5,4,0:0:0:0:
256,192,196618,12,0,199697,0:0:0:0:
67,134,216434,6,0,L|75:178,5,30
59,94,216750,1,4,0:0:0:0:
59,94,217382,6,0,B|144:55|190:125|290:77,1,215.999993408203,2|0,0:0|0:0,0:0:0:0:
217,0,218329,1,0,0:0:0:0:
119,165,218645,6,0,L|130:287,1,107.999996704102,8|0,0:0|0:0,0:0:0:0:
139,372,219118,1,0,0:0:0:0:
216,254,219276,2,0,P|251:250|290:255,1,53.9999983520508
372,175,219592,2,0,P|364:208|369:247,1,53.9999983520508
371,279,219829,1,0,0:0:0:0:
371,279,219908,6,0,B|433:283|467:216|467:216|461:282|508:312,1,215.999993408203,2|0,0:0|0:0,0:0:0:0:
372,175,220855,1,0,0:0:0:0:
252,321,221171,6,0,P|197:332|138:313,1,107.999996704102,8|0,0:0|0:0,0:0:0:0:
72,250,221645,1,0,0:0:0:0:
213,147,221803,2,0,L|207:208,1,53.9999983520508
102,79,222118,2,0,L|108:140,1,53.9999983520508
213,28,222434,6,0,B|143:73|71:3|-7:38,1,215.999993408203,2|0,0:0|0:0,0:0:0:0:
49,147,223382,1,0,0:0:0:0:
213,28,223697,6,0,P|267:17|333:30,1,107.999996704102,8|0,0:0|0:0,0:0:0:0:
400,73,224171,1,0,0:0:0:0:
277,216,224329,2,0,L|272:88,1,107.999996704102
330,300,224960,6,0,B|273:315|273:315|217:297|217:297|167:324|110:298,1,215.999993408203,2|0,0:0|0:0,0:0:0:0:
27,253,225908,1,0,0:0:0:0:
177,118,226224,6,0,L|166:236,1,107.999996704102,8|0,0:0|0:0,0:0:0:0:
157,331,226697,1,0,0:0:0:0:
79,178,226855,2,0,L|22:171,1,53.9999983520508
177,118,227171,2,0,L|234:111,1,53.9999983520508
328,189,227487,6,0,P|280:109|341:14,1,215.999993408203,2|0,0:0|0:0,0:0:0:0:
379,104,228434,1,0,0:0:0:0:
241,231,228750,6,0,L|116:221,1,107.999996704102,8|0,0:0|0:0,0:0:0:0:
58,308,229224,1,0,0:0:0:0:
22,147,229382,2,0,P|17:123|21:92,1,53.9999983520508
114,27,229697,2,0,L|186:22,1,53.9999983520508
214,20,229934,1,0,0:0:0:0:
214,20,230013,6,0,B|205:72|205:72|227:132|227:132|204:171|224:234,1,215.999993408203,2|0,0:0|0:0,0:0:0:0:
314,178,230960,1,0,0:0:0:0:
131,124,231276,6,0,B|77:117|77:117|24:125,1,107.999996704102,8|0,0:0|0:0,0:0:0:0:
121,257,231908,2,0,B|175:264|175:264|228:256,1,107.999996704102
286,153,232539,6,0,L|267:371,1,215.999993408203,2|0,0:0|0:0,0:0:0:0:
172,285,233487,1,0,0:0:0:0:
358,351,233803,6,0,P|408:362|471:344,1,107.999996704102,8|0,0:0|0:0,0:0:0:0:
407,162,234434,2,0,P|395:211|412:275,1,107.999996704102
487,100,235066,6,0,B|417:145|345:75|267:110,1,215.999993408203,2|0,0:0|0:0,0:0:0:0:
323,203,236013,1,0,0:0:0:0:
165,127,236329,6,0,L|159:16,1,107.999996704102,8|0,0:0|0:0,0:0:0:0:
318,112,236960,2,0,L|247:103,1,53.9999983520508,8|0,0:0|0:0,0:0:0:0:
141,225,237276,2,0,L|212:216,1,53.9999983520508,2|0,0:0|0:0,0:0:0:0:
358,33,237592,6,0,P|405:113|321:201,1,215.999993408203,6|0,0:0|0:0,0:0:0:0:
318,112,238539,1,0,0:0:0:0:
456,232,238855,2,0,L|445:356,1,107.999996704102,8|0,0:0|0:0,0:0:0:0:
327,219,239487,2,0,L|316:95,1,107.999996704102
488,25,240118,6,0,B|433:28|406:48|394:90|394:90|372:33|325:32,1,215.999993408203,2|0,0:0|0:0,0:0:0:0:
225,54,241066,1,0,0:0:0:0:
318,215,241382,6,0,P|303:167|323:100,1,107.999996704102,8|0,0:0|0:0,0:0:0:0:
501,170,242013,2,0,L|372:159,1,107.999996704102
305,9,242645,6,0,B|312:79|312:79|291:145|291:145|302:224,1,215.999993408203,2|0,0:0|0:0,0:0:0:0:
321,339,243592,1,0,0:0:0:0:
180,207,243908,6,0,P|127:195|70:212,1,107.999996704102,8|0,0:0|0:0,0:0:0:0:
2,273,244382,1,0,0:0:0:0:
135,353,244539,2,0,L|129:280,1,53.9999983520508
80,154,244855,2,0,L|74:227,1,53.9999983520508
187,73,245171,6,0,P|87:111|-1:59,1,215.999993408203,2|0,0:0|0:0,0:0:0:0:
99,11,246118,1,0,0:0:0:0:
228,153,246434,6,0,L|219:228,1,53.9999983520508,8|0,0:0|0:0,0:0:0:0:
336,102,246750,2,0,L|327:27,1,53.9999983520508,2|0,0:0|0:0,0:0:0:0:
333,204,247066,6,0,L|324:279,1,53.9999983520508,8|0,0:0|0:0,0:0:0:0:
441,153,247382,2,0,L|432:78,1,53.9999983520508,2|0,0:0|0:0,0:0:0:0:
391,325,247697,6,0,B|304:378|242:294|130:340,1,252,2|0,0:0|0:0,0:0:0:0:
104,353,248329,2,0,L|92:202,1,144,8|0,0:0|0:0,0:0:0:0:
84,85,248803,1,0,0:0:0:0:
210,183,248960,6,0,P|218:226|203:274,1,72,2|0,0:0|0:0,0:0:0:0:
92,209,249276,1,0,0:0:0:0:
150,340,249434,1,0,0:0:0:0:
307,232,249592,6,0,P|346:226|401:239,1,72,8|0,0:0|0:0,0:0:0:0:
483,307,249908,1,0,0:0:0:0:
454,154,250066,1,0,0:0:0:0:
361,338,250224,6,0,B|305:348|305:348|251:334|251:334|198:356|139:336,1,215.999993408203,2|0,0:0|0:0,0:0:0:0:
23,181,250855,5,8,0:0:0:0:
65,160,250960,1,0,0:0:0:0:
110,159,251066,1,0,0:0:0:0:
153,175,251171,1,0,0:0:0:0:
192,199,251276,1,0,0:0:0:0:
238,195,251382,1,0,0:0:0:0:
296,146,251487,5,2,0:0:0:0:
338,125,251592,1,0,0:0:0:0:
383,124,251697,1,0,0:0:0:0:
427,141,251803,1,0,0:0:0:0:
458,176,251908,1,0,0:0:0:0:
463,223,252013,1,0,0:0:0:0:
426,288,252118,5,8,0:0:0:0:
383,310,252224,1,0,0:0:0:0:
335,303,252329,1,0,0:0:0:0:
290,284,252434,1,0,0:0:0:0:
242,279,252539,1,0,0:0:0:0:
195,292,252645,1,0,0:0:0:0:
130,329,252750,6,0,L|121:381,3,36,2|0|0|0,0:0|0:0|0:0|0:0,0:0:0:0:
120,204,253066,6,0,L|128:151,3,36
33,302,253382,6,0,L|22:355,3,36,8|0|0|0,0:0|0:0|0:0|0:0,0:0:0:0:
6,193,253697,6,0,L|16:139,3,36
120,204,254013,5,2,0:0:0:0:
145,190,254092,1,0,0:0:0:0:
174,189,254171,1,0,0:0:0:0:
202,194,254250,1,0,0:0:0:0:
225,209,254329,1,0,0:0:0:0:
246,228,254408,1,0,0:0:0:0:
269,244,254487,1,0,0:0:0:0:
295,254,254566,1,0,0:0:0:0:
323,254,254645,6,0,L|364:235,3,36,8|0|0|0,0:0|0:0|0:0|0:0,0:0:0:0:
366,142,254960,2,0,L|407:161,3,36
281,97,255276,6,0,B|214:128|162:84|162:84|102:123|102:123|70:81|5:88,1,288,2|8,0:0|0:0,0:0:0:0:
107,14,256066,1,0,0:0:0:0:
29,171,256224,2,0,P|24:209|36:259,1,72
191,210,256539,6,0,L|96:202,1,72,2|0,0:0|0:0,0:0:0:0:
242,88,256855,2,0,L|337:80,1,72
409,226,257171,2,0,P|401:191|412:140,1,72,8|0,0:0|0:0,0:0:0:0:
469,42,257487,1,8,0:0:0:0:
512,184,257645,1,8,0:0:0:0:
313,81,257803,6,0,B|238:63|238:63|175:90|175:90|124:51|45:77,1,252,6|0,0:0|0:0,0:0:0:0:
27,76,258434,2,0,L|42:222,1,144,8|0,0:0|0:0,0:0:0:0:
217,331,259066,6,0,L|92:316,1,108,2|0,0:0|0:0,0:0:0:0:
41,219,259382,6,0,L|179:206,1,121.499996292114
253,113,259697,6,0,L|111:98,1,135,8|0,0:0|0:0,0:0:0:0:
315,55,260013,6,0,P|341:121|294:189,1,148.50000453186
233,267,260329,6,0,B|314:321|396:227|494:293,1,252,2|0,0:0|0:0,0:0:0:0:
512,314,260960,1,8,0:0:0:0:
303,183,261276,2,0,P|280:111|311:30,1,144
507,109,261908,2,0,P|434:129|354:95,1,144,2|8,0:0|0:0,0:0:0:0:
267,28,262539,1,0,0:0:0:0:
211,250,262855,6,0,B|299:241|299:241|373:265|373:265|474:247,1,252,6|0,0:0|0:0,0:0:0:0:
501,236,263487,1,8,0:0:0:0:
321,361,263803,1,0,0:0:0:0:
388,169,264118,6,0,B|401:99|401:99|388:14,1,144,2|0,0:0|0:0,0:0:0:0:
165,116,264750,2,0,L|317:103,1,144,8|0,0:0|0:0,0:0:0:0:
80,53,265382,5,6,0:0:0:0:
58,96,265487,1,0,0:0:0:0:
59,143,265592,1,0,0:0:0:0:
83,183,265697,1,0,0:0:0:0:
127,206,265803,1,0,0:0:0:0:
174,204,265908,1,0,0:0:0:0:
238,167,266013,5,8,0:0:0:0:
283,151,266118,1,0,0:0:0:0:
330,156,266224,1,0,0:0:0:0:
371,178,266329,1,0,0:0:0:0:
384,224,266434,1,0,0:0:0:0:
378,271,266539,1,0,0:0:0:0:
325,326,266645,6,0,L|249:342,2,48,2|0|0,0:0|0:0|0:0,0:0:0:0:
443,342,266960,6,0,L|519:358,2,48
378,271,267276,5,8,0:0:0:0:
335,249,267382,1,0,0:0:0:0:
287,256,267487,1,0,0:0:0:0:
242,275,267592,1,0,0:0:0:0:
194,280,267697,1,0,0:0:0:0:
147,267,267803,1,0,0:0:0:0:
94,219,267908,6,0,B|103:150|103:150|90:69,1,144,6|0,0:0|0:0,0:0:0:0:
4,156,268382,1,0,0:0:0:0:
186,57,268539,2,0,L|344:48,1,144,8|0,0:0|0:0,0:0:0:0:
415,241,269171,6,0,P|393:171|430:84,1,144,2|0,0:0|0:0,0:0:0:0:
497,169,269803,1,8,0:0:0:0:
341,311,270118,2,0,B|287:292|237:324|237:324|194:294|194:294|117:341|45:295,1,288
18,158,270908,1,0,0:0:0:0:
190,204,271066,2,0,L|348:190,1,144,8|0,0:0|0:0,0:0:0:0:
119,141,271697,6,0,P|93:211|143:288,1,144,2|0,0:0|0:0,0:0:0:0:
248,352,272329,1,8,0:0:0:0:
473,207,272645,6,0,B|376:155|303:244|177:195,1,288
266,112,273434,1,0,0:0:0:0:
188,299,273592,2,0,L|37:288,1,144,8|0,0:0|0:0,0:0:0:0:
25,69,274224,6,0,P|45:129|11:207,1,144,2|0,0:0|0:0,0:0:0:0:
188,299,274855,2,0,P|159:234|179:166,1,144,8|0,0:0|0:0,0:0:0:0:
411,122,275487,5,2,0:0:0:0:
384,111,275566,1,0,0:0:0:0:
355,109,275645,1,0,0:0:0:0:
327,116,275724,1,0,0:0:0:0:
303,133,275803,1,0,0:0:0:0:
289,158,275882,1,0,0:0:0:0:
287,186,275960,1,0,0:0:0:0:
293,213,276039,1,0,0:0:0:0:
307,237,276118,5,8,0:0:0:0:
271,229,276197,1,0,0:0:0:0:
235,235,276276,1,0,0:0:0:0:
202,251,276355,1,0,0:0:0:0:
168,264,276434,1,0,0:0:0:0:
132,262,276513,1,0,0:0:0:0:
102,241,276592,1,0,0:0:0:0:
93,205,276671,1,0,0:0:0:0:
110,173,276750,5,2,0:0:0:0:
251,325,276908,1,0,0:0:0:0:
234,122,277066,2,0,L|226:12,1,107.999996704102,6|0,0:0|0:0,0:0:0:0:
110,173,277382,5,0,0:0:0:0:
316,225,277539,1,0,0:0:0:0:
133,50,277697,2,0,L|19:41,1,107.999996704102,6|0,0:0|0:0,0:0:0:0:
115,253,278013,6,0,L|107:147,1,80.9999975280763,6|0,0:0|0:0,0:0:0:0:
18,289,278329,1,0,0:0:0:0:
18,289,278487,1,2,0:0:0:0:
201,156,278645,2,0,B|262:127|298:185|368:145,1,161.999995056153,0|2,0:0|0:0,0:0:0:0:
312,67,279118,1,2,0:0:0:0:
134,94,279276,6,0,P|111:173|170:247,1,161.999995056153,2|0,0:0|0:0,0:0:0:0:
264,292,279750,1,0,0:0:0:0:
392,76,279908,6,0,L|298:65,1,80.9999975280763,2|0,0:0|0:0,0:0:0:0:
201,191,280224,2,0,L|294:180,1,80.9999975280763,0|2,0:0|0:0,0:0:0:0:
88,134,280539,1,0,0:0:0:0:
96,224,280697,1,2,0:0:0:0:
105,314,280855,6,0,B|153:303|153:303|229:312,1,121.499996292114,2|0,0:0|0:0,0:0:0:0:
312,361,281171,6,0,B|306:220,1,121.499996292114,2|0,0:0|0:0,0:0:0:0:
302,152,281487,1,2,0:0:0:0:
412,307,281645,1,2,0:0:0:0:
209,193,281803,2,0,P|200:151|215:91,1,80.9999975280763,2|0,0:0|0:0,0:0:0:0:
272,17,282118,1,0,0:0:0:0:
461,157,282276,2,0,B|415:145|385:156|385:156|358:150|358:150|334:158|302:151,1,161.999995056153,2|0,0:0|0:0,0:0:0:0:
423,242,282750,1,2,0:0:0:0:
382,68,282908,1,2,0:0:0:0:
279,260,283066,6,0,B|273:302|273:302|279:351,1,80.9999975280763,2|0,0:0|0:0,0:0:0:0:
423,242,283382,1,2,0:0:0:0:
257,155,283539,1,2,0:0:0:0:
372,322,283697,6,0,L|468:332,1,80.9999975280763,2|0,0:0|0:0,0:0:0:0:
348,146,284013,1,2,0:0:0:0:
257,155,284171,1,2,0:0:0:0:
167,161,284329,6,0,B|35:146,1,121.499996292114,2|0,0:0|0:0,0:0:0:0:
136,57,284645,6,0,B|274:42,1,135,2|0,0:0|0:0,0:0:0:0:
440,127,284960,6,0,B|387:115|348:147|348:147|360:108|330:68,1,161.999995056153,2|0,0:0|0:0,0:0:0:0:
270,42,285276,1,2,0:0:0:0:
412,203,285434,1,0,0:0:0:0:
176,159,285592,6,2,P|129:152|81:167,1,80.9999975280763
9,232,285908,1,0,0:0:0:0:
9,232,286066,1,2,0:0:0:0:
264,200,286224,6,0,B|291:139|234:103|274:32,1,161.999995056153,0|2,0:0|0:0,0:0:0:0:
176,159,286697,1,2,0:0:0:0:
345,85,286855,2,0,P|428:59|512:99,1,161.999995056153,2|2,0:0|0:0,0:0:0:0:
420,169,287329,1,2,0:0:0:0:
252,107,287487,2,0,L|245:20,1,80.9999975280763,2|0,0:0|0:0,0:0:0:0:
139,180,287803,2,0,L|146:93,1,80.9999975280763,0|2,0:0|0:0,0:0:0:0:
232,272,288118,1,0,0:0:0:0:
141,279,288276,1,2,0:0:0:0:
51,286,288434,6,0,B|59:239|59:239|49:166,1,121.499996292114,2|0,0:0|0:0,0:0:0:0:
6,81,288750,6,0,L|107:70,1,80.9999975280763,2|0,0:0|0:0,0:0:0:0:
208,4,289066,1,2,0:0:0:0:
208,4,289224,1,2,0:0:0:0:
186,189,289382,6,0,B|178:238|178:238|188:275|188:275|174:311|193:362,1,161.999995056153,2|2,0:0|0:0,0:0:0:0:
426,316,289855,2,0,L|252:308,1,161.999995056153,2|0,0:0|0:0,0:0:0:0:
186,111,290329,6,0,P|176:152|197:206,1,80.9999975280763,2|0,0:0|0:0,0:0:0:0:
419,155,290645,2,0,B|358:126|320:175|259:150,1,161.999995056153,2|2,0:0|0:0,0:0:0:0:
377,237,291118,1,2,0:0:0:0:
284,32,291276,6,0,B|239:20|210:32|210:32|182:26|182:26|159:35|126:28,1,161.999995056153,2|0,0:0|0:0,0:0:0:0:
14,124,291750,1,0,0:0:0:0:
254,231,291908,2,0,L|243:103,1,121.499996292114,2|0,0:0|0:0,0:0:0:0:
284,32,292224,5,8,0:0:0:0:
305,23,292303,1,0,0:0:0:0:
330,21,292382,1,0,0:0:0:0:
354,26,292460,1,0,0:0:0:0:
411,73,292539,5,8,0:0:0:0:
420,94,292618,1,0,0:0:0:0:
423,119,292697,1,0,0:0:0:0:
419,144,292776,1,0,0:0:0:0:
381,206,292855,5,8,0:0:0:0:
373,229,292934,1,0,0:0:0:0:
374,254,293013,1,0,0:0:0:0:
383,275,293092,1,0,0:0:0:0:
455,328,293171,6,0,L|274:310,1,161.999995056153,6|0,0:0|0:0,0:0:0:0:
197,103,293645,2,0,P|221:181|166:252,1,161.999995056153,2|0,0:0|0:0,0:0:0:0:
108,162,294118,1,2,0:0:0:0:
108,162,294276,1,2,0:0:0:0:
297,255,294434,6,0,B|358:279|391:220|464:256,1,161.999995056153,2|2,0:0|0:0,0:0:0:0:
408,348,294908,1,2,0:0:0:0:
335,155,295066,6,0,L|331:60,1,80.9999975280763,2|0,0:0|0:0,0:0:0:0:
464,171,295382,2,0,L|452:263,1,80.9999975280763,0|2,0:0|0:0,0:0:0:0:
305,333,295697,1,0,0:0:0:0:
319,244,295855,1,2,0:0:0:0:
335,155,296013,6,0,B|280:162|280:162|200:150,1,121.499996292114,2|0,0:0|0:0,0:0:0:0:
124,76,296329,6,0,L|132:203,1,121.499996292114,2|0,0:0|0:0,0:0:0:0:
137,282,296645,1,2,0:0:0:0:
19,121,296803,1,2,0:0:0:0:
254,155,296960,6,0,P|294:160|353:149,1,80.9999975280763,2|0,0:0|0:0,0:0:0:0:
423,42,297276,1,0,0:0:0:0:
447,271,297434,6,0,B|402:258|373:269|373:269|345:263|345:263|319:274|283:267,1,161.999995056153,2|2,0:0|0:0,0:0:0:0:
392,178,297908,1,2,0:0:0:0:
337,353,298066,1,2,0:0:0:0:
254,155,298224,6,0,P|247:116|261:68,1,80.9999975280763,2|0,0:0|0:0,0:0:0:0:
392,178,298539,1,0,0:0:0:0:
346,22,298697,1,2,0:0:0:0:
495,135,298855,6,0,P|503:172|486:235,1,80.9999975280763,2|0,0:0|0:0,0:0:0:0:
372,355,299171,1,2,0:0:0:0:
381,266,299329,1,2,0:0:0:0:
392,178,299487,6,0,B|268:165,1,121.499996292114,2|0,0:0|0:0,0:0:0:0:
184,60,299803,6,0,B|177:103|177:103|186:134|186:134|175:167|189:209,1,135,2|0,0:0|0:0,0:0:0:0:
302,280,300118,6,0,B|241:251|203:300|142:275,1,161.999995056153,2|0,0:0|0:0,0:0:0:0:
67,244,300434,1,2,0:0:0:0:
248,366,300592,1,2,0:0:0:0:
184,192,300750,6,0,P|177:153|192:91,1,80.9999975280763,2|0,0:0|0:0,0:0:0:0:
246,15,301066,1,0,0:0:0:0:
425,162,301224,2,0,L|263:150,1,161.999995056153,2|2,0:0|0:0,0:0:0:0:
87,29,301697,1,2,0:0:0:0:
119,193,301855,1,2,0:0:0:0:
246,15,302013,6,0,P|287:7|347:24,1,80.9999975280763,2|0,0:0|0:0,0:0:0:0:
247,155,302329,1,2,0:0:0:0:
417,68,302487,1,2,0:0:0:0:
274,244,302645,6,0,B|234:248|234:248|188:240,1,80.9999975280763,2|0,0:0|0:0,0:0:0:0:
337,66,302960,2,0,B|376:61|376:61|422:69,1,80.9999975280763,0|2,0:0|0:0,0:0:0:0:
274,244,303276,1,0,0:0:0:0:
265,156,303434,1,2,0:0:0:0:
254,68,303592,2,0,B|203:76|203:76|111:64,1,121.499996292114,2|0,0:0|0:0,0:0:0:0:
38,30,303908,6,0,L|51:126,1,80.9999975280763,2|0,0:0|0:0,0:0:0:0:
73,248,304224,1,2,0:0:0:0:
73,248,304382,1,2,0:0:0:0:
254,68,304539,6,0,B|315:42|350:92|412:70,1,161.999995056153,2|2,2:0|2:0,2:0:0:0:
287,307,305013,2,0,L|295:140,1,161.999995056153,2|0,0:0|0:0,0:0:0:0:
395,285,305487,1,2,0:0:0:0:
183,216,305645,1,2,0:0:0:0:
381,75,305803,2,0,L|476:67,1,80.9999975280763,2|0,0:0|0:0,0:0:0:0:
347,192,306118,2,0,L|252:184,1,80.9999975280763,2|0,0:0|0:0,0:0:0:0:
182,58,306434,6,0,B|172:106|172:106|184:144|184:144|171:172|184:223,1,161.999995056153,2|0,0:0|0:0,0:0:0:0:
277,96,306908,1,0,0:0:0:0:
235,322,307066,2,0,L|114:314,1,121.499996292114,2|0,0:0|0:0,0:0:0:0:
45,335,307382,5,8,0:0:0:0:
43,319,307460,1,0,0:0:0:0:
40,302,307539,1,0,0:0:0:0:
38,285,307618,1,0,0:0:0:0:
69,219,307697,5,8,0:0:0:0:
67,203,307776,1,0,0:0:0:0:
64,186,307855,1,0,0:0:0:0:
62,169,307934,1,0,0:0:0:0:
109,115,308013,5,8,0:0:0:0:
107,99,308092,1,0,0:0:0:0:
104,82,308171,1,0,0:0:0:0:
102,65,308250,1,0,0:0:0:0:
22,22,308329,6,0,B|82:50|119:-6|189:34,1,161.999995056153,6|0,0:0|0:0,0:0:0:0:
263,157,308803,2,0,B|272:108|272:108|259:71|259:71|275:40|261:-5,1,161.999995056153,2|0,0:0|0:0,0:0:0:0:
171,131,309276,1,2,0:0:0:0:
365,54,309434,1,2,0:0:0:0:
293,266,309592,2,0,L|196:259,1,80.9999975280763,2|0,0:0|0:0,0:0:0:0:
90,136,309908,2,0,L|186:129,1,80.9999975280763,2|0,0:0|0:0,0:0:0:0:
361,212,310224,6,0,P|380:267|345:340,1,121.499996292114,2|0,0:0|0:0,0:0:0:0:
289,367,310539,1,0,0:0:0:0:
239,134,310697,2,0,B|288:126|288:126|325:136|325:136|356:123|400:135,1,161.999995056153,2|0,0:0|0:0,0:0:0:0:
493,267,311171,5,2,0:0:0:0:
509,65,311329,1,2,0:0:0:0:
363,214,311487,2,0,P|355:262|372:307,1,80.9999975280763,0|2,0:0|0:0,0:0:0:0:
475,165,311803,1,2,0:0:0:0:
502,360,311960,1,0,0:0:0:0:
254,225,312118,5,8,0:0:0:0:
217,212,312197,1,0,0:0:0:0:
179,211,312276,1,0,0:0:0:0:
143,223,312355,1,0,0:0:0:0:
112,245,312434,1,0,0:0:0:0:
246,97,312592,1,8,0:0:0:0:
194,330,312750,1,0,0:0:0:0:
65,143,312908,1,0,0:0:0:0:
330,40,313066,5,8,0:0:0:0:
351,73,313145,1,0,0:0:0:0:
355,113,313224,1,0,0:0:0:0:
341,150,313303,1,0,0:0:0:0:
313,177,313382,1,0,0:0:0:0:
445,19,313539,1,8,0:0:0:0:
476,216,313697,1,0,0:0:0:0:
246,97,313855,1,0,0:0:0:0:
370,286,314013,6,0,P|367:307|350:344,1,40.4999987640381,8|0,0:0|0:0,0:0:0:0:
227,248,314171,2,0,P|229:223|221:193,1,40.4999987640381
148,96,314329,1,0,0:0:0:0:
105,287,314487,1,8,0:0:0:0:
313,177,314645,5,8,0:0:0:0:
329,174,314724,1,0,0:0:0:0:
345,172,314803,1,0,0:0:0:0:
361,170,314882,1,0,0:0:0:0:
378,167,314960,1,0,0:0:0:0:
305,307,315118,1,8,0:0:0:0:
346,67,315276,1,0,0:0:0:0:
488,228,315434,1,0,0:0:0:0:
247,88,315592,6,0,P|243:63|247:34,1,40.4999987640381,8|0,0:0|0:0,0:0:0:0:
378,167,315750,2,0,P|382:192|378:221,1,40.4999987640381
305,307,315908,1,0,0:0:0:0:
476,141,316066,1,8,0:0:0:0:
244,196,316224,5,0,0:0:0:0:
466,329,316382,1,8,0:0:0:0:
308,108,316539,5,8,0:0:0:0:
279,94,316618,1,0,0:0:0:0:
247,88,316697,1,0,0:0:0:0:
215,92,316776,1,0,0:0:0:0:
185,106,316855,1,8,0:0:0:0:
154,116,316934,1,0,0:0:0:0:
121,115,317013,1,0,0:0:0:0:
94,97,317092,1,0,0:0:0:0:
89,65,317171,1,4,0:0:0:0:
256,192,317250,12,0,318434,0:0:0:0:
