osu file format v14

[General]
AudioFilename: audio.mp3
AudioLeadIn: 0
PreviewTime: -21
Countdown: 0
SampleSet: None
StackLeniency: 0.2
Mode: 0
LetterboxInBreaks: 0
WidescreenStoryboard: 1

[Editor]
Bookmarks: 35337
DistanceSpacing: 2
BeatDivisor: 4
GridSize: 4
TimelineZoom: 0.8000002

[Metadata]
Title:Star Power
TitleUnicode:Star Power
Artist:Epic Games
ArtistUnicode:Epic Games
Creator:DakiniBrave
Version:hitsounds
Source:Fortnite
Tags:
BeatmapID:1670496
BeatmapSetID:795433

[Difficulty]
HPDrainRate:5
CircleSize:5.5
OverallDifficulty:8
ApproachRate:8
SliderMultiplier:2.3
SliderTickRate:1

[Events]
//Background and Video events
0,0,"starpower.jpg",0,0
//Break Periods
//Storyboard Layer 0 (Background)
//Storyboard Layer 1 (Fail)
//Storyboard Layer 2 (Pass)
//Storyboard Layer 3 (Foreground)
//Storyboard Sound Samples

[TimingPoints]
1964,500,4,2,0,60,1,0
1964,-100,4,2,0,60,0,1
37964,-100,4,2,0,60,0,0

[Colours]
Combo1 : 169,255,159
Combo2 : 248,129,129
Combo3 : 147,220,255
Combo4 : 209,171,243

[HitObjects]
137,98,1964,5,4,3:0:0:0:
267,128,2464,1,0,1:0:0:0:
137,98,2964,1,4,3:0:0:0:
267,128,3464,1,0,1:0:0:0:
137,98,3964,1,4,3:0:0:0:
267,128,4464,1,0,1:0:0:0:
137,98,4964,1,4,3:0:0:0:
267,128,5464,1,0,1:0:0:0:
137,98,5964,1,4,3:0:0:0:
267,128,6464,1,0,1:0:0:0:
137,98,6964,1,4,3:0:0:0:
267,128,7464,1,0,1:0:0:0:
137,98,7964,1,4,3:0:0:0:
267,128,8464,1,0,1:0:0:0:
137,98,8964,1,4,3:0:0:0:
267,128,9464,1,0,1:0:0:0:
137,98,9964,1,4,3:0:0:0:
267,128,10464,1,0,1:0:0:0:
137,98,10964,1,4,3:0:0:0:
267,128,11464,1,0,1:0:0:0:
137,98,11964,1,4,3:0:0:0:
213,53,12089,1,2,0:0:0:0:
213,53,12214,1,2,0:0:0:0:
267,128,12464,1,0,1:0:0:0:
137,98,12964,1,4,3:0:0:0:
267,128,13464,1,0,1:0:0:0:
137,98,13964,1,4,3:0:0:0:
267,128,14464,1,0,1:0:0:0:
137,98,14964,1,4,3:0:0:0:
267,128,15464,1,0,1:0:0:0:
137,98,15964,1,4,3:0:0:0:
267,128,16464,1,0,1:0:0:0:
137,98,16964,1,4,3:0:0:0:
267,128,17464,1,0,1:0:0:0:
137,98,17964,1,4,3:0:0:0:
267,128,18464,1,0,1:0:0:0:
137,98,18964,1,4,3:0:0:0:
267,128,19464,1,0,1:0:0:0:
137,98,19964,1,4,3:0:0:0:
267,128,20464,1,0,1:0:0:0:
137,98,20964,1,4,3:0:0:0:
267,128,21464,1,0,1:0:0:0:
137,98,21964,1,4,3:0:0:0:
267,128,22464,1,0,1:0:0:0:
137,98,22964,1,4,3:0:0:0:
267,128,23464,1,0,1:0:0:0:
137,98,23964,1,4,3:0:0:0:
267,128,24464,1,0,1:0:0:0:
137,98,24964,1,4,3:0:0:0:
267,128,25464,1,0,1:0:0:0:
137,98,25964,1,4,3:0:0:0:
267,128,26464,1,0,1:0:0:0:
137,98,26964,1,4,3:0:0:0:
267,128,27464,1,0,1:0:0:0:
137,98,27964,1,4,3:0:0:0:
213,53,28089,1,2,0:0:0:0:
213,53,28214,1,2,0:0:0:0:
267,128,28464,1,0,1:0:0:0:
137,98,28964,1,4,3:0:0:0:
267,128,29464,1,0,1:0:0:0:
137,98,29964,1,4,3:0:0:0:
267,128,30464,1,0,1:0:0:0:
137,98,30964,1,4,3:0:0:0:
267,128,31464,1,0,1:0:0:0:
137,98,31964,1,4,3:0:0:0:
267,128,32464,1,0,1:0:0:0:
137,98,32964,1,4,3:0:0:0:
267,128,33464,1,0,1:0:0:0:
195,92,37964,1,4,0:3:0:0:
