osu file format v14

[General]
AudioFilename: audio.ogg
AudioLeadIn: 0
PreviewTime: 32103
Countdown: 0
SampleSet: Soft
StackLeniency: 0.7
Mode: 2
LetterboxInBreaks: 0
WidescreenStoryboard: 0

[Editor]
Bookmarks: 8166,16166,24166,32166,40166,48166
DistanceSpacing: 0.9
BeatDivisor: 12
GridSize: 8
TimelineZoom: 2

[Metadata]
Title:Electro Swing Dance Emote
TitleUnicode:Electro Swing Dance Emote
Artist:Epic Games
ArtistUnicode:Epic Games
Creator:BIG H ZONDA KIT
Version:Zonda, Verti & Stardust Prism's #1 Victory Royale!
Source:Fortnite
Tags:battle royale video game vgm vg loop electronic instrumental halloween fortnitemares 2018 geek music rom di prisco ch 1 chapter one bighzonda bigh zonda 050 BIG_H_ZONDA_KIT verti stardust prism muya-
BeatmapID:4355769
BeatmapSetID:2080041

[Difficulty]
HPDrainRate:6
CircleSize:5
OverallDifficulty:9
ApproachRate:9
SliderMultiplier:3.2
SliderTickRate:2

[Events]
//Background and Video events
0,0,"FortniteHalloweenSkins.jpg",0,0
//Break Periods
//Storyboard Layer 0 (Background)
//Storyboard Layer 1 (Fail)
//Storyboard Layer 2 (Pass)
//Storyboard Layer 3 (Foreground)
//Storyboard Layer 4 (Overlay)
//Storyboard Sound Samples

[TimingPoints]
166,500,4,2,1,80,1,0
666,-100,4,2,2,80,0,0
916,-100,4,2,3,80,0,0
1041,-100,4,2,2,80,0,0
1416,-100,4,2,3,80,0,0
1666,-100,4,2,2,80,0,0
1916,-100,4,2,1,80,0,0
2166,-100,4,2,2,80,0,0
2416,-100,4,2,3,80,0,0
2666,-100,4,2,2,80,0,0
2916,-100,4,2,3,80,0,0
3166,-100,4,2,2,80,0,0
3916,-100,4,2,1,80,0,0
4666,-100,4,2,2,80,0,0
4916,-100,4,2,3,80,0,0
5166,-100,4,2,2,80,0,0
5416,-100,4,2,3,80,0,0
5666,-100,4,2,1,80,0,0
5916,-100,4,2,3,80,0,0
6166,-100,4,2,2,80,0,0
6291,-100,4,2,1,65,0,0
6416,-100,4,2,4,65,0,0
6541,-100,4,2,1,65,0,0
6666,-100,4,2,4,65,0,0
6791,-100,4,2,1,65,0,0
6916,-100,4,2,4,65,0,0
7166,-100,4,2,2,75,0,0
7416,-100,4,2,4,75,0,0
7666,-100,4,2,2,75,0,0
8041,-100,4,2,1,75,0,0
8166,-100,4,2,5,80,0,0
8416,-100,4,2,3,80,0,0
8666,-100,4,2,2,80,0,0
8916,-100,4,2,3,80,0,0
9041,-100,4,2,2,80,0,0
9416,-100,4,2,3,80,0,0
9666,-100,4,2,2,80,0,0
9916,-100,4,2,3,80,0,0
10041,-100,4,2,2,80,0,0
10416,-100,4,2,3,80,0,0
10666,-100,4,2,2,80,0,0
10916,-100,4,2,3,80,0,0
11166,-100,4,2,2,80,0,0
11916,-100,4,2,1,80,0,0
12291,-100,4,2,2,80,0,0
12416,-100,4,2,3,80,0,0
12666,-100,4,2,2,80,0,0
12916,-100,4,2,3,80,0,0
13166,-100,4,2,2,80,0,0
13416,-100,4,2,1,80,0,0
13666,-100,4,2,2,80,0,0
13916,-100,4,2,3,80,0,0
14041,-100,4,2,4,80,0,0
14166,-100,4,2,2,80,0,0
14416,-100,4,2,3,65,0,0
14916,-100,4,2,1,65,0,0
15166,-100,4,2,2,75,0,0
15416,-100,4,2,3,75,0,0
15666,-100,4,2,2,75,0,0
15791,-100,4,2,3,75,0,0
15916,-100,4,2,2,75,0,0
16041,-100,4,2,1,75,0,0
16166,-100,4,2,1,80,0,0
16666,-100,4,2,2,80,0,0
16916,-100,4,2,3,80,0,0
17041,-100,4,2,2,80,0,0
17416,-100,4,2,3,80,0,0
17666,-100,4,2,2,80,0,0
17916,-100,4,2,1,80,0,0
18166,-100,4,2,2,80,0,0
18416,-100,4,2,3,80,0,0
18666,-100,4,2,2,80,0,0
18916,-100,4,2,3,80,0,0
19166,-100,4,2,2,80,0,0
19916,-100,4,2,1,80,0,0
20666,-100,4,2,2,80,0,0
20916,-100,4,2,3,80,0,0
21166,-100,4,2,2,80,0,0
21416,-100,4,2,3,80,0,0
21666,-100,4,2,1,80,0,0
21916,-100,4,2,3,80,0,0
22166,-100,4,2,2,80,0,0
22291,-100,4,2,1,65,0,0
22416,-100,4,2,4,65,0,0
22541,-100,4,2,1,65,0,0
22666,-100,4,2,4,65,0,0
22791,-100,4,2,1,65,0,0
22916,-100,4,2,4,65,0,0
23166,-100,4,2,2,75,0,0
23416,-100,4,2,4,75,0,0
23666,-100,4,2,2,75,0,0
24041,-100,4,2,1,75,0,0
24166,-100,4,2,5,80,0,0
24416,-100,4,2,3,80,0,0
24666,-100,4,2,2,80,0,0
24916,-100,4,2,3,80,0,0
25041,-100,4,2,2,80,0,0
25416,-100,4,2,3,80,0,0
25666,-100,4,2,2,80,0,0
25916,-100,4,2,3,80,0,0
26041,-100,4,2,2,80,0,0
26416,-100,4,2,3,80,0,0
26666,-100,4,2,2,80,0,0
26916,-100,4,2,3,80,0,0
27166,-100,4,2,2,80,0,0
27916,-100,4,2,1,80,0,0
28291,-100,4,2,2,80,0,0
28416,-100,4,2,3,80,0,0
28666,-100,4,2,2,80,0,0
28916,-100,4,2,3,80,0,0
29166,-100,4,2,2,80,0,0
29416,-100,4,2,1,80,0,0
29666,-100,4,2,2,80,0,0
29916,-100,4,2,3,80,0,0
30041,-100,4,2,4,80,0,0
30166,-100,4,2,2,80,0,0
30416,-100,4,2,3,65,0,0
30916,-100,4,2,1,65,0,0
31166,-100,4,2,2,75,0,0
31416,-100,4,2,3,75,0,0
31666,-100,4,2,2,75,0,0
31791,-100,4,2,3,75,0,0
31916,-100,4,2,2,75,0,0
32041,-100,4,2,1,75,0,0
32166,-100,4,2,1,80,0,0
32666,-100,4,2,2,80,0,0
32916,-100,4,2,3,80,0,0
33041,-100,4,2,2,80,0,0
33416,-100,4,2,3,80,0,0
33666,-100,4,2,2,80,0,0
33916,-100,4,2,1,80,0,0
34166,-100,4,2,2,80,0,0
34416,-100,4,2,3,80,0,0
34666,-100,4,2,2,80,0,0
34916,-100,4,2,3,80,0,0
35166,-100,4,2,2,80,0,0
35916,-100,4,2,1,80,0,0
36666,-100,4,2,2,80,0,0
36916,-100,4,2,3,80,0,0
37166,-100,4,2,2,80,0,0
37416,-100,4,2,3,80,0,0
37666,-100,4,2,1,80,0,0
37916,-100,4,2,3,80,0,0
38166,-100,4,2,2,80,0,0
38291,-100,4,2,1,65,0,0
38416,-100,4,2,4,65,0,0
38541,-100,4,2,1,65,0,0
38666,-100,4,2,4,65,0,0
38791,-100,4,2,1,65,0,0
38916,-100,4,2,4,65,0,0
39166,-100,4,2,2,75,0,0
39416,-100,4,2,4,75,0,0
39666,-100,4,2,2,75,0,0
40041,-100,4,2,1,75,0,0
40166,-100,4,2,5,80,0,0
40416,-100,4,2,3,80,0,0
40666,-100,4,2,2,80,0,0
40916,-100,4,2,3,80,0,0
41041,-100,4,2,2,80,0,0
41416,-100,4,2,3,80,0,0
41666,-100,4,2,2,80,0,0
41916,-100,4,2,3,80,0,0
42041,-100,4,2,2,80,0,0
42416,-100,4,2,3,80,0,0
42666,-100,4,2,2,80,0,0
42916,-100,4,2,3,80,0,0
43166,-100,4,2,2,80,0,0
43916,-100,4,2,1,80,0,0
44291,-100,4,2,2,80,0,0
44416,-100,4,2,3,80,0,0
44666,-100,4,2,2,80,0,0
44916,-100,4,2,3,80,0,0
45166,-100,4,2,2,80,0,0
45416,-100,4,2,1,80,0,0
45666,-100,4,2,2,80,0,0
45916,-100,4,2,3,80,0,0
46041,-100,4,2,4,80,0,0
46166,-100,4,2,2,80,0,0
46416,-100,4,2,3,65,0,0
46916,-100,4,2,1,65,0,0
47166,-100,4,2,2,75,0,0
47416,-100,4,2,3,75,0,0
47666,-100,4,2,2,75,0,0
47791,-100,4,2,3,75,0,0
47916,-100,4,2,2,75,0,0
48041,-100,4,2,1,75,0,0
48166,-100,4,2,1,70,0,0

[Colours]
Combo1 : 232,234,128
Combo2 : 220,150,80
Combo3 : 197,90,75

[HitObjects]
109,294,166,5,6,1:2:0:0:
82,296,207,1,0,0:0:0:0:
57,287,249,1,0,0:0:0:0:
38,269,291,1,0,0:0:0:0:
27,245,332,1,0,0:0:0:0:
27,218,374,1,0,0:0:0:0:
38,194,416,1,2,2:3:0:0:
58,177,457,1,0,0:0:0:0:
83,168,499,1,0,0:0:0:0:
109,171,541,1,0,0:0:0:0:
322,176,666,5,10,2:2:0:0:
115,136,916,2,0,L|-14:148,2,80,2|2|2,2:2|2:2|1:2,0:0:0:0:
327,47,1416,2,0,L|348:234,1,160,2|10,2:2|2:2,0:0:0:0:
104,251,1916,1,2,2:3:0:0:
428,277,2166,6,0,L|429:94,1,160,2|2,1:2|2:2,0:0:0:0:
197,104,2666,1,10,2:2:0:0:
497,75,2916,1,2,2:2:0:0:
159,219,3166,2,0,L|362:210,1,160,2|2,1:2|2:3,0:0:0:0:
17,128,3666,2,0,L|237:117,1,160,10|10,2:2|2:3,0:0:0:0:
99,125,4041,1,4,2:3:0:0:
290,223,4166,6,0,L|329:220,9,26.6666666666667,2|0|0|0|0|0|2|0|0|0,1:2|0:0|0:0|0:0|0:0|0:0|2:3|0:0|0:0|0:0,0:0:0:0:
173,263,4666,6,0,P|129:220|186:156,1,160,10|2,2:2|2:2,0:0:0:0:
388,139,5166,1,2,1:2:0:0:
161,54,5416,1,2,2:2:0:0:
470,268,5666,2,0,L|479:81,1,160,8|10,2:2|2:3,0:0:0:0:
398,96,6041,1,0,1:1:0:0:
176,84,6166,6,0,P|184:268|187:85,1,560,6|2,1:2|2:2,0:0:0:0:
65,86,7166,1,2,1:2:0:0:
26,36,7291,1,2,2:2:0:0:
65,86,7416,1,10,2:2:0:0:
390,152,7666,1,10,2:2:0:0:
290,140,7791,1,8,2:2:0:0:
75,162,7916,1,8,2:3:0:0:
488,248,8166,6,0,L|320:248,1,160,6|2,1:2|2:2,0:0:0:0:
16,173,8666,1,10,2:2:0:0:
328,248,8916,1,2,2:2:0:0:
24,168,9166,2,0,L|184:168,1,160,2|2,1:2|2:2,0:0:0:0:
496,192,9666,1,10,2:2:0:0:
184,192,9916,1,2,2:2:0:0:
496,192,10166,6,0,L|496:32,1,160,2|2,1:2|2:2,0:0:0:0:
181,113,10666,2,0,L|378:111,1,160,10|2,2:2|2:2,0:0:0:0:
25,181,11166,2,0,L|18:7,1,160,2|2,1:2|2:3,0:0:0:0:
329,159,11666,1,10,2:2:0:0:
27,180,11916,2,0,L|112:174,1,80,10|4,2:3|2:3,0:0:0:0:
430,250,12166,6,0,L|444:146,1,80,2|2,1:2|2:2,0:0:0:0:
353,135,12416,1,2,2:2:0:0:
42,184,12666,2,0,L|35:93,1,80,10|2,2:2|2:2,0:0:0:0:
119,82,12916,1,2,2:2:0:0:
427,210,13166,2,0,L|424:38,1,160,2|2,1:2|2:3,0:0:0:0:
112,162,13666,1,10,2:2:0:0:
417,217,13916,2,0,L|318:213,1,80,10|2,2:3|1:2,0:0:0:0:
87,212,14166,5,6,1:2:0:0:
328,167,15166,2,0,L|426:167,2,80,2|2|8,1:2|1:2|2:2,0:0:0:0:
24,138,15666,2,0,L|22:49,1,80,10|8,2:2|2:2,0:0:0:0:
103,49,15916,1,8,2:3:0:0:
444,272,16166,5,6,1:2:0:0:
469,261,16207,1,0,0:0:0:0:
487,242,16249,1,0,0:0:0:0:
496,218,16291,1,0,0:0:0:0:
496,192,16332,1,0,0:0:0:0:
484,167,16374,1,0,0:0:0:0:
463,150,16416,1,2,2:3:0:0:
438,144,16457,1,0,0:0:0:0:
406,148,16499,1,0,0:0:0:0:
368,158,16541,1,0,0:0:0:0:
127,275,16666,6,0,P|73:200|122:177,1,160,10|2,2:2|2:2,0:0:0:0:
458,142,17166,2,0,L|284:126,2,160,2|2|10,1:2|2:2|2:2,0:0:0:0:
113,268,17916,1,2,2:3:0:0:
473,249,18166,6,0,L|481:77,1,160,2|2,1:2|2:2,0:0:0:0:
158,239,18666,2,0,L|350:231,1,160,10|2,2:2|2:2,0:0:0:0:
16,274,19166,2,0,L|8:98,1,160,2|2,1:2|2:3,0:0:0:0:
364,170,19666,2,0,L|173:154,1,160,10|10,2:2|2:3,0:0:0:0:
399,130,20041,1,4,2:3:0:0:
194,292,20166,6,0,L|171:258,9,26.6666666666667,2|0|0|0|0|0|2|0|0|0,1:2|0:0|0:0|0:0|0:0|0:0|2:3|0:0|0:0|0:0,0:0:0:0:
437,164,20666,6,0,L|263:153,2,160,10|2|2,2:2|2:2|1:2,0:0:0:0:
72,277,21416,1,2,2:2:0:0:
394,272,21666,2,0,L|404:90,1,160,8|10,2:2|2:3,0:0:0:0:
317,105,22041,1,0,1:1:0:0:
66,340,22166,6,0,P|48:218|134:376,1,560,6|2,1:2|2:2,0:0:0:0:
116,323,23166,2,0,L|62:255,2,80,2|2|10,1:2|2:2|2:2,0:0:0:0:
432,237,23666,2,0,L|514:270,2,80,10|8|8,2:2|2:2|2:3,0:0:0:0:
73,250,24166,5,6,1:2:0:0:
297,174,24416,2,0,L|129:160,1,160,2|10,2:2|2:2,0:0:0:0:
496,80,24916,1,2,2:2:0:0:
145,102,25166,2,0,L|313:88,1,160,2|2,1:2|2:2,0:0:0:0:
80,251,25666,1,10,2:2:0:0:
303,232,25916,2,0,L|203:217,1,80,2|2,2:2|2:2,0:0:0:0:
427,243,26166,6,0,L|441:61,1,160,2|2,1:2|2:2,0:0:0:0:
196,70,26666,1,10,2:2:0:0:
496,41,26916,1,2,2:2:0:0:
158,185,27166,2,0,L|361:176,1,160,2|2,1:2|2:3,0:0:0:0:
16,277,27666,1,10,2:2:0:0:
22,224,27749,1,0,0:0:0:0:
48,177,27832,1,0,0:0:0:0:
89,144,27915,1,10,2:3:0:0:
167,137,28041,1,4,2:3:0:0:
387,281,28166,5,2,1:2:0:0:
386,252,28207,1,0,0:0:0:0:
381,228,28249,1,0,0:0:0:0:
370,201,28291,1,2,2:2:0:0:
355,181,28332,1,0,0:0:0:0:
338,163,28374,1,0,0:0:0:0:
314,148,28415,1,2,2:2:0:0:
231,140,28541,1,0,0:0:0:0:
427,75,28666,6,0,L|312:67,2,80,10|2|2,2:2|2:2|2:2,0:0:0:0:
179,277,29166,1,2,1:2:0:0:
427,75,29416,1,2,2:3:0:0:
82,257,29666,2,0,L|56:79,1,160,10|10,2:2|2:3,0:0:0:0:
143,87,30041,1,2,1:2:0:0:
364,67,30166,6,0,P|331:286|307:66,1,640,6|2,1:2|1:2,0:0:0:0:
181,49,31291,1,2,1:2:0:0:
367,71,31416,1,8,2:2:0:0:
26,136,31666,1,10,2:2:0:0:
215,242,31791,2,0,L|119:235,2,80,8|8|4,2:2|2:3|2:3,0:0:0:0:
403,294,32166,5,6,1:2:0:0:
430,296,32207,1,0,0:0:0:0:
455,287,32249,1,0,0:0:0:0:
474,269,32291,1,0,0:0:0:0:
485,245,32332,1,0,0:0:0:0:
485,218,32374,1,0,0:0:0:0:
474,194,32416,1,2,2:3:0:0:
454,177,32457,1,0,0:0:0:0:
429,168,32499,1,0,0:0:0:0:
403,171,32541,1,0,0:0:0:0:
173,217,32666,6,0,L|165:46,1,160,10|2,2:2|2:2,0:0:0:0:
249,106,33041,1,2,2:2:0:0:
37,237,33166,2,0,L|27:40,1,160,2|2,1:2|2:2,0:0:0:0:
348,168,33666,1,10,2:2:0:0:
34,256,33916,1,2,2:3:0:0:
379,221,34166,6,0,L|199:217,2,160,2|2|10,1:2|2:2|2:2,0:0:0:0:
40,118,34916,1,2,2:2:0:0:
380,173,35166,2,0,L|50:170,1,320,2|10,1:2|2:2,0:0:0:0:
226,119,35916,2,0,L|322:113,1,80,10|4,2:3|2:3,0:0:0:0:
109,294,36166,5,2,1:2:0:0:
82,296,36207,1,0,0:0:0:0:
57,287,36249,1,0,0:0:0:0:
38,269,36291,1,0,0:0:0:0:
27,245,36332,1,0,0:0:0:0:
27,218,36374,1,0,0:0:0:0:
38,194,36416,1,2,2:3:0:0:
58,177,36457,1,0,0:0:0:0:
83,168,36499,1,0,0:0:0:0:
109,171,36541,1,0,0:0:0:0:
318,166,36666,6,0,L|486:161,2,160,10|2|2,2:2|2:2|1:2,0:0:0:0:
16,169,37416,1,2,2:2:0:0:
333,228,37666,2,0,L|123:224,1,160,8|10,2:2|2:3,0:0:0:0:
88,226,38041,1,0,1:1:0:0:
340,179,38166,5,6,1:2:0:0:
98,190,38916,2,0,L|82:93,1,80,2|2,2:3|2:2,0:0:0:0:
344,83,39166,2,0,L|443:78,2,80,2|2|10,1:2|2:2|2:2,0:0:0:0:
33,179,39666,2,0,L|29:74,1,80,10|8,2:2|2:2,0:0:0:0:
114,105,39916,2,0,L|22:102,1,80,8|4,2:3|2:3,0:0:0:0:
295,277,40166,5,6,1:2:0:0:
79,284,40416,1,2,2:2:0:0:
419,228,40666,1,10,2:2:0:0:
32,229,40916,1,2,2:2:0:0:
354,223,41166,5,2,1:2:0:0:
138,213,41416,1,2,2:2:0:0:
465,175,41666,1,10,2:2:0:0:
84,166,41916,1,2,2:2:0:0:
393,156,42166,5,2,1:2:0:0:
178,140,42416,1,2,2:2:0:0:
485,280,42666,2,0,P|453:180|377:192,1,160,10|2,2:2|2:2,0:0:0:0:
51,273,43166,2,0,L|192:153,2,160,2|2|10,1:2|2:3|2:2,0:0:0:0:
259,169,43916,2,0,L|353:162,1,80,10|4,2:3|2:3,0:0:0:0:
93,234,44166,6,0,L|72:138,1,80,2|2,1:2|2:2,0:0:0:0:
174,147,44416,1,0,0:0:0:0:
496,102,44666,2,0,L|379:101,1,80,10|2,2:2|2:2,0:0:0:0:
501,102,44916,1,2,2:2:0:0:
158,248,45166,2,0,P|120:162|180:153,1,160,2|2,1:2|2:3,0:0:0:0:
496,114,45666,1,10,2:2:0:0:
334,172,45916,2,0,L|451:162,1,80,10|2,2:3|1:2,0:0:0:0:
142,194,46166,6,0,L|2:299,2,160,6|2|2,1:2|2:2|2:2,0:0:0:0:
414,114,47166,2,0,L|300:110,1,80,2|2,1:2|1:2,0:0:0:0:
82,180,47416,1,8,2:2:0:0:
405,209,47666,2,0,L|428:99,1,80,10|8,2:2|2:2,0:0:0:0:
261,122,47916,2,0,L|159:113,1,80,8|4,2:3|2:3,0:0:0:0:
453,83,48166,5,6,1:2:0:0:
