osu file format v14

[General]
AudioFilename: audio.ogg
AudioLeadIn: 0
PreviewTime: 32103
Countdown: 0
SampleSet: Soft
StackLeniency: 0.7
Mode: 2
LetterboxInBreaks: 0
WidescreenStoryboard: 1

[Editor]
Bookmarks: 8166,16166,24166,32166,40166,48166
DistanceSpacing: 0.9
BeatDivisor: 4
GridSize: 8
TimelineZoom: 2

[Metadata]
Title:Electro Swing Dance Emote
TitleUnicode:Electro Swing Dance Emote
Artist:Epic Games
ArtistUnicode:Epic Games
Creator:BIG H ZONDA KIT
Version:Zonda, Verti & Stardust Prism's #1 Rain!
Source:Fortnite
Tags:battle royale video game vgm vg loop electronic instrumental halloween fortnitemares 2018 geek music rom di prisco ch 1 chapter one bighzonda bigh zonda 050 BIG_H_ZONDA_KIT verti stardust prism muya-
BeatmapID:4355767
BeatmapSetID:2080041

[Difficulty]
HPDrainRate:5
CircleSize:4
OverallDifficulty:8
ApproachRate:8
SliderMultiplier:2.9
SliderTickRate:2

[Events]
//Background and Video events
0,0,"FortniteHalloweenSkins.jpg",0,0
//Break Periods
//Storyboard Layer 0 (Background)
//Storyboard Layer 1 (Fail)
//Storyboard Layer 2 (Pass)
//Storyboard Layer 3 (Foreground)
//Storyboard Layer 4 (Overlay)
//Storyboard Sound Samples

[TimingPoints]
166,500,4,2,1,80,1,0
666,-100,4,2,2,80,0,0
916,-100,4,2,3,80,0,0
1041,-100,4,2,2,80,0,0
1416,-100,4,2,3,80,0,0
1666,-100,4,2,2,80,0,0
1916,-100,4,2,1,80,0,0
2166,-100,4,2,2,80,0,0
2416,-100,4,2,3,80,0,0
2666,-100,4,2,2,80,0,0
2916,-100,4,2,3,80,0,0
3166,-100,4,2,2,80,0,0
3916,-100,4,2,1,80,0,0
4666,-100,4,2,2,80,0,0
4916,-100,4,2,3,80,0,0
5166,-100,4,2,2,80,0,0
5416,-100,4,2,3,80,0,0
5666,-100,4,2,1,80,0,0
5916,-100,4,2,3,80,0,0
6166,-100,4,2,2,80,0,0
6291,-100,4,2,1,65,0,0
6416,-100,4,2,4,65,0,0
6541,-100,4,2,1,65,0,0
6666,-100,4,2,4,65,0,0
6791,-100,4,2,1,65,0,0
6916,-100,4,2,4,65,0,0
7166,-100,4,2,2,75,0,0
7416,-100,4,2,4,75,0,0
7666,-100,4,2,2,75,0,0
8041,-100,4,2,1,75,0,0
8166,-100,4,2,5,80,0,0
8416,-100,4,2,3,80,0,0
8666,-100,4,2,2,80,0,0
8916,-100,4,2,3,80,0,0
9041,-100,4,2,2,80,0,0
9416,-100,4,2,3,80,0,0
9666,-100,4,2,2,80,0,0
9916,-100,4,2,3,80,0,0
10041,-100,4,2,2,80,0,0
10416,-100,4,2,3,80,0,0
10666,-100,4,2,2,80,0,0
10916,-100,4,2,3,80,0,0
11166,-100,4,2,2,80,0,0
11916,-100,4,2,1,80,0,0
12291,-100,4,2,2,80,0,0
12416,-100,4,2,3,80,0,0
12666,-100,4,2,2,80,0,0
12916,-100,4,2,3,80,0,0
13166,-100,4,2,2,80,0,0
13416,-100,4,2,1,80,0,0
13666,-100,4,2,2,80,0,0
13916,-100,4,2,3,80,0,0
14041,-100,4,2,4,80,0,0
14166,-100,4,2,2,80,0,0
14416,-100,4,2,3,65,0,0
14916,-100,4,2,1,65,0,0
15166,-100,4,2,2,75,0,0
15416,-100,4,2,3,75,0,0
15666,-100,4,2,2,75,0,0
15791,-100,4,2,3,75,0,0
15916,-100,4,2,2,75,0,0
16041,-100,4,2,1,75,0,0
16166,-100,4,2,1,80,0,0
16666,-100,4,2,2,80,0,0
16916,-100,4,2,3,80,0,0
17041,-100,4,2,2,80,0,0
17416,-100,4,2,3,80,0,0
17666,-100,4,2,2,80,0,0
17916,-100,4,2,1,80,0,0
18166,-100,4,2,2,80,0,0
18416,-100,4,2,3,80,0,0
18666,-100,4,2,2,80,0,0
18916,-100,4,2,3,80,0,0
19166,-100,4,2,2,80,0,0
19916,-100,4,2,1,80,0,0
20666,-100,4,2,2,80,0,0
20916,-100,4,2,3,80,0,0
21166,-100,4,2,2,80,0,0
21416,-100,4,2,3,80,0,0
21666,-100,4,2,1,80,0,0
21916,-100,4,2,3,80,0,0
22166,-100,4,2,2,80,0,0
22291,-100,4,2,1,65,0,0
22416,-100,4,2,4,65,0,0
22541,-100,4,2,1,65,0,0
22666,-100,4,2,4,65,0,0
22791,-100,4,2,1,65,0,0
22916,-100,4,2,4,65,0,0
23166,-100,4,2,2,75,0,0
23416,-100,4,2,4,75,0,0
23666,-100,4,2,2,75,0,0
24041,-100,4,2,1,75,0,0
24166,-100,4,2,5,80,0,0
24416,-100,4,2,3,80,0,0
24666,-100,4,2,2,80,0,0
24916,-100,4,2,3,80,0,0
25041,-100,4,2,2,80,0,0
25416,-100,4,2,3,80,0,0
25666,-100,4,2,2,80,0,0
25916,-100,4,2,3,80,0,0
26041,-100,4,2,2,80,0,0
26416,-100,4,2,3,80,0,0
26666,-100,4,2,2,80,0,0
26916,-100,4,2,3,80,0,0
27166,-100,4,2,2,80,0,0
27916,-100,4,2,1,80,0,0
28291,-100,4,2,2,80,0,0
28416,-100,4,2,3,80,0,0
28666,-100,4,2,2,80,0,0
28916,-100,4,2,3,80,0,0
29166,-100,4,2,2,80,0,0
29416,-100,4,2,1,80,0,0
29666,-100,4,2,2,80,0,0
29916,-100,4,2,3,80,0,0
30041,-100,4,2,4,80,0,0
30166,-100,4,2,2,80,0,0
30416,-100,4,2,3,65,0,0
30916,-100,4,2,1,65,0,0
31166,-100,4,2,2,75,0,0
31416,-100,4,2,3,75,0,0
31666,-100,4,2,2,75,0,0
31791,-100,4,2,3,75,0,0
31916,-100,4,2,2,75,0,0
32041,-100,4,2,1,75,0,0
32166,-100,4,2,1,80,0,0
32666,-100,4,2,2,80,0,0
32916,-100,4,2,3,80,0,0
33041,-100,4,2,2,80,0,0
33416,-100,4,2,3,80,0,0
33666,-100,4,2,2,80,0,0
33916,-100,4,2,1,80,0,0
34166,-100,4,2,2,80,0,0
34416,-100,4,2,3,80,0,0
34666,-100,4,2,2,80,0,0
34916,-100,4,2,3,80,0,0
35166,-100,4,2,2,80,0,0
35916,-100,4,2,1,80,0,0
36666,-100,4,2,2,80,0,0
36916,-100,4,2,3,80,0,0
37166,-100,4,2,2,80,0,0
37416,-100,4,2,3,80,0,0
37666,-100,4,2,1,80,0,0
37916,-100,4,2,3,80,0,0
38166,-100,4,2,2,80,0,0
38291,-100,4,2,1,65,0,0
38416,-100,4,2,4,65,0,0
38541,-100,4,2,1,65,0,0
38666,-100,4,2,4,65,0,0
38791,-100,4,2,1,65,0,0
38916,-100,4,2,4,65,0,0
39166,-100,4,2,2,75,0,0
39416,-100,4,2,4,75,0,0
39666,-100,4,2,2,75,0,0
40041,-100,4,2,1,75,0,0
40166,-100,4,2,5,80,0,0
40416,-100,4,2,3,80,0,0
40666,-100,4,2,2,80,0,0
40916,-100,4,2,3,80,0,0
41041,-100,4,2,2,80,0,0
41416,-100,4,2,3,80,0,0
41666,-100,4,2,2,80,0,0
41916,-100,4,2,3,80,0,0
42041,-100,4,2,2,80,0,0
42416,-100,4,2,3,80,0,0
42666,-100,4,2,2,80,0,0
42916,-100,4,2,3,80,0,0
43166,-100,4,2,2,80,0,0
43916,-100,4,2,1,80,0,0
44291,-100,4,2,2,80,0,0
44416,-100,4,2,3,80,0,0
44666,-100,4,2,2,80,0,0
44916,-100,4,2,3,80,0,0
45166,-100,4,2,2,80,0,0
45416,-100,4,2,1,80,0,0
45666,-100,4,2,2,80,0,0
45916,-100,4,2,3,80,0,0
46041,-100,4,2,4,80,0,0
46166,-100,4,2,2,80,0,0
46416,-100,4,2,3,65,0,0
46916,-100,4,2,1,65,0,0
47166,-100,4,2,2,75,0,0
47416,-100,4,2,3,75,0,0
47666,-100,4,2,2,75,0,0
47791,-100,4,2,3,75,0,0
47916,-100,4,2,2,75,0,0
48041,-100,4,2,1,75,0,0
48166,-100,4,2,1,70,0,0

[Colours]
Combo1 : 232,234,128
Combo2 : 220,150,80
Combo3 : 197,90,75

[HitObjects]
76,270,166,6,0,P|35:208|83:166,1,145,6|2,1:2|2:3,0:0:0:0:
309,170,666,1,10,2:2:0:0:
161,211,916,2,0,L|130:35,1,145,2|2,2:2|1:2,0:0:0:0:
362,44,1416,2,0,L|507:35,2,145,2|10|2,2:2|2:2|2:3,0:0:0:0:
29,221,2166,6,0,L|53:43,1,145,2|2,1:2|2:2,0:0:0:0:
258,68,2666,2,0,L|432:55,1,145,10|2,2:2|2:2,0:0:0:0:
58,281,3166,2,0,P|14:211|171:81,1,290,2|10,1:2|2:2,0:0:0:0:
360,63,3916,1,10,2:3:0:0:
29,355,4166,6,0,L|20:46,1,290,2|10,1:2|2:2,0:0:0:0:
167,54,4916,1,2,2:2:0:0:
401,49,5166,2,0,L|411:218,1,145,2|2,1:2|2:2,0:0:0:0:
189,202,5666,2,0,L|5:209,1,145,8|10,2:2|2:3,0:0:0:0:
372,304,6166,6,0,P|406:218|145:240,1,507.5,6|2,1:2|2:2,0:0:0:0:
217,235,7166,1,2,1:2:0:0:
142,212,7291,1,2,2:2:0:0:
64,189,7416,1,10,2:2:0:0:
391,195,7666,2,0,L|471:179,1,72.5,10|8,2:2|2:2,0:0:0:0:
422,128,7916,1,8,2:3:0:0:
91,306,8166,6,0,L|80:147,1,145,6|2,1:2|2:2,0:0:0:0:
294,180,8666,2,0,L|466:184,1,145,10|2,2:2|2:2,0:0:0:0:
106,226,9166,2,0,L|98:72,1,145,2|2,1:2|2:2,0:0:0:0:
311,68,9666,2,0,L|152:64,1,145,10|2,2:2|2:2,0:0:0:0:
476,182,10166,6,0,L|299:182,2,145,2|2|10,1:2|2:2|2:2,0:0:0:0:
324,112,10916,1,2,2:2:0:0:
16,184,11166,2,0,L|315:184,1,290,2|10,1:2|2:2,0:0:0:0:
160,128,11916,2,0,L|80:128,1,72.5,10|4,2:3|2:3,0:0:0:0:
370,168,12166,6,0,L|466:166,2,72.5,2|2|2,1:2|2:2|2:2,0:0:0:0:
151,71,12666,2,0,L|53:73,2,72.5,10|2|2,2:2|2:2|2:2,0:0:0:0:
473,261,13166,2,0,L|468:103,1,145,2|2,1:2|2:3,0:0:0:0:
246,78,13666,2,0,L|76:76,1,145,10|10,2:2|2:3,0:0:0:0:
180,133,14041,1,2,1:2:0:0:
414,192,14166,5,6,1:2:0:0:
164,175,15166,1,2,1:2:0:0:
236,171,15291,1,2,1:2:0:0:
308,168,15416,1,8,2:2:0:0:
89,83,15666,2,0,L|17:83,2,72.5,10|8|8,2:2|2:2|2:3,0:0:0:0:
414,243,16166,6,0,L|414:89,1,145,6|2,1:2|2:3,0:0:0:0:
175,213,16666,2,0,L|8:220,1,145,10|2,2:2|2:2,0:0:0:0:
347,201,17166,2,0,L|491:293,2,145,2|2|10,1:2|2:2|2:2,0:0:0:0:
470,280,17916,1,2,2:3:0:0:
148,263,18166,6,0,L|3:318,1,145,2|2,1:2|2:2,0:0:0:0:
259,227,18666,2,0,L|414:216,1,145,10|2,2:2|2:2,0:0:0:0:
62,318,19166,2,0,P|9:242|154:164,1,290,2|10,1:2|2:2,0:0:0:0:
278,253,19916,1,10,2:3:0:0:
349,239,20041,1,4,2:3:0:0:
103,249,20166,6,0,P|99:144|269:91,1,290,2|10,1:2|2:2,0:0:0:0:
398,98,20916,1,2,2:2:0:0:
58,311,21166,2,0,L|48:146,1,145,2|2,1:2|2:2,0:0:0:0:
261,117,21666,2,0,L|74:101,1,145,8|10,2:2|2:3,0:0:0:0:
436,332,22166,6,0,P|452:149|385:337,1,580,6|2,1:2|1:2,0:0:0:0:
436,332,23291,2,0,L|380:256,1,72.5,2|10,2:2|2:2,0:0:0:0:
180,237,23666,1,10,2:2:0:0:
252,236,23791,1,8,2:2:0:0:
324,235,23916,1,8,2:3:0:0:
16,230,24166,5,6,1:2:0:0:
249,199,24416,2,0,L|261:36,1,145,2|10,2:2|2:2,0:0:0:0:
494,57,24916,1,2,2:2:0:0:
263,199,25166,2,0,L|251:36,1,145,2|2,1:2|2:2,0:0:0:0:
16,153,25666,1,10,2:2:0:0:
252,54,25916,2,0,L|359:46,1,72.5,2|2,2:2|2:2,0:0:0:0:
125,218,26166,6,0,L|113:46,1,145,2|2,1:2|2:2,0:0:0:0:
336,146,26666,1,10,2:2:0:0:
114,73,26916,1,2,2:2:0:0:
336,146,27166,2,0,P|386:85|294:25,1,145,2|2,1:2|2:3,0:0:0:0:
144,239,27666,2,0,L|331:231,1,145,10|10,2:2|2:3,0:0:0:0:
288,232,28041,1,4,2:3:0:0:
92,236,28166,6,0,L|3:238,1,72.5,2|2,1:2|2:2,0:0:0:0:
57,177,28416,1,2,2:2:0:0:
287,38,28666,2,0,L|376:36,1,72.5,10|2,2:2|2:2,0:0:0:0:
322,97,28916,1,2,2:2:0:0:
56,256,29166,2,0,L|48:95,1,145,2|2,1:2|2:3,0:0:0:0:
273,220,29666,2,0,L|442:240,1,145,10|10,2:2|2:3,0:0:0:0:
345,158,30041,1,2,1:2:0:0:
138,277,30166,6,0,P|41:221|287:81,1,580,6|2,1:2|1:2,0:0:0:0:
204,107,31291,1,2,1:2:0:0:
183,167,31416,1,8,2:2:0:0:
412,244,31666,2,0,L|489:226,1,72.5,10|8,2:2|2:2,0:0:0:0:
495,160,31916,1,8,2:3:0:0:
126,273,32166,6,0,L|111:115,1,145,6|2,1:2|2:3,0:0:0:0:
341,93,32666,2,0,L|486:90,1,145,10|2,2:2|2:2,0:0:0:0:
160,200,33166,2,0,L|312:200,2,145,2|2|10,1:2|2:2|2:2,0:0:0:0:
16,192,33916,1,2,2:3:0:0:
357,248,34166,6,0,L|365:100,1,145,2|2,1:2|2:2,0:0:0:0:
146,64,34666,2,0,L|141:220,1,145,10|2,2:2|2:2,0:0:0:0:
468,155,35166,2,0,L|173:150,1,290,2|10,1:2|2:2,0:0:0:0:
327,90,35916,2,0,L|425:91,1,72.5,10|4,2:3|2:3,0:0:0:0:
160,257,36166,6,0,L|157:103,1,145,2|2,1:2|2:3,0:0:0:0:
378,89,36666,1,10,2:2:0:0:
159,258,36916,1,2,2:2:0:0:
484,151,37166,2,0,L|302:141,1,145,2|2,1:2|2:2,0:0:0:0:
190,131,37666,1,8,2:2:0:0:
341,85,37916,2,0,L|257:80,1,72.5,10|0,2:3|1:1,0:0:0:0:
45,175,38166,6,0,B|40:352|40:352|40:168,1,290
168,176,38916,1,0,0:0:0:0:
307,184,39166,2,0,L|398:182,2,72.5,2|2|10,1:2|2:2|2:2,0:0:0:0:
91,105,39666,2,0,L|18:102,2,72.5,10|8|8,2:2|2:2|2:3,0:0:0:0:
463,318,40166,6,0,L|498:142,1,145,6|2,1:2|2:2,0:0:0:0:
272,244,40666,2,0,L|126:235,1,145,10|2,2:2|2:2,0:0:0:0:
471,231,41166,2,0,L|477:81,1,145,2|2,1:2|2:2,0:0:0:0:
266,318,41666,2,0,L|472:311,1,145,10|2,2:2|2:2,0:0:0:0:
92,289,42166,6,0,L|6:162,2,145,2|2|10,1:2|2:2|2:2,0:0:0:0:
339,250,42916,1,2,2:2:0:0:
20,293,43166,6,0,L|15:125,1,145,2|2,1:2|2:3,0:0:0:0:
225,134,43666,2,0,L|66:129,1,145,10|10,2:2|2:3,0:0:0:0:
160,105,44041,1,4,2:3:0:0:
387,183,44166,6,0,L|471:182,1,72.5,2|2,1:2|2:2,0:0:0:0:
381,181,44416,1,0,0:0:0:0:
185,233,44666,2,0,L|159:150,2,72.5,10|2|2,2:2|2:2|2:2,0:0:0:0:
496,207,45166,2,0,P|473:112|387:113,1,145,2|2,1:2|2:3,0:0:0:0:
107,259,45666,1,10,2:2:0:0:
252,223,45916,2,0,L|357:216,1,72.5,10|2,2:3|1:2,0:0:0:0:
93,205,46166,6,0,L|0:321,2,145,6|2|2,1:2|2:2|2:2,0:0:0:0:
343,124,47166,2,0,L|246:111,1,72.5,2|2,1:2|1:2,0:0:0:0:
148,149,47416,1,8,2:2:0:0:
461,231,47666,2,0,L|516:176,2,72.5,10|8|8,2:2|2:2|2:3,0:0:0:0:
111,209,48166,5,6,1:2:0:0:
