osu file format v14

[General]
AudioFilename: audio.mp3
AudioLeadIn: 0
PreviewTime: 26396
Countdown: 0
SampleSet: Soft
StackLeniency: 0.2
Mode: 0
LetterboxInBreaks: 0
WidescreenStoryboard: 1

[Editor]
Bookmarks: 207102
DistanceSpacing: 0.7
BeatDivisor: 6
GridSize: 4
TimelineZoom: 0.8499999

[Metadata]
Title:The Loxian Gates
TitleUnicode:The Loxian Gates
Artist:Enya
ArtistUnicode:Enya
Creator:Mismagius
Version:Normal
Source:
Tags:new age dark sky island
BeatmapID:1697474
BeatmapSetID:807437

[Difficulty]
HPDrainRate:4
CircleSize:4.2
OverallDifficulty:4
ApproachRate:5
SliderMultiplier:1.6
SliderTickRate:1

[Events]
//Background and Video events
0,0,"wallhaven-626895_1920x1080.png",0,0
//Break Periods
//Storyboard Layer 0 (Background)
//Storyboard Layer 1 (Fail)
//Storyboard Layer 2 (Pass)
//Storyboard Layer 3 (Foreground)
//Storyboard Sound Samples

[TimingPoints]
6839,782.319577547428,6,3,1,20,1,0
6839,-142.857142857143,6,3,1,20,0,0
20905,782.319577547428,6,3,1,25,1,0
20905,-142.857142857143,6,3,1,25,0,0
26396,782.319577547428,6,3,1,50,1,0
45953,782.319577547428,6,3,1,50,1,0
65510,782.319577547428,6,3,1,50,1,0
85067,782.319577547428,6,3,1,50,1,0
104624,782.319577547428,6,3,1,50,1,0
124181,782.319577547428,6,3,1,50,1,0
143738,782.319577547428,6,3,1,50,1,0
163295,782.319577547428,6,3,1,50,1,0
182852,782.319577547428,6,3,1,50,1,0
202409,782.319577547428,6,3,1,50,1,0
207078,782.319577547428,6,3,1,50,1,0
207208,-100,6,2,1,40,0,0
207469,-100,6,2,1,30,0,0
207860,-100,6,2,1,20,0,0
208251,-100,6,2,1,10,0,0

[Colours]
Combo1 : 200,133,207
Combo2 : 169,213,226
Combo3 : 242,131,111
Combo4 : 239,221,90
Combo5 : 131,222,154

[HitObjects]
76,84,6839,6,0,P|126:68|182:84,1,111.999996582031,4|4,0:0|0:0,0:0:0:0:
246,175,8403,2,0,P|234:226|192:267,1,111.999996582031,4|4,0:0|0:0,0:0:0:0:
81,276,9968,2,0,P|42:239|27:183,1,111.999996582031,4|4,0:0|0:0,0:0:0:0:
76,84,11532,6,0,P|126:68|182:84,2,111.999996582031,4|4|4,0:0|0:0|0:0,0:0:0:0:
28,184,13879,2,0,L|50:312,1,111.999996582031,4|4,0:0|0:0,0:0:0:0:
147,343,15444,1,4,0:0:0:0:
249,298,16226,6,0,P|299:282|355:298,1,111.999996582031,4|4,0:0|0:0,0:0:0:0:
398,194,17791,2,0,P|448:209|504:194,1,111.999996582031,4|4,0:0|0:0,0:0:0:0:
504,81,19356,2,0,P|453:65|397:81,1,111.999996582031,4|4,0:0|0:0,0:0:0:0:
304,139,20905,6,0,P|250:154|197:138,2,111.999996582031,4|4|4,0:0|0:0|0:0,0:0:0:0:
397,80,23251,1,4,0:0:0:0:
304,15,24034,1,4,0:0:0:0:
211,80,24816,1,4,0:0:0:0:
304,145,25598,1,4,0:0:0:0:
397,210,26396,6,0,P|419:286|396:363,2,160,4|4|4,0:0|0:0|0:0,0:0:0:0:
304,145,28742,1,4,0:0:0:0:
211,210,29525,1,4,0:0:0:0:
118,145,30307,1,4,0:0:0:0:
25,210,31089,6,0,P|9:264|25:319,1,106.666666666667,4|0,0:0|0:0,0:0:0:0:
46,338,31872,2,0,P|100:353|155:337,1,106.666666666667,4|0,0:0|0:0,0:0:0:0:
174,317,32654,2,0,P|189:262|173:207,1,106.666666666667,4|0,0:0|0:0,0:0:0:0:
150,190,33436,2,0,P|127:114|150:38,2,160,4|4|4,0:0|0:0|0:0,0:0:0:0:
237,260,35783,6,0,L|401:231,1,160,4|4,0:0|0:0,0:0:0:0:
437,129,37348,1,4,0:0:0:0:
364,43,38130,2,0,L|199:71,2,160,4|4|4,0:0|0:0|0:0,0:0:0:0:
437,129,40477,6,0,P|452:183|436:238,1,106.666666666667,4|0,0:0|0:0,0:0:0:0:
413,257,41260,2,0,P|359:272|304:256,1,106.666666666667,4|0,0:0|0:0,0:0:0:0:
285,233,42042,2,0,P|270:179|286:124,1,106.666666666667,4|0,0:0|0:0,0:0:0:0:
308,104,42824,2,0,L|143:132,2,160,4|4|4,0:0|0:0|0:0,0:0:0:0:
418,82,45171,1,4,0:0:0:0:
484,172,45953,6,0,P|499:226|483:281,1,106.666666666667,4|0,0:0|0:0,0:0:0:0:
471,307,46735,1,4,0:0:0:0:
364,271,47517,2,0,P|349:217|365:162,1,106.666666666667,4|0,0:0|0:0,0:0:0:0:
393,150,48299,2,0,P|416:74|393:-2,2,160,4|4|4,0:0|0:0|0:0,0:0:0:0:
303,217,50646,6,0,P|249:232|194:216,1,106.666666666667,4|0,0:0|0:0,0:0:0:0:
166,206,51429,1,4,0:0:0:0:
201,99,52211,2,0,P|255:84|310:100,1,106.666666666667,4|0,0:0|0:0,0:0:0:0:
335,114,52993,2,0,P|411:137|487:114,2,160,4|4|4,0:0|0:0|0:0,0:0:0:0:
256,34,55340,6,0,L|140:53,1,106.666666666667,4|0,0:0|0:0,0:0:0:0:
114,59,56123,1,4,0:0:0:0:
87,167,56905,2,0,L|202:186,1,106.666666666667,4|0,0:0|0:0,0:0:0:0:
229,192,57687,2,0,P|252:268|229:344,2,160,4|4|4,0:0|0:0|0:0,0:0:0:0:
131,138,60034,6,0,P|116:84|132:29,1,106.666666666667,4|0,0:0|0:0,0:0:0:0:
161,19,60817,2,0,P|215:4|270:20,1,106.666666666667,4|0,0:0|0:0,0:0:0:0:
295,39,61599,2,0,P|306:90|292:141,1,106.666666666667,4|0,0:0|0:0,0:0:0:0:
273,173,62381,2,0,P|255:250|277:325,2,160,4|4|4,0:0|0:0|0:0,0:0:0:0:
384,158,64728,1,4,0:0:0:0:
426,44,65510,6,0,P|372:29|317:45,1,106.666666666667,4|0,0:0|0:0,0:0:0:0:
297,67,66292,2,0,P|243:82|188:66,1,106.666666666667,4|0,0:0|0:0,0:0:0:0:
168,43,67074,2,0,P|114:28|59:44,1,106.666666666667,4|0,0:0|0:0,0:0:0:0:
36,63,67856,2,0,P|18:140|40:215,2,160,4|4|4,0:0|0:0|0:0,0:0:0:0:
129,1,70203,6,0,P|144:55|128:110,1,106.666666666667,4|0,0:0|0:0,0:0:0:0:
106,130,70985,2,0,P|91:184|107:239,1,106.666666666667,4|0,0:0|0:0,0:0:0:0:
130,259,71768,2,0,P|145:313|129:368,1,106.666666666667,4|0,0:0|0:0,0:0:0:0:
103,383,72550,1,4,0:0:0:0:
56,281,73333,1,4,0:0:0:0:
9,179,74115,1,4,0:0:0:0:
56,281,74897,6,0,L|171:300,1,106.666666666667,4|0,0:0|0:0,0:0:0:0:
198,305,75680,2,0,L|313:285,1,106.666666666667,4|0,0:0|0:0,0:0:0:0:
340,281,76462,2,0,L|455:300,1,106.666666666667,4|0,0:0|0:0,0:0:0:0:
481,305,77244,2,0,P|498:227|476:152,2,160,4|4|4,0:0|0:0|0:0,0:0:0:0:
401,225,79591,6,0,L|285:205,1,106.666666666667,4|0,0:0|0:0,0:0:0:0:
258,205,80374,2,0,L|142:224,1,106.666666666667,4|0,0:0|0:0,0:0:0:0:
115,225,81156,2,0,L|-1:205,1,106.666666666667,4|0,0:0|0:0,0:0:0:0:
4,169,81938,2,0,P|-13:91|8:16,1,160,4|4,0:0|0:0,0:0:0:0:
108,65,83503,2,0,P|125:142|103:217,1,160,4|4,0:0|0:0,0:0:0:0:
33,302,85067,6,0,L|148:321,1,106.666666666667,4|0,0:0|0:0,0:0:0:0:
174,327,85849,1,4,0:0:0:0:
282,353,86631,2,0,L|397:333,1,106.666666666667,4|0,0:0|0:0,0:0:0:0:
424,328,87413,2,0,P|441:250|419:175,1,160,4|4,0:0|0:0,0:0:0:0:
362,78,88978,1,4,0:0:0:0:
267,138,89760,6,0,P|213:153|158:137,1,106.666666666667,4|0,0:0|0:0,0:0:0:0:
133,120,90543,1,4,0:0:0:0:
209,38,91325,2,0,P|263:23|318:39,1,106.666666666667,4|0,0:0|0:0,0:0:0:0:
343,56,92107,2,0,P|420:73|495:51,2,160,4|4|4,0:0|0:0|0:0,0:0:0:0:
250,119,94454,6,0,P|196:104|141:120,1,106.666666666667,4|0,0:0|0:0,0:0:0:0:
114,133,95237,1,4,0:0:0:0:
198,206,96019,2,0,P|252:221|307:205,1,106.666666666667,4|0,0:0|0:0,0:0:0:0:
334,192,96801,2,0,L|306:357,2,160,4|4|4,0:0|0:0|0:0,0:0:0:0:
351,81,99148,6,0,P|405:66|460:82,1,106.666666666667,4|0,0:0|0:0,0:0:0:0:
487,95,99931,1,4,0:0:0:0:
403,170,100713,2,0,P|349:185|294:169,1,106.666666666667,4|0,0:0|0:0,0:0:0:0:
267,156,101495,2,0,P|250:233|272:308,2,160,4|4|4,0:0|0:0|0:0,0:0:0:0:
311,52,103842,1,4,0:0:0:0:
205,15,104624,6,0,L|44:41,1,160,4|4,0:0|0:0,0:0:0:0:
10,146,106188,2,0,P|-5:200|11:255,1,106.666666666667,4|0,0:0|0:0,0:0:0:0:
35,271,106970,2,0,L|195:297,2,160,4|4|4,0:0|0:0|0:0,0:0:0:0:
70,167,109317,6,0,P|124:152|179:168,1,106.666666666667,4|0,0:0|0:0,0:0:0:0:
208,167,110100,2,0,P|262:152|317:168,1,106.666666666667,4|0,0:0|0:0,0:0:0:0:
346,167,110882,2,0,P|400:152|455:168,1,106.666666666667,4|0,0:0|0:0,0:0:0:0:
478,185,111664,2,0,L|504:345,2,160,4|4|4,0:0|0:0|0:0,0:0:0:0:
458,74,114011,6,0,P|381:52|302:75,1,160,4|4,0:0|0:0,0:0:0:0:
224,151,115576,2,0,P|173:165|121:150,1,106.666666666667,4|0,0:0|0:0,0:0:0:0:
91,130,116358,2,0,L|64:290,2,160,4|4|4,0:0|0:0|0:0,0:0:0:0:
113,20,118705,6,0,P|163:5|215:20,1,106.666666666667,4|0,0:0|0:0,0:0:0:0:
243,43,119488,2,0,P|293:57|345:42,1,106.666666666667,4|0,0:0|0:0,0:0:0:0:
374,20,120270,2,0,P|424:5|476:20,1,106.666666666667,4|0,0:0|0:0,0:0:0:0:
504,43,121052,2,0,P|525:119|502:198,1,160,4|4,0:0|0:0,0:0:0:0:
398,232,122617,2,0,P|376:308|399:387,1,160,4|4,0:0|0:0,0:0:0:0:
288,361,124181,5,4,0:0:0:0:
176,375,124963,1,4,0:0:0:0:
107,285,125745,1,4,0:0:0:0:
150,181,126527,1,4,0:0:0:0:
263,166,127309,1,4,0:0:0:0:
332,256,128092,1,4,0:0:0:0:
288,361,128874,6,0,P|212:382|134:359,1,160,4|4,0:0|0:0,0:0:0:0:
73,267,130439,1,4,0:0:0:0:
135,174,131221,2,0,P|210:152|288:175,1,160,4|4,0:0|0:0,0:0:0:0:
350,268,132786,1,4,0:0:0:0:
288,361,133568,6,0,P|212:382|134:359,2,160,4|4|4,0:0|0:0|0:0,0:0:0:0:
389,313,135915,1,4,0:0:0:0:
490,265,136697,1,4,0:0:0:0:
389,217,137480,1,4,0:0:0:0:
288,169,138262,6,0,P|212:147|134:170,2,160,4|4|4,0:0|0:0|0:0,0:0:0:0:
389,217,140609,1,4,0:0:0:0:
490,265,141392,1,4,0:0:0:0:
389,313,142174,1,4,0:0:0:0:
288,265,142956,1,4,0:0:0:0:
389,217,143738,6,0,P|404:163|388:108,1,106.666666666667,4|0,0:0|0:0,0:0:0:0:
373,82,144520,2,0,L|258:62,1,106.666666666667,4|0,0:0|0:0,0:0:0:0:
231,56,145302,2,0,P|216:110|232:165,1,106.666666666667,4|0,0:0|0:0,0:0:0:0:
253,184,146084,2,0,L|88:155,2,160,4|4|4,0:0|0:0|0:0,0:0:0:0:
362,207,148431,6,0,P|377:261|361:316,1,106.666666666667,4|0,0:0|0:0,0:0:0:0:
346,342,149213,2,0,L|231:362,1,106.666666666667,4|0,0:0|0:0,0:0:0:0:
204,368,149996,2,0,P|189:314|205:259,1,106.666666666667,4|0,0:0|0:0,0:0:0:0:
226,240,150778,2,0,L|61:268,2,160,4|4|4,0:0|0:0|0:0,0:0:0:0:
301,156,153125,6,0,P|316:102|300:47,1,106.666666666667,4|0,0:0|0:0,0:0:0:0:
280,25,153908,1,4,0:0:0:0:
171,51,154690,2,0,P|156:105|172:160,1,106.666666666667,4|0,0:0|0:0,0:0:0:0:
188,184,155472,2,0,P|209:259|186:337,2,160,4|4|4,0:0|0:0|0:0,0:0:0:0:
83,143,157819,6,0,P|68:89|84:34,1,106.666666666667,4|0,0:0|0:0,0:0:0:0:
104,12,158602,1,4,0:0:0:0:
213,38,159384,2,0,P|228:92|212:147,1,106.666666666667,4|0,0:0|0:0,0:0:0:0:
196,171,160166,2,0,P|175:246|198:324,2,160,4|4|4,0:0|0:0|0:0,0:0:0:0:
263,81,162513,1,4,0:0:0:0:
368,42,163295,6,0,P|422:27|477:43,1,106.666666666667,4|0,0:0|0:0,0:0:0:0:
496,66,164078,2,0,P|511:120|495:175,1,106.666666666667,4|0,0:0|0:0,0:0:0:0:
472,194,164860,2,0,P|418:209|363:193,1,106.666666666667,4|0,0:0|0:0,0:0:0:0:
337,178,165641,2,0,P|262:157|184:180,2,160,4|4|4,0:0|0:0|0:0,0:0:0:0:
381,280,167988,6,0,P|435:295|490:279,1,106.666666666667,4|0,0:0|0:0,0:0:0:0:
509,256,168771,2,0,P|524:202|508:147,1,106.666666666667,4|0,0:0|0:0,0:0:0:0:
485,128,169553,2,0,P|431:113|376:129,1,106.666666666667,4|0,0:0|0:0,0:0:0:0:
350,144,170335,2,0,P|275:165|197:142,2,160,4|4|4,0:0|0:0|0:0,0:0:0:0:
343,31,172682,6,0,L|228:11,1,106.666666666667,4|0,0:0|0:0,0:0:0:0:
211,39,173465,2,0,L|96:19,1,106.666666666667,4|0,0:0|0:0,0:0:0:0:
79,47,174247,2,0,P|58:122|81:200,2,160,4|4|4,0:0|0:0|0:0,0:0:0:0:
186,14,176594,1,4,0:0:0:0:
248,106,177376,6,0,L|363:86,1,106.666666666667,4|0,0:0|0:0,0:0:0:0:
380,114,178159,2,0,L|495:94,1,106.666666666667,4|0,0:0|0:0,0:0:0:0:
512,122,178941,2,0,P|533:197|510:275,2,160,4|4|4,0:0|0:0|0:0,0:0:0:0:
454,25,181288,1,4,0:0:0:0:
342,12,182070,1,4,0:0:0:0:
261,90,182852,6,0,P|207:105|152:89,1,106.666666666667,4|0,0:0|0:0,0:0:0:0:
133,65,183634,2,0,P|79:50|24:66,1,106.666666666667,4|0,0:0|0:0,0:0:0:0:
3,86,184416,1,4,0:0:0:0:
44,190,185198,2,0,P|119:211|197:188,2,160,4|4|4,0:0|0:0|0:0,0:0:0:0:
135,125,187545,6,0,P|189:110|244:126,1,106.666666666667,4|0,0:0|0:0,0:0:0:0:
263,150,188327,2,0,P|317:165|372:149,1,106.666666666667,4|0,0:0|0:0,0:0:0:0:
400,141,189110,2,0,P|415:87|399:32,1,106.666666666667,4|0,0:0|0:0,0:0:0:0:
373,15,189892,2,0,P|298:-6|220:17,2,160,4|4|4,0:0|0:0|0:0,0:0:0:0:
447,98,192239,6,0,L|427:213,1,106.666666666667,4|0,0:0|0:0,0:0:0:0:
418,239,193022,2,0,L|303:219,1,106.666666666667,4|0,0:0|0:0,0:0:0:0:
277,210,193804,2,0,L|297:95,1,106.666666666667,4|0,0:0|0:0,0:0:0:0:
306,69,194586,2,0,L|478:99,2,160,4|4|4,0:0|0:0|0:0,0:0:0:0:
195,49,196933,6,0,P|141:34|86:50,1,106.666666666667,4|0,0:0|0:0,0:0:0:0:
67,73,197716,2,0,P|52:127|68:182,1,106.666666666667,4|0,0:0|0:0,0:0:0:0:
91,201,198498,2,0,P|145:216|200:200,1,106.666666666667,4|0,0:0|0:0,0:0:0:0:
226,185,199280,2,0,P|301:164|379:187,2,160,4|4|4,0:0|0:0|0:0,0:0:0:0:
159,275,201627,1,4,0:0:0:0:
226,364,202409,6,0,P|301:385|379:362,2,160,4|4|4,0:0|0:0|0:0,0:0:0:0:
159,275,204755,1,4,0:0:0:0:
226,185,205538,2,0,P|301:164|379:187,1,160,4|4,0:0|0:0,0:0:0:0:
440,275,207078,5,4,0:0:0:0:
256,192,207208,12,0,209164,0:0:0:0:
