osu file format v14

[General]
AudioFilename: audio.mp3
AudioLeadIn: 0
PreviewTime: 166981
Countdown: 0
SampleSet: Soft
StackLeniency: 0.7
Mode: 0
LetterboxInBreaks: 0
WidescreenStoryboard: 1

[Editor]
DistanceSpacing: 1.1
BeatDivisor: 4
GridSize: 4
TimelineZoom: 1

[Metadata]
Title:Only Time
TitleUnicode:Only Time
Artist:Enya
ArtistUnicode:Enya
Creator:jukkaduei
Version:Normal
Source:
Tags:A Day Without Rain Chalwa
BeatmapID:1571994
BeatmapSetID:532947

[Difficulty]
HPDrainRate:4.5
CircleSize:4.5
OverallDifficulty:5
ApproachRate:5.5
SliderMultiplier:1.5
SliderTickRate:1

[Events]
//Background and Video events
0,0,"thumb-1920-311701.jpg",0,0
//Break Periods
//Storyboard Layer 0 (Background)
//Storyboard Layer 1 (Fail)
//Storyboard Layer 2 (Pass)
//Storyboard Layer 3 (Foreground)
//Storyboard Layer 4 (Overlay)
//Storyboard Sound Samples

[TimingPoints]
3115.32530120482,725.075528700906,4,2,1,20,1,0
40819,-100,4,2,1,35,0,1
64021,-100,4,2,1,20,0,0
90124,-100,4,2,1,40,0,1
113326,-100,4,2,1,20,0,0
145230,725.075528700906,3,2,1,45,1,1
158281,725.075528700906,4,2,1,45,1,1
161181,725.075528700906,4,2,1,20,1,0
166981,-100,4,2,1,30,0,0
207585,-133.333333333333,4,2,1,10,0,0

[Colours]
Combo1 : 136,136,0
Combo2 : 136,68,0
Combo3 : 123,62,62
Combo4 : 131,131,131

[HitObjects]
344,304,3115,6,0,P|384:296|424:276,1,75
452,208,3840,1,0,0:0:0:0:
384,164,4202,1,0,0:0:0:0:
440,100,4565,2,0,P|406:82|360:80,1,75
300,120,5290,2,0,P|263:126|227:116,1,75,2|0,0:0|0:0,0:0:0:0:
194,40,6015,6,0,P|230:33|266:43,1,75
300,120,6740,1,0,0:0:0:0:
376,89,7103,1,0,0:0:0:0:
452,124,7465,2,0,L|445:203,1,75
364,192,8190,2,0,L|370:267,1,75,2|0,0:0|0:0,0:0:0:0:
376,348,8915,6,0,P|317:390|248:368,1,150
188,312,10003,1,0,0:0:0:0:
264,280,10366,2,0,P|300:288|336:280,1,75
300,204,11091,2,0,P|285:169|257:145,1,75,2|0,0:0|0:0,0:0:0:0:
292,68,11816,6,0,P|353:117|384:188,1,150
376,264,12903,1,0,0:0:0:0:
308,312,13266,2,0,B|272:312|272:312|232:300,1,75
251,220,13991,2,0,B|287:220|287:220|327:232,1,75,2|0,0:0|0:0,0:0:0:0:
368,160,14716,6,0,P|285:127|207:147,1,150
164,188,15804,1,0,0:0:0:0:
116,252,16166,2,0,P|88:216|92:156,1,75
132,120,16891,2,0,P|168:112|203:123,1,75,2|0,0:0|0:0,0:0:0:0:
240,196,17616,6,0,P|228:231|200:256,1,75
116,252,18341,2,0,P|88:227|76:192,2,75
188,296,19429,1,0,0:0:0:0:
248,240,19792,2,0,P|292:224|320:220,1,75,2|0,0:0|0:0,0:0:0:0:
396,184,20517,6,0,B|412:220|392:256|392:256|428:264|448:304,1,150
372,336,21604,1,0,0:0:0:0:
288,332,21967,2,0,P|300:287|346:258,1,75
400,252,22692,1,2,0:0:0:0:
412,172,23054,1,0,0:0:0:0:
360,108,23417,5,0,0:0:0:0:
296,160,23779,2,0,P|266:183|230:191,2,75
296,76,24867,2,0,P|266:53|230:45,2,75,0|0|2,0:0|0:0|0:0,0:0:0:0:
340,144,25955,1,0,0:0:0:0:
340,228,26317,6,0,L|340:308,1,75
256,304,27042,2,0,L|256:224,1,75
172,228,27767,2,0,L|172:308,1,75
140,380,28492,1,2,0:0:0:0:
56,376,28855,1,0,0:0:0:0:
32,296,29218,6,0,P|61:251|106:234,1,75
160,264,29943,2,0,P|142:296|112:318,2,75
92,216,31030,1,0,0:0:0:0:
40,151,31393,2,0,P|89:132|136:145,1,75,2|0,0:0|0:0,0:0:0:0:
172,192,32118,6,0,B|192:216|196:244|196:244|232:252|232:252|236:276|256:300,1,150
324,348,33205,1,0,0:0:0:0:
402,323,33568,2,0,P|364:276|334:266,1,75
272,248,34293,1,2,0:0:0:0:
292,168,34656,1,0,0:0:0:0:
368,132,35018,5,0,0:0:0:0:
444,168,35381,2,0,P|468:196|480:240,2,75
400,236,36468,2,0,P|411:271|435:299,1,75
372,356,37193,2,0,P|345:328|312:313,1,75,2|0,0:0|0:0,0:0:0:0:
272,244,37918,6,0,P|192:240|132:288,1,150
80,340,39006,1,0,0:0:0:0:
156,368,39369,2,0,P|236:372|296:324,1,150,0|2,0:0|0:0,0:0:0:0:
348,276,40456,1,0,0:0:0:0:
308,204,40819,6,0,B|348:200|348:200|384:204,1,75
448,256,41544,1,0,0:0:0:0:
436,336,41907,2,0,B|396:340|396:340|284:329,1,150
280,248,42994,2,0,L|360:256,1,75,2|0,0:0|0:0,0:0:0:0:
360,336,43719,6,0,B|396:340|396:340|437:336,1,75
476,264,44444,1,0,0:0:0:0:
436,192,44807,2,0,B|396:188|396:188|286:198,1,150
292,116,45894,2,0,B|208:124,1,75,2|0,0:0|0:0,0:0:0:0:
148,80,46619,6,0,P|120:151|122:238,1,150
160,296,47707,1,0,0:0:0:0:
218,237,48070,2,0,P|256:185|294:237,1,150,0|2,0:0|0:0,0:0:0:0:
352,296,49157,1,0,0:0:0:0:
392,224,49520,6,0,P|391:149|364:80,1,150
292,36,50607,1,0,0:0:0:0:
248,104,50970,2,0,P|242:161|270:200,1,75
320,140,51695,2,0,P|356:140|389:156,1,75,2|0,0:0|0:0,0:0:0:0:
376,236,52420,6,0,B|336:229|336:229|302:216,1,75
243,274,53145,2,0,B|209:260|209:260|169:254,1,75
148,176,53870,2,0,B|184:189|184:189|220:195,1,75
243,274,54595,2,0,B|277:279|277:279|315:293,1,75,2|0,0:0|0:0,0:0:0:0:
336,372,55320,6,0,P|399:340|397:269,1,150
340,208,56408,1,0,0:0:0:0:
260,184,56770,2,0,P|196:215|198:286,1,150,0|2,0:0|0:0,0:0:0:0:
264,256,57858,1,0,0:0:0:0:
272,336,58221,6,0,P|344:344|398:295,1,150
352,224,59308,1,0,0:0:0:0:
276,188,59671,1,0,0:0:0:0:
221,249,60033,2,0,P|257:269|320:256,2,75,0|2|0,0:0|0:0|0:0,0:0:0:0:
138,262,61121,2,0,P|140:224|159:193,1,75
145,111,61846,2,0,P|182:112|214:131,1,75
295,117,62571,2,0,P|293:154|274:186,1,75
221,249,63296,1,2,0:0:0:0:
56,256,64021,6,0,P|24:224|12:188,1,75
96,180,64746,2,0,P|107:134|132:106,1,75
176,176,65471,2,0,P|248:212|260:280,1,150,0|2,0:0|0:0,0:0:0:0:
180,260,66559,1,0,0:0:0:0:
209,336,66921,6,0,P|166:342|114:307,1,75
180,260,67647,2,0,P|204:231|211:195,1,75
128,196,68372,1,0,0:0:0:0:
44,200,68734,1,0,0:0:0:0:
80,128,69097,2,0,B|116:116|116:116|152:120,1,75,2|0,0:0|0:0,0:0:0:0:
232,136,69822,6,0,B|268:140|268:140|340:116|340:116|380:120,1,150
436,176,70909,1,0,0:0:0:0:
396,248,71272,2,0,B|360:260|360:260|324:256,1,75
240,256,71997,1,2,0:0:0:0:
168,300,72360,1,0,0:0:0:0:
216,368,72722,5,0,0:0:0:0:
288,328,73085,2,0,P|328:328|364:348,2,75
216,284,74172,2,0,P|244:255|283:244,1,75
360,252,74897,1,2,0:0:0:0:
440,240,75260,1,0,0:0:0:0:
488,172,75622,6,0,P|448:172|404:156,1,75
424,80,76347,2,0,P|464:80|508:96,1,75
488,172,77073,2,0,B|480:224|480:224|476:248|464:288|396:288,1,150,0|2,0:0|0:0,0:0:0:0:
332,292,78160,1,0,0:0:0:0:
280,228,78523,6,0,P|313:212|351:211,1,75
400,144,79248,2,0,P|423:173|433:208,1,75
400,284,79973,1,0,0:0:0:0:
324,316,80335,1,0,0:0:0:0:
240,324,80698,2,0,P|202:320|170:302,1,75,2|0,0:0|0:0,0:0:0:0:
174,219,81423,6,0,P|107:245|87:315,1,150
139,379,82511,1,0,0:0:0:0:
170,302,82873,2,0,P|212:340|220:380,1,75
288,312,83598,2,0,P|305:344|335:365,1,75,2|0,0:0|0:0,0:0:0:0:
368,288,84323,5,0,0:0:0:0:
404,212,84686,2,0,B|416:176|416:176|404:140,2,75
440,288,85773,2,0,B|404:300|404:300|368:288,1,75
292,324,86499,2,0,B|280:288|280:288|292:252,1,75,2|0,0:0|0:0,0:0:0:0:
256,180,87224,6,0,B|292:168|292:168|328:180,1,75
404,204,87949,1,0,0:0:0:0:
380,284,88311,1,0,0:0:0:0:
312,328,88674,2,0,P|344:360|380:368,1,75
448,332,89399,2,0,P|464:289|456:253,1,75,2|0,0:0|0:0,0:0:0:0:
384,236,90124,6,0,B|356:240|356:240|308:232,1,75
316,148,90849,1,0,0:0:0:0:
236,168,91212,1,0,0:0:0:0:
252,88,91574,2,0,B|224:92|224:92|176:83,1,75
184,0,92299,1,2,0:0:0:0:
104,19,92662,1,0,0:0:0:0:
36,68,93024,6,0,P|18:101|10:137,1,75
8,220,93749,1,0,0:0:0:0:
80,180,94112,1,0,0:0:0:0:
88,260,94474,2,0,P|94:296|113:329,1,75
172,268,95199,2,0,P|170:229|180:194,1,75,2|0,0:0|0:0,0:0:0:0:
248,240,95924,6,0,B|286:247|308:280|308:280|330:313|369:320,1,150
440,280,97012,1,0,0:0:0:0:
371,239,97375,2,0,B|331:246|309:279|309:279|287:312|249:318,1,150,0|2,0:0|0:0,0:0:0:0:
176,280,98462,1,0,0:0:0:0:
96,260,98825,6,0,P|136:352|192:360,1,150
208,288,99912,1,0,0:0:0:0:
210,208,100275,2,0,P|245:198|282:205,1,75
323,136,101000,2,0,P|349:162|362:197,1,75,2|0,0:0|0:0,0:0:0:0:
282,205,101725,6,0,P|258:233|249:269,1,75
272,348,102450,1,0,0:0:0:0:
352,332,102813,1,0,0:0:0:0:
380,256,103175,2,8,B|388:220|388:220|384:182,1,75,0|0,0:0|0:0,0:0:0:0:
308,216,103900,2,0,B|300:252|300:252|303:289,1,75,2|0,0:0|0:0,0:0:0:0:
320,372,104625,6,0,B|282:368|282:368|208:384|208:384|172:380,1,150
92,352,105713,1,0,0:0:0:0:
64,276,106076,2,0,P|61:238|77:205,1,75
144,256,106801,2,0,P|160:222|157:185,1,75,2|0,0:0|0:0,0:0:0:0:
92,132,107526,6,0,L|239:160,1,150
272,236,108613,1,0,0:0:0:0:
244,312,108976,1,0,0:0:0:0:
172,272,109338,2,0,L|98:296,2,75,0|2|0,0:0|0:0|0:0,0:0:0:0:
244,232,110426,6,0,B|316:252|316:252|396:252,1,150
468,216,111514,1,0,0:0:0:0:
460,132,111876,2,0,P|410:153|388:186,1,75
391,252,112601,1,2,0:0:0:0:
240,184,113326,6,0,B|198:196|187:232|187:232|159:206|117:218,1,150
84,296,114414,1,0,0:0:0:0:
132,364,114776,1,0,0:0:0:0:
212,348,115139,1,0,0:0:0:0:
292,332,115502,2,0,B|316:356|316:356|356:368,1,75,2|0,0:0|0:0,0:0:0:0:
400,296,116227,6,0,B|440:308|440:308|464:332,2,75
336,348,117314,1,0,0:0:0:0:
260,312,117677,1,0,0:0:0:0:
192,360,118039,1,0,0:0:0:0:
108,352,118402,2,0,P|74:334|48:306,1,75,2|0,0:0|0:0,0:0:0:0:
92,237,119127,6,0,P|129:289|204:250,1,150
268,216,120215,1,0,0:0:0:0:
348,200,120577,1,0,0:0:0:0:
384,126,120940,1,0,0:0:0:0:
364,44,121302,2,0,B|328:28|328:28|292:36,1,75,2|0,0:0|0:0,0:0:0:0:
228,84,122027,5,0,0:0:0:0:
148,104,122390,2,0,B|113:111|113:111|77:95,1,75
52,16,123115,2,0,B|86:8|86:8|122:24,2,75
0,80,124202,1,2,0:0:0:0:
68,128,124565,1,0,0:0:0:0:
24,200,124928,6,0,B|40:236|40:236|118:316,1,150
176,372,126015,1,0,0:0:0:0:
228,308,126378,2,0,P|264:296|320:300,1,75
372,252,127103,1,2,0:0:0:0:
452,272,127465,1,0,0:0:0:0:
464,352,127828,6,0,P|428:376|364:364,1,75
320,348,128553,1,0,0:0:0:0:
240,368,128915,1,0,0:0:0:0:
208,292,129278,2,0,P|240:264|304:256,1,75
352,264,130003,1,2,0:0:0:0:
428,292,130366,1,0,0:0:0:0:
484,228,130728,6,0,B|485:197|491:177|491:177|497:156|487:133|487:133|477:114|471:82,1,150
392,56,131816,1,0,0:0:0:0:
340,120,132178,1,0,0:0:0:0:
348,204,132541,1,0,0:0:0:0:
278,156,132903,2,0,P|308:128|346:120,1,75,2|0,0:0|0:0,0:0:0:0:
420,136,133628,5,0,0:0:0:0:
428,220,133991,2,0,P|463:209|490:183,1,75
512,104,134716,2,0,L|512:24,2,75
490,183,135804,2,0,P|463:209|427:219,1,75,2|0,0:0|0:0,0:0:0:0:
424,136,136529,6,0,P|356:176|352:256,1,150
368,320,137616,1,0,0:0:0:0:
292,352,137979,1,0,0:0:0:0:
215,320,138341,1,0,0:0:0:0:
136,344,138704,2,0,B|100:352|100:352|36:348,1,75,2|0,0:0|0:0,0:0:0:0:
24,276,139429,6,0,B|60:268|60:268|192:276,1,150
252,260,140517,1,0,0:0:0:0:
296,188,140879,2,0,B|321:202|325:227|349:241,1,75
407,185,141604,2,0,B|393:160|368:156|354:132,1,75,2|0,0:0|0:0,0:0:0:0:
376,52,142329,6,0,P|292:72|268:124,1,150
304,200,143417,1,0,0:0:0:0:
388,196,143779,2,0,P|424:224|440:268,1,75
408,328,144505,2,0,P|372:300|356:256,1,75,2|0,0:0|0:0,0:0:0:0:
288,232,145230,6,0,L|280:132,1,75,4|0,0:0|0:0,0:0:0:0:
240,88,145955,2,0,P|284:76|327:89,1,75
364,144,146680,2,0,L|369:196,1,37.5,2|0,0:0|0:0,0:0:0:0:
350,220,147042,2,0,L|355:272,1,37.5
388,284,147405,6,0,P|460:316|471:384,1,150,4|0,0:0|0:0,0:0:0:0:
392,364,148492,1,0,0:0:0:0:
312,380,148855,1,2,0:0:0:0:
256,320,149217,1,0,0:0:0:0:
332,292,149580,6,0,P|312:260|272:240,1,75,4|0,0:0|0:0,0:0:0:0:
196,260,150305,2,0,P|196:222|213:189,1,75
240,112,151030,2,0,P|260:123|279:140,1,37.5,2|0,0:0|0:0,0:0:0:0:
288,171,151393,2,0,P|303:181|320:190,1,37.5
362,188,151755,6,0,P|386:215|440:323,1,150,4|0,0:0|0:0,0:0:0:0:
392,384,152843,1,0,0:0:0:0:
312,372,153205,1,2,0:0:0:0:
260,308,153568,1,0,0:0:0:0:
240,228,153930,6,0,B|236:192|236:192|240:152,1,75,4|0,0:0|0:0,0:0:0:0:
324,156,154655,2,0,B|328:192|328:192|324:232,1,75
300,312,155381,2,0,B|280:308|280:308|260:312,1,37.5,2|0,0:0|0:0,0:0:0:0:
224,292,155743,2,0,B|207:295|207:295|187:291,1,37.5
160,260,156106,6,0,B|120:256|120:256|80:316|12:288,1,150,4|0,0:0|0:0,0:0:0:0:
52,216,157193,1,0,0:0:0:0:
124,176,157556,2,0,L|228:188,1,75,2|0,0:0|0:0,0:0:0:0:
280,196,158281,6,0,P|287:233|312:260,1,75,4|0,0:0|0:0,0:0:0:0:
380,216,159006,2,0,P|404:243|411:279,1,75
356,340,159731,2,0,B|319:341|319:341|282:359,1,75,4|0,0:0|0:0,0:0:0:0:
256,280,160456,2,0,B|221:296|221:296|184:298,1,75,2|0,0:0|0:0,0:0:0:0:
132,232,161181,6,0,B|204:228|204:228|273:193,1,150,4|0,0:0|0:0,0:0:0:0:
340,240,162268,1,0,0:0:0:0:
396,300,162631,2,0,B|433:292|433:292|458:264,1,75
500,336,163356,2,0,P|469:357|435:372,1,75,2|0,0:0|0:0,0:0:0:0:
352,380,164081,6,0,B|332:372|320:360|320:360|280:372|248:360|248:360|236:372|216:380,1,150
148,336,165168,1,0,0:0:0:0:
213,284,165531,2,0,P|249:276|285:284,1,75
320,212,166256,2,0,P|356:220|392:212,1,75,2|0,0:0|0:0,0:0:0:0:
431,283,166981,6,0,P|355:299|283:283,1,150
232,224,168069,1,0,0:0:0:0:
300,180,168431,2,0,P|336:171|372:179,1,75
420,248,169156,1,2,0:0:0:0:
336,252,169519,1,0,0:0:0:0:
300,180,169881,6,0,L|319:106,1,75
237,105,170606,2,0,L|256:31,1,75
175,10,171332,2,0,L|155:82,1,75
83,43,172057,2,0,L|63:115,1,75,2|0,0:0|0:0,0:0:0:0:
40,196,172782,6,0,P|108:216|136:284,1,150
88,352,173869,1,0,0:0:0:0:
52,280,174232,1,0,0:0:0:0:
40,196,174594,1,0,0:0:0:0:
104,144,174957,2,0,P|136:164|192:156,1,75,2|0,0:0|0:0,0:0:0:0:
252,144,175682,5,0,0:0:0:0:
220,68,176045,1,0,0:0:0:0:
136,64,176407,1,0,0:0:0:0:
72,116,176770,1,0,0:0:0:0:
128,176,177132,2,0,L|201:195,1,75
216,276,177857,1,2,0:0:0:0:
296,264,178220,1,0,0:0:0:0:
308,184,178582,6,0,L|381:164,1,75
408,240,179307,2,0,L|481:259,1,75
456,340,180032,2,0,B|405:326|405:326|358:334|358:334|307:321,1,150,0|2,0:0|0:0,0:0:0:0:
232,292,181120,1,0,0:0:0:0:
292,236,181483,6,0,L|365:255,1,75
432,204,182208,1,0,0:0:0:0:
420,124,182570,1,0,0:0:0:0:
344,96,182933,2,0,B|309:101|309:101|271:115,1,75
256,196,183658,2,0,B|218:210|218:210|183:215,1,75,2|0,0:0|0:0,0:0:0:0:
128,156,184383,6,0,B|199:128|199:128|274:116,1,150
328,176,185471,1,0,0:0:0:0:
308,256,185833,1,0,0:0:0:0:
228,276,186196,1,0,0:0:0:0:
156,232,186558,2,0,P|185:201|236:192,1,75,2|0,2:0|2:0,2:0:0:0:
296,168,187283,5,0,0:0:0:0:
368,212,187646,2,0,P|372:272|360:296,1,75
300,336,188371,1,0,0:0:0:0:
236,288,188733,2,0,L|300:248,1,75
240,188,189458,2,0,L|312:165,1,75,2|0,0:0|0:0,0:0:0:0:
392,152,190184,6,0,P|428:176|436:216,1,75
384,268,190909,2,0,P|348:244|340:204,1,75
320,136,191634,1,0,0:0:0:0:
252,92,191996,1,0,0:0:0:0:
196,152,192359,2,0,P|160:168|108:156,1,75,2|0,0:0|0:0,0:0:0:0:
48,132,193084,5,0,0:0:0:0:
24,212,193446,2,0,P|16:252|24:288,1,75
92,332,194171,1,0,0:0:0:0:
100,248,194534,1,0,0:0:0:0:
160,192,194897,1,0,0:0:0:0:
244,184,195259,1,2,0:0:0:0:
316,224,195622,1,0,0:0:0:0:
240,260,195984,6,0,P|176:224|184:136,1,150
256,156,197072,1,0,0:0:0:0:
340,156,197434,2,0,P|335:84|272:49,1,150,0|2,0:0|0:0,0:0:0:0:
192,60,198522,1,0,0:0:0:0:
124,108,198884,5,0,0:0:0:0:
200,136,199247,2,0,P|240:120|264:84,1,75
292,20,199972,1,0,0:0:0:0:
208,20,200335,2,0,P|168:36|144:72,1,75
68,72,201060,2,0,P|83:111|119:136,1,75,2|0,0:0|0:0,0:0:0:0:
98,215,201785,6,0,P|152:152|220:160,1,150
272,212,202872,1,0,0:0:0:0:
232,280,203235,2,0,P|200:261|179:229,1,75
172,148,203960,2,0,L|172:72,1,75,2|0,0:0|0:0,0:0:0:0:
232,16,204685,6,0,P|296:49|362:20,1,150
424,72,205773,1,0,0:0:0:0:
456,148,206135,2,0,P|461:184|445:217,1,75
379,171,206860,2,0,P|364:204|369:241,1,75,2|0,0:0|0:0,0:0:0:0:
254,333,208310,6,0,B|226:297|206:273|170:233|138:197|118:157|110:125|114:89|130:61|154:45|186:37|230:53|246:77|256:116|256:116|266:77|282:53|326:37|362:45|386:61|402:89|406:125|398:157|374:197|342:233|306:273|286:297|258:333,1,900.000034332277
