osu file format v14

[General]
AudioFilename: audio.mp3
AudioLeadIn: 0
PreviewTime: 166981
Countdown: 0
SampleSet: Soft
StackLeniency: 0.7
Mode: 0
LetterboxInBreaks: 0
WidescreenStoryboard: 0

[Editor]
DistanceSpacing: 0.8
BeatDivisor: 2
GridSize: 4
TimelineZoom: 1

[Metadata]
Title:Only Time
TitleUnicode:Only Time
Artist:Enya
ArtistUnicode:Enya
Creator:jukkaduei
Version:Easy
Source:
Tags:A Day Without Rain Chalwa
BeatmapID:1129087
BeatmapSetID:532947

[Difficulty]
HPDrainRate:3
CircleSize:3
OverallDifficulty:3
ApproachRate:4
SliderMultiplier:1.2
SliderTickRate:1

[Events]
//Background and Video events
0,0,"thumb-1920-311701.jpg",0,0
//Break Periods
2,164281,165661
//Storyboard Layer 0 (Background)
//Storyboard Layer 1 (Fail)
//Storyboard Layer 2 (Pass)
//Storyboard Layer 3 (Foreground)
//Storyboard Sound Samples

[TimingPoints]
3115.32530120482,725.075528700906,4,2,1,20,1,0
40819,-100,4,2,1,35,0,1
64021,-100,4,2,1,20,0,0
90124,-100,4,2,1,35,0,1
113326,-100,4,2,1,20,0,0
145230,725.075528700906,3,2,1,45,1,1
158281,725.075528700906,4,2,1,45,1,1
161181,725.075528700906,4,2,1,20,1,0
166981,-100,4,2,1,30,0,0
207585,-100,4,2,1,20,0,0

[Colours]
Combo1 : 136,136,0
Combo2 : 136,68,0
Combo3 : 123,62,62
Combo4 : 131,131,131

[HitObjects]
72,136,3115,6,0,P|112:92|168:72,1,120
212,92,4202,1,0,0:0:0:0:
256,116,4565,2,0,P|311:95|351:52,1,120,0|2,0:0|0:0,0:0:0:0:
444,28,6015,6,0,P|436:96|364:148,1,120
360,152,7103,1,0,0:0:0:0:
312,148,7465,2,0,P|296:196|304:248,1,60
312,252,8190,1,2,0:0:0:0:
216,248,8915,5,0,0:0:0:0:
164,168,9641,2,0,B|128:172|128:172|92:180,1,60
100,224,10366,2,0,B|76:229|76:229|40:233,1,60
0,204,11091,1,2,0:0:0:0:
32,112,11816,5,0,0:0:0:0:
120,76,12541,2,0,B|164:52|188:104|236:76,1,120
316,28,13991,1,2,0:0:0:0:
412,48,14716,6,0,P|440:108|440:168,1,120
352,128,16166,2,0,P|344:188|328:208,1,60
316,224,16891,2,0,P|307:252|308:282,1,60,2|0,0:0|0:0,0:0:0:0:
336,320,17616,5,0,0:0:0:0:
260,380,18341,2,0,P|201:385|152:352,1,120
164,304,19429,1,0,0:0:0:0:
200,268,19792,2,0,P|231:272|261:284,1,60,2|0,0:0|0:0,0:0:0:0:
304,296,20517,6,0,B|292:268|292:268|300:208|300:208|288:180,1,120
324,92,21967,1,0,0:0:0:0:
232,68,22692,2,0,P|236:128|228:144,1,60,2|0,0:0|0:0,0:0:0:0:
204,160,23417,5,0,0:0:0:0:
124,108,24142,2,0,P|108:164|136:228,1,120
184,296,25592,2,0,P|216:296|256:316,1,60,2|0,0:0|0:0,0:0:0:0:
280,336,26317,6,0,P|340:352|400:348,1,120
440,264,27767,2,0,P|380:248|320:252,1,120,0|2,0:0|0:0,0:0:0:0:
276,264,28855,1,0,0:0:0:0:
228,256,29218,6,0,B|200:260|200:260|168:256,1,60
132,224,29943,2,0,B|100:220|100:220|72:224,1,60
36,256,30668,2,0,B|28:216|28:216|36:176|36:176|28:136,1,120,0|2,0:0|0:0,0:0:0:0:
44,92,31755,1,0,0:0:0:0:
80,60,32118,6,0,P|139:66|188:100,1,120
240,180,33568,2,0,L|300:176,1,60
340,204,34293,2,0,L|400:208,1,60,2|0,0:0|0:0,0:0:0:0:
448,212,35018,6,0,P|445:279|469:326,1,120
388,380,36468,2,0,P|330:344|278:341,1,120,0|2,0:0|0:0,0:0:0:0:
232,332,37556,1,0,0:0:0:0:
184,324,37918,6,0,P|124:318|75:285,1,120
96,192,39369,2,0,P|129:220|149:251,1,60
144,280,40094,2,0,P|163:302|187:320,1,60,2|0,0:0|0:0,0:0:0:0:
236,312,40819,6,0,P|256:336|264:376,2,60
232,264,41906,2,0,P|236:172|308:120,1,180,0|2,0:0|0:0,0:0:0:0:
312,216,43719,6,0,L|372:240,2,60
268,196,44807,2,0,B|156:152|156:152|96:168,1,180,0|2,0:0|0:0,0:0:0:0:
112,264,46619,6,0,P|164:304|228:308,1,120
304,276,48070,2,0,P|360:256|416:276,1,120,0|2,0:0|0:0,0:0:0:0:
360,356,49520,2,0,L|360:116,1,240
304,40,51695,1,2,0:0:0:0:
280,132,52420,6,0,P|280:172|260:204,1,60
240,228,53145,2,0,P|205:247|167:246,1,60
140,236,53870,2,0,L|160:112,1,120,0|2,0:0|0:0,0:0:0:0:
72,80,55320,5,0,0:0:0:0:
36,168,56045,2,0,B|24:228|24:228|48:284,1,120
112,352,57495,1,2,0:0:0:0:
192,296,58221,6,0,B|248:268|248:268|304:276,1,120
400,280,59671,1,0,0:0:0:0:
424,188,60396,2,0,B|416:156|416:156|400:132,1,60,2|0,0:0|0:0,0:0:0:0:
364,100,61121,6,0,P|400:48|452:32,2,120
348,144,62934,1,0,0:0:0:0:
336,192,63296,1,2,0:0:0:0:
376,280,64021,6,0,P|320:300|252:300,1,120
224,268,65109,1,0,0:0:0:0:
236,220,65471,2,0,P|292:200|360:200,1,120,0|2,0:0|0:0,0:0:0:0:
388,232,66559,1,0,0:0:0:0:
436,220,66921,2,0,P|448:156|428:104,1,120
340,140,68372,2,0,P|324:168|316:204,1,60
336,240,69097,2,0,P|364:256|400:264,1,60,2|0,0:0|0:0,0:0:0:0:
428,292,69822,6,0,P|390:339|337:367,1,120
292,364,70909,1,0,0:0:0:0:
248,340,71272,2,0,L|186:352,1,60
144,340,71997,2,0,L|93:306,1,60,2|0,0:0|0:0,0:0:0:0:
60,272,72722,6,0,P|100:224|108:168,1,120
12,188,74172,2,0,P|21:129|60:84,1,120,0|2,0:0|0:0,0:0:0:0:
108,76,75260,1,0,0:0:0:0:
152,92,75622,6,0,L|212:116,1,60
240,152,76347,2,0,L|304:159,1,60
344,136,77073,2,0,P|389:173|409:229,1,120,0|2,0:0|0:0,0:0:0:0:
392,272,78160,1,0,0:0:0:0:
344,276,78523,2,0,P|299:239|279:183,2,120
372,184,80698,2,0,B|369:149|351:126,1,60,2|0,0:0|0:0,0:0:0:0:
312,102,81423,6,0,P|249:100|202:139,1,120
205,133,82511,1,0,0:0:0:0:
192,180,82873,2,0,B|196:200|196:200|192:240,1,60
184,284,83598,2,0,B|180:323|180:323|184:344,1,60,2|0,0:0|0:0,0:0:0:0:
228,364,84323,6,0,P|280:385|352:352,1,120
376,280,85773,2,0,L|376:160,1,120,0|2,0:0|0:0,0:0:0:0:
332,140,86861,1,0,0:0:0:0:
288,124,87224,6,0,B|229:108|229:108|171:120,1,120
168,216,88674,2,0,B|226:231|226:231|284:219,1,120
332,224,89761,1,0,0:0:0:0:
372,196,90124,6,0,L|416:238,2,60
392,152,91212,2,0,B|357:162|326:156|293:89|261:84|232:91,1,180,0|2,0:0|0:0,0:0:0:0:
140,68,93024,6,0,B|148:40|148:40|172:20,2,60
132,116,94112,2,0,P|128:220|192:292,1,180,0|2,0:0|0:0,0:0:0:0:
248,336,95924,6,0,B|304:364|304:364|356:336,1,120
356,240,97375,2,0,B|300:212|300:212|248:240,1,120,0|2,0:0|0:0,0:0:0:0:
300,320,98825,6,0,L|300:80,1,240
224,24,101000,1,2,0:0:0:0:
155,91,101725,6,0,P|127:102|97:101,1,60
50,93,102450,2,0,P|41:123|54:168,1,60
75,187,103175,2,0,P|115:239|119:291,1,120,0|2,0:0|0:0,0:0:0:0:
191,353,104625,6,0,B|249:319|241:251,1,120
292,172,106076,2,0,B|340:124|340:124|328:72,1,120,0|2,0:0|0:0,0:0:0:0:
240,28,107526,6,0,P|200:72|144:92,1,120
48,100,108976,1,0,0:0:0:0:
16,192,109701,2,0,L|80:188,1,60,2|0,0:0|0:0,0:0:0:0:
124,184,110426,6,0,P|164:228|232:228,1,120
292,296,111876,2,0,P|324:284|356:264,1,60
352,220,112601,1,2,0:0:0:0:
420,152,113326,6,0,B|364:120|364:120|336:72,1,120
288,60,114414,1,0,0:0:0:0:
240,72,114776,2,0,B|212:120|212:120|156:152,1,120,0|2,0:0|0:0,0:0:0:0:
112,236,116227,6,0,P|68:188|64:132,2,120
148,268,118039,1,0,0:0:0:0:
192,292,118402,2,0,L|256:268,1,60,2|0,0:0|0:0,0:0:0:0:
280,236,119127,6,0,B|320:216|320:216|400:232,1,120
436,212,120215,1,0,0:0:0:0:
452,168,120577,2,0,P|454:138|449:108,1,60
404,100,121302,2,0,L|346:115,1,60,2|0,0:0|0:0,0:0:0:0:
300,128,122027,6,0,L|184:96,1,120
136,100,123115,1,0,0:0:0:0:
100,132,123477,2,0,B|76:160|76:160|52:200,1,60
92,220,124202,1,2,0:0:0:0:
128,252,124565,1,0,0:0:0:0:
144,296,124928,6,0,P|88:316|32:296,2,120
208,224,127103,1,2,0:0:0:0:
236,264,127465,1,0,0:0:0:0:
268,300,127828,6,0,P|324:320|380:300,2,120
208,224,130003,1,2,0:0:0:0:
248,196,130366,1,0,0:0:0:0:
276,156,130728,6,0,B|276:96|276:96|320:52,2,120
308,244,132903,1,2,0:0:0:0:
356,244,133266,1,0,0:0:0:0:
392,212,133628,6,0,B|434:169|434:169|434:109,2,120
352,240,135441,1,0,0:0:0:0:
304,244,135804,2,0,P|264:244|236:232,1,60,2|0,0:0|0:0,0:0:0:0:
200,220,136529,6,0,P|165:172|165:113,1,120
256,144,137979,2,0,P|284:135|311:121,1,60
352,100,138704,1,2,0:0:0:0:
440,132,139429,2,0,P|410:177|332:192,1,120
308,176,140517,1,0,0:0:0:0:
264,156,140879,2,0,P|207:171|173:219,1,120
264,248,142329,5,0,0:0:0:0:
356,220,143054,2,0,L|356:156,1,60
356,112,143779,2,0,P|300:134|242:113,1,120,0|2,0:0|0:0,0:0:0:0:
152,108,145230,6,0,P|180:48|228:24,2,120,4|0|2,0:0|0:0|0:0,0:0:0:0:
80,168,147405,2,0,B|132:224|212:184|212:184|264:268,1,240,4|2,0:0|0:0,0:0:0:0:
308,284,149217,1,0,0:0:0:0:
355,275,149580,6,0,P|394:224|395:168,2,120,4|0|2,0:0|0:0|0:0,0:0:0:0:
307,199,151755,2,0,B|259:179|215:199|215:199|187:171|187:171|139:191|83:171,1,240,4|2,0:0|0:0,0:0:0:0:
36,164,153568,1,0,0:0:0:0:
28,116,153930,6,0,P|56:60|108:32,2,120,4|0|2,0:0|0:0|0:0,0:0:0:0:
68,204,156106,2,0,B|144:224|128:300|128:300|228:252,1,240,4|2,0:0|0:0,0:0:0:0:
323,268,158281,6,0,P|311:200|275:168,1,120,4|2,0:0|0:0,0:0:0:0:
179,155,159731,2,0,P|207:99|295:75,1,120,4|2,0:0|0:0,0:0:0:0:
256,192,161181,12,0,164081,0:0:0:0:
108,192,166981,6,0,P|140:248|188:272,1,120
284,272,168432,2,0,P|312:220|364:191,1,120,0|2,0:0|0:0,0:0:0:0:
412,184,169519,1,0,0:0:0:0:
456,204,169882,6,0,B|498:244|498:244|483:302,1,120
468,348,170969,1,0,0:0:0:0:
420,348,171332,2,0,L|360:332,1,60
328,300,172057,2,0,L|268:284,1,60,2|0,0:0|0:0,0:0:0:0:
236,252,172782,6,0,P|208:316|132:336,2,120
140,244,174957,2,0,L|80:240,1,60,2|0,0:0|0:0,0:0:0:0:
40,216,175682,6,0,P|100:176|100:116,1,120
64,108,176770,1,0,0:0:0:0:
40,68,177132,2,0,P|92:28|132:28,1,60
132,24,177857,2,0,P|184:63|194:102,1,60,2|0,0:0|0:0,0:0:0:0:
200,100,178583,6,0,P|239:137|304:136,1,120
376,76,180033,2,0,L|460:180,1,120,0|2,0:0|0:0,0:0:0:0:
408,192,181120,1,0,0:0:0:0:
372,224,181483,6,0,P|424:252|448:308,1,120
400,312,182570,1,0,0:0:0:0:
359,339,182933,2,0,P|308:311|280:258,1,120,0|2,0:0|0:0,0:0:0:0:
316,168,184383,6,0,P|256:165|206:196,1,120
184,240,185471,1,0,0:0:0:0:
140,260,185833,2,0,P|128:236|120:204,1,60
120,156,186558,2,0,P|144:132|168:121,1,60,2|0,0:0|0:0,0:0:0:0:
215,125,187283,6,0,P|242:72|208:23,1,120
164,24,188371,1,0,0:0:0:0:
116,32,188734,2,0,L|56:39,2,60,0|0|2,0:0|0:0|0:0,0:0:0:0:
208,56,190184,6,0,P|255:90|234:143,1,120
192,156,191271,1,0,0:0:0:0:
144,144,191634,2,0,L|84:144,1,60
40,160,192359,1,2,0:0:0:0:
16,200,192721,1,0,0:0:0:0:
48,236,193084,6,0,B|79:267|79:267|113:278|113:278|141:306,1,120
188,300,194171,1,0,0:0:0:0:
224,268,194534,2,0,P|256:264|284:268,1,60
324,292,195259,2,0,P|353:295|383:291,1,60
404,248,195984,6,0,P|423:192|403:137,1,120
356,140,197072,1,0,0:0:0:0:
324,176,197435,1,0,0:0:0:0:
296,212,197797,1,0,0:0:0:0:
320,252,198159,2,0,P|336:280|348:312,1,60,2|0,0:0|0:0,0:0:0:0:
328,352,198885,6,0,P|255:356|214:331,1,120
236,288,199972,1,0,0:0:0:0:
284,272,200335,2,0,P|300:216|272:164,1,120,0|2,0:0|0:0,0:0:0:0:
204,96,201785,6,0,B|144:88|144:88|84:104,1,120
56,140,202872,1,0,0:0:0:0:
56,188,203235,2,0,B|56:248,1,60
88,284,203960,2,0,B|88:344,1,60,2|0,0:0|0:0,0:0:0:0:
128,368,204685,6,0,P|168:380|280:336,1,120
276,332,205773,1,0,0:0:0:0:
260,288,206135,2,0,B|256:260|256:260|260:228,1,60
268,180,206860,2,0,B|272:148|272:148|268:120,1,60
256,192,208311,12,0,214111,0:0:0:0:
