osu file format v14

[General]
AudioFilename: 13. One By One.mp3
AudioLeadIn: 0
PreviewTime: 49429
Countdown: 0
SampleSet: Soft
StackLeniency: 0.7
Mode: 0
LetterboxInBreaks: 0
WidescreenStoryboard: 0

[Editor]
Bookmarks: 52852,59469,104191,107841,148000,173555,219189
DistanceSpacing: 1.3
BeatDivisor: 4
GridSize: 4
TimelineZoom: 1

[Metadata]
Title:One By One
TitleUnicode:One By One
Artist:Enya
ArtistUnicode:Enya
Creator:Blue Dragon
Version:Easy
Source:
Tags:new age a day without rain
BeatmapID:1192970
BeatmapSetID:325511

[Difficulty]
HPDrainRate:3
CircleSize:3.8
OverallDifficulty:2
ApproachRate:3
SliderMultiplier:0.6
SliderTickRate:1

[Events]
//Background and Video events
0,0,"wallhaven-214806.jpg",0,0
//Break Periods
//Storyboard Layer 0 (Background)
//Storyboard Layer 1 (Fail)
//Storyboard Layer 2 (Pass)
//Storyboard Layer 3 (Foreground)
//Storyboard Sound Samples

[TimingPoints]
20224,456.343170063888,4,2,0,30,1,0
200935,456.62100456621,4,2,0,30,1,0
225820,-100,4,2,0,5,0,0

[Colours]
Combo1 : 138,88,38
Combo2 : 255,128,64
Combo3 : 225,199,94

[HitObjects]
312,100,20224,6,0,P|360:88|436:184,1,180,2|0,0:0|0:0,0:0:0:0:
396,244,22049,2,0,P|348:256|272:160,1,180,2|0,0:0|0:0,0:0:0:0:
316,104,23874,6,0,B|228:60|228:148|144:106,1,180,2|0,0:0|0:0,0:0:0:0:
102,38,25700,2,0,P|64:115|118:181,1,180,2|0,0:0|0:0,0:0:0:0:
196,192,27525,6,0,L|320:192,1,120,2|0,0:0|0:0,0:0:0:0:
371,247,28894,1,0,0:0:0:0:
315,302,29350,2,0,L|191:302,1,120,2|0,0:0|0:0,0:0:0:0:
139,246,30719,1,0,0:0:0:0:
194,190,31176,2,0,P|202:162|194:130,2,60,2|0|2,0:0|0:0|0:0,0:0:0:0:
40,224,33001,6,0,P|24:156|80:68,1,180,2|0,0:0|0:0,0:0:0:0:
156,92,34826,2,0,B|244:112|244:112|320:56,1,180,2|0,0:0|0:0,0:0:0:0:
376,8,36652,6,0,P|429:77|416:164,1,180,2|0,0:0|0:0,0:0:0:0:
340,140,38477,2,0,B|252:120|252:120|176:176,1,180,2|0,0:0|0:0,0:0:0:0:
116,220,40303,6,0,L|116:352,1,120,2|0,0:0|0:0,0:0:0:0:
188,376,41672,1,0,0:0:0:0:
260,340,42128,2,0,L|260:208,1,120,2|0,0:0|0:0,0:0:0:0:
332,184,43497,1,0,0:0:0:0:
404,220,43953,2,0,L|404:286,2,60,2|0|2,0:0|0:0|0:0,0:0:0:0:
256,192,45322,12,2,47604,0:0:0:0:
72,104,49429,6,0,B|120:68|120:68|112:132|128:196,1,180,2|0,0:0|0:0,0:0:0:0:
200,156,51255,2,0,B|248:120|248:120|240:184|256:248,1,180,2|0,0:0|0:0,0:0:0:0:
324,276,53080,6,0,P|380:296|456:208,1,180,2|0,0:0|0:0,0:0:0:0:
428,148,54906,2,0,P|372:128|296:216,1,180,2|0,0:0|0:0,0:0:0:0:
344,264,56731,6,0,P|233:250|220:196,1,180,2|0,0:0|0:0,0:0:0:0:
268,140,58556,2,0,P|157:154|144:208,1,180,2|0,0:0|0:0,0:0:0:0:
172,280,60382,6,0,B|224:312|224:312|292:296,1,120,2|2,0:0|0:0,0:0:0:0:
356,276,61751,1,0,0:0:0:0:
396,208,62207,2,0,B|448:176|448:176|516:192,2,120,2|0|2,0:0|0:0|0:0,0:0:0:0:
328,244,64489,1,0,0:0:0:0:
268,192,64945,2,0,P|260:168|256:124,1,60
264,60,65858,6,0,P|196:48|116:120,1,180,2|0,0:0|0:0,0:0:0:0:
156,184,67683,2,0,P|168:252|96:332,1,180,2|0,0:0|0:0,0:0:0:0:
24,340,69509,6,0,L|212:364,1,180,2|0,0:0|0:0,0:0:0:0:
257,307,71334,2,0,L|435:284,1,180,2|0,0:0|0:0,0:0:0:0:
508,312,73159,6,0,P|484:276|488:200,1,120,0|2,0:0|0:0,0:0:0:0:
512,128,74528,1,0,0:0:0:0:
460,68,74985,2,0,B|404:52|404:52|348:84,1,120,0|2,0:0|0:0,0:0:0:0:
284,124,76354,1,0,0:0:0:0:
212,152,76810,2,0,P|176:152|148:140,2,60,2|2|2,0:0|0:0|0:0,0:0:0:0:
350,83,78635,6,0,P|366:119|350:199,1,120,2|0,0:0|0:0,0:0:0:0:
280,232,80004,1,0,0:0:0:0:
300,308,80461,2,0,P|384:316|456:260,1,180,2|0,0:0|0:0,0:0:0:0:
484,188,82286,6,0,P|488:152|440:84,1,120,2|0,0:0|0:0,0:0:0:0:
368,64,83655,1,0,0:0:0:0:
324,128,84112,2,0,B|284:144|256:184|256:184|208:156|160:168,1,180,2|0,0:0|0:0,0:0:0:0:
100,204,85937,6,0,L|76:84,1,120,2|0,0:0|0:0,0:0:0:0:
120,20,87306,1,0,0:0:0:0:
188,60,87762,2,0,L|212:180,1,120,2|0,0:0|0:0,0:0:0:0:
276,220,89131,1,0,0:0:0:0:
344,184,89588,2,0,P|384:184|408:196,2,60,2|2|2,0:0|0:0|0:0,0:0:0:0:
256,192,90957,12,0,93238,0:0:0:0:
77,72,95064,6,0,P|121:60|217:144,1,180,2|0,0:0|0:0,0:0:0:0:
295,138,96889,2,0,P|347:69|434:71,1,180,2|0,0:0|0:0,0:0:0:0:
472,140,98715,6,0,B|516:228|428:228|470:312,1,180,2|0,0:0|0:0,0:0:0:0:
408,360,100540,2,0,P|312:360|252:300,1,180,2|0,0:0|0:0,0:0:0:0:
300,240,102365,6,0,P|316:180|300:120,1,120,2|2,0:0|0:0,0:0:0:0:
256,64,103734,1,0,0:0:0:0:
209,125,104191,2,0,P|195:183|212:240,1,120,2|2,0:0|0:0,0:0:0:0:
256,304,105560,1,0,0:0:0:0:
328,328,106016,6,0,P|380:332|460:236,1,180,2|0,0:0|0:0,0:0:0:0:
256,192,107841,12,2,109667,0:0:0:0:
96,140,111492,6,0,P|128:172|204:168,1,120,2|2,0:0|0:0,0:0:0:0:
344,108,113318,2,0,P|384:156|376:268,1,180,2|0,0:0|0:0,0:0:0:0:
328,328,115143,6,0,L|148:292,1,180,2|0,0:0|0:0,0:0:0:0:
76,276,116968,2,0,P|52:244|60:108,1,180,2|0,0:0|0:0,0:0:0:0:
92,40,118794,6,0,L|216:40,1,120,2|2,0:0|0:0,0:0:0:0:
256,104,120163,1,0,0:0:0:0:
300,40,120619,2,0,L|420:40,1,120,2|2,0:0|0:0,0:0:0:0:
476,92,121988,1,0,0:0:0:0:
452,164,122444,2,0,P|456:200|476:228,2,60,2|0|2,0:0|0:0|0:0,0:0:0:0:
404,16,124270,6,0,P|328:0|240:60,1,180,2|0,0:0|0:0,0:0:0:0:
220,128,126095,2,0,P|144:144|56:84,1,180,2|0,0:0|0:0,0:0:0:0:
28,24,127920,6,0,L|0:148,1,120,2|2,0:0|0:0,0:0:0:0:
40,208,129290,1,0,0:0:0:0:
116,200,129746,2,0,P|192:200|264:280,1,180,2|0,0:0|0:0,0:0:0:0:
316,328,131571,6,0,L|436:304,1,120,2|2,0:0|0:0,0:0:0:0:
488,249,132940,1,0,0:0:0:0:
432,193,133397,2,0,L|312:169,1,120,2|2,0:0|0:0,0:0:0:0:
260,114,134766,1,0,0:0:0:0:
315,58,135222,2,0,L|375:46,2,60,2|0|2,0:0|0:0|0:0,0:0:0:0:
168,12,137047,6,0,P|128:40|104:168,1,180,2|0,0:0|0:0,0:0:0:0:
144,228,138873,6,0,P|196:248|256:228,1,120,2|2,0:0|0:0,0:0:0:0:
300,164,140242,1,0,0:0:0:0:
344,228,140698,2,0,P|396:248|456:228,1,120,2|2,0:0|0:0,0:0:0:0:
500,164,142067,1,0,0:0:0:0:
456,100,142523,2,0,P|452:72|456:40,2,60,2|0|2,0:0|0:0|0:0,0:0:0:0:
256,192,143892,12,0,146174,0:0:0:0:
256,36,148000,5,0,0:0:0:0:
320,80,148456,2,0,L|380:72,2,60,2|2|2,0:0|0:0|0:0,0:0:0:0:
256,124,149825,5,0,0:0:0:0:
192,168,150281,2,0,L|132:160,2,60,2|2|2,0:0|0:0|0:0,0:0:0:0:
256,212,151650,5,0,0:0:0:0:
320,256,152107,2,0,L|380:248,2,60,2|2|2,0:0|0:0|0:0,0:0:0:0:
256,300,153476,5,0,0:0:0:0:
192,256,153932,2,0,P|152:244|124:244,2,60,2|2|2,0:0|0:0|0:0,0:0:0:0:
256,212,155301,5,0,0:0:0:0:
320,168,155757,2,0,P|360:156|388:156,2,60,2|2|2,0:0|0:0|0:0,0:0:0:0:
256,124,157126,5,0,0:0:0:0:
192,80,157583,2,0,P|152:68|124:68,2,60,2|2|2,0:0|0:0|0:0,0:0:0:0:
256,36,158952,5,0,0:0:0:0:
320,80,159408,2,0,P|360:68|388:68,2,60,2|2|2,0:0|0:0|0:0,0:0:0:0:
296,156,160777,5,0,0:0:0:0:
372,180,161234,2,0,P|384:220|384:248,2,60,2|2|2,0:0|0:0|0:0,0:0:0:0:
296,156,162603,5,0,0:0:0:0:
272,232,163059,2,0,P|232:244|204:244,2,60,2|2|2,0:0|0:0|0:0,0:0:0:0:
296,156,164428,5,0,0:0:0:0:
220,132,164885,2,0,P|208:92|208:64,2,60,2|2|2,0:0|0:0|0:0,0:0:0:0:
296,156,166254,5,0,0:0:0:0:
372,136,166710,2,0,P|432:140|496:240,1,180,2|0,0:0|0:0,0:0:0:0:
428,272,168535,2,0,P|368:260|348:200,1,120,2|2,0:0|0:0,0:0:0:0:
372,136,169904,5,0,0:0:0:0:
448,112,170360,2,0,P|467:68|444:0,1,120,2|2,0:0|0:0,0:0:0:0:
388,60,171729,1,0,0:0:0:0:
312,76,172186,2,0,L|188:52,1,120,2|2,0:0|0:0,0:0:0:0:
116,40,173555,6,0,P|92:56|68:144,1,120,2|2,0:0|0:0,0:0:0:0:
108,204,174924,1,0,0:0:0:0:
184,188,175380,2,0,B|232:175|264:216|264:216|313:204|345:240,1,180,2|0,0:0|0:0,0:0:0:0:
393,303,177206,6,0,P|417:275|409:195,1,120,2|2,0:0|0:0,0:0:0:0:
354,141,178575,1,0,0:0:0:0:
298,85,179031,2,0,L|176:64,1,120,2|2,0:0|0:0,0:0:0:0:
104,48,180400,1,0,0:0:0:0:
48,100,180856,6,0,P|36:168|108:256,1,180,2|0,0:0|0:0,0:0:0:0:
154,197,182682,2,0,P|219:138|306:145,1,180,2|0,0:0|0:0,0:0:0:0:
364,200,184507,2,0,P|422:204|465:165,1,120,2|2,0:0|0:0,0:0:0:0:
416,20,186332,6,0,P|348:8|268:76,1,180,2|0,0:0|0:0,0:0:0:0:
212,130,188158,2,0,P|144:142|64:74,1,180,2|0,0:0|0:0,0:0:0:0:
116,16,189983,6,0,L|64:192,1,180,2|0,0:0|0:0,0:0:0:0:
120,243,191809,2,0,P|188:259|284:207,1,180,2|0,0:0|0:0,0:0:0:0:
312,139,193634,6,0,B|368:131|368:131|432:139,1,120,2|2,0:0|0:0,0:0:0:0:
486,194,195003,1,0,0:0:0:0:
430,249,195459,2,0,B|374:241|374:241|310:249,1,120,2|2,0:0|0:0,0:0:0:0:
255,304,196828,1,0,0:0:0:0:
199,248,197284,2,0,B|171:243|171:243|139:248,2,60,2|0|2,0:0|0:0|0:0,0:0:0:0:
52,304,199110,6,0,P|24:256|56:136,1,180,2|0,0:0|0:0,0:0:0:0:
130,153,200935,6,0,L|166:29,1,120,2|2,0:0|0:0,0:0:0:0:
236,4,202304,1,0,0:0:0:0:
308,40,202761,2,0,L|344:164,1,120,2|2,0:0|0:0,0:0:0:0:
414,189,204130,1,0,0:0:0:0:
484,156,204587,2,0,L|502:94,2,60,2|0|2,0:0|0:0|0:0,0:0:0:0:
432,304,206414,6,0,P|364:324|276:264,1,180,2|2,0:0|0:0,0:0:0:0:
312,196,208240,6,0,B|256:180|256:180|196:196,1,120,2|2,0:0|0:0,0:0:0:0:
141,140,209610,1,0,0:0:0:0:
200,88,210067,2,0,B|256:72|256:72|316:88,1,120,2|2,0:0|0:0,0:0:0:0:
370,143,211437,1,0,0:0:0:0:
425,198,211893,2,0,B|453:206|453:206|483:198,2,60,2|0|2,0:0|0:0|0:0,0:0:0:0:
336,68,213720,6,0,P|280:52|180:120,1,180,2|0,0:0|0:0,0:0:0:0:
168,188,215546,2,0,P|182:244|291:297,1,180,2|0,0:0|0:0,0:0:0:0:
358,273,217373,2,0,P|399:232|390:111,1,180,2|0,0:0|0:0,0:0:0:0:
336,68,219199,5,0,0:0:0:0:
256,192,219428,12,0,225820,0:0:0:0:
