osu file format v14

[General]
AudioFilename: 13. One By One.mp3
AudioLeadIn: 0
PreviewTime: 49429
Countdown: 0
SampleSet: Soft
StackLeniency: 0.7
Mode: 0
LetterboxInBreaks: 0
WidescreenStoryboard: 0

[Editor]
Bookmarks: 52852,59469,104191,107841,148000,173555,219189
DistanceSpacing: 1.3
BeatDivisor: 4
GridSize: 4
TimelineZoom: 1

[Metadata]
Title:One By One
TitleUnicode:One By One
Artist:Enya
ArtistUnicode:Enya
Creator:Blue Dragon
Version:Normal
Source:
Tags:new age a day without rain
BeatmapID:1192151
BeatmapSetID:325511

[Difficulty]
HPDrainRate:4
CircleSize:4.8
OverallDifficulty:4
ApproachRate:5
SliderMultiplier:0.8
SliderTickRate:1

[Events]
//Background and Video events
0,0,"wallhaven-214806.jpg",0,0
//Break Periods
//Storyboard Layer 0 (Background)
//Storyboard Layer 1 (Fail)
//Storyboard Layer 2 (Pass)
//Storyboard Layer 3 (Foreground)
//Storyboard Sound Samples

[TimingPoints]
20224,456.343170063888,4,2,0,30,1,0
200935,456.62100456621,4,2,0,30,1,0
225820,-100,4,2,0,5,0,0

[Colours]
Combo1 : 138,88,38
Combo2 : 255,128,64
Combo3 : 225,199,94

[HitObjects]
52,296,20224,6,0,P|96:308|192:252,1,160,2|0,0:0|0:0,0:0:0:0:
212,152,21593,1,0,0:0:0:0:
152,70,22049,2,0,P|99:127|101:205,1,160,2|0,0:0|0:0,0:0:0:0:
197,260,23418,1,0,0:0:0:0:
197,260,23646,1,0,0:0:0:0:
197,260,23874,6,0,L|286:242,1,80,2|0,0:0|0:0,0:0:0:0:
368,280,24787,1,0,0:0:0:0:
432,204,25243,1,0,0:0:0:0:
336,160,25700,2,0,P|316:128|348:4,1,160,2|0,0:0|0:0,0:0:0:0:
412,88,27069,1,0,0:0:0:0:
336,160,27525,6,0,L|240:148,1,80,2|0,0:0|0:0,0:0:0:0:
152,136,28438,1,0,0:0:0:0:
200,228,28894,1,0,0:0:0:0:
200,228,29122,1,0,0:0:0:0:
200,228,29350,6,0,L|104:216,1,80,2|0,0:0|0:0,0:0:0:0:
16,204,30263,1,0,0:0:0:0:
64,296,30719,1,0,0:0:0:0:
64,296,30948,1,0,0:0:0:0:
64,296,31176,5,2,0:0:0:0:
164,320,31632,1,0,0:0:0:0:
264,288,32088,2,0,P|304:284|380:324,1,120,2|0,0:0|0:0,0:0:0:0:
408,360,33001,6,0,P|464:324|432:168,1,240,2|0,0:0|0:0,0:0:0:0:
348,128,34826,2,0,B|269:92|269:163|191:128,1,160,2|0,0:0|0:0,0:0:0:0:
104,76,36196,1,0,0:0:0:0:
104,76,36424,1,0,0:0:0:0:
104,76,36652,6,0,P|48:112|80:268,1,240,2|0,0:0|0:0,0:0:0:0:
168,304,38477,2,0,B|243:338|243:266|321:302,1,160,2|0,0:0|0:0,0:0:0:0:
416,348,39846,1,0,0:0:0:0:
476,264,40303,6,0,L|456:168,1,80,2|0,0:0|0:0,0:0:0:0:
440,84,41215,1,0,0:0:0:0:
356,24,41672,1,0,0:0:0:0:
356,24,41900,1,0,0:0:0:0:
356,24,42128,6,0,L|336:120,1,80,2|0,0:0|0:0,0:0:0:0:
320,204,43040,1,0,0:0:0:0:
236,264,43497,1,0,0:0:0:0:
236,264,43725,1,0,0:0:0:0:
236,264,43953,5,2,0:0:0:0:
224,160,44410,1,0,0:0:0:0:
320,204,44866,2,0,P|372:212|436:172,1,120,2|0,0:0|0:0,0:0:0:0:
468,144,45779,5,2,0:0:0:0:
256,192,46007,12,2,47604,0:0:0:0:
56,92,49429,6,0,B|108:64|108:64|100:120|108:164,1,160,2|2,0:0|0:0,0:0:0:0:
192,228,50798,1,0,0:0:0:0:
292,200,51255,6,0,B|344:172|344:172|336:228|344:272,1,160,2|2,0:0|0:0,0:0:0:0:
440,316,52624,1,0,0:0:0:0:
492,228,53080,6,0,P|508:168|384:44,1,240,2|0,0:0|0:0,0:0:0:0:
312,96,54906,2,0,P|296:156|420:280,1,240,2|0,0:0|0:0,0:0:0:0:
492,228,56731,6,0,B|492:308|492:308|436:380,1,160,2|2,0:0|0:0,0:0:0:0:
340,369,58100,1,0,0:0:0:0:
266,295,58556,2,0,B|266:215|266:215|322:143,1,160,2|2,0:0|0:0,0:0:0:0:
418,154,59925,1,0,0:0:0:0:
492,228,60382,6,0,P|456:284|368:288,1,160,2|2,0:0|0:0,0:0:0:0:
276,244,61751,1,0,0:0:0:0:
184,200,62207,2,0,P|106:198|60:260,1,160,2|0,0:0|0:0,0:0:0:0:
120,344,63576,1,0,0:0:0:0:
216,308,64032,2,0,P|256:300|296:308,1,80,2|0,0:0|0:0,0:0:0:0:
388,348,64945,2,0,P|428:356|468:348,1,80,0|0,0:0|0:0,0:0:0:0:
508,252,65858,6,0,L|468:92,1,160,2|2,0:0|0:0,0:0:0:0:
396,24,67227,1,0,0:0:0:0:
352,120,67683,2,0,P|312:160|200:160,1,160,2|2,0:0|0:0,0:0:0:0:
120,124,69052,1,0,0:0:0:0:
120,124,69280,1,0,0:0:0:0:
120,124,69509,6,0,P|64:172|72:256,1,160,2|2,0:0|0:0,0:0:0:0:
140,332,70878,1,0,0:0:0:0:
240,308,71334,2,0,B|320:296|320:296|396:336,1,160,0|2,0:0|0:0,0:0:0:0:
484,380,72703,1,2,0:0:0:0:
508,280,73159,6,0,L|432:236,1,80,0|0,0:0|0:0,0:0:0:0:
348,188,74072,1,2,0:0:0:0:
440,140,74528,1,0,0:0:0:0:
440,140,74757,1,0,0:0:0:0:
440,140,74985,6,0,L|364:96,1,80,0|0,0:0|0:0,0:0:0:0:
280,48,75898,1,2,0:0:0:0:
372,0,76354,1,0,0:0:0:0:
372,0,76583,1,0,0:0:0:0:
372,0,76810,5,2,0:0:0:0:
464,52,77266,1,2,0:0:0:0:
464,156,77723,2,0,P|420:168|348:144,1,120,2|0,0:0|0:0,0:0:0:0:
312,112,78635,6,0,L|336:280,1,160,2|2,0:0|0:0,0:0:0:0:
352,372,80004,1,0,0:0:0:0:
252,344,80461,2,0,L|228:176,1,160,2|2,0:0|0:0,0:0:0:0:
212,84,81830,1,0,0:0:0:0:
212,84,82058,1,0,0:0:0:0:
212,84,82286,6,0,P|168:68|124:72,1,80,0|2,0:0|0:0,0:0:0:0:
40,112,83199,1,2,0:0:0:0:
124,172,83655,1,0,0:0:0:0:
135,69,84112,2,0,L|216:28,1,80,0|2,0:0|0:0,0:0:0:0:
305,32,85024,2,0,L|377:69,1,80,2|2,0:0|0:0,0:0:0:0:
468,120,85937,5,0,0:0:0:0:
384,180,86393,1,0,0:0:0:0:
300,240,86850,1,2,0:0:0:0:
216,300,87306,1,0,0:0:0:0:
216,300,87534,1,0,0:0:0:0:
216,300,87762,6,0,P|196:276|196:224,1,80,0|0,0:0|0:0,0:0:0:0:
256,144,88675,1,2,0:0:0:0:
356,172,89131,1,0,0:0:0:0:
356,172,89359,1,0,0:0:0:0:
356,172,89587,6,0,P|376:196|376:248,1,80,2|2,0:0|0:0,0:0:0:0:
296,308,90500,2,0,P|252:296|172:328,1,120,2|0,0:0|0:0,0:0:0:0:
148,356,91413,5,2,0:0:0:0:
256,192,91641,12,0,93238,0:0:0:0:
392,48,95064,6,0,P|432:80|432:144,1,120,2|0,0:0|0:0,0:0:0:0:
404,188,95976,2,0,P|356:206|300:174,1,120,2|0,0:0|0:0,0:0:0:0:
276,128,96889,2,0,P|283:77|339:45,1,120,2|0,0:0|0:0,0:0:0:0:
392,48,97802,2,0,P|432:80|432:144,1,120,2|0,0:0|0:0,0:0:0:0:
404,188,98715,6,0,B|352:228|356:292|392:328|392:328|384:380|340:384,1,240,2|0,0:0|0:0,0:0:0:0:
239,383,100540,2,0,B|198:379|190:327|190:327|226:291|230:227|178:187,1,240,2|0,0:0|0:0,0:0:0:0:
80,156,102365,6,0,P|68:116|104:40,1,120,2|0,0:0|0:0,0:0:0:0:
144,28,103278,2,0,L|264:72,1,120,2|0,0:0|0:0,0:0:0:0:
293,106,104191,2,0,L|405:147,1,120,2|0,0:0|0:0,0:0:0:0:
452,124,105104,2,0,P|463:78|412:16,1,120,2|0,0:0|0:0,0:0:0:0:
372,16,106016,6,0,L|252:40,1,120,2|0,0:0|0:0,0:0:0:0:
220,80,106929,2,0,L|340:104,1,120,2|0,0:0|0:0,0:0:0:0:
374,140,107841,1,2,0:0:0:0:
256,192,108070,12,2,110579,0:0:0:0:
108,304,111492,6,0,P|96:260|108:216,1,80,2|0,0:0|0:0,0:0:0:0:
168,144,112405,1,2,0:0:0:0:
68,116,112861,1,0,0:0:0:0:
140,40,113318,2,0,L|224:32,1,80,2|0,0:0|0:0,0:0:0:0:
324,20,114230,1,2,0:0:0:0:
420,56,114687,5,0,0:0:0:0:
420,56,114915,1,0,0:0:0:0:
420,56,115143,2,0,P|444:88|444:136,1,80,2|0,0:0|0:0,0:0:0:0:
372,200,116056,2,0,P|374:239|398:270,1,80,2|0,0:0|0:0,0:0:0:0:
492,320,116968,1,2,0:0:0:0:
492,216,117425,1,0,0:0:0:0:
398,270,117881,2,0,P|368:284|320:280,1,80,2|0,0:0|0:0,0:0:0:0:
228,236,118794,6,0,L|200:316,1,80,2|0,0:0|0:0,0:0:0:0:
100,340,119706,1,2,0:0:0:0:
100,236,120163,1,0,0:0:0:0:
100,236,120391,1,0,0:0:0:0:
100,236,120619,6,0,L|128:156,1,80,2|0,0:0|0:0,0:0:0:0:
228,136,121532,1,2,0:0:0:0:
316,192,121988,1,2,0:0:0:0:
316,192,122216,1,0,0:0:0:0:
316,192,122444,2,0,P|360:200|396:192,1,80,2|0,0:0|0:0,0:0:0:0:
440,100,123357,2,0,P|396:92|360:100,1,80,2|0,0:0|0:0,0:0:0:0:
316,192,124270,6,0,P|304:252|364:328,1,160,2|2,0:0|0:0,0:0:0:0:
444,264,125639,1,0,0:0:0:0:
412,164,126095,2,0,L|244:124,1,160,2|2,0:0|0:0,0:0:0:0:
156,96,127464,1,0,0:0:0:0:
236,28,127920,6,0,P|272:16|320:16,1,80,2|0,0:0|0:0,0:0:0:0:
384,92,128833,1,2,0:0:0:0:
484,56,129290,1,0,0:0:0:0:
496,160,129746,2,0,L|472:240,1,80,2|0,0:0|0:0,0:0:0:0:
444,336,130659,1,2,0:0:0:0:
356,280,131115,1,0,0:0:0:0:
292,364,131571,6,0,P|252:368|212:364,1,80,2|0,0:0|0:0,0:0:0:0:
256,268,132484,1,2,0:0:0:0:
216,172,132940,1,2,0:0:0:0:
216,172,133168,1,0,0:0:0:0:
216,172,133397,6,0,P|256:168|296:172,1,80,2|0,0:0|0:0,0:0:0:0:
376,240,134309,1,2,0:0:0:0:
424,148,134766,1,2,0:0:0:0:
392,48,135222,6,0,P|344:36|304:40,2,80,2|0|2,0:0|0:0|0:0,0:0:0:0:
476,112,136591,1,0,0:0:0:0:
460,216,137047,2,0,P|332:216|260:120,1,240,2|0,0:0|0:0,0:0:0:0:
224,40,138873,6,0,L|140:56,1,80,2|0,0:0|0:0,0:0:0:0:
44,28,139785,1,2,0:0:0:0:
72,128,140242,1,0,0:0:0:0:
72,128,140470,1,0,0:0:0:0:
72,128,140698,6,0,L|156:144,1,80,2|0,0:0|0:0,0:0:0:0:
252,116,141610,1,2,0:0:0:0:
224,216,142067,1,2,0:0:0:0:
224,216,142295,1,0,0:0:0:0:
224,216,142523,5,2,0:0:0:0:
320,176,142980,1,0,0:0:0:0:
296,276,143436,2,0,P|324:288|388:288,1,80,2|0,0:0|0:0,0:0:0:0:
464,240,144349,5,2,0:0:0:0:
256,192,144577,12,2,147087,0:0:0:0:
0,156,148000,5,0,0:0:0:0:
100,128,148456,2,0,P|119:124|138:128,1,40,2|0,0:0|0:0,0:0:0:0:
184,152,148912,2,0,P|203:156|222:152,1,40,2|0,0:0|0:0,0:0:0:0:
272,132,149369,2,0,P|291:128|310:132,2,40,2|0|0,0:0|0:0|0:0,0:0:0:0:
220,224,150281,6,0,P|201:228|182:224,1,40,2|0,0:0|0:0,0:0:0:0:
136,200,150737,2,0,P|117:196|98:200,1,40,2|0,0:0|0:0,0:0:0:0:
48,220,151194,2,0,P|29:224|10:220,2,40,2|0|0,0:0|0:0|0:0,0:0:0:0:
92,124,152107,6,0,L|112:80,1,40,2|0,0:0|0:0,0:0:0:0:
160,87,152563,2,0,L|180:43,1,40,2|0,0:0|0:0,0:0:0:0:
228,50,153019,2,0,L|248:6,2,40,2|0|0,0:0|0:0|0:0,0:0:0:0:
280,140,153932,6,0,L|300:184,1,40,2|0,0:0|0:0,0:0:0:0:
348,177,154388,2,0,L|368:221,1,40,2|0,0:0|0:0,0:0:0:0:
416,214,154844,2,0,L|436:258,2,40,2|0|0,0:0|0:0|0:0,0:0:0:0:
448,116,155757,6,0,P|448:84|440:68,1,40,2|0,0:0|0:0,0:0:0:0:
408,40,156214,2,0,P|376:40|360:48,1,40,2|0,0:0|0:0,0:0:0:0:
332,79,156670,2,0,P|332:111|340:127,1,40,2|0,0:0|0:0,0:0:0:0:
364,160,157126,1,0,0:0:0:0:
416,248,157583,6,0,P|416:280|408:296,1,40,2|0,0:0|0:0,0:0:0:0:
376,324,158040,2,0,P|344:324|328:316,1,40,2|0,0:0|0:0,0:0:0:0:
300,285,158496,2,0,P|300:253|308:237,1,40,2|0,0:0|0:0,0:0:0:0:
332,204,158952,1,0,0:0:0:0:
380,112,159408,6,0,L|360:68,1,40,2|0,0:0|0:0,0:0:0:0:
316,52,159865,2,0,L|296:96,1,40,2|0,0:0|0:0,0:0:0:0:
252,112,160321,2,0,L|232:68,1,40,2|0,0:0|0:0,0:0:0:0:
212,28,160777,1,0,0:0:0:0:
168,120,161234,6,0,L|148:164,1,40,2|0,0:0|0:0,0:0:0:0:
104,180,161691,2,0,L|84:136,1,40,2|0,0:0|0:0,0:0:0:0:
40,120,162147,2,0,L|20:164,1,40,2|0,0:0|0:0,0:0:0:0:
0,204,162603,1,0,0:0:0:0:
24,304,163059,6,0,P|60:324|76:324,1,40,2|0,0:0|0:0,0:0:0:0:
108,340,163515,2,0,P|149:339|163:331,1,40,2|0,0:0|0:0,0:0:0:0:
198,329,163972,2,0,P|233:307|241:293,1,40,2|0,0:0|0:0,0:0:0:0:
252,264,164428,1,0,0:0:0:0:
272,164,164884,6,0,P|308:144|324:144,1,40,2|0,0:0|0:0,0:0:0:0:
356,128,165340,2,0,P|397:128|411:136,1,40,2|0,0:0|0:0,0:0:0:0:
446,139,165797,2,0,P|481:160|489:174,1,40,2|0,0:0|0:0,0:0:0:0:
500,204,166253,1,0,0:0:0:0:
484,308,166710,6,0,L|444:292,1,40,2|0,0:0|0:0,0:0:0:0:
400,312,167166,2,0,L|360:296,1,40,2|0,0:0|0:0,0:0:0:0:
316,316,167622,2,0,L|276:300,1,40,2|0,0:0|0:0,0:0:0:0:
232,320,168079,1,0,0:0:0:0:
156,248,168535,6,0,P|148:228|144:208,1,40,2|0,0:0|0:0,0:0:0:0:
181,173,168991,2,0,P|189:153|193:133,1,40,2|0,0:0|0:0,0:0:0:0:
156,100,169448,1,2,0:0:0:0:
256,68,169904,1,0,0:0:0:0:
356,100,170360,6,0,P|364:120|368:140,1,40,2|0,0:0|0:0,0:0:0:0:
331,175,170816,2,0,P|323:195|319:215,1,40,2|0,0:0|0:0,0:0:0:0:
360,248,171273,1,2,0:0:0:0:
256,248,171729,1,0,0:0:0:0:
232,148,172186,6,0,L|174:139,4,40,2|0|2|0|2,0:0|0:0|0:0|0:0|0:0,0:0:0:0:
316,88,173555,6,0,L|408:104,1,80,2|0,0:0|0:0,0:0:0:0:
496,120,174467,1,2,0:0:0:0:
476,224,174924,1,0,0:0:0:0:
372,212,175380,2,0,P|360:248|368:296,1,80,0|0,0:0|0:0,0:0:0:0:
416,380,176293,1,2,0:0:0:0:
488,304,176749,1,0,0:0:0:0:
488,304,176977,1,0,0:0:0:0:
488,304,177206,6,0,L|476:220,1,80,2|0,0:0|0:0,0:0:0:0:
464,120,178118,1,2,0:0:0:0:
384,184,178575,1,0,0:0:0:0:
400,288,179031,2,0,P|324:316|252:288,1,160,2|2,0:0|0:0,0:0:0:0:
196,204,180400,1,0,0:0:0:0:
284,148,180856,6,0,P|288:112|272:72,1,80,2|0,0:0|0:0,0:0:0:0:
180,24,181769,1,2,0:0:0:0:
96,84,182225,1,0,0:0:0:0:
96,84,182453,1,0,0:0:0:0:
96,84,182682,6,0,P|92:120|108:160,1,80,2|0,0:0|0:0,0:0:0:0:
181,233,183594,2,0,P|196:269|192:308,1,80,2|0,0:0|0:0,0:0:0:0:
100,356,184507,1,2,0:0:0:0:
16,292,184963,1,0,0:0:0:0:
108,244,185420,2,0,P|120:216|100:124,1,120,2|0,0:0|0:0,0:0:0:0:
68,92,186332,6,0,L|152:68,1,80,2|0,0:0|0:0,0:0:0:0:
244,40,187245,1,2,0:0:0:0:
224,144,187701,1,0,0:0:0:0:
324,112,188158,2,0,P|344:152|344:204,1,80
304,280,189070,1,2,0:0:0:0:
384,348,189527,1,0,0:0:0:0:
384,348,189755,1,0,0:0:0:0:
384,348,189983,6,0,P|432:352|472:336,1,80,2|0,0:0|0:0,0:0:0:0:
504,248,190896,1,2,0:0:0:0:
444,164,191352,1,0,0:0:0:0:
348,204,191809,2,0,P|312:216|200:168,1,160,2|2,0:0|0:0,0:0:0:0:
160,80,193178,1,0,0:0:0:0:
240,12,193634,6,0,L|320:32,1,80,2|0,0:0|0:0,0:0:0:0:
416,4,194547,1,2,0:0:0:0:
396,104,195003,1,0,0:0:0:0:
396,104,195231,1,0,0:0:0:0:
396,104,195459,6,0,L|316:124,1,80,2|0,0:0|0:0,0:0:0:0:
220,96,196372,1,2,0:0:0:0:
240,196,196828,1,0,0:0:0:0:
240,196,197056,1,0,0:0:0:0:
240,196,197285,5,2,0:0:0:0:
140,224,197741,1,0,0:0:0:0:
40,252,198197,2,0,P|32:308|48:340,1,80,2|0,0:0|0:0,0:0:0:0:
132,376,199110,6,0,P|192:376|296:232,1,240,0|2,0:0|0:0,0:0:0:0:
268,204,200707,1,0,0:0:0:0:
268,204,200935,6,0,L|356:192,1,80,2|0,0:0|0:0,0:0:0:0:
452,180,201848,1,2,0:0:0:0:
412,276,202304,1,0,0:0:0:0:
412,276,202533,1,0,0:0:0:0:
412,276,202761,6,0,L|324:264,1,80,2|0,0:0|0:0,0:0:0:0:
228,252,203674,1,2,0:0:0:0:
268,348,204130,1,0,0:0:0:0:
268,348,204359,1,0,0:0:0:0:
268,348,204587,5,2,0:0:0:0:
164,332,205044,1,2,0:0:0:0:
60,316,205501,2,0,P|32:268|32:200,1,120,0|0,0:0|0:0,0:0:0:0:
56,160,206414,5,2,0:0:0:0:
152,124,206871,1,0,0:0:0:0:
252,144,207327,1,2,0:0:0:0:
300,236,207784,1,2,0:0:0:0:
292,340,208240,6,0,L|376:324,1,80,0|0,0:0|0:0,0:0:0:0:
444,251,209154,1,2,0:0:0:0:
352,204,209610,1,0,0:0:0:0:
352,204,209839,1,0,0:0:0:0:
352,204,210067,6,0,L|268:188,1,80,0|0,0:0|0:0,0:0:0:0:
200,115,210981,1,2,0:0:0:0:
292,68,211437,1,0,0:0:0:0:
292,68,211666,1,0,0:0:0:0:
292,68,211893,5,2,0:0:0:0:
196,24,212350,1,0,0:0:0:0:
152,120,212807,2,0,P|136:168|160:236,1,120,2|0,0:0|0:0,0:0:0:0:
200,260,213720,5,0,0:0:0:0:
280,328,214177,1,2,0:0:0:0:
288,224,214633,1,2,0:0:0:0:
368,292,215090,1,2,0:0:0:0:
440,216,215546,6,0,P|456:180|448:128,1,80,0|2,0:0|0:0,0:0:0:0:
368,80,216460,2,0,P|352:116|360:168,1,80,2|2,0:0|0:0,0:0:0:0:
324,256,217373,5,0,0:0:0:0:
224,276,217829,1,2,0:0:0:0:
128,236,218286,1,2,0:0:0:0:
68,152,218743,1,2,0:0:0:0:
72,48,219199,5,0,0:0:0:0:
256,192,219428,12,0,225820,0:0:0:0:
