osu file format v14

[General]
AudioFilename: 13. One By One.mp3
AudioLeadIn: 0
PreviewTime: 49429
Countdown: 0
SampleSet: Soft
StackLeniency: 0.7
Mode: 0
LetterboxInBreaks: 0
WidescreenStoryboard: 0

[Editor]
Bookmarks: 52852,59469,107841,148000,173555,219189
DistanceSpacing: 1.7
BeatDivisor: 4
GridSize: 4
TimelineZoom: 1

[Metadata]
Title:One By One
TitleUnicode:One By One
Artist:Enya
ArtistUnicode:Enya
Creator:Blue Dragon
Version:Hard
Source:
Tags:new age a day without rain
BeatmapID:723039
BeatmapSetID:325511

[Difficulty]
HPDrainRate:5
CircleSize:5.8
OverallDifficulty:6
ApproachRate:7
SliderMultiplier:1
SliderTickRate:1

[Events]
//Background and Video events
0,0,"wallhaven-214806.jpg",0,0
//Break Periods
//Storyboard Layer 0 (Background)
//Storyboard Layer 1 (Fail)
//Storyboard Layer 2 (Pass)
//Storyboard Layer 3 (Foreground)
//Storyboard Sound Samples

[TimingPoints]
20224,456.343170063888,4,2,0,30,1,0
200935,456.62100456621,4,2,0,30,1,0
225820,-100,4,2,0,5,0,0

[Colours]
Combo1 : 138,88,38
Combo2 : 255,128,64
Combo3 : 225,199,94

[HitObjects]
144,96,20224,6,0,P|158:146|100:276,1,200,2|0,0:0|0:0,0:0:0:0:
32,164,21593,1,0,0:0:0:0:
136,16,22049,2,0,B|192:16|220:64|220:64|276:64|300:112,1,200,2|0,0:0|0:0,0:0:0:0:
316,240,23418,1,0,0:0:0:0:
303,304,23646,1,0,0:0:0:0:
254,260,23874,5,2,0:0:0:0:
428,296,24331,1,0,0:0:0:0:
356,148,24787,1,0,0:0:0:0:
288,360,25243,1,0,0:0:0:0:
84,256,25700,2,0,P|72:220|104:56,1,200,2|0,0:0|0:0,0:0:0:0:
256,20,27069,1,0,0:0:0:0:
212,144,27525,5,2,0:0:0:0:
316,220,27981,1,0,0:0:0:0:
256,20,28438,1,0,0:0:0:0:
228,244,28894,2,0,P|224:276|228:300,1,50
264,184,29350,5,2,0:0:0:0:
368,260,29806,1,0,0:0:0:0:
308,60,30263,1,0,0:0:0:0:
280,284,30719,2,0,P|276:316|280:340,1,50
316,224,31176,5,2,0:0:0:0:
360,100,31632,1,0,0:0:0:0:
420,312,32089,1,2,0:0:0:0:
280,284,32545,1,0,0:0:0:0:
216,280,32773,1,0,0:0:0:0:
168,324,33001,6,0,L|56:292,1,100,2|0,0:0|0:0,0:0:0:0:
16,176,33914,1,0,0:0:0:0:
4,364,34370,1,0,0:0:0:0:
140,224,34826,6,0,P|160:152|80:52,1,200,2|0,0:0|0:0,0:0:0:0:
80,196,36196,2,0,P|74:229|88:260,1,50
140,318,36652,6,0,L|256:350,1,100,2|0,0:0|0:0,0:0:0:0:
360,292,37565,1,0,0:0:0:0:
212,160,38021,1,0,0:0:0:0:
236,344,38477,6,0,P|296:276|288:172,1,200,2|0,0:0|0:0,0:0:0:0:
200,32,39846,1,0,0:0:0:0:
72,136,40303,6,0,L|84:240,1,100,2|0,0:0|0:0,0:0:0:0:
184,316,41215,1,0,0:0:0:0:
260,208,41672,2,0,P|287:203|309:187,1,50
192,152,42128,6,0,L|204:256,1,100,2|0,0:0|0:0,0:0:0:0:
304,332,43040,1,0,0:0:0:0:
380,224,43497,2,0,P|407:219|429:203,1,50
324,168,43953,5,2,0:0:0:0:
248,340,44410,1,0,0:0:0:0:
76,264,44866,1,2,0:0:0:0:
152,92,45322,2,0,P|152:56|136:32,1,50
92,76,45779,6,0,L|156:160,1,100,2|0,0:0|0:0,0:0:0:0:
232,256,46691,1,2,0:0:0:0:
232,124,47148,1,0,0:0:0:0:
152,280,47604,2,0,L|91:359,1,100,2|0,0:0|0:0,0:0:0:0:
100,228,48517,1,2,0:0:0:0:
200,360,48973,1,0,0:0:0:0:
344,272,49429,6,0,P|404:256|472:316,1,150,2|0,0:0|0:0,0:0:0:0:
476,372,50342,2,0,L|484:204,1,150,2|0,0:0|0:0,0:0:0:0:
488,156,51255,2,0,B|412:130|412:191|336:166,1,150,2|0,0:0|0:0,0:0:0:0:
284,140,52168,2,0,P|272:92|352:16,1,150,2|0,0:0|0:0,0:0:0:0:
352,96,53080,6,0,B|288:116|216:88|192:20|192:20|136:28|104:80,1,300,2|0,0:0|0:0,0:0:0:0:
64,196,54906,2,0,P|68:276|248:276,1,300,2|0,0:0|0:0,0:0:0:0:
228,152,56731,6,0,B|256:132|264:104|264:104|288:196,1,150,2|0,0:0|0:0,0:0:0:0:
264,252,57644,2,0,P|300:284|412:284,1,150,2|0,0:0|0:0,0:0:0:0:
432,236,58556,2,0,B|460:216|468:188|468:188|492:280,1,150,2|0,0:0|0:0,0:0:0:0:
480,340,59469,2,0,P|444:372|332:372,1,150,2|0,0:0|0:0,0:0:0:0:
292,344,60382,5,2,0:0:0:0:
204,200,60838,1,0,0:0:0:0:
360,272,61294,2,0,P|408:278|454:259,1,100,2|0,0:0|0:0,0:0:0:0:
312,168,62207,2,0,P|254:246|271:341,1,200,2|0,0:0|0:0,0:0:0:0:
444,364,63576,1,0,0:0:0:0:
512,208,64032,5,2,0:0:0:0:
396,332,64489,1,0,0:0:0:0:
228,340,64945,1,0,0:0:0:0:
92,240,65401,1,0,0:0:0:0:
68,72,65858,6,0,P|108:36|152:32,1,100,2|0,0:0|0:0,0:0:0:0:
260,108,66771,2,0,L|226:202,1,100,2|0,0:0|0:0,0:0:0:0:
200,264,67455,1,0,0:0:0:0:
200,264,67683,2,0,P|238:295|287:299,1,100,2|0,0:0|0:0,0:0:0:0:
352,112,68596,2,0,P|313:80|264:76,1,100,2|0,0:0|0:0,0:0:0:0:
198,94,69280,1,0,0:0:0:0:
198,94,69509,6,0,L|164:188,1,100,2|0,0:0|0:0,0:0:0:0:
120,312,70421,2,0,P|70:307|32:276,1,100,2|0,0:0|0:0,0:0:0:0:
92,108,71334,1,0,0:0:0:0:
0,216,71790,1,2,0:0:0:0:
144,184,72247,1,2,0:0:0:0:
168,328,72703,1,2,0:0:0:0:
16,312,73159,6,0,P|8:252|24:204,1,100
200,164,74072,1,2,0:0:0:0:
188,352,74528,2,0,L|136:368,1,50
92,324,74985,6,0,P|84:264|100:216,1,100
280,172,75898,1,2,0:0:0:0:
264,364,76354,2,0,L|212:380,1,50
152,360,76810,5,2,0:0:0:0:
225,192,77266,1,2,0:0:0:0:
348,328,77723,1,2,0:0:0:0:
152,360,78179,2,0,L|104:336,1,50
52,308,78635,5,2,0:0:0:0:
28,180,79092,1,0,0:0:0:0:
156,160,79548,1,2,0:0:0:0:
180,288,80005,1,0,0:0:0:0:
80,108,80461,5,0,0:0:0:0:
104,236,80918,1,2,0:0:0:0:
232,216,81374,1,2,0:0:0:0:
208,88,81830,2,0,P|200:48|180:24,1,50
144,80,82286,5,0,0:0:0:0:
272,96,82743,1,2,0:0:0:0:
232,216,83199,2,0,P|220:268|236:324,1,100,2|0,0:0|0:0,0:0:0:0:
340,384,84112,1,0,0:0:0:0:
372,260,84568,1,2,0:0:0:0:
404,136,85024,1,2,0:0:0:0:
436,12,85481,1,2,0:0:0:0:
476,192,85937,6,0,P|476:240|444:288,1,100
404,136,86850,1,2,0:0:0:0:
424,344,87306,2,0,L|364:328,1,50
329,285,87762,6,0,P|329:237|297:189,1,100
257,341,88675,1,2,0:0:0:0:
277,133,89131,2,0,L|217:149,1,50
168,164,89588,5,2,0:0:0:0:
337,114,90044,1,2,0:0:0:0:
124,64,90500,2,0,P|96:108|100:164,1,100,2|0,0:0|0:0,0:0:0:0:
124,212,91185,1,0,0:0:0:0:
188,224,91413,1,0,0:0:0:0:
328,108,91869,1,2,0:0:0:0:
280,288,92326,1,2,0:0:0:0:
228,144,92782,1,2,0:0:0:0:
184,336,93238,5,0,0:0:0:0:
360,264,93695,2,0,L|464:224,2,100,2|2|2,0:0|0:0|0:0,0:0:0:0:
168,236,95064,6,0,P|104:232|64:304,1,150,2|0,0:0|0:0,0:0:0:0:
131,295,95976,2,0,L|72:152,1,150,2|0,0:0|0:0,0:0:0:0:
16,120,96889,2,0,B|74:157|74:157|112:140|164:164,1,150,2|0,0:0|0:0,0:0:0:0:
199,205,97802,2,0,B|239:224|277:207|277:207|335:244,1,150,2|0,0:0|0:0,0:0:0:0:
356,308,98715,6,0,P|336:248|496:128,1,300,2|0,0:0|0:0,0:0:0:0:
495,256,100540,2,0,P|361:216|356:76,1,300,2|0,0:0|0:0,0:0:0:0:
248,0,102365,6,0,P|228:80|180:134,1,150,2|0,0:0|0:0,0:0:0:0:
124,112,103278,2,0,P|170:170|186:242,1,150,2|0,0:0|0:0,0:0:0:0:
160,300,104191,2,0,P|218:253|290:237,1,150,2|0,0:0|0:0,0:0:0:0:
336,282,105103,2,0,P|352:231|288:173,1,150,2|0,0:0|0:0,0:0:0:0:
224,160,106016,2,0,L|372:112,1,150,2|0,0:0|0:0,0:0:0:0:
428,92,106929,2,0,L|280:44,1,150,2|0,0:0|0:0,0:0:0:0:
224,24,107841,6,0,P|132:36|92:88,1,150,2|0,0:0|0:0,0:0:0:0:
140,124,108754,1,2,0:0:0:0:
76,8,109210,1,0,0:0:0:0:
248,96,109667,2,0,L|388:168,1,150,2|0,0:0|0:0,0:0:0:0:
440,196,110579,1,2,0:0:0:0:
380,80,111036,1,0,0:0:0:0:
312,224,111492,6,0,P|300:296|352:352,1,150,2|0,0:0|0:0,0:0:0:0:
444,324,112405,2,0,P|456:252|404:196,1,150,2|0,0:0|0:0,0:0:0:0:
332,132,113318,2,0,L|216:168,1,100,2|0,0:0|0:0,0:0:0:0:
76,212,114078,1,2,0:0:0:0:
40,192,114230,1,2,0:0:0:0:
196,280,114687,2,0,P|204:312|192:344,1,50
136,312,115143,5,2,0:0:0:0:
264,352,115599,1,0,0:0:0:0:
220,172,115903,1,0,0:0:0:0:
212,132,116056,2,0,P|229:86|272:64,1,100,2|0,0:0|0:0,0:0:0:0:
400,40,116968,5,2,0:0:0:0:
368,168,117425,1,0,0:0:0:0:
420,236,117729,1,2,0:0:0:0:
420,236,117881,2,0,P|428:280|412:336,1,100,2|0,0:0|0:0,0:0:0:0:
256,364,118794,5,2,0:0:0:0:
104,280,119250,1,0,0:0:0:0:
316,312,119706,2,0,P|316:264|288:212,1,100,2|0,0:0|0:0,0:0:0:0:
236,192,120391,1,0,0:0:0:0:
176,168,120619,6,0,L|268:128,1,100,2|0,0:0|0:0,0:0:0:0:
416,64,121380,1,2,0:0:0:0:
452,84,121532,1,2,0:0:0:0:
208,24,121988,2,0,P|176:24|152:32,1,50,2|0,0:0|0:0,0:0:0:0:
192,92,122444,5,2,0:0:0:0:
356,24,122901,1,0,0:0:0:0:
220,180,123205,1,0,0:0:0:0:
220,180,123357,2,0,P|220:224|264:276,1,100,2|0,0:0|0:0,0:0:0:0:
308,300,124042,1,0,0:0:0:0:
372,288,124270,6,0,L|468:340,1,100,2|0,0:0|0:0,0:0:0:0:
268,356,125182,1,2,0:0:0:0:
332,184,125639,1,0,0:0:0:0:
168,268,126095,2,0,L|72:216,1,100,2|0,0:0|0:0,0:0:0:0:
4,176,126856,1,2,0:0:0:0:
4,176,127008,2,0,P|4:128|40:88,1,100,2|0,0:0|0:0,0:0:0:0:
100,92,127692,1,0,0:0:0:0:
116,28,127920,5,2,0:0:0:0:
4,176,128377,1,0,0:0:0:0:
172,276,128681,1,0,0:0:0:0:
172,276,128833,1,2,0:0:0:0:
284,128,129290,1,0,0:0:0:0:
116,28,129746,6,0,P|104:76|116:128,1,100,2|0,0:0|0:0,0:0:0:0:
172,276,130506,1,2,0:0:0:0:
172,276,130659,2,0,L|288:300,1,100,2|0,0:0|0:0,0:0:0:0:
396,320,131571,5,2,0:0:0:0:
260,212,132028,1,0,0:0:0:0:
220,380,132484,1,2,0:0:0:0:
396,320,132940,2,0,P|412:300|416:268,1,50,2|0,0:0|0:0,0:0:0:0:
352,276,133397,6,0,L|368:380,1,100,2|0,0:0|0:0,0:0:0:0:
492,308,134157,1,2,0:0:0:0:
492,308,134309,2,0,L|476:204,1,100,2|2,0:0|0:0,0:0:0:0:
468,144,134994,1,0,0:0:0:0:
456,80,135222,5,2,0:0:0:0:
372,260,135678,1,0,0:0:0:0:
272,120,135983,1,0,0:0:0:0:
272,120,136135,2,0,P|224:120|172:160,1,100,2|0,0:0|0:0,0:0:0:0:
156,208,136819,1,0,0:0:0:0:
168,272,137047,5,2,0:0:0:0:
256,368,137504,1,0,0:0:0:0:
344,272,137960,1,2,0:0:0:0:
256,176,138417,1,0,0:0:0:0:
200,144,138645,1,0,0:0:0:0:
144,176,138873,5,2,0:0:0:0:
180,352,139329,1,0,0:0:0:0:
260,108,139785,2,0,P|288:84|356:92,1,100,2|0,0:0|0:0,0:0:0:0:
386,143,140470,1,0,0:0:0:0:
381,211,140698,6,0,P|336:191|318:146,1,100,2|0,0:0|0:0,0:0:0:0:
380,312,141459,1,2,0:0:0:0:
380,312,141611,1,2,0:0:0:0:
200,312,142067,2,0,P|176:320|152:312,1,50,2|0,0:0|0:0,0:0:0:0:
178,252,142523,5,2,0:0:0:0:
224,380,142980,1,0,0:0:0:0:
64,324,143284,1,0,0:0:0:0:
64,324,143436,2,0,L|56:220,1,100,2|0,0:0|0:0,0:0:0:0:
52,160,144121,1,0,0:0:0:0:
48,96,144349,5,2,0:0:0:0:
160,28,144805,1,0,0:0:0:0:
216,144,145109,1,0,0:0:0:0:
216,144,145262,1,2,0:0:0:0:
328,76,145718,1,0,0:0:0:0:
384,192,146174,5,0,0:0:0:0:
272,260,146630,1,2,0:0:0:0:
216,144,146935,1,0,0:0:0:0:
216,144,147087,1,2,0:0:0:0:
104,212,147543,1,2,0:0:0:0:
160,328,148000,5,0,0:0:0:0:
384,192,148456,6,0,L|428:164,1,50,2|0,0:0|0:0,0:0:0:0:
308,132,148912,2,0,L|319:81,1,50,2|0,0:0|0:0,0:0:0:0:
208,136,149369,2,0,L|180:91,1,50,2|0,0:0|0:0,0:0:0:0:
280,212,149825,1,0,0:0:0:0:
280,212,150281,6,0,L|324:240,1,50,2|0,0:0|0:0,0:0:0:0:
204,272,150737,2,0,L|215:322,1,50,2|0,0:0|0:0,0:0:0:0:
104,268,151194,2,0,L|76:312,1,50,2|0,0:0|0:0,0:0:0:0:
176,192,151650,1,0,0:0:0:0:
176,192,152107,6,0,P|180:160|176:132,1,50,2|0,0:0|0:0,0:0:0:0:
288,144,152563,2,0,P|279:112|264:88,1,50,2|0,0:0|0:0,0:0:0:0:
376,68,153019,2,0,P|355:42|332:26,1,50,2|0,0:0|0:0,0:0:0:0:
240,12,153476,1,0,0:0:0:0:
392,172,153932,6,0,P|388:204|392:232,1,50,2|0,0:0|0:0,0:0:0:0:
280,220,154388,2,0,P|288:251|303:275,1,50,2|0,0:0|0:0,0:0:0:0:
192,296,154844,2,0,P|212:321|235:337,1,50,2|0,0:0|0:0,0:0:0:0:
328,352,155301,1,0,0:0:0:0:
392,172,155757,6,0,L|396:120,1,50,2|0,0:0|0:0,0:0:0:0:
404,24,156214,1,2,0:0:0:0:
328,88,156442,1,0,0:0:0:0:
472,104,156670,2,0,P|480:72|472:40,1,50,2|0,0:0|0:0,0:0:0:0:
392,172,157126,6,0,P|384:228|408:276,1,100,0|2,0:0|0:0,0:0:0:0:
472,336,157811,1,0,0:0:0:0:
504,188,158039,2,0,L|452:220,1,50,2|0,0:0|0:0,0:0:0:0:
348,376,158495,2,0,L|400:344,1,50,2|0,0:0|0:0,0:0:0:0:
276,328,158952,6,0,P|220:320|172:344,1,100,0|2,0:0|0:0,0:0:0:0:
92,380,159636,1,0,0:0:0:0:
116,260,159865,2,0,L|64:308,1,50,2|0,0:0|0:0,0:0:0:0:
181,336,160321,1,2,0:0:0:0:
144,200,160549,1,0,0:0:0:0:
28,344,160777,1,0,0:0:0:0:
28,344,161234,6,0,L|16:284,1,50,2|0,0:0|0:0,0:0:0:0:
48,200,161690,2,0,L|36:140,1,50,2|0,0:0|0:0,0:0:0:0:
72,56,162146,2,0,L|60:-4,1,50,2|0,0:0|0:0,0:0:0:0:
88,116,162603,1,0,0:0:0:0:
312,20,163059,6,0,L|324:80,1,50,2|0,0:0|0:0,0:0:0:0:
292,164,163515,2,0,L|304:224,1,50,2|0,0:0|0:0,0:0:0:0:
268,308,163971,2,0,L|280:368,1,50,2|0,0:0|0:0,0:0:0:0:
252,248,164428,1,0,0:0:0:0:
108,108,164884,5,2,0:0:0:0:
30,138,165112,1,0,0:0:0:0:
44,54,165341,1,2,0:0:0:0:
121,24,165569,1,0,0:0:0:0:
185,77,165797,1,2,0:0:0:0:
175,161,166025,1,0,0:0:0:0:
97,191,166253,1,0,0:0:0:0:
232,300,166710,5,2,0:0:0:0:
310,270,166938,1,0,0:0:0:0:
296,354,167167,1,2,0:0:0:0:
219,384,167395,1,0,0:0:0:0:
155,331,167623,1,2,0:0:0:0:
165,247,167851,1,0,0:0:0:0:
243,217,168079,1,0,0:0:0:0:
432,148,168535,6,0,P|440:100|439:96,1,50,2|0,0:0|0:0,0:0:0:0:
384,36,168991,1,2,0:0:0:0:
308,76,169220,1,0,0:0:0:0:
364,140,169448,1,2,0:0:0:0:
328,312,169904,1,0,0:0:0:0:
328,312,170132,1,0,0:0:0:0:
248,340,170360,6,0,L|184:332,1,50,2|0,0:0|0:0,0:0:0:0:
328,312,170817,2,0,L|377:318,1,50,2|0,0:0|0:0,0:0:0:0:
268,260,171273,1,2,0:0:0:0:
200,104,171729,1,0,0:0:0:0:
200,104,171958,1,0,0:0:0:0:
120,76,172186,5,2,0:0:0:0:
140,160,172414,1,0,0:0:0:0:
200,104,172642,1,2,0:0:0:0:
64,136,172870,1,0,0:0:0:0:
216,180,173098,1,2,0:0:0:0:
188,12,173555,6,0,P|244:12|296:48,1,100,2|0,0:0|0:0,0:0:0:0:
388,164,174467,2,4,L|496:128,1,100,2|0,0:0|0:0,0:0:0:0:
316,104,175380,1,0,0:0:0:0:
396,252,175837,1,0,0:0:0:0:
288,220,176141,1,2,0:0:0:0:
288,220,176293,2,0,P|244:224|200:256,1,100,2|0,0:0|0:0,0:0:0:0:
212,320,176977,1,0,0:0:0:0:
176,372,177206,6,0,L|72:364,1,100,2|0,0:0|0:0,0:0:0:0:
16,256,177966,1,0,0:0:0:0:
16,256,178118,2,0,P|8:208|32:164,1,100,2|0,0:0|0:0,0:0:0:0:
184,32,179031,6,0,L|304:56,1,100,2|0,0:0|0:0,0:0:0:0:
384,100,179791,1,2,0:0:0:0:
384,100,179944,2,0,P|396:44|380:0,1,100,2|0,0:0|0:0,0:0:0:0:
308,156,180856,6,0,L|328:264,1,100,2|0,0:0|0:0,0:0:0:0:
160,216,181769,2,0,L|140:108,1,100,2|0,0:0|0:0,0:0:0:0:
80,60,182453,1,0,0:0:0:0:
164,40,182682,6,0,P|208:64|276:60,1,100,2|0,0:0|0:0,0:0:0:0:
356,12,183442,1,2,0:0:0:0:
356,12,183594,2,0,L|328:124,1,100,2|2,0:0|0:0,0:0:0:0:
300,188,184279,1,0,0:0:0:0:
384,168,184507,5,2,0:0:0:0:
256,20,184963,1,0,0:0:0:0:
212,136,185268,1,0,0:0:0:0:
212,136,185420,2,0,P|228:200|216:240,1,100,2|0,0:0|0:0,0:0:0:0:
160,292,186104,1,0,0:0:0:0:
132,212,186332,5,2,0:0:0:0:
256,328,186789,1,0,0:0:0:0:
212,136,187093,1,0,0:0:0:0:
212,136,187245,2,0,P|220:92|200:32,1,100,2|0,0:0|0:0,0:0:0:0:
208,208,188158,5,0,0:0:0:0:
316,76,188614,1,0,0:0:0:0:
124,76,188918,1,2,0:0:0:0:
124,76,189070,2,0,L|8:104,1,100,2|0,0:0|0:0,0:0:0:0:
8,184,189755,1,0,0:0:0:0:
68,244,189983,6,0,P|80:292|68:344,1,100,2|0,0:0|0:0,0:0:0:0:
8,184,190744,1,0,0:0:0:0:
8,184,190896,2,0,L|112:160,1,100,2|0,0:0|0:0,0:0:0:0:
272,124,191809,6,0,P|284:76|272:24,1,100,2|0,0:0|0:0,0:0:0:0:
212,184,192570,1,2,0:0:0:0:
212,184,192722,2,0,L|316:208,1,100,2|0,0:0|0:0,0:0:0:0:
472,248,193634,5,0,0:0:0:0:
312,308,194090,1,0,0:0:0:0:
396,156,194547,2,0,P|408:192|384:256,1,100,2|0,0:0|0:0,0:0:0:0:
312,308,195231,1,0,0:0:0:0:
436,372,195459,6,0,L|460:272,1,100,2|0,0:0|0:0,0:0:0:0:
256,172,196220,1,2,0:0:0:0:
256,172,196372,2,0,P|248:216|264:280,1,100,2|0,0:0|0:0,0:0:0:0:
316,332,197056,1,0,0:0:0:0:
368,263,197285,5,2,0:0:0:0:
220,360,197741,1,0,0:0:0:0:
180,240,198045,1,0,0:0:0:0:
180,240,198197,2,0,P|200:224|276:220,1,100,2|0,0:0|0:0,0:0:0:0:
354,264,198882,1,0,0:0:0:0:
436,220,199110,6,0,P|452:160|432:116,1,100,0|2,0:0|0:0,0:0:0:0:
364,40,199871,1,0,0:0:0:0:
364,40,200023,2,0,B|316:56|316:56|260:48,1,100,2|2,0:0|0:0,0:0:0:0:
186,24,200707,1,0,0:0:0:0:
104,48,200935,6,0,P|72:88|76:144,1,100,2|0,0:0|0:0,0:0:0:0:
108,300,201848,2,0,L|216:264,1,100,2|0,0:0|0:0,0:0:0:0:
256,200,202533,1,0,0:0:0:0:
309,268,202761,6,0,L|404:300,1,100,2|0,0:0|0:0,0:0:0:0:
496,232,203522,1,2,0:0:0:0:
496,232,203674,2,0,P|495:182|464:145,1,100,2|0,0:0|0:0,0:0:0:0:
384,116,204359,1,0,0:0:0:0:
396,200,204587,5,2,0:0:0:0:
464,8,205044,1,0,0:0:0:0:
308,52,205349,1,0,0:0:0:0:
308,52,205501,2,0,B|260:64|260:64|204:52,1,100,2|0,0:0|0:0,0:0:0:0:
136,12,206186,1,0,0:0:0:0:
64,56,206414,6,0,L|32:172,1,100,2|0,0:0|0:0,0:0:0:0:
188,188,207175,1,0,0:0:0:0:
188,188,207327,2,0,L|214:91,1,100,2|2,0:0|0:0,0:0:0:0:
240,12,208012,1,0,0:0:0:0:
288,144,208240,5,0,0:0:0:0:
124,88,208697,1,0,0:0:0:0:
344,28,209154,2,0,L|452:56,1,100,2|0,0:0|0:0,0:0:0:0:
484,128,209839,1,0,0:0:0:0:
508,0,210067,5,0,0:0:0:0:
344,184,210524,1,0,0:0:0:0:
404,280,210828,1,2,0:0:0:0:
404,280,210980,2,0,P|404:328|380:376,1,100,2|0,0:0|0:0,0:0:0:0:
296,372,211665,1,0,0:0:0:0:
240,308,211893,5,2,0:0:0:0:
488,352,212350,1,0,0:0:0:0:
392,192,212654,1,0,0:0:0:0:
392,192,212807,2,0,P|388:124|404:76,1,100,2|0,0:0|0:0,0:0:0:0:
440,20,213492,1,0,0:0:0:0:
356,0,213720,1,0,0:0:0:0:
204,76,214177,5,2,0:0:0:0:
140,244,214633,1,2,0:0:0:0:
308,308,215090,1,2,0:0:0:0:
372,140,215546,1,0,0:0:0:0:
142,110,216003,5,2,0:0:0:0:
174,305,216459,1,2,0:0:0:0:
369,273,216916,1,2,0:0:0:0:
337,78,217372,1,0,0:0:0:0:
102,176,217829,5,2,0:0:0:0:
240,345,218285,1,2,0:0:0:0:
409,207,218742,1,2,0:0:0:0:
271,38,219198,1,0,0:0:0:0:
256,192,219313,12,0,225820,0:0:0:0:
