osu file format v14

[General]
AudioFilename: audio.mp3
AudioLeadIn: 0
PreviewTime: 72245
Countdown: 0
SampleSet: None
StackLeniency: 0.7
Mode: 0
LetterboxInBreaks: 0
WidescreenStoryboard: 0

[Editor]
Bookmarks: 1615,9206,30308,61373,94923,103621,124765,176931,220533
DistanceSpacing: 0.8
BeatDivisor: 4
GridSize: 4
TimelineZoom: 0.9000059

[Metadata]
Title:Anywhere Is
TitleUnicode:Anywhere Is
Artist:Enya
ArtistUnicode:Enya
Creator:Mismagius
Version:Easy
Source:
Tags:the memory of trees new age
BeatmapID:1702215
BeatmapSetID:633251

[Difficulty]
HPDrainRate:1
CircleSize:3.5
OverallDifficulty:1
ApproachRate:2
SliderMultiplier:1.2
SliderTickRate:1

[Events]
//Background and Video events
0,0,"wallhaven-195229.jpg",0,0
//Break Periods
2,95087,102033
//Storyboard Layer 0 (Background)
//Storyboard Layer 1 (Fail)
//Storyboard Layer 2 (Pass)
//Storyboard Layer 3 (Foreground)
//Storyboard Sound Samples

[TimingPoints]
1775,620.796689084325,4,3,0,10,1,0
3171,-100,4,3,0,20,0,0
4413,-100,4,3,0,30,0,0
6741,616.491137939892,4,3,0,30,1,0
9206,620.156701030926,4,3,0,30,1,0
24089,615.384615384615,4,3,0,30,1,0
26550,623.376623376623,4,3,0,30,1,0
29043,620.15503875969,4,3,0,30,1,0
30283,625,4,3,0,30,1,0
35283,606.060606060606,4,3,0,30,1,0
35283,-102.564102564103,4,3,0,30,0,0
36192,625,4,3,0,30,1,0
36504,666.666666666666,4,3,0,30,1,0
36837,618.556701030926,4,3,0,30,1,0
37765,621.761658031088,4,3,0,30,1,0
37765,-100,4,3,0,30,0,0
39008,615.384615384615,4,3,0,30,1,0
39931,568.720379146919,4,3,0,30,1,0
40215,634.920634920635,4,3,0,30,1,0
41484,618.556701030928,4,3,0,30,1,0
42721,621.761658031088,4,3,0,30,1,0
50182,615.384615384615,4,3,0,30,1,0
52643,625,4,3,0,30,1,0
57643,620.15503875969,4,3,0,30,1,0
60123,612.244897959184,4,3,0,30,1,0
61347,625,4,3,0,30,1,0
63847,620.15503875969,4,3,0,30,1,0
66327,615.384615384615,4,3,0,30,1,0
68173,638.297872340426,4,3,0,30,1,0
68811,620.15503875969,4,3,0,30,1,0
70671,631.578947368421,4,3,0,30,1,0
71302,625,4,3,0,30,1,0
72239,-100,4,3,0,20,0,0
72552,620.15503875969,4,3,0,50,1,0
75032,615.384615384615,4,3,0,50,1,0
76878,638.297872340426,4,3,0,50,1,0
77197,-100,4,3,0,30,0,0
77516,612.244897959184,4,3,0,50,1,0
77516,-101.010101010101,4,3,0,50,0,0
78128,625,4,3,0,50,1,0
80003,618.556701030928,4,3,0,50,1,0
81240,625,4,3,0,50,1,0
82177,-100,4,3,0,30,0,0
82490,615.384615384615,4,3,0,50,1,0
84643,664.819944598338,4,3,0,50,1,0
84975,612.244897959184,4,3,0,50,1,0
86811,631.578947368421,4,3,0,50,1,0
87126,-100,4,3,0,30,0,0
87442,625,4,3,0,50,1,0
89629,616.966580976864,4,3,0,50,1,0
89937,620.796689084325,4,3,0,50,1,0
92420,616.966580976864,4,2,0,30,1,0
94887,621.922777921741,4,2,0,30,1,0
103593,625,4,2,0,20,1,0
107968,615.384615384615,4,2,0,20,1,0
108583,625,6,2,0,20,1,0
111708,612.244897959184,6,2,0,20,1,0
112320,618.556701030928,4,2,0,20,1,0
113557,625,4,2,0,20,1,0
114494,606.060606060606,4,2,0,20,1,0
114797,618.556701030928,4,2,0,20,1,0
116034,625,4,2,0,20,1,0
116971,618.556701030928,4,2,0,20,1,0
117280,623.376623376623,4,2,0,20,1,0
123513,623.538581449727,4,3,0,30,1,0
124760,618.556701030928,4,3,0,50,1,0
129399,-100,4,3,0,30,0,0
129708,621.761658031088,4,3,0,50,1,0
134371,-100,4,3,0,30,0,0
134682,-100,4,3,0,50,0,0
136858,606.060606060606,4,3,0,50,1,0
137161,615.384615384615,4,3,0,50,1,0
138391,625,4,3,0,50,1,0
139328,-100,4,3,0,30,0,0
139641,620.796689084325,4,3,0,50,1,0
144607,612.244897959184,4,3,0,50,1,0
145831,628.272251308901,4,3,0,50,1,0
148344,600,4,3,0,50,1,0
148944,621.761658031088,4,3,0,50,1,0
150809,621.761658031088,4,3,0,50,1,0
154539,625,4,3,0,50,1,0
155789,638.297872340426,4,3,0,50,1,0
156430,612.244897959184,4,3,0,30,1,0
157042,638.297872340426,4,3,0,50,1,0
158318,618.556701030928,4,3,0,50,1,0
158936,600,4,3,0,50,1,0
159536,612.244897959184,4,3,0,50,1,0
160760,625,4,3,0,50,1,0
161697,-100,4,3,0,30,0,0
162010,621.761658031088,4,3,0,50,1,0
166673,-100,4,3,0,30,0,0
166984,-100,4,3,0,50,0,0
170092,612.244897959184,4,3,0,50,1,0
171316,641.711229946524,4,3,0,50,1,0
171636,-100,4,3,0,30,0,0
171957,600,4,3,0,50,1,0
172557,652.173913043478,4,3,0,50,1,0
172883,606.060606060606,4,3,0,50,1,0
173186,615.384615384614,4,3,0,50,1,0
175032,628.272251308901,4,3,0,50,1,0
176602,-100,4,3,0,30,0,0
176916,618.556701030928,4,3,0,50,1,0
178153,625,4,3,0,50,1,0
179403,612.244897959184,4,3,0,50,1,0
180015,625.000000000001,4,3,0,50,1,0
181577,-100,4,3,0,30,0,0
181890,618.556701030929,4,3,0,50,1,0
185601,625.000000000001,4,3,0,50,1,0
186538,-100,4,3,0,30,0,0
186851,621.761658031088,4,3,0,50,1,0
189027,-100,4,3,0,30,0,0
189338,-100,4,3,0,50,0,0
191514,-100,4,3,0,30,0,0
191825,618.556701030928,4,3,0,50,1,0
193989,-100,4,3,0,30,0,0
194299,621.43966856551,4,3,0,50,1,0
195697,-100,4,3,0,10,0,0
200202,816.326530612245,4,3,0,50,1,0
200610,652.173913043479,4,3,0,40,1,0
200610,-98.3284169124877,4,3,0,40,0,0
201262,631.578947368421,4,3,0,40,1,0
201893,618.556701030928,4,3,0,40,1,0
202511,597.014925373134,4,3,0,40,1,0
202809,606.060606060606,4,3,0,40,1,0
203112,618.556701030928,4,3,0,40,1,0
204349,625,4,3,0,40,1,0
205286,-100,4,3,0,30,0,0
205599,625,4,3,0,40,1,0
208099,621.761658031088,4,3,0,40,1,0
210275,-100,4,3,0,30,0,0
210586,618.556701030928,4,3,0,40,1,0
213060,615.384615384615,4,3,0,40,1,0
213060,-100.200400801603,4,3,0,40,0,0
214290,618.556701030928,4,3,0,40,1,0
214908,631.578947368421,4,3,0,40,1,0
215223,-100,4,3,0,30,0,0
215539,612.244897959184,4,3,0,40,1,0
215539,-100.603621730382,4,3,0,40,0,0
216763,623.376623376623,4,3,0,40,1,0
220503,-100,4,3,0,20,0,0

[Colours]
Combo1 : 237,225,139
Combo2 : 159,234,224
Combo3 : 169,202,241
Combo4 : 191,202,194

[HitObjects]
256,192,1775,12,2,4258,0:0:0:0:
256,192,4413,12,4,6741,3:0:0:0:
143,63,9206,6,0,P|256:27|368:63,1,240,4|2,0:0|2:0,0:0:0:0:
412,149,11066,1,0,0:0:0:0:
368,234,11686,2,0,P|255:270|143:234,1,240,4|2,0:0|2:0,0:0:0:0:
100,149,13547,1,0,0:0:0:0:
143,63,14167,6,0,B|256:22|256:22|368:63,2,240,4|2|4,0:0|2:0|0:0,0:0:0:0:
100,149,17268,1,2,0:0:0:0:
144,234,17888,2,0,P|156:290|144:350,1,120,2|0,2:0|0:0,0:0:0:0:
234,383,19128,6,0,P|250:308|202:149,1,240,4|2,0:0|2:0,0:0:0:0:
133,90,20988,1,0,0:0:0:0:
188,11,21609,2,0,B|308:-2|308:-2|423:57,1,240,4|2,0:0|2:0,0:0:0:0:
500,95,23469,1,0,0:0:0:0:
473,187,24089,6,0,B|353:200|353:200|238:141,1,240,4|2,0:0|2:0,0:0:0:0:
161,101,25935,1,0,0:0:0:0:
75,56,26550,2,0,P|63:111|92:171,1,120,4|2,0:0|0:0,0:0:0:0:
136,250,27796,2,0,B|256:295|256:199|376:249,1,240,2|4,2:0|0:0,0:0:0:0:
452,293,29663,1,2,0:0:0:0:
492,201,30283,6,0,P|499:140|272:51,1,360,4|2,0:0|0:0,0:0:0:0:
220,130,32783,2,0,P|213:191|440:280,1,360,4|2,0:0|2:0,0:0:0:0:
492,201,35283,6,0,P|499:140|272:51,1,360,4|2,0:0|0:0,0:0:0:0:
214,126,37765,2,0,P|128:140|65:20,1,240,4|0,0:0|0:0,0:0:0:0:
157,47,39623,1,2,0:0:0:0:
249,23,40215,6,0,B|369:-22|369:74|489:24,1,240,4|2,0:0|2:0,0:0:0:0:
511,118,42102,1,0,0:0:0:0:
493,212,42721,2,0,P|435:297|305:287,1,240,4|2,0:0|2:0,0:0:0:0:
224,244,44586,1,0,0:0:0:0:
232,148,45208,6,0,P|290:63|420:73,1,240,4|2,0:0|2:0,0:0:0:0:
499,117,47073,1,0,0:0:0:0:
491,212,47695,2,0,B|399:288|399:288|279:303,1,240,4|2,0:0|2:0,0:0:0:0:
184,310,49560,1,0,0:0:0:0:
225,224,50182,6,0,P|230:169|194:109,1,120,4|2,0:0|0:0,0:0:0:0:
109,76,51412,2,0,P|105:135|135:187,1,120,2|0,2:0|0:0,0:0:0:0:
225,224,52643,2,0,P|339:217|392:115,1,240,4|2,0:0|2:0,0:0:0:0:
353,27,54518,1,0,0:0:0:0:
264,74,55143,6,0,B|144:119|144:23|24:73,1,240,4|2,0:0|2:0,0:0:0:0:
3,161,57018,1,0,0:0:0:0:
60,237,57643,2,0,P|117:243|186:212,1,120,4|2,0:0|0:0,0:0:0:0:
227,141,58883,2,0,P|284:135|353:166,1,120,2|0,2:0|0:0,0:0:0:0:
388,238,60123,5,4,0:0:0:0:
366,328,60735,1,2,0:0:0:0:
282,376,61347,6,0,L|156:353,1,120,4|2,0:0|0:0,0:0:0:0:
112,273,62597,2,0,L|238:250,1,120,0|2,0:0|0:0,0:0:0:0:
282,170,63847,2,0,L|156:147,2,120,4|2|0,0:0|0:0|0:0,0:0:0:0:
376,188,65707,1,2,2:0:0:0:
467,158,66327,6,0,P|487:112|470:35,1,120,4|2,0:0|0:0,0:0:0:0:
380,32,67557,2,0,P|360:78|377:155,1,120,0|2,0:0|0:0,0:0:0:0:
403,235,68811,2,0,P|288:282|110:144,1,360,4|2,0:0|0:0,0:0:0:0:
115,58,71302,1,4,0:0:0:0:
115,58,72552,6,0,B|222:3|222:3|338:30,1,240,12|4,0:0|0:0,0:0:0:0:
407,98,74412,1,2,0:0:0:0:
359,181,75032,2,0,B|251:235|251:235|135:208,1,240,12|4,0:0|0:0,0:0:0:0:
67,141,76878,1,2,0:0:0:0:
115,58,77516,6,0,P|222:8|338:30,1,240,12|4,0:0|0:0,0:0:0:0:
407,98,79378,1,2,0:0:0:0:
359,181,80003,2,0,P|252:231|136:209,1,240,12|4,0:0|0:0,0:0:0:0:
46,172,81865,1,2,0:0:0:0:
58,268,82490,6,0,L|83:385,1,120,12|2,0:0|0:0,0:0:0:0:
173,353,83720,2,0,L|198:236,1,120,4|2,0:0|0:0,0:0:0:0:
223,142,84975,2,0,P|309:127|438:221,1,240,12|4,0:0|0:0,0:0:0:0:
388,289,86811,1,2,0:0:0:0:
307,343,87442,6,0,P|263:342|199:303,1,120,12|2,0:0|0:0,0:0:0:0:
142,226,88692,2,0,P|123:169|137:107,1,120,4|2,0:0|0:0,0:0:0:0:
186,30,89937,2,0,P|397:20|510:125,1,360,12|2,0:0|0:0,0:0:0:0:
504,207,92420,5,12,3:0:0:0:
256,192,92574,12,0,94887,2:0:0:0:
326,60,103593,6,0,P|380:37|445:45,2,120,2|2|2,0:0|0:0|0:0,0:0:0:0:
256,125,105468,1,0,0:0:0:0:
186,60,106093,2,0,P|132:37|67:45,2,120,2|2|2,0:0|0:0|0:0,0:0:0:0:
256,125,107968,1,0,0:0:0:0:
320,196,108583,6,0,B|256:296|256:296|191:196,2,240,2|2|2,0:0|0:0|0:0,0:0:0:0:
374,116,111708,1,0,0:0:0:0:
445,179,112320,6,0,P|471:226|477:307,2,120,2|2|2,0:0|0:0|0:0,0:0:0:0:
374,116,114182,1,0,0:0:0:0:
279,99,114797,2,0,P|227:113|165:166,2,120,2|2|2,0:0|0:0|0:0,0:0:0:0:
374,116,116659,1,0,0:0:0:0:
445,179,117280,6,0,P|476:246|378:381,2,240,2|2|2,0:0|0:0|0:0,0:0:0:0:
374,116,120396,1,0,0:0:0:0:
279,100,121020,5,0,0:0:0:0:
256,192,121176,12,0,123513,0:0:0:0:
412,68,124760,6,0,P|437:209|380:284,1,240,12|4,0:0|0:0,0:0:0:0:
291,306,126615,1,2,0:0:0:0:
209,255,127234,2,0,P|184:114|241:39,1,240,12|4,0:0|0:0,0:0:0:0:
330,17,129089,1,2,0:0:0:0:
412,68,129708,6,0,P|440:125|443:182,1,120,12|2,0:0|0:0,0:0:0:0:
425,275,130951,2,0,P|389:327|341:358,1,120,4|2,0:0|0:0,0:0:0:0:
263,308,132195,2,0,P|152:290|65:375,1,240,12|4,0:0|0:0,0:0:0:0:
4,298,134060,1,2,0:0:0:0:
59,220,134682,6,0,P|74:166|64:102,1,120,12|2,0:0|0:0,0:0:0:0:
4,28,135925,2,0,L|121:6,1,120,4|2,0:0|0:0,0:0:0:0:
204,54,137161,2,0,P|219:108|209:172,1,120,12|2,0:0|0:0,0:0:0:0:
149,246,138391,2,0,L|266:268,1,120,4|2,0:0|0:0,0:0:0:0:
361,283,139641,6,0,P|415:240|419:75,1,240,12|4,0:0|0:0,0:0:0:0:
353,13,141503,1,2,0:0:0:0:
269,59,142124,2,0,B|149:104|149:8|29:58,2,240,12|12|4,0:0|0:0|0:0,0:0:0:0:
361,31,145219,1,2,0:0:0:0:
425,101,145831,6,0,L|402:227,1,120,12|2,0:0|2:0,0:0:0:0:
322,271,147087,2,0,L|299:145,1,120,2|2,2:0|0:2,0:0:0:0:
218,211,148344,2,0,L|195:85,1,120,12|2,0:0|2:0,0:0:0:0:
139,15,149565,1,0,0:0:0:0:
239,0,150187,1,2,2:0:0:0:
312,63,150809,6,0,P|392:86|512:0,2,240,12|2|2,0:0|2:0|2:0,0:0:0:0:
223,24,153917,1,2,2:0:0:0:
127,31,154539,1,2,2:0:0:0:
53,93,155164,1,2,2:0:0:0:
34,187,155789,1,12,0:0:0:0:
34,187,157042,6,0,P|130:213|202:106,1,240,12|4,0:0|0:0,0:0:0:0:
256,31,158936,1,2,0:0:0:0:
309,110,159536,2,0,P|367:207|478:187,1,240,12|4,0:0|0:0,0:0:0:0:
509,277,161385,1,2,0:0:0:0:
421,316,162010,6,0,P|308:294|228:199,1,240,12|4,0:0|0:0,0:0:0:0:
216,107,163875,1,2,0:0:0:0:
302,65,164497,2,0,P|415:87|495:182,1,240,12|4,0:0|0:0,0:0:0:0:
507,273,166362,1,2,0:0:0:0:
421,316,166984,6,0,P|361:323|299:289,1,120,12|2,0:0|0:0,0:0:0:0:
248,223,168227,2,0,P|194:198|135:205,1,120,4|2,0:0|0:0,0:0:0:0:
63,269,169471,2,0,L|33:149,1,120,12|2,0:0|0:0,0:0:0:0:
9,59,170704,1,4,0:0:0:0:
98,89,171316,1,2,0:0:0:0:
187,118,171957,6,0,P|247:125|309:91,1,120,12|2,0:0|0:0,0:0:0:0:
374,37,173186,2,0,P|432:30|486:55,1,120,4|2,0:0|0:0,0:0:0:0:
419,123,174416,2,0,L|449:243,1,120,12|2,0:0|0:0,0:0:0:0:
375,302,175660,2,0,L|345:182,1,120,12|2,0:0|0:0,0:0:0:0:
255,221,176916,6,0,B|195:243|195:195|135:220,2,120,12|2|12,0:0|0:0|0:0,0:0:0:0:
291,132,178778,1,2,3:0:0:0:
321,39,179403,2,0,B|381:16|381:64|441:39,1,120,12|2,0:0|0:0,0:0:0:0:
483,124,180640,1,4,0:0:0:0:
438,209,181265,1,2,3:0:0:0:
356,261,181890,6,0,P|278:284|234:270,1,120,12|2,0:0|0:0,0:0:0:0:
167,214,183127,2,0,P|144:159|153:100,1,120,4|2,0:0|3:0,0:0:0:0:
163,5,184364,2,0,L|405:35,1,240,12|4,0:0|0:0,0:0:0:0:
495,51,186226,1,2,0:0:0:0:
436,127,186851,6,0,B|419:181|419:181|437:246,1,120,12|2,0:0|0:0,0:0:0:0:
340,231,188094,2,0,B|356:292|356:292|339:346,1,120,4|2,0:0|3:0,0:0:0:0:
249,377,189338,2,0,P|177:381|66:264,1,240,12|4,0:0|0:0,0:0:0:0:
51,173,191203,1,2,0:0:0:0:
126,113,191825,6,0,B|180:96|180:96|245:114,1,120,12|2,0:0|0:0,0:0:0:0:
230,17,193062,2,0,B|291:33|291:33|345:16,1,120,4|2,0:0|3:0,0:0:0:0:
431,57,194299,1,12,0:0:0:0:
413,151,194920,1,2,0:0:0:0:
395,245,195541,5,12,0:0:0:0:
256,192,195697,12,0,199270,2:0:0:0:
188,35,200610,6,0,P|260:11|397:104,1,240,4|4,0:0|0:0,0:0:0:0:
420,186,202511,1,2,0:0:0:0:
347,244,203112,2,0,P|274:267|137:174,1,240,4|4,0:0|0:0,0:0:0:0:
114,96,204974,1,2,0:0:0:0:
188,35,205599,6,0,B|308:9|308:9|392:92,1,240,4|4,0:0|0:0,0:0:0:0:
420,182,207474,1,2,0:0:0:0:
347,244,208099,2,0,B|227:270|227:270|143:187,1,240,4|4,0:0|0:0,0:0:0:0:
72,123,209964,1,2,0:0:0:0:
103,32,210586,6,0,B|139:-14|264:-28|264:38|264:100|397:86|425:32,1,360,4|2,0:0|0:0,0:0:0:0:
495,99,213060,6,0,B|453:155|354:186|274:153|274:153|299:217|266:282,1,360,4|2,0:0|0:0,0:0:0:0:
218,343,215539,6,0,P|98:346|20:147,1,360,4|2,0:0|0:0,0:0:0:0:
256,192,218009,12,4,220503,0:0:0:0:
