osu file format v14

[General]
AudioFilename: EnV - Uprise.mp3
AudioLeadIn: 2000
PreviewTime: 21843
Countdown: 0
SampleSet: Normal
StackLeniency: 0.7
Mode: 0
LetterboxInBreaks: 0
WidescreenStoryboard: 0

[Editor]
Bookmarks: 10525,132399
DistanceSpacing: 1
BeatDivisor: 4
GridSize: 4
TimelineZoom: 1

[Metadata]
Title:Uprise
TitleUnicode:Uprise
Artist:Envy
ArtistUnicode:Envy
Creator:Aldwych
Version:Hard
Source:
Tags:dance house electronic edm Gezo Totoro le Pacha Natsu Newgrounds
BeatmapID:445520
BeatmapSetID:165414

[Difficulty]
HPDrainRate:5
CircleSize:3.5
OverallDifficulty:6
ApproachRate:7
SliderMultiplier:1.7
SliderTickRate:2

[Events]
//Background and Video events
0,0,"uprise.jpg",0,0
//Break Periods
2,81582,95251
//Storyboard Layer 0 (Background)
//Storyboard Layer 1 (Fail)
//Storyboard Layer 2 (Pass)
//Storyboard Layer 3 (Foreground)
//Storyboard Sound Samples

[TimingPoints]
151,461.538461538462,4,2,0,70,1,0
7535,-100,4,2,0,80,0,0
14920,-100,4,2,0,90,0,0
19074,-100,4,2,0,100,0,0
22304,-90.9090909090909,4,1,1,50,0,1
22420,-90.9090909090909,4,1,1,50,0,0
25535,-90.9090909090909,4,1,1,20,0,0
25997,-90.9090909090909,4,1,1,50,0,0
26977,-90.9090909090909,4,1,1,5,0,0
27151,-90.9090909090909,4,1,1,50,0,0
32920,-90.9090909090909,4,1,1,20,0,0
33381,-90.9090909090909,4,1,1,50,0,0
36612,-90.9090909090909,4,2,0,60,0,0
37074,-83.3333333333333,4,1,1,80,0,1
37189,-83.3333333333333,4,1,1,50,0,0
37535,-90.9090909090909,4,1,1,50,0,0
40304,-90.9090909090909,4,1,1,20,0,0
40766,-90.9090909090909,4,1,1,50,0,0
47689,-90.9090909090909,4,1,1,20,0,0
48151,-90.9090909090909,4,1,1,50,0,0
51381,-90.9090909090909,4,2,0,80,0,0
51843,-76.9230769230769,4,1,1,80,0,1
81381,-90.9090909090909,4,2,1,30,0,0
125689,-66.6666666666667,4,1,1,50,0,1
125804,-90.9090909090909,4,1,1,50,0,0
128920,-90.9090909090909,4,1,1,20,0,0
129381,-90.9090909090909,4,1,1,50,0,0
136304,-90.9090909090909,4,1,1,20,0,0
136766,-90.9090909090909,4,1,1,50,0,0
139997,-90.9090909090909,4,2,0,60,0,0
140458,-66.6666666666667,4,1,1,50,0,1
140920,-90.9090909090909,4,1,1,50,0,0
155227,-76.9230769230769,4,1,1,80,0,1
169535,-133.333333333333,4,2,0,50,0,0
169997,-66.6666666666667,4,1,1,80,0,1
170458,-76.9230769230769,4,1,1,80,0,1
184766,-90.9090909090909,4,1,1,50,0,0
208766,-90.9090909090909,4,1,1,40,0,0
212458,-90.9090909090909,4,1,1,30,0,0
213151,-90.9090909090909,4,1,1,20,0,0
213843,-90.9090909090909,4,1,1,10,0,0

[Colours]
Combo1 : 191,140,204
Combo2 : 229,229,229
Combo3 : 165,125,176
Combo4 : 150,152,150
Combo5 : 255,179,64

[HitObjects]
48,124,151,5,0,0:0:0:0:
132,144,381,1,0,0:0:0:0:
204,192,612,2,0,P|257:235|323:234,2,127.5,0|0|0,0:0|0:0|0:0,2:3:0:0:
212,108,1535,2,0,P|236:64|280:44,1,85
344,80,1997,2,0,P|370:122|365:170,1,85
356,240,2458,2,0,P|412:268|428:332,1,127.5,2|2,0:0|0:0,0:0:0:0:
304,344,3151,2,0,P|248:316|232:252,1,127.5,2|2,0:0|0:0,0:0:0:0:
140,88,3843,5,0,0:0:0:0:
184,160,4074,1,0,0:0:0:0:
268,172,4304,2,0,P|336:172|384:128,2,127.5,2|2|0,0:0|0:0|0:0,0:0:0:0:
304,88,5227,1,2,0:0:0:0:
236,244,5458,1,2,0:0:0:0:
404,232,5689,1,2,0:0:0:0:
404,232,5920,1,0,0:0:0:0:
404,232,6151,2,0,P|464:276|468:348,2,127.5,2|2|0,0:0|0:0|0:0,0:0:0:0:
388,316,7074,1,2,0:0:0:0:
420,148,7304,1,2,0:0:0:0:
440,64,7535,6,0,P|392:64|360:84,1,85
308,148,7997,2,0,P|248:188|176:168,2,127.5,2|2|0,0:0|0:0|0:0,0:0:0:0:
232,100,8920,1,2,0:0:0:0:
148,112,9151,1,2,0:0:0:0:
112,192,9381,1,2,0:0:0:0:
168,260,9612,1,2,0:0:0:0:
248,284,9843,2,0,P|241:222|194:179,1,127.5,2|2,0:0|0:0,0:0:0:0:
88,240,10535,2,0,P|94:301|142:341,2,127.5,2|2|0,0:0|0:0|0:0,0:0:0:0:
124,160,11458,5,0,0:0:0:0:
184,96,11689,2,0,B|108:56|108:56|60:56,2,127.5,2|2|0,0:0|0:0|0:0,0:0:0:0:
220,172,12612,1,2,0:0:0:0:
328,88,12843,1,2,0:0:0:0:
320,224,13074,1,2,0:0:0:0:
380,284,13304,1,0,0:0:0:0:
440,344,13535,2,0,B|492:272|492:272|492:232,2,127.5,2|2|0,0:0|0:0|0:0,0:0:0:0:
380,284,14458,1,2,0:0:0:0:
320,224,14689,1,2,0:0:0:0:
358,140,14920,6,0,P|392:165|408:204,1,85,6|2,0:0|0:0,0:0:0:0:
276,120,15381,1,2,0:0:0:0:
96,56,15727,1,2,0:0:0:0:
116,244,16074,1,2,0:0:0:0:
200,240,16304,2,0,P|252:220|280:180,1,85,2|2,0:0|0:0,0:0:0:0:
380,136,16766,2,0,P|371:191|391:235,1,85
376,344,17227,2,0,P|332:308|284:304,1,85,2|0,0:0|0:0,0:0:0:0:
264,316,17574,2,0,P|204:336|128:316,1,127.5,2|2,0:0|0:0,0:0:0:0:
32,200,18266,2,0,P|92:180|168:200,1,127.5,2|4,0:0|0:0,0:0:0:0:
232,224,18843,5,2,0:0:0:0:
312,192,19074,2,0,P|368:132|428:132,2,127.5,2|2|0,0:0|0:0|0:0,0:0:0:0:
396,208,19997,1,2,0:0:0:0:
424,48,20227,1,2,0:0:0:0:
272,100,20458,1,2,0:0:0:0:
256,192,20574,12,0,21843,0:0:0:0:
256,120,22304,6,0,P|200:120|172:96,1,93.5000028533936,4|0,0:0|0:0,0:0:0:0:
80,88,22766,1,8,0:0:0:0:
40,172,22997,1,0,0:0:0:0:
24,216,23112,1,0,0:0:0:0:
40,260,23227,2,0,P|72:304|112:312,1,93.5000028533936
156,304,23574,1,0,0:0:0:0:
200,288,23689,2,0,L|308:320,1,93.5000028533936,8|0,0:0|0:0,0:0:0:0:
424,280,24151,5,0,0:0:0:0:
476,152,24381,1,0,0:0:0:0:
360,60,24612,2,0,P|315:49|274:70,1,93.5000028533936,8|0,0:0|0:0,0:0:0:0:
236,100,24958,1,0,0:0:0:0:
200,132,25074,1,0,0:0:0:0:
136,200,25304,1,0,0:0:0:0:
56,252,25535,2,0,P|128:296|200:272,1,140.25000428009,10|0,0:0|0:0,0:0:0:0:
220,308,25997,6,0,P|276:304|320:272,2,93.5000028533936,0|0|8,0:0|0:0|0:0,0:0:0:0:
244,216,26689,1,0,0:0:0:0:
288,204,26804,1,0,0:0:0:0:
336,196,26920,1,0,0:0:0:0:
452,168,27151,1,0,0:0:0:0:
304,60,27381,1,8,0:0:0:0:
288,204,27612,1,0,0:0:0:0:
452,168,27843,6,0,P|464:120|444:80,1,93.5000028533936
368,132,28304,2,0,P|356:180|376:220,1,93.5000028533936,8|0,0:0|0:0,0:0:0:0:
400,256,28651,1,0,0:0:0:0:
424,296,28766,2,0,L|332:332,1,93.5000028533936
196,308,29227,2,0,L|283:273,1,93.5000028533936,8|0,0:0|0:0,0:0:0:0:
332,192,29689,5,0,0:0:0:0:
372,108,29920,2,0,P|312:100|268:124,1,93.5000028533936,0|8,0:0|0:0,0:0:0:0:
208,168,30381,1,0,0:0:0:0:
172,200,30497,1,0,0:0:0:0:
128,212,30612,2,0,P|80:200|56:164,1,93.5000028533936
56,120,30958,1,0,0:0:0:0:
80,80,31074,1,8,0:0:0:0:
168,32,31304,2,0,P|224:48|240:96,1,93.5000028533936
256,216,31766,5,0,0:0:0:0:
340,328,31997,1,8,0:0:0:0:
468,272,32227,2,0,L|448:228,1,46.7500014266968
468,188,32458,2,0,L|388:120,1,93.5000028533936
320,180,32920,2,0,L|292:28,1,140.25000428009,10|0,0:0|0:0,0:0:0:0:
248,40,33381,5,0,0:0:0:0:
244,180,33612,1,0,0:0:0:0:
366,111,33843,2,0,P|413:126|442:173,1,93.5000028533936,8|0,0:0|0:0,0:0:0:0:
439,207,34189,1,0,0:0:0:0:
416,248,34304,2,0,P|380:276|364:324,1,93.5000028533936
456,332,34766,1,8,0:0:0:0:
368,188,34997,1,0,0:0:0:0:
292,340,35227,5,0,0:0:0:0:
204,304,35458,2,0,L|116:272,1,93.5000028533936,0|8,0:0|0:0,0:0:0:0:
36,156,35920,2,0,L|124:188,2,93.5000028533936
32,64,36612,1,2,0:0:0:0:
120,40,36843,1,0,0:0:0:0:
120,40,37074,6,0,P|176:56|212:116,2,101.999996887207,4|0|8,0:0|0:0|0:0,0:0:0:0:
124,132,37766,1,0,0:0:0:0:
96,171,37881,1,0,0:0:0:0:
68,210,37997,1,0,0:0:0:0:
100,292,38227,1,0,0:0:0:0:
137,263,38343,1,0,0:0:0:0:
178,240,38458,1,8,0:0:0:0:
256,192,38689,1,0,0:0:0:0:
265,283,38920,6,8,P|316:266|343:223,1,93.5000028533936
175,152,39381,2,0,P|163:196|180:240,1,93.5000028533936,8|0,0:0|0:0,0:3:0:0:
329,137,39843,2,0,P|288:102|237:100,1,93.5000028533936
196,28,40304,2,0,P|147:65|70:57,1,140.25000428009,2|0,0:0|0:0,0:0:0:0:
46,96,40766,6,0,L|0:185,2,93.5000028533936,0|0|8,0:0|0:0|0:0,0:0:0:0:
88,180,41458,1,0,0:0:0:0:
120,212,41574,1,0,0:0:0:0:
168,216,41689,1,0,0:0:0:0:
260,200,41920,1,0,0:0:0:0:
260,248,42035,1,0,0:0:0:0:
232,288,42151,1,8,0:0:0:0:
152,344,42381,1,0,0:0:0:0:
148,156,42612,5,0,0:0:0:0:
332,112,42843,2,0,B|356:69|356:69|345:26,1,93.5000028533936,0|8,0:0|0:0,0:0:0:0:
257,137,43304,2,0,B|280:178|280:178|324:190,1,93.5000028533936,0|0,0:0|0:0,0:0:0:0:
274,63,43766,2,0,B|225:63|225:63|193:95,2,93.5000028533936,0|8|0,0:0|0:0|0:0,0:0:0:0:
416,92,44458,6,0,P|444:144|432:188,1,93.5000028533936
372,244,44920,2,0,P|376:316|316:364,2,140.25000428009,8|0|0,0:0|0:0|0:0,0:0:0:0:
340,212,45727,1,0,0:0:0:0:
292,212,45843,1,8,0:0:0:0:
204,248,46074,2,0,P|154:244|110:206,1,93.5000028533936
188,156,46535,5,0,0:0:0:0:
228,340,46766,1,8,0:0:0:0:
52,276,46997,1,0,0:0:0:0:
52,276,47112,1,0,0:0:0:0:
52,276,47227,2,0,L|32:184,1,93.5000028533936
68,96,47689,2,0,P|136:80|196:40,1,140.25000428009,10|0,0:0|0:0,0:0:0:0:
240,44,48151,5,0,0:0:0:0:
332,60,48381,1,0,0:0:0:0:
380,140,48612,1,8,0:0:0:0:
372,232,48843,2,0,L|332:284,1,46.7500014266968
300,292,49074,2,0,P|248:260|188:272,1,93.5000028533936
172,272,49420,1,0,0:0:0:0:
128,292,49535,1,8,0:0:0:0:
44,332,49766,1,0,0:0:0:0:
256,192,49997,12,2,51381,0:0:0:0:
268,192,51843,6,0,P|252:136|188:120,1,110.499994941712,4|0,0:0|0:0,0:0:0:0:
100,88,52304,2,0,L|44:120,1,55.2499974708558,8|0,0:0|0:0,0:0:0:0:
96,148,52535,2,0,L|60:204,1,55.2499974708558,0|0,0:0|0:0,0:0:0:0:
120,204,52766,2,0,L|136:268,1,55.2499974708558,0|0,0:0|0:0,0:0:0:0:
188,264,52997,2,0,P|232:304|288:304,1,110.499994941712,0|8,0:0|0:0,0:0:0:0:
376,248,53458,1,0,0:0:0:0:
268,220,53689,1,0,0:0:0:0:
288,328,53920,1,0,0:0:0:0:
352,236,54151,6,0,L|380:176,1,55.2499974708558,8|0,0:0|0:0,0:0:0:0:
328,156,54381,2,0,L|336:88,1,55.2499974708558,0|0,0:0|0:0,0:0:0:0:
280,116,54612,2,0,L|260:60,2,55.2499974708558,0|0|0,0:0|0:0|0:0,0:0:0:0:
184,180,55074,2,0,P|128:136|76:140,1,110.499994941712,8|0,0:0|0:0,0:0:0:0:
44,164,55420,1,0,0:0:0:0:
28,216,55535,1,0,0:0:0:0:
16,324,55766,6,0,L|132:292,1,110.499994941712,0|8,0:0|0:0,0:0:0:0:
208,364,56227,2,0,P|258:339|280:277,2,110.499994941712,0|0|0,0:0|0:0|0:0,0:0:0:0:
180,260,56920,1,8,0:0:0:0:
264,188,57151,1,0,0:0:0:0:
412,308,57381,1,0,0:0:0:0:
372,204,57612,1,0,0:0:0:0:
302,282,57843,2,0,P|247:338|128:272,2,220.999989883423,8|0|8,0:0|0:0|0:0,0:0:0:0:
348,180,58997,1,0,0:0:0:0:
412,88,59227,6,0,P|452:48|516:40,1,110.499994941712,0|0,0:0|0:0,0:0:0:0:
504,148,59689,2,0,L|464:204,1,55.2499974708558,0|0,0:0|0:0,0:0:0:0:
424,168,59920,2,0,L|384:224,1,55.2499974708558,0|0,0:0|0:0,0:0:0:0:
348,180,60151,2,0,L|308:236,2,55.2499974708558,0|0|0,0:0|0:0|0:0,0:0:0:0:
240,212,60612,2,0,P|187:245|129:235,1,110.499994941712,8|0,0:0|0:0,0:0:0:0:
32,228,61074,5,0,0:0:0:0:
12,120,61304,1,0,0:0:0:0:
104,60,61535,2,0,L|155:39,1,55.2499974708558,8|0,0:0|0:0,0:0:0:0:
188,88,61766,2,0,L|239:67,1,55.2499974708558,0|0,0:0|0:0,0:0:0:0:
272,116,61997,2,0,L|323:95,2,55.2499974708558,0|0|0,0:0|0:0|0:0,0:0:0:0:
264,228,62458,2,0,P|268:316|388:348,1,220.999989883423,8|0,0:0|0:0,0:0:0:0:
456,272,63151,5,0,0:0:0:0:
344,272,63381,2,0,P|260:324|172:232,2,220.999989883423,8|0|8,0:0|0:0|0:0,0:0:0:0:
380,108,64535,1,0,0:0:0:0:
216,108,64766,2,0,P|160:84|108:100,1,110.499994941712
95,260,65227,2,0,P|140:229|157:177,1,110.499994941712,8|0,0:0|0:0,0:0:0:0:
27,77,65689,2,0,P|31:131|68:172,1,110.499994941712
68,172,66151,1,8,0:0:0:0:
68,172,66381,1,0,0:0:0:0:
176,200,66612,6,0,P|208:152|264:132,1,110.499994941712,4|0,0:0|0:0,0:0:0:0:
276,240,67074,2,0,L|340:272,1,55.2499974708558,8|0,0:0|0:0,0:0:0:0:
340,212,67304,2,0,L|412:208,1,55.2499974708558,0|0,0:0|0:0,0:0:0:0:
396,152,67535,2,0,L|456:108,2,55.2499974708558,0|0|0,0:0|0:0|0:0,0:0:0:0:
362,341,67997,2,0,P|408:311|424:260,1,110.499994941712,8|0,0:0|0:0,0:0:0:0:
316,240,68458,5,0,0:0:0:0:
242,323,68689,1,0,0:0:0:0:
138,283,68920,2,0,L|94:319,1,55.2499974708558,8|0,0:0|0:0,0:0:0:0:
97,262,69151,2,0,L|41:262,1,55.2499974708558
73,217,69381,2,0,B|52:158|80:111|80:111|-5:29,2,220.999989883423,0|8|0,0:0|0:0|0:0,0:0:0:0:
172,168,70535,5,0,0:0:0:0:
210,59,70766,2,0,L|252:96,1,55.2499974708558,8|0,0:0|0:0,0:0:0:0:
280,48,70997,2,0,L|321:84,1,55.2499974708558
352,36,71227,2,0,L|393:72,2,55.2499974708558
368,147,71689,1,8,0:0:0:0:
312,252,71920,1,0,0:0:0:0:
200,252,72151,5,0,0:0:0:0:
144,147,72381,1,8,0:0:0:0:
124,39,72612,2,0,P|48:95|60:219,1,220.999989883423,8|0,0:0|0:0,0:0:0:0:
129,293,73304,1,0,0:0:0:0:
234,326,73535,2,0,P|279:294|340:285,1,110.499994941712,8|0,0:0|0:0,0:0:0:0:
440,309,73997,6,0,P|435:252|396:197,1,110.499994941712
302,174,74458,2,0,L|327:115,1,55.2499974708558,8|0,0:0|0:0,0:0:0:0:
268,116,74689,2,0,L|268:56,1,55.2499974708558
213,72,74920,2,0,L|188:13,2,55.2499974708558
214,185,75381,2,0,P|193:225|202:296,1,110.499994941712,8|0,0:0|0:0,0:0:0:0:
285,356,75843,6,0,P|305:304|298:251,1,110.499994941712
300,140,76304,2,0,L|328:80,1,55.2499974708558,8|0,0:0|0:0,0:0:0:0:
268,92,76535,2,0,L|248:28,1,55.2499974708558,0|0,0:0|0:0,0:0:0:0:
208,72,76766,2,0,L|160:32,2,55.2499974708558,0|0|0,0:0|0:0|0:0,0:0:0:0:
208,184,77227,2,0,P|212:284|108:340,1,220.999989883423,8|0,0:0|0:0,0:0:0:0:
20,280,77920,5,0,0:0:0:0:
124,240,78151,2,0,P|224:284|304:212,1,220.999989883423,8|0,0:0|0:0,0:0:0:0:
301,219,78727,1,0,0:0:0:0:
301,219,78843,1,0,0:0:0:0:
345,118,79074,1,0,0:0:0:0:
446,162,79304,1,0,0:0:0:0:
401,263,79535,2,0,P|380:316|324:344,1,110.499994941712
256,192,79997,12,4,81382,0:0:0:0:
268,208,96151,5,4,0:0:0:0:
308,124,96381,1,0,0:0:0:0:
392,80,96612,2,0,P|400:148|348:208,2,140.25000428009,8|0|0,0:0|0:0|0:0,0:0:0:0:
304,48,97535,1,8,0:0:0:0:
220,88,97766,1,0,0:0:0:0:
144,140,97997,2,0,P|84:120|64:84,1,93.5000028533936,8|0,0:0|0:0,0:0:0:0:
148,48,98458,2,0,P|216:84|236:144,1,140.25000428009,10|2,0:0|0:0,0:0:0:0:
363,335,99151,2,0,P|301:306|275:243,2,140.25000428009,2|2|8,0:0|0:0|0:0,0:0:0:0:
367,244,100074,6,0,P|413:252|443:287,1,93.5000028533936,0|8,0:0|0:0,0:0:0:0:
256,192,100651,1,0,0:0:0:0:
367,139,100997,2,0,P|413:131|443:96,1,93.5000028533936,0|10,0:0|0:0,0:0:0:0:
364,48,101458,1,0,0:0:0:0:
208,152,101689,1,10,0:0:0:0:
376,236,101920,1,0,0:0:0:0:
376,236,102151,2,0,P|328:280|248:296,1,140.25000428009,10|2,0:0|0:0,0:0:0:0:
136,148,102843,2,0,P|184:104|264:88,1,140.25000428009,2|2,0:0|0:0,0:0:0:0:
180,256,103535,5,12,0:0:0:0:
252,192,103766,1,0,0:0:0:0:
332,128,103997,2,0,P|352:172|304:276,1,140.25000428009,8|0,0:0|0:0,0:0:0:0:
180,256,104689,2,0,P|136:264|84:240,2,93.5000028533936,0|8|0,0:0|0:0|0:0,0:0:0:0:
252,192,105381,1,8,0:0:0:0:
180,128,105612,2,0,P|136:120|84:144,1,93.5000028533936,0|10,0:0|0:0,0:0:0:0:
192,312,106189,2,0,P|300:320|332:288,1,140.25000428009,2|2,0:0|0:0,0:0:0:0:
436,204,106881,2,0,P|328:196|296:228,1,140.25000428009,2|8,0:0|0:0,0:0:0:0:
212,176,107458,5,2,0:0:0:0:
112,160,107689,2,0,P|88:80|32:44,2,140.25000428009,8|0|0,0:0|0:0|0:0,0:0:0:0:
8,148,108612,1,10,0:0:0:0:
164,44,108843,1,0,0:0:0:0:
160,232,109074,1,10,0:0:0:0:
160,232,109304,1,0,0:0:0:0:
160,232,109535,2,0,P|248:192|268:144,2,140.25000428009,8|0|0,0:0|0:0|0:0,0:0:0:0:
92,168,110458,1,10,0:0:0:0:
224,296,110689,1,2,0:0:0:0:
304,344,110920,6,0,P|352:324|380:276,1,93.5000028533936,8|0,0:0|0:0,0:0:0:0:
292,252,111381,2,0,P|328:184|308:116,2,140.25000428009,8|0|0,0:0|0:0|0:0,0:0:0:0:
236,176,112304,2,0,P|208:128|168:108,1,93.5000028533936,8|0,0:0|0:0,0:0:0:0:
148,196,112766,1,8,0:0:0:0:
332,152,112997,1,0,0:0:0:0:
200,20,113227,2,0,P|120:36|64:88,1,140.25000428009,8|2,0:0|0:0,0:0:0:0:
4,272,113920,2,0,P|84:256|140:204,1,140.25000428009,0|2,0:0|0:0,0:0:0:0:
256,192,114612,5,8,0:0:0:0:
240,284,114843,1,0,0:0:0:0:
320,124,115074,2,0,P|396:96|464:148,2,140.25000428009,8|0|0,0:0|0:0|0:0,0:0:0:0:
384,192,115997,1,10,0:0:0:0:
488,48,116227,1,0,0:0:0:0:
310,31,116458,2,0,L|228:76,1,93.5000028533936,10|0,0:0|0:0,0:0:0:0:
140,108,116920,2,0,P|140:180|60:223,2,140.25000428009,8|0|0,0:0|0:0|0:0,0:0:0:0:
72,38,117843,1,2,0:0:0:0:
48,132,118074,1,8,0:0:0:0:
256,192,118304,6,0,P|304:216|360:200,1,93.5000028533936,4|0,0:0|0:0,0:0:0:0:
316,120,118766,2,0,P|384:128|432:184,2,140.25000428009
256,192,119689,1,0,0:0:0:0:
248,80,119920,1,0,0:0:0:0:
184,196,120151,1,4,0:0:0:0:
180,48,120381,1,0,0:0:0:0:
112,200,120612,2,0,P|64:248|48:320,1,140.25000428009,0|2,0:0|0:0,0:0:0:0:
188,320,121304,2,0,P|236:271|252:204,2,140.25000428009,0|2|4,0:0|0:0|0:0,0:0:0:0:
112,200,122227,5,0,0:0:0:0:
60,64,122458,2,0,P|128:55|192:84,2,140.25000428009
112,200,123381,1,2,0:0:0:0:
188,320,123612,1,0,0:0:0:0:
256,192,123843,12,0,125227,0:0:0:0:
144,248,125689,6,0,P|108:176|124:120,2,127.500004863739,4|0|8,0:0|0:0|0:0,0:0:0:0:
200,172,126381,1,0,0:0:0:0:
224,132,126497,1,0,0:0:0:0:
268,112,126612,1,0,0:0:0:0:
360,144,126843,1,0,0:0:0:0:
332,184,126958,1,0,0:0:0:0:
288,204,127074,1,8,0:0:0:0:
256,292,127304,2,0,P|208:280|164:296,1,93.5000028533936
216,376,127766,5,0,0:0:0:0:
128,212,127997,2,0,P|112:160|68:132,1,93.5000028533936,8|0,0:0|0:0,0:0:0:0:
56,100,128343,1,0,0:0:0:0:
56,52,128458,2,0,P|148:80|148:84,1,93.5000028533936
208,112,128920,2,0,P|264:68|324:96,1,140.25000428009,10|0,0:0|0:0,0:0:0:0:
340,136,129381,6,0,P|380:168|440:168,1,93.5000028533936
416,80,129843,1,8,0:0:0:0:
264,188,130074,1,0,0:0:0:0:
232,224,130189,1,0,0:0:0:0:
188,232,130304,1,0,0:0:0:0:
96,216,130535,1,0,0:0:0:0:
108,172,130651,1,0,0:0:0:0:
148,148,130766,1,8,0:0:0:0:
264,188,130997,5,0,0:0:0:0:
96,268,131227,1,0,0:0:0:0:
92,76,131458,1,0,0:0:0:0:
92,76,131689,2,0,P|156:40|196:52,1,93.5000028533936,8|0,0:0|0:0,0:0:0:0:
216,60,132035,1,0,0:0:0:0:
260,76,132151,1,0,0:0:0:0:
344,116,132381,2,0,P|308:156|260:168,1,93.5000028533936,0|8,0:0|0:0,0:0:0:0:
180,148,132843,1,0,0:0:0:0:
136,64,133074,5,0,0:0:0:0:
68,128,133304,2,0,P|68:180|104:232,1,93.5000028533936,0|8,0:0|0:0,0:0:0:0:
180,272,133766,1,0,0:0:0:0:
236,280,133881,1,0,0:0:0:0:
280,244,133997,1,0,0:0:0:0:
340,148,134227,1,0,0:0:0:0:
284,140,134343,1,0,0:0:0:0:
240,176,134458,1,8,0:0:0:0:
324,312,134689,5,0,0:0:0:0:
468,240,134920,1,0,0:0:0:0:
384,104,135151,1,0,0:0:0:0:
240,176,135381,2,0,P|156:124|72:176,1,187.000005706787,8|0,0:0|0:0,0:0:0:0:
156,220,136074,1,0,0:0:0:0:
320,132,136304,2,0,P|340:76|428:88,1,140.25000428009,10|0,0:0|0:0,0:0:0:0:
440,108,136766,6,0,P|460:156|440:212,1,93.5000028533936
388,320,137227,2,0,P|349:284|344:225,1,93.5000028533936,8|0,0:0|0:0,0:0:0:0:
248,140,137689,2,0,P|290:109|349:116,1,93.5000028533936
243,241,138151,1,8,0:0:0:0:
169,101,138381,1,0,0:0:0:0:
312,34,138612,1,0,0:0:0:0:
377,178,138843,1,0,0:0:0:0:
349,334,139074,6,0,P|241:358|201:338,1,140.25000428009,8|0,0:0|0:0,0:0:0:0:
188,312,139535,2,0,P|131:262|110:263,1,93.5000028533936
48,192,139997,1,2,0:0:0:0:
112,120,140227,1,0,0:0:0:0:
112,120,140458,6,0,P|172:88|228:96,2,127.500004863739,4|0|8,0:0|0:0|0:0,0:0:0:0:
184,180,141151,1,0,0:0:0:0:
220,208,141266,1,0,0:0:0:0:
256,240,141381,2,0,L|348:192,1,93.5000028533936
380,224,141727,1,0,0:0:0:0:
416,252,141843,1,8,0:0:0:0:
444,164,142074,2,0,P|432:108|396:80,1,93.5000028533936
324,72,142535,5,8,0:0:0:0:
352,160,142766,1,0,0:0:0:0:
264,144,142997,2,0,L|204:164,1,46.7500014266968
176,140,143227,2,0,P|120:120|68:144,1,93.5000028533936
124,216,143689,2,0,P|204:284|236:280,1,140.25000428009,10|0,0:0|0:0,0:0:0:0:
276,268,144151,6,0,L|328:184,1,93.5000028533936
263,110,144612,2,0,L|211:194,1,93.5000028533936,8|0,0:0|0:0,0:0:0:0:
433,161,145074,2,0,L|349:109,1,93.5000028533936
105,221,145535,2,0,L|189:273,1,93.5000028533936,8|0,0:0|0:0,0:0:0:0:
256,192,145997,1,0,0:0:0:0:
188,128,146227,1,0,0:0:0:0:
324,256,146458,1,8,0:0:0:0:
416,280,146689,2,0,L|448:232,1,46.7500014266968
456,196,146920,2,0,P|416:132|464:32,1,187.000005706787,0|8,0:0|0:0,0:0:0:0:
504,116,147612,1,0,0:0:0:0:
416,280,147843,5,0,0:0:0:0:
336,328,148074,2,0,L|256:276,1,93.5000028533936,0|8,0:0|0:0,0:0:0:0:
208,204,148535,1,0,0:0:0:0:
188,160,148651,1,0,0:0:0:0:
148,136,148766,1,0,0:0:0:0:
304,204,148997,1,0,0:0:0:0:
324,160,149112,1,0,0:0:0:0:
364,136,149227,1,8,0:0:0:0:
396,224,149458,1,0,0:0:0:0:
256,124,149689,5,0,0:0:0:0:
116,224,149920,1,0,0:0:0:0:
256,324,150151,2,0,P|328:352|384:328,2,140.25000428009,8|0|0,0:0|0:0|0:0,0:0:0:0:
320,256,151074,2,0,P|284:188|222:155,1,140.25000428009,8|0,0:0|0:0,0:0:0:0:
184,168,151535,5,0,0:0:0:0:
120,236,151766,1,0,0:0:0:0:
40,188,151997,1,8,0:0:0:0:
84,104,152227,2,0,L|116:64,1,46.7500014266968
160,56,152458,2,0,P|264:28|352:68,1,187.000005706787
384,136,153151,1,0,0:0:0:0:
256,192,153381,12,0,154996,0:0:0:0:
72,176,155227,6,0,P|136:148|184:160,1,110.499994941712,4|0,0:0|0:0,0:0:0:0:
264,216,155689,1,8,0:0:0:0:
312,244,155804,1,0,0:0:0:0:
368,244,155920,1,0,0:0:0:0:
416,216,156035,1,0,0:0:0:0:
444,168,156151,2,0,L|472:112,2,55.2499974708558
340,132,156612,2,0,P|284:96|232:100,2,110.499994941712,8|0|0,0:0|0:0|0:0,0:0:0:0:
416,216,157304,5,0,0:0:0:0:
376,316,157535,2,0,L|312:344,1,55.2499974708558,8|0,0:0|0:0,0:0:0:0:
296,292,157766,2,0,L|216:304,1,55.2499974708558
208,256,157997,2,0,L|128:224,2,55.2499974708558
256,156,158458,2,0,P|172:92|64:140,1,220.999989883423,8|0,0:0|0:0,0:0:0:0:
156,200,159151,5,0,0:0:0:0:
222,287,159381,2,0,L|257:352,1,55.2499974708558,8|0,0:0|0:0,0:0:0:0:
294,304,159612,2,0,L|329:369,1,55.2499974708558
365,320,159843,2,0,L|400:385,2,55.2499974708558
437,236,160304,1,8,0:0:0:0:
378,142,160535,1,0,0:0:0:0:
416,38,160766,2,0,P|464:69|488:126,1,110.499994941712
276,96,161227,6,0,L|204:132,1,55.2499974708558,8|0,0:0|0:0,0:0:0:0:
232,176,161458,2,0,L|160:212,1,55.2499974708558
188,256,161689,2,0,L|116:292,2,55.2499974708558
288,308,162151,1,8,0:0:0:0:
96,196,162381,1,0,0:0:0:0:
68,88,162612,6,0,P|132:92|192:136,1,110.499994941712,0|0,0:0|0:0,0:0:0:0:
264,176,163074,2,0,L|332:216,1,55.2499974708558,8|0,0:0|0:0,0:0:0:0:
352,164,163304,2,0,L|420:204,1,55.2499974708558,0|0,0:0|0:0,0:0:0:0:
440,156,163535,2,0,L|508:196,2,55.2499974708558
357,81,163997,1,8,0:0:0:0:
250,54,164227,1,0,0:0:0:0:
140,72,164458,6,0,B|90:110|90:110|72:162,1,110.499994941712,0|8,0:0|0:0,0:0:0:0:
84,268,164920,2,0,L|144:320,1,55.2499974708558
160,260,165151,2,0,L|220:312,1,55.2499974708558
244,256,165382,2,0,L|304:308,2,55.2499974708558
356,252,165843,2,0,P|384:168|248:128,1,220.999989883423
285,107,166535,5,0,0:0:0:0:
176,80,166766,1,8,0:0:0:0:
124,64,166881,1,0,0:0:0:0:
72,84,166997,1,0,0:0:0:0:
56,136,167112,1,0,0:0:0:0:
80,188,167227,2,0,L|116:240,2,55.2499974708558
192,188,167689,1,8,0:0:0:0:
32,284,167920,1,0,0:0:0:0:
200,372,168151,6,0,P|236:320|288:316,1,110.499994941712,0|0,0:0|0:0,0:0:0:0:
384,280,168612,2,0,L|452:248,1,55.2499974708558,8|0,0:0|0:0,0:0:0:0:
388,228,168843,2,0,L|428:176,1,55.2499974708558
368,172,169074,2,0,L|388:104,2,55.2499974708558
304,236,169535,6,0,P|264:276|208:280,1,95.6250036478044
172,252,169997,6,0,P|108:240|88:180,2,127.500004863739,4|0|8,0:0|0:0|0:0,0:0:0:0:
208,208,170574,1,0,0:0:0:0:
236,160,170689,1,0,0:0:0:0:
264,112,170804,1,0,0:0:0:0:
300,68,170920,2,0,P|348:28|408:28,2,110.499994941712,0|0|8,0:0|0:0|0:0,0:0:0:0:
388,136,171612,2,0,P|412:196|392:252,2,110.499994941712
300,68,172304,5,8,0:0:0:0:
256,36,172420,1,0,0:0:0:0:
200,36,172535,1,0,0:0:0:0:
148,56,172651,1,0,0:0:0:0:
104,88,172766,2,0,P|36:64|0:76,2,110.499994941712,0|0|8,0:0|0:0|0:0,0:0:0:0:
112,200,173458,2,0,L|92:264,2,55.2499974708558,0|0|0,0:0|0:0|0:0,0:0:0:0:
204,264,173920,5,0,0:0:0:0:
304,316,174151,2,0,L|356:292,1,55.2499974708558,8|0,0:0|0:0,0:0:0:0:
328,244,174382,2,0,L|380:220,1,55.2499974708558
340,180,174612,2,0,L|392:156,2,55.2499974708558,0|0|0,0:0|0:0|0:0,0:0:0:0:
472,200,175074,1,8,0:0:0:0:
488,68,175304,1,0,0:0:0:0:
364,20,175535,6,0,P|304:48|256:36,1,110.499994941712
152,48,175997,1,0,0:0:0:0:
101,68,176112,1,0,0:0:0:0:
76,116,176227,1,0,0:0:0:0:
80,172,176343,1,0,0:0:0:0:
120,208,176458,1,0,0:0:0:0:
212,156,176689,2,0,P|268:108|316:104,1,110.499994941712,0|8,0:0|0:0,0:0:0:0:
304,212,177151,1,0,0:0:0:0:
396,268,177381,6,0,P|340:316|292:320,1,110.499994941712
200,288,177843,2,0,L|128:324,1,55.2499974708558,8|0,0:0|0:0,0:0:0:0:
136,260,178074,2,0,L|72:252,1,55.2499974708558
104,204,178304,2,0,L|64:164,2,55.2499974708558
216,192,178766,2,0,P|260:152|272:96,1,110.499994941712,8|0,0:0|0:0,0:0:0:0:
160,92,179227,5,0,0:0:0:0:
264,288,179458,1,0,0:0:0:0:
384,104,179689,2,0,L|436:88,1,55.2499974708558,8|0,0:0|0:0,0:0:0:0:
432,144,179920,2,0,L|492:152,1,55.2499974708558
456,196,180151,2,0,P|456:308|360:328,1,220.999989883423,0|8,0:0|0:0,0:0:0:0:
264,288,180843,2,0,L|284:356,2,55.2499974708558,0|0|0,0:0|0:0|0:0,0:0:0:0:
112,228,181304,5,0,0:0:0:0:
160,128,181535,2,0,P|128:72|88:56,2,110.499994941712,8|0|0,0:0|0:0|0:0,0:0:0:0:
140,180,182112,2,0,L|104:244,1,55.2499974708558
216,309,182458,1,8,0:0:0:0:
326,235,182689,1,0,0:0:0:0:
289,108,182920,1,0,0:0:0:0:
157,103,183151,1,0,0:0:0:0:
112,228,183381,6,0,L|160:268,1,55.2499974708558,8|0,0:0|0:0,0:0:0:0:
200,296,183612,2,0,P|248:260|312:268,1,110.499994941712
408,252,184074,2,0,B|399:158|311:121|272:161|190:130|190:39,1,331.499984825135,0|4,0:0|0:0,0:0:0:0:
284,44,184997,5,0,0:0:0:0:
376,68,185227,2,0,L|464:108,1,93.5000028533936,8|0,0:0|0:0,0:0:0:0:
408,188,185689,2,0,L|364:296,1,93.5000028533936
196,336,186151,2,0,L|240:228,1,93.5000028533936,8|0,0:0|0:0,0:0:0:0:
264,164,186612,5,0,0:0:0:0:
191,105,186843,1,0,0:0:0:0:
113,158,187074,1,0,0:0:0:0:
139,248,187304,1,0,0:0:0:0:
232,252,187535,2,0,B|324:268|324:268|344:216|416:212,1,187.000005706787,0|8,0:0|0:0,0:0:0:0:
404,304,188227,1,0,0:0:0:0:
484,264,188458,6,0,P|496:208|476:160,1,93.5000028533936
395,214,188920,1,0,0:0:0:0:
312,212,189151,2,0,P|264:192|232:144,1,93.5000028533936
320,120,189612,1,0,0:0:0:0:
332,28,189843,2,0,P|380:48|412:96,1,93.5000028533936,8|0,0:0|0:0,0:0:0:0:
432,168,190304,6,0,L|396:276,1,93.5000028533936
324,308,190766,1,8,0:0:0:0:
256,244,190997,1,0,0:0:0:0:
256,244,191227,1,0,0:0:0:0:
188,308,191458,1,0,0:0:0:0:
109,256,191689,2,0,L|80:168,1,93.5000028533936,8|0,0:0|0:0,0:0:0:0:
156,112,192151,6,0,P|112:80|64:76,2,93.5000028533936,0|0|8,0:0|0:0|0:0,0:0:0:0:
256,192,192843,1,0,0:0:0:0:
356,112,193074,2,0,P|400:80|448:76,2,93.5000028533936,0|0|8,0:0|0:0|0:0,0:0:0:0:
432,168,193766,1,0,0:0:0:0:
408,260,193997,6,0,P|324:328|248:296,1,187.000005706787,0|8,0:0|0:0,0:0:0:0:
176,220,194689,1,0,0:0:0:0:
104,124,194920,2,0,P|188:56|264:88,1,187.000005706787,0|8,0:0|0:0,0:0:0:0:
336,164,195612,1,0,0:0:0:0:
408,224,195843,6,0,P|428:168|420:124,2,93.5000028533936,0|0|8,0:0|0:0|0:0,0:0:0:0:
328,276,196535,1,0,0:0:0:0:
240,248,196766,2,0,L|148:292,1,93.5000028533936
272,136,197227,2,0,L|364:92,1,93.5000028533936,8|0,0:0|0:0,0:0:0:0:
312,208,197689,6,0,L|356:300,1,93.5000028533936
200,176,198151,2,0,L|156:84,1,93.5000028533936,8|0,0:0|0:0,0:0:0:0:
244,52,198612,1,0,0:0:0:0:
396,179,198843,1,0,0:0:0:0:
268,332,199074,1,8,0:0:0:0:
116,204,199304,1,0,0:0:0:0:
124,112,199535,6,0,P|80:120|40:156,1,93.5000028533936,4|0,0:0|0:0,0:0:0:0:
116,204,199997,2,0,P|124:248|160:288,1,93.5000028533936,8|0,0:0|0:0,0:0:0:0:
248,180,200458,2,0,P|240:136|204:96,1,93.5000028533936
240,272,200920,2,0,P|284:264|324:228,1,93.5000028533936,8|0,0:0|0:0,0:0:0:0:
392,172,201381,5,0,0:0:0:0:
416,80,201612,1,0,0:0:0:0:
336,32,201843,1,8,0:0:0:0:
245,56,202074,2,0,P|222:106|232:161,1,93.5000028533936
316,119,202535,1,0,0:0:0:0:
392,172,202766,2,0,P|358:203|313:214,1,93.5000028533936,8|0,0:0|0:0,0:0:0:0:
164,280,203227,6,0,L|60:220,2,93.5000028533936,0|0|8,0:0|0:0|0:0,0:0:0:0:
220,204,203920,1,0,0:0:0:0:
260,120,204151,2,0,L|364:60,2,93.5000028533936,0|0|8,0:0|0:0|0:0,0:0:0:0:
220,204,204843,1,0,0:0:0:0:
252,292,205074,5,0,0:0:0:0:
340,316,205304,1,0,0:0:0:0:
424,272,205535,2,0,P|442:221|430:173,1,93.5000028533936,8|0,0:0|0:0,0:3:0:0:
268,180,205997,2,0,P|304:140|352:128,1,93.5000028533936
352,220,206458,1,8,0:0:0:0:
188,132,206689,1,0,0:0:0:0:
108,88,206920,6,0,B|60:172|60:172|104:212|84:276,1,187.000005706787,0|8,0:0|0:0,0:0:0:0:
404,88,207843,2,0,B|452:172|452:172|408:212|428:276,1,187.000005706787,0|8,0:0|0:0,0:0:0:0:
288,116,208766,2,0,P|232:112|192:140,1,93.5000028533936
305,257,209227,2,0,P|337:211|333:162,1,93.5000028533936,8|0,0:0|0:0,0:0:0:0:
174,202,209689,2,0,P|198:252|242:273,1,93.5000028533936
256,192,210151,1,8,0:0:0:0:
256,192,210381,1,0,0:0:0:0:
324,128,210612,6,0,L|244:40,1,93.5000028533936
277,282,211074,2,0,L|393:257,1,93.5000028533936,8|0,0:0|0:0,0:0:0:0:
166,165,211535,2,0,L|130:278,1,93.5000028533936
256,192,211997,1,8,0:0:0:0:
256,192,212227,1,0,0:0:0:0:
256,192,212458,12,4,214305,0:0:0:0:
