osu file format v14

[General]
AudioFilename: audio.mp3
AudioLeadIn: 0
PreviewTime: 0
Countdown: 1
SampleSet: Normal
StackLeniency: 0.7
Mode: 0
LetterboxInBreaks: 0
WidescreenStoryboard: 1

[Editor]
Bookmarks: 62427,82543
DistanceSpacing: 1.1
BeatDivisor: 4
GridSize: 16
TimelineZoom: 1.2

[Metadata]
Title:Hydrometeore coruscant
TitleUnicode:Hydrometeore coruscant
Artist:Enthousiasme exploit Jimmy Freeman
ArtistUnicode:Enthousiasme exploit Jimmy Freeman
Creator:dracoV
Version:Demeritee
Source:Spadassin Muté
Tags:Azur Lane Slayers Revolution Halation Jimmy Freeman Love Live Mario Orchestre Sérénité Cartoon Chinois Neige Snow
BeatmapID:1775812
BeatmapSetID:849201

[Difficulty]
HPDrainRate:1
CircleSize:4
OverallDifficulty:6
ApproachRate:8
SliderMultiplier:1.4
SliderTickRate:1

[Events]
//Background and Video events
0,0,"cfcEX.png",0,0
//Break Periods
2,190257,200579
2,245489,254336
//Storyboard Layer 0 (Background)
//Storyboard Layer 1 (Fail)
//Storyboard Layer 2 (Pass)
//Storyboard Layer 3 (Foreground)
//Storyboard Sound Samples

[TimingPoints]
0,346.820809248555,4,1,0,100,1,0
2427,-200,4,1,0,100,0,0
3121,-76.9230769230769,4,1,0,100,0,0
9364,-133.333333333333,4,1,0,100,0,0
12685,-83.3333333333333,4,1,0,100,0,0
13352,-133.333333333333,4,1,0,100,0,0
24624,-66.6666666666667,4,1,0,100,0,0
29826,-50,4,1,0,100,0,0
31040,-100,4,1,0,100,0,0
82543,-50,4,1,0,100,0,0
95722,-142.857142857143,4,1,0,100,0,0
114104,-100,4,1,0,100,0,0
169421,-133.333333333333,4,1,0,100,0,0

[HitObjects]
320,128,1040,5,0,0:0:0:0:
240,192,1213,1,0,0:0:0:0:
144,224,1387,1,0,0:0:0:0:
64,160,1560,2,0,L|128:96,1,70
240,96,1907,1,0,0:0:0:0:
208,192,2080,1,0,0:0:0:0:
272,272,2254,1,0,0:0:0:0:
320,160,2427,2,0,L|336:192,3,35
96,192,3294,5,0,0:0:0:0:
176,112,3468,1,0,0:0:0:0:
224,208,3641,1,0,0:0:0:0:
384,96,3815,5,0,0:0:0:0:
112,176,5202,5,0,0:0:0:0:
192,240,5375,1,0,0:0:0:0:
224,144,5549,1,0,0:0:0:0:
320,112,5722,1,0,0:0:0:0:
416,112,5895,2,0,P|400:176|320:256,1,181.999991668702
96,256,6502,5,0,0:0:0:0:
96,256,6589,1,0,0:0:0:0:
144,160,6763,1,0,0:0:0:0:
224,224,6936,1,0,0:0:0:0:
368,112,7109,5,0,0:0:0:0:
160,272,7456,1,0,0:0:0:0:
160,272,7630,1,0,0:0:0:0:
160,272,7803,1,0,0:0:0:0:
240,64,7976,5,0,0:0:0:0:
304,144,8150,1,0,0:0:0:0:
256,240,8323,2,0,P|192:240|128:224,1,90.9999958343508
112,128,8843,1,0,0:0:0:0:
400,208,9277,1,0,0:0:0:0:
400,208,9364,2,0,B|336:240|288:208|320:192,1,105.000004005432
240,224,9884,1,0,0:0:0:0:
192,128,10057,1,0,0:0:0:0:
96,176,10231,1,0,0:0:0:0:
144,272,10404,1,0,0:0:0:0:
48,224,10578,1,0,0:0:0:0:
256,192,10751,5,0,0:0:0:0:
80,128,12052,6,0,L|80:160,1,26.2500010013581
176,256,13526,6,0,P|160:176|176:144,1,105.000004005432
272,144,14046,2,0,L|368:192,1,105.000004005432
240,304,14566,1,0,0:0:0:0:
160,240,14739,1,0,0:0:0:0:
192,144,14913,1,0,0:0:0:0:
352,128,16300,5,0,0:0:0:0:
304,224,16473,1,0,0:0:0:0:
208,256,16647,1,0,0:0:0:0:
128,192,16820,2,0,P|128:112|192:64,1,157.500006008148
96,208,18381,5,0,0:0:0:0:
208,288,18554,1,0,0:0:0:0:
272,224,18728,1,0,0:0:0:0:
368,192,18901,1,0,0:0:0:0:
336,96,19075,1,0,0:0:0:0:
112,144,19421,5,0,0:0:0:0:
144,192,19595,1,0,0:0:0:0:
192,208,19942,1,0,0:0:0:0:
304,144,20115,2,0,L|304:208,1,52.5000020027161
272,320,20462,1,0,0:0:0:0:
144,192,20809,1,0,0:0:0:0:
96,144,20982,1,0,0:0:0:0:
320,64,21329,1,0,0:0:0:0:
416,224,21676,1,0,0:0:0:0:
256,192,21849,5,0,0:0:0:0:
256,192,21936,12,0,23236,0:0:0:0:
256,192,23410,5,0,0:0:0:0:
80,128,23930,5,0,0:0:0:0:
80,128,24104,1,0,0:0:0:0:
352,80,24624,5,0,0:0:0:0:
304,240,24797,1,0,0:0:0:0:
192,112,24971,2,0,P|160:176|192:208,1,105.000004005432
336,192,25317,1,0,0:0:0:0:
192,272,25491,1,0,0:0:0:0:
128,112,25664,2,0,L|256:112,1,105.000004005432
233,112,26011,1,0,0:0:0:0:
240,240,26184,1,0,0:0:0:0:
336,144,26358,6,0,P|272:176|192:176,1,105.000004005432
112,128,26705,2,0,P|160:192|128:240,1,105.000004005432
272,288,27052,1,0,0:0:0:0:
352,176,27225,1,0,0:0:0:0:
224,144,27398,2,0,P|144:176|96:176,1,105.000004005432
336,112,27745,1,0,0:0:0:0:
176,256,27919,1,0,0:0:0:0:
176,256,28005,1,0,0:0:0:0:
176,256,28092,1,0,0:0:0:0:
176,112,28265,5,0,0:0:0:0:
304,64,28439,2,0,P|288:176|272:192,1,105.000004005432
112,208,28786,1,0,0:0:0:0:
304,224,28959,1,0,0:0:0:0:
304,224,29046,1,0,0:0:0:0:
304,224,29132,1,0,0:0:0:0:
176,112,29306,1,0,0:0:0:0:
128,288,29479,2,0,L|128:176,1,105.000004005432
208,96,29826,2,0,L|208:272,1,140
352,224,30173,5,0,0:0:0:0:
256,272,30346,1,0,0:0:0:0:
256,272,30433,1,0,0:0:0:0:
256,272,30520,2,0,P|192:224|144:176,1,140
240,144,30867,1,0,0:0:0:0:
304,208,31040,1,0,0:0:0:0:
304,208,31213,6,0,L|208:240,1,70
96,112,31560,1,0,0:0:0:0:
99,163,31647,1,0,0:0:0:0:
126,208,31734,1,0,0:0:0:0:
221,243,31907,1,0,0:0:0:0:
256,128,32080,1,0,0:0:0:0:
352,176,32254,6,0,L|304:240,1,70
96,112,32601,2,0,L|96:192,1,70
192,320,32947,2,0,L|128:256,1,70
208,64,33294,2,0,L|288:80,1,70
336,176,33641,1,0,0:0:0:0:
288,272,33815,1,0,0:0:0:0:
192,224,33988,5,0,0:0:0:0:
149,225,34075,1,0,0:0:0:0:
114,200,34161,1,0,0:0:0:0:
103,159,34248,1,0,0:0:0:0:
119,119,34335,1,0,0:0:0:0:
176,112,34421,1,0,0:0:0:0:
206,129,34508,1,0,0:0:0:0:
239,140,34595,1,0,0:0:0:0:
273,145,34682,1,0,0:0:0:0:
308,143,34768,1,0,0:0:0:0:
342,134,34855,1,0,0:0:0:0:
373,118,34942,1,0,0:0:0:0:
400,96,35028,6,0,B|432:64|432:16,1,70
256,80,35375,2,0,L|240:160,1,70
256,192,35722,5,0,0:0:0:0:
80,80,36069,1,0,0:0:0:0:
336,304,36416,1,0,0:0:0:0:
144,224,36763,1,0,0:0:0:0:
112,128,36936,1,0,0:0:0:0:
208,144,37109,1,0,0:0:0:0:
384,224,37456,1,0,0:0:0:0:
96,272,37803,5,0,0:0:0:0:
96,160,37976,1,0,0:0:0:0:
192,128,38150,1,0,0:0:0:0:
240,224,38323,1,0,0:0:0:0:
96,272,38497,5,0,0:0:0:0:
320,96,38843,1,0,0:0:0:0:
352,304,39190,1,0,0:0:0:0:
176,208,39537,2,0,L|160:128,1,70
320,144,40057,5,0,0:0:0:0:
320,144,40231,1,0,0:0:0:0:
320,144,40404,2,0,L|320:224,1,70
80,192,40924,1,0,0:0:0:0:
320,64,41271,5,0,0:0:0:0:
224,112,41445,1,0,0:0:0:0:
112,112,41618,1,0,0:0:0:0:
208,304,41965,5,0,0:0:0:0:
304,256,42138,1,0,0:0:0:0:
352,160,42312,1,0,0:0:0:0:
224,112,42658,5,0,0:0:0:0:
256,208,42832,1,0,0:0:0:0:
96,192,43005,1,0,0:0:0:0:
112,80,43352,5,0,0:0:0:0:
224,64,43526,1,0,0:0:0:0:
336,112,43699,1,0,0:0:0:0:
128,288,44046,5,0,0:0:0:0:
240,144,44219,1,0,0:0:0:0:
400,240,44393,1,0,0:0:0:0:
256,272,44566,1,0,0:0:0:0:
160,176,44739,1,0,0:0:0:0:
352,80,45086,5,0,0:0:0:0:
112,224,45433,5,0,0:0:0:0:
208,304,45606,1,0,0:0:0:0:
240,176,45780,1,0,0:0:0:0:
352,240,45953,1,0,0:0:0:0:
448,160,46127,1,0,0:0:0:0:
176,48,46473,1,0,0:0:0:0:
112,288,46820,5,0,0:0:0:0:
240,224,46994,1,0,0:0:0:0:
368,288,47167,1,0,0:0:0:0:
400,144,47341,1,0,0:0:0:0:
272,96,47514,1,0,0:0:0:0:
64,272,47687,1,0,0:0:0:0:
336,208,47861,1,0,0:0:0:0:
112,64,48034,1,0,0:0:0:0:
272,336,48208,5,0,0:0:0:0:
384,48,48381,1,0,0:0:0:0:
96,336,48554,1,0,0:0:0:0:
464,192,48728,1,0,0:0:0:0:
160,48,48901,1,0,0:0:0:0:
368,304,49075,1,0,0:0:0:0:
96,192,49248,1,0,0:0:0:0:
416,112,49421,1,0,0:0:0:0:
192,320,49595,5,0,0:0:0:0:
256,96,49768,1,0,0:0:0:0:
192,320,49942,1,0,0:0:0:0:
256,96,50115,1,0,0:0:0:0:
192,320,50289,1,0,0:0:0:0:
256,96,50462,1,0,0:0:0:0:
192,320,50635,1,0,0:0:0:0:
256,96,50809,1,0,0:0:0:0:
256,192,50982,5,0,0:0:0:0:
256,192,51502,12,0,52369,0:0:0:0:
192,160,52716,6,0,L|352:176,31,140
192,160,62427,5,0,0:0:0:0:
256,192,63468,12,0,82543,0:0:0:0:
192,160,82543,6,0,L|352:192,60,140
80,176,93121,1,0,0:0:0:0:
80,176,93294,1,0,0:0:0:0:
256,192,94161,12,0,95028,0:0:0:0:
64,304,95895,6,0,B|416:256|432:240|336:208|144:112|144:112|160:208|256:224|16:176|80:48|176:32|176:32|336:48|384:96|384:96|432:144|432:144|464:256|464:256|368:320|320:112|320:112|144:96|144:96|80:160|80:160|336:144|336:144|416:160|400:160|208:96|208:96|304:112|304:128|240:112|224:112|224:112|320:128|416:208|416:208|432:256|432:256|400:320|384:288,1,2743.99991625977
64,96,106907,6,0,L|80:128,1,24.4999992523194
400,112,108381,2,0,B|272:240|64:144|80:144|80:144|128:160|128:160|96:144|96:144|144:160|144:160|192:176|272:176|160:176|160:176|224:176|224:176|320:160|320:160|336:160|112:160|112:160|208:176|208:176|48:128,1,1249.49996186829
288,128,113236,5,0,0:0:0:0:
272,224,113410,1,0,0:0:0:0:
176,208,113583,1,0,0:0:0:0:
128,112,113757,1,0,0:0:0:0:
64,144,114104,2,0,B|80:304|80:304|240:48|240:48|208:352|208:352|416:80|416:64,1,1120
414,67,116878,2,0,B|368:192|368:192|208:80|208:80|368:144|272:96|352:240|288:96|288:96|320:176|320:176|240:96|240:96|384:144|384:144|176:144|176:144|416:48|352:176|256:64|304:128|304:128|224:112|224:112|336:144|336:144|208:112|208:112|192:208|368:224|352:80|128:48|304:160|64:48|64:48|192:96|192:96|240:128|224:128,1,2240
128,224,122774,5,0,0:0:0:0:
272,224,123121,1,0,0:0:0:0:
432,208,123468,2,0,B|304:288|288:64|304:32|96:224|352:336|144:224|144:224|32:128|368:32|320:48|448:128|448:128|336:64|336:64|432:112|432:112|352:64,1,1190
96,160,126763,5,0,0:0:0:0:
208,160,127109,1,0,0:0:0:0:
256,192,127456,12,0,145491,0:0:0:0:
176,80,145838,5,0,0:0:0:0:
160,256,146098,1,0,0:0:0:0:
224,256,146184,1,0,0:0:0:0:
416,112,146531,1,0,0:0:0:0:
336,112,146705,1,0,0:0:0:0:
256,128,146878,1,0,0:0:0:0:
128,144,147138,1,0,0:0:0:0:
224,256,147485,2,0,P|320:256|336:224,1,140
240,144,148092,1,0,0:0:0:0:
96,304,148526,5,0,0:0:0:0:
128,224,148699,1,0,0:0:0:0:
320,208,148872,1,0,0:0:0:0:
432,160,149132,5,0,0:0:0:0:
272,96,149306,1,0,0:0:0:0:
224,256,149653,1,0,0:0:0:0:
176,192,149826,1,0,0:0:0:0:
256,160,150000,1,0,0:0:0:0:
336,80,150260,1,0,0:0:0:0:
208,64,150520,2,0,B|96:224|208:320|272:320|272:320|352:208|352:96|352:224|352:224|368:160|352:176|304:272|272:288|160:144|160:128|256:304|272:304|224:160|224:176|256:272|272:272|240:80|240:80|224:304|224:304|240:160|240:160|240:272|336:192|160:160|368:128|368:128|368:288,1,1645
16,32,154855,6,0,L|64:32,28,35
176,64,157456,1,0,0:0:0:0:
240,128,157630,1,0,0:0:0:0:
160,288,157890,1,0,0:0:0:0:
352,128,158410,5,2,0:0:0:0:
48,288,158757,5,2,0:0:0:0:
240,144,158930,5,2,0:0:0:0:
240,144,159017,1,2,0:0:0:0:
240,144,159104,1,2,0:0:0:0:
112,144,159364,5,2,0:0:0:0:
176,208,159537,1,2,0:0:0:0:
400,96,159884,1,2,0:0:0:0:
336,192,160231,5,2,0:0:0:0:
256,240,160404,1,2,0:0:0:0:
176,272,160578,1,0,0:0:0:0:
128,208,160751,1,2,0:0:0:0:
96,128,161098,5,0,0:0:0:0:
288,176,161358,1,2,0:0:0:0:
96,128,161705,5,2,0:0:0:0:
336,208,161965,1,2,0:0:0:0:
256,240,162138,1,2,0:0:0:0:
336,208,162312,1,2,0:0:0:0:
256,240,162485,1,2,0:0:0:0:
336,208,162658,1,2,0:0:0:0:
352,128,163352,5,2,0:0:0:0:
48,288,163699,5,2,0:0:0:0:
240,144,163872,5,2,0:0:0:0:
240,144,163959,1,2,0:0:0:0:
240,144,164046,1,2,0:0:0:0:
112,144,164306,5,2,0:0:0:0:
176,208,164479,1,2,0:0:0:0:
400,96,164826,1,2,0:0:0:0:
336,192,165173,5,2,0:0:0:0:
256,240,165346,1,2,0:0:0:0:
176,272,165520,1,0,0:0:0:0:
128,208,165693,1,2,0:0:0:0:
96,128,166040,5,0,0:0:0:0:
288,176,166300,1,2,0:0:0:0:
96,128,166647,5,2,0:0:0:0:
336,208,166907,1,2,0:0:0:0:
256,240,167167,1,2,0:0:0:0:
336,208,167341,1,2,0:0:0:0:
256,240,167514,1,2,0:0:0:0:
336,208,167687,1,2,0:0:0:0:
336,208,167687,2,0,P|192:240|160:128,1,280
156,140,168728,5,0,0:0:0:0:
304,224,169075,1,0,0:0:0:0:
304,64,169421,6,0,P|240:144|224:160,1,105.000004005432
112,272,170115,1,0,0:0:0:0:
224,288,170462,1,0,0:0:0:0:
320,48,170809,2,0,P|224:80|208:80,1,105.000004005432
112,144,171502,1,0,0:0:0:0:
240,176,171849,1,0,0:0:0:0:
96,272,172196,2,0,L|192:272|208:272,1,105.000004005432
224,272,172716,1,0,0:0:0:0:
272,240,172890,1,0,0:0:0:0:
208,48,173236,6,0,L|144:80,5,52.5000020027161
128,176,174624,1,0,0:0:0:0:
368,80,174971,2,2,B|384:192|256:240|304:112|304:112|272:240|272:240|160:96|368:160|80:96|80:96|320:160|320:160|288:48|32:192|208:320|0:176|0:192|448:160|464:256|464:256|448:256,3,1522.50005807877
256,192,201329,12,0,203236,0:0:0:0:
256,192,201849,12,0,207138,0:0:0:0:
256,192,202196,12,0,206791,0:0:0:0:
256,192,202543,12,0,204797,0:0:0:0:
256,192,202890,12,0,209913,0:0:0:0:
256,192,203757,12,0,205578,0:0:0:0:
256,192,204277,12,0,211300,0:0:0:0:
256,192,205317,12,0,207919,0:0:0:0:
256,192,206011,12,0,209479,0:0:0:0:
256,192,206358,12,0,208959,0:0:0:0:
256,192,207225,12,0,215115,0:0:0:0:
256,192,208439,12,0,210520,0:0:0:0:
256,192,210260,12,0,215982,0:0:0:0:
256,192,210693,12,0,212947,0:0:0:0:
256,192,211907,12,0,214421,0:0:0:0:
256,192,213294,12,0,214161,0:0:0:0:
256,192,214855,12,0,216416,0:0:0:0:
256,192,215375,12,0,219190,0:0:0:0:
256,192,215722,12,0,217456,0:0:0:0:
256,192,217716,12,0,223265,0:0:0:0:
256,192,218323,12,0,221011,0:0:0:0:
256,192,220404,12,0,222398,0:0:0:0:
256,192,221618,12,0,224219,0:0:0:0:
256,192,221965,12,0,226907,0:0:0:0:
256,192,222658,12,0,223872,0:0:0:0:
256,192,223526,12,0,227167,0:0:0:0:
256,192,224739,12,0,228815,0:0:0:0:
256,192,225606,12,0,227774,0:0:0:0:
256,192,226387,12,0,234624,0:0:0:0:
256,192,227947,12,0,230635,0:0:0:0:
256,192,228554,12,0,231069,0:0:0:0:
256,192,229508,12,0,233930,0:0:0:0:
256,192,230202,12,0,232369,0:0:0:0:
256,192,231589,12,0,232803,0:0:0:0:
256,192,233410,12,0,235578,0:0:0:0:
256,192,233930,12,0,238959,0:0:0:0:
256,192,234797,12,0,245289,0:0:0:0:
256,192,236618,12,0,239653,0:0:0:0:
256,192,237485,12,0,241647,0:0:0:0:
256,192,238352,12,0,241127,0:0:0:0:
256,192,240953,12,0,243381,0:0:0:0:
256,192,242601,12,0,243901,0:0:0:0:
256,192,243034,12,0,243988,0:0:0:0:
256,192,243641,12,0,244248,0:0:0:0:
256,192,244248,12,0,244682,0:0:0:0:
304,128,255086,6,2,L|160:128,1,131.25000500679
