osu file format v14

[General]
AudioFilename: audio.mp3
AudioLeadIn: 0
PreviewTime: 146017
Countdown: 0
SampleSet: Soft
StackLeniency: 0.4
Mode: 0
LetterboxInBreaks: 0
WidescreenStoryboard: 1

[Editor]
Bookmarks: 19059,40392,61726,96392,120392,147059,181726,200392,225726,239059,251059
DistanceSpacing: 2.5
BeatDivisor: 4
GridSize: 32
TimelineZoom: 1.5

[Metadata]
Title:Pledge of liberation
TitleUnicode:Pledge of liberation
Artist:Enterprise (CV: Ishikawa Yui)
ArtistUnicode:エンタープライズ (CV: 石川由依)
Creator:Hinae
Version:L1gHT & Kanui's Insane
Source:アズールレーン
Tags:-hitomi l1ght_u light_u kanui kennethbbg azur lane character theme song japanese rock jrock j-rock tv anime
BeatmapID:3945114
BeatmapSetID:1830432

[Difficulty]
HPDrainRate:5
CircleSize:3.8
OverallDifficulty:8
ApproachRate:9
SliderMultiplier:1.92
SliderTickRate:1

[Events]
//Background and Video events
0,0,"mywaifu.jpg",0,0
//Break Periods
2,212392,221116
//Storyboard Layer 0 (Background)
//Storyboard Layer 1 (Fail)
//Storyboard Layer 2 (Pass)
//Storyboard Layer 3 (Foreground)
//Storyboard Layer 4 (Overlay)
//Storyboard Sound Samples

[TimingPoints]
383,333.333333333333,4,2,1,40,1,0
3049,-100,4,2,2,40,0,0
7549,-100,4,2,2,42,0,0
7716,-100,4,2,2,44,0,0
7882,-100,4,2,2,46,0,0
8049,-100,4,2,2,48,0,0
8216,-100,4,2,2,50,0,0
8382,-100,4,2,1,55,0,0
9716,-100,4,2,1,60,0,0
11049,-100,4,2,4,70,0,0
11132,-100,4,2,1,70,0,0
13382,-100,4,2,2,70,0,0
13799,-100,4,2,1,70,0,0
16049,-100,4,2,2,70,0,0
16132,-100,4,2,1,70,0,0
18882,-100,4,2,1,50,0,0
19049,-133.333333333333,4,2,4,50,0,0
19132,-133.333333333333,4,2,1,50,0,0
23716,-133.333333333333,4,2,1,70,0,0
24382,-111.111111111111,4,2,1,60,0,0
28716,-111.111111111111,4,2,1,70,0,0
29716,-133.333333333333,4,2,4,50,0,0
29799,-133.333333333333,4,2,1,50,0,0
33716,-133.333333333333,4,2,1,70,0,0
35049,-111.111111111111,4,2,1,60,0,0
39049,-111.111111111111,4,2,1,65,0,0
39716,-111.111111111111,4,2,2,65,0,0
40382,-111.111111111111,4,2,1,70,0,0
43049,-111.111111111111,4,2,1,60,0,0
45716,-111.111111111111,4,2,1,70,0,0
48382,-111.111111111111,4,2,1,60,0,0
49716,-111.111111111111,4,2,2,60,0,0
51049,-111.111111111111,4,2,1,60,0,0
59049,-111.111111111111,4,2,1,70,0,0
60382,-111.111111111111,4,2,3,50,0,0
61382,-111.111111111111,4,2,3,65,0,0
61716,-83.3333333333333,4,2,3,80,0,1
61799,-83.3333333333333,4,2,1,80,0,1
62049,-99.9999999999999,4,2,1,80,0,1
64382,-99.9999999999999,4,2,2,80,0,1
65549,-99.9999999999999,4,2,1,80,0,1
65882,-99.9999999999999,4,2,1,85,0,1
66382,-99.9999999999999,4,2,1,80,0,1
67049,-125,4,2,1,80,0,1
67382,-83.3333333333333,4,2,1,80,0,1
67716,-100,4,2,1,80,0,1
68382,-125,4,2,1,80,0,1
68715,-83.3333333333333,4,2,1,80,0,1
69049,-100,4,2,1,80,0,1
71049,-100,4,2,1,85,0,1
72382,-83.3333333333333,4,2,3,80,0,1
72466,-83.3333333333333,4,2,1,80,0,1
72716,-100,4,2,1,80,0,1
75049,-100,4,2,2,80,0,1
76216,-100,4,2,1,80,0,1
77716,-125,4,2,1,80,0,1
78049,-83.3333333333333,4,2,1,80,0,1
78382,-100,4,2,1,80,0,1
79049,-125,4,2,1,80,0,1
79382,-83.3333333333333,4,2,1,80,0,1
79716,-100,4,2,1,80,0,1
80382,-125,4,2,1,80,0,1
80715,-83.3333333333333,4,2,1,85,0,1
81049,-100,4,2,1,80,0,1
81382,-100,4,2,1,85,0,1
81716,-125,4,2,1,75,0,1
82049,-83.3333333333333,4,2,1,85,0,1
82383,-100,4,2,1,85,0,1
82716,-100,4,2,1,84,0,1
82799,-100,4,2,1,83,0,1
82882,-100,4,2,1,82,0,1
82966,-100,4,2,1,81,0,1
83049,-100,4,2,1,70,0,1
85049,-100,4,2,2,70,0,1
85382,-83.3333333333333,4,2,2,70,0,1
86049,-100,4,2,1,70,0,1
87049,-100,4,2,1,75,0,1
88382,-100,4,2,1,90,0,1
96049,-100,4,2,1,50,0,1
96382,-99.9999999999999,4,2,4,70,0,0
96466,-99.9999999999999,4,2,1,70,0,0
98716,-99.9999999999999,4,2,2,70,0,0
99132,-99.9999999999999,4,2,1,70,0,0
101382,-99.9999999999999,4,2,2,70,0,0
101466,-99.9999999999999,4,2,1,70,0,0
104216,-99.9999999999999,4,2,1,50,0,0
104382,-125,4,2,4,50,0,0
104466,-125,4,2,1,50,0,0
108799,-125,4,2,1,51,0,0
108882,-125,4,2,1,52,0,0
108966,-125,4,2,1,53,0,0
109049,-125,4,2,1,54,0,0
109132,-125,4,2,1,55,0,0
109216,-125,4,2,1,56,0,0
109299,-125,4,2,1,57,0,0
109382,-125,4,2,1,58,0,0
109466,-125,4,2,1,60,0,0
109549,-125,4,2,1,62,0,0
109632,-125,4,2,1,64,0,0
109716,-125,4,2,1,68,0,0
109799,-125,4,2,1,60,0,0
111716,-125,4,2,1,50,0,0
112382,-125,4,2,1,50,0,0
112716,-125,4,2,1,52,0,0
112882,-125,4,2,1,54,0,0
113049,-125,4,2,1,56,0,0
113216,-125,4,2,1,58,0,0
113382,-125,4,2,1,60,0,0
113549,-125,4,2,1,62,0,0
113716,-125,4,2,1,50,0,0
114382,-125,4,2,1,70,0,0
115049,-125,4,2,4,50,0,0
115132,-125,4,2,1,50,0,0
119049,-125,4,2,1,50,0,0
120382,-111.111111111111,4,2,1,60,0,0
124382,-111.111111111111,4,2,1,65,0,0
125049,-111.111111111111,4,2,2,65,0,0
125716,-111.111111111111,4,2,1,70,0,0
128382,-111.111111111111,4,2,1,60,0,0
131049,-111.111111111111,4,2,1,70,0,0
133716,-111.111111111111,4,2,1,60,0,0
135049,-111.111111111111,4,2,2,70,0,0
136382,-111.111111111111,4,2,1,60,0,0
144382,-111.111111111111,4,2,1,70,0,0
145716,-111.111111111111,4,2,3,50,0,0
146716,-111.111111111111,4,2,3,65,0,0
147049,-83.3333333333333,4,2,3,80,0,1
147132,-83.3333333333333,4,2,1,80,0,1
147382,-99.9999999999999,4,2,1,80,0,1
149716,-99.9999999999999,4,2,2,80,0,1
150882,-99.9999999999999,4,2,1,80,0,1
151216,-99.9999999999999,4,2,1,85,0,1
151716,-99.9999999999999,4,2,1,80,0,1
152382,-125,4,2,1,80,0,1
152715,-83.3333333333333,4,2,1,80,0,1
153049,-125,4,2,1,80,0,1
153299,-83.3333333333333,4,2,1,80,0,1
153715,-125,4,2,1,80,0,1
154048,-83.3333333333333,4,2,1,80,0,1
154382,-100,4,2,1,80,0,1
156382,-100,4,2,1,85,0,1
157715,-83.3333333333333,4,2,3,80,0,1
157799,-83.3333333333333,4,2,1,80,0,1
158049,-100,4,2,1,80,0,1
160382,-100,4,2,2,80,0,1
161549,-100,4,2,1,80,0,1
161716,-100,4,2,1,85,0,1
162382,-100,4,2,1,80,0,1
163049,-125,4,2,1,80,0,1
163382,-83.3333333333333,4,2,1,80,0,1
163716,-125,4,2,1,80,0,1
164049,-83.3333333333333,4,2,1,80,0,1
164382,-125,4,2,1,80,0,1
164715,-83.3333333333333,4,2,1,80,0,1
165049,-100,4,2,1,80,0,1
165715,-125,4,2,1,80,0,1
166048,-83.3333333333333,4,2,1,85,0,1
166382,-100,4,2,1,80,0,1
166716,-100,4,2,1,85,0,1
167049,-125,4,2,1,75,0,1
167382,-83.3333333333333,4,2,1,85,0,1
167716,-100,4,2,1,80,0,1
167882,-100,4,2,1,85,0,1
168049,-100,4,2,1,84,0,1
168132,-100,4,2,1,83,0,1
168216,-100,4,2,1,82,0,1
168299,-100,4,2,1,81,0,1
168382,-100,4,2,1,70,0,1
170382,-100,4,2,2,70,0,1
170715,-83.3333333333333,4,2,2,70,0,1
171382,-100,4,2,1,70,0,1
172382,-100,4,2,1,75,0,1
173716,-100,4,2,1,90,0,1
181716,-133.333333333333,4,2,1,60,0,0
183049,-133.333333333333,4,2,1,62,0,0
183132,-133.333333333333,4,2,1,64,0,0
183216,-133.333333333333,4,2,1,66,0,0
183299,-133.333333333333,4,2,1,68,0,0
183382,-133.333333333333,4,2,1,70,0,0
183549,-133.333333333333,4,2,1,60,0,0
183882,-133.333333333333,4,2,1,65,0,0
184216,-133.333333333333,4,2,1,70,0,0
184382,-166.666666666667,4,2,1,80,0,0
184716,-111.111111111111,4,2,1,80,0,0
189216,-111.111111111111,4,2,2,80,0,0
189716,-111.111111111111,4,2,1,80,0,0
191049,-111.111111111111,4,2,1,85,0,0
192382,-111.111111111111,4,2,1,80,0,0
193716,-111.111111111111,4,2,1,90,0,0
195049,-111.111111111111,4,2,1,60,0,0
197049,-125,4,2,1,60,0,0
205716,-125,4,2,2,60,0,0
205799,-125,4,2,1,60,0,0
208716,-125,4,2,1,62,0,0
209049,-125,4,2,1,64,0,0
209132,-125,4,2,1,66,0,0
209216,-125,4,2,1,68,0,0
209299,-125,4,2,1,70,0,0
209382,-125,4,2,1,72,0,0
209466,-125,4,2,1,74,0,0
209549,-125,4,2,1,80,0,0
222966,-125,4,2,1,5,0,0
223049,-125,4,2,1,80,0,0
224382,-125,4,2,1,5,0,0
224716,-125,4,2,1,50,0,0
225049,-125,4,2,1,60,0,0
225382,-125,4,2,1,70,0,0
225716,-76.9230769230769,4,2,3,80,0,1
225799,-76.9230769230769,4,2,1,80,0,1
226049,-99.9999999999999,4,2,1,80,0,1
228382,-99.9999999999999,4,2,2,80,0,1
229549,-99.9999999999999,4,2,1,80,0,1
229882,-99.9999999999999,4,2,1,85,0,1
230382,-99.9999999999999,4,2,1,80,0,1
231049,-125,4,2,1,80,0,1
231382,-83.3333333333333,4,2,1,80,0,1
231716,-100,4,2,1,80,0,1
232382,-125,4,2,1,80,0,1
232715,-83.3333333333333,4,2,1,80,0,1
233049,-100,4,2,1,80,0,1
233716,-125,4,2,1,80,0,1
234049,-83.3333333333333,4,2,1,85,0,1
234382,-100,4,2,1,80,0,1
234716,-100,4,2,1,85,0,1
235049,-125,4,2,1,75,0,1
235382,-83.3333333333333,4,2,1,85,0,1
235716,-100,4,2,1,80,0,1
235882,-100,4,2,1,85,0,1
236049,-100,4,2,1,84,0,1
236132,-100,4,2,1,83,0,1
236216,-100,4,2,1,82,0,1
236299,-100,4,2,1,81,0,1
236382,-100,4,2,1,70,0,1
238716,-83.3333333333333,4,2,2,70,0,1
239382,-83.3333333333333,4,2,1,70,0,1
241716,-83.3333333333333,4,2,1,90,0,1
250382,-111.111111111111,4,2,1,60,0,1
250716,-83.3333333333333,4,2,1,60,0,1
251049,-100,4,2,4,70,0,0
251132,-100,4,2,1,70,0,0
253382,-100,4,2,2,70,0,0
253799,-100,4,2,1,70,0,0
256049,-100,4,2,2,70,0,0
256382,-100,4,2,1,70,0,0
267049,-100,4,2,20,20,0,0

[Colours]
Combo1 : 106,181,255
Combo2 : 152,152,205
Combo3 : 159,64,255
Combo4 : 255,255,128
Combo5 : 255,128,128

[HitObjects]
56,86,1716,5,2,0:1:0:0:
140,254,3049,1,2,0:2:0:0:
372,128,4382,5,2,0:1:0:0:
122,165,5716,1,2,0:0:0:0:
337,338,7049,5,2,0:0:0:0:
488,111,8382,1,2,0:1:0:0:
187,68,9716,5,8,0:0:0:0:
195,63,9799,1,0,1:2:0:0:
204,60,9882,1,0,1:2:0:0:
215,58,9966,1,0,1:2:0:0:
228,62,10049,6,0,P|210:92|186:113,3,48,8|0|0|0,0:0|1:2|1:2|1:2,0:0:0:0:
175,173,10382,2,0,P|193:203|217:224,3,48,8|0|0|0,0:0|1:2|1:2|1:2,0:0:0:0:
279,260,10716,5,8,0:0:0:0:
461,167,11049,6,0,P|445:112|444:68,1,96,14|0,1:1|3:2,0:0:0:0:
362,213,11382,2,0,P|301:243|273:265,1,96,10|0,0:0|3:0,0:0:0:0:
176,335,11716,1,2,1:2:0:0:
44,311,11882,2,0,P|15:267|24:203,1,96,2|8,3:2|3:2,0:0:0:0:
146,126,12216,6,0,B|202:100|202:100|251:121|251:121|331:103,1,192,2|2,3:2|3:2,0:0:0:0:
200,188,12716,1,10,0:0:0:0:
260,36,12882,1,2,3:2:0:0:
132,46,13049,2,0,P|65:124|118:203,1,192,2|10,1:2|3:2,0:0:0:0:
230,359,13716,6,0,P|301:335|343:327,1,96,2|0,1:2|3:2,0:0:0:0:
475,225,14049,2,0,P|455:276|445:322,1,96,10|0,0:0|3:2,0:0:0:0:
367,242,14382,1,2,1:2:0:0:
421,103,14549,2,0,B|406:59|406:59|350:47,1,96,2|8,3:2|3:2,0:0:0:0:
261,104,14882,6,0,B|219:111|183:90|183:90|150:100|150:100|114:78|56:95,1,192,2|2,3:2|3:2,0:0:0:0:
148,14,15382,1,10,3:2:0:0:
181,172,15549,1,2,3:2:0:0:
62,222,15716,2,0,P|136:184|207:285,1,192,2|10,1:2|0:0,0:0:0:0:
107,363,16382,6,0,B|129:265|129:265|96:310,1,144,6|0,1:3|0:0,0:0:0:0:
103,300,16716,2,0,L|161:317,1,48,12|0,1:1|0:0,0:0:0:0:
255,341,16882,1,8,0:0:0:0:
255,341,16966,1,8,0:0:0:0:
255,341,17049,1,10,0:0:0:0:
360,340,17216,1,8,1:3:0:0:
448,287,17382,1,8,1:3:0:0:
479,194,17549,1,6,1:2:0:0:
479,194,17882,5,0,1:2:0:0:
386,219,18049,1,10,0:0:0:0:
315,101,18216,1,10,0:0:0:0:
408,126,18383,1,10,0:0:0:0:
37,106,18882,5,2,0:0:0:0:
37,106,18966,1,2,0:0:0:0:
37,106,19049,2,0,L|178:66,1,144.000005493164,6|0,1:2|1:2,0:0:0:0:
252,129,19549,2,0,P|290:145|321:149,1,72.0000027465821,2|0,0:0|1:2,0:0:0:0:
295,244,19882,2,0,P|256:229|225:224,1,72.0000027465821,2|0,0:0|1:2,0:0:0:0:
122,179,20216,6,0,P|70:185|15:281,1,144.000005493164,2|2,0:0|0:0,0:0:0:0:
94,342,20716,2,0,P|102:299|117:267,1,72.0000027465821,0|2,1:2|0:0,0:0:0:0:
226,224,21049,2,0,P|211:188|206:154,1,72.0000027465821,2|2,1:2|0:0,0:0:0:0:
281,81,21382,2,0,B|332:88|332:88|362:117|362:117|412:125,1,144.000005493164,2|0,1:2|1:2,0:0:0:0:
394,297,22049,5,2,1:2:0:0:
492,265,22216,1,2,0:0:0:0:
381,313,22382,2,0,P|337:302|289:295,1,72.0000027465821,2|0,1:2|0:0,0:0:0:0:
256,206,22716,2,0,P|224:238|193:277,1,72.0000027465821,2|0,1:2|0:0,0:0:0:0:
94,240,23049,6,0,P|106:283|144:361,1,108.000004119873,2|0,1:2|0:0,0:0:0:0:
162,358,23382,2,0,P|199:358|233:376,1,72.0000027465821,2|2,1:2|0:0,0:0:0:0:
381,313,23716,1,10,0:0:0:0:
256,206,23882,1,10,0:0:0:0:
498,56,24382,6,0,B|455:42|455:42|380:61|380:143,1,172.799994726563,4|8,1:2|0:0,0:0:0:0:
380,133,24882,1,0,3:0:0:0:
256,206,25049,2,0,P|207:184|161:174,1,86.3999973632813,0|0,1:2|3:0,0:0:0:0:
220,67,25382,2,0,P|266:49|314:38,1,86.3999973632813,8|0,0:0|3:0,0:0:0:0:
103,19,25716,6,0,B|93:60|93:60|119:96,1,86.3999973632813,0|0,1:2|3:0,0:0:0:0:
70,202,26049,2,0,P|53:247|40:308,1,86.3999973632813,10|0,0:0|3:0,0:0:0:0:
216,335,26382,2,0,P|185:304|157:271,1,86.3999973632813,2|0,1:2|3:0,0:0:0:0:
256,206,26716,2,0,P|318:193|385:250,1,129.599996044922,10|0,0:0|3:0,0:0:0:0:
391,243,27049,6,0,P|405:183|422:88,1,129.599996044922,2|0,1:2|0:0,0:0:0:0:
424,73,27382,2,0,P|438:122|447:173,1,86.3999973632813,8|0,0:0|3:0,0:0:0:0:
256,206,27716,6,0,P|242:146|225:51,1,129.599996044922,2|0,1:2|0:0,0:0:0:0:
223,36,28049,2,0,P|209:85|200:136,1,86.3999973632813,8|0,0:0|3:0,0:0:0:0:
60,204,28382,6,0,P|126:207|170:250,1,129.599996044922,0|0,1:2|0:0,0:0:0:0:
179,272,28716,1,8,0:0:0:0:
291,309,28882,2,0,P|313:314|341:321,1,43.1999986816407,8|8,0:0|0:0,0:0:0:0:
366,249,29049,1,8,0:3:0:0:
366,249,29132,2,0,P|417:233|479:218,1,86.3999973632813,8|8,0:0|0:0,0:0:0:0:
471,219,29382,1,8,0:0:0:0:
304,83,29549,1,8,0:0:0:0:
304,83,29632,1,8,0:0:0:0:
304,83,29716,6,0,P|271:143|283:229,1,144.000005493164,6|0,1:2|1:2,0:0:0:0:
211,305,30216,2,0,P|162:297|136:271,1,72.0000027465821,2|0,0:0|1:2,0:0:0:0:
51,266,30549,2,0,P|56:215|83:190,1,72.0000027465821,2|0,0:0|1:2,0:0:0:0:
209,221,30882,6,0,B|292:198|273:260|371:227,1,144.000005493164,2|0,0:0|0:0,0:0:0:0:
512,150,31382,2,0,P|480:119|448:105,1,72.0000027465821,2|0,1:2|0:0,0:0:0:0:
427,22,31716,2,0,P|395:40|371:71,1,72.0000027465821,2|2,1:2|0:0,0:0:0:0:
266,19,32049,2,0,P|295:92|326:183,1,144.000005493164,2|0,1:2|1:2,0:0:0:0:
324,357,32716,5,2,1:2:0:0:
248,288,32882,1,2,0:0:0:0:
350,376,33049,2,0,P|393:361|426:356,1,72.0000027465821,2|0,1:2|0:0,0:0:0:0:
228,268,33382,2,0,P|185:283|152:288,1,72.0000027465821,10|8,0:0|1:3,0:0:0:0:
137,295,33632,1,8,1:3:0:0:
137,295,33716,5,10,0:0:0:0:
271,199,34216,5,10,0:0:0:0:
333,29,34549,5,10,0:0:0:0:
14,198,35049,6,0,B|79:186|79:186|113:211|113:211|185:198,1,172.799994726563,4|8,1:2|0:0,0:0:0:0:
176,199,35549,1,0,3:0:0:0:
310,112,35716,2,0,P|319:65|336:24,1,86.3999973632813,0|0,1:2|3:0,0:0:0:0:
218,0,36049,2,0,P|209:47|192:88,1,86.3999973632813,8|0,0:0|3:0,0:0:0:0:
271,199,36382,6,0,P|294:241|311:294,1,86.3999973632813,0|0,1:2|3:0,0:0:0:0:
481,235,36716,2,0,P|433:225|394:206,1,86.3999973632813,10|0,0:0|3:0,0:0:0:0:
365,373,37049,2,0,P|403:348|450:331,1,86.3999973632813,2|0,1:2|3:0,0:0:0:0:
306,277,37382,2,0,P|237:248|176:272,1,129.599996044922,10|0,0:0|3:0,0:0:0:0:
165,290,37716,6,0,P|114:276|26:259,1,129.599996044922,2|0,1:2|0:0,0:0:0:0:
17,242,38049,2,0,B|7:199|7:199|31:164,1,86.3999973632813,8|0,0:0|3:0,0:0:0:0:
197,182,38382,6,0,P|248:168|336:151,1,129.599996044922,2|0,1:2|0:0,0:0:0:0:
347,131,38716,2,0,B|357:88|357:88|333:53,1,86.3999973632813,8|0,0:0|3:0,0:0:0:0:
150,6,39049,6,0,P|105:61|120:136,1,129.599996044922,4|0,1:3|0:0,0:0:0:0:
121,138,39382,1,12,0:1:0:0:
17,242,39549,1,8,1:3:0:0:
17,242,39632,1,8,1:3:0:0:
17,242,39716,6,0,L|68:224,1,43.1999986816407,10|10,1:3|1:3,0:0:0:0:
114,283,39882,2,0,L|154:297,1,43.1999986816407,10|10,1:3|1:3,0:0:0:0:
224,258,40049,2,0,P|266:244|311:234,1,86.3999973632813,2|0,1:3|1:2,0:0:0:0:
414,170,40382,6,0,P|427:117|442:84,1,86.3999973632813,10|0,0:0|1:2,0:0:0:0:
273,1,40716,2,0,P|289:40|298:82,1,86.3999973632813,8|0,0:0|1:2,0:0:0:0:
307,234,41049,1,10,0:0:0:0:
236,165,41216,1,8,1:3:0:0:
299,83,41382,1,8,1:3:0:0:
273,1,41549,1,4,1:2:0:0:
185,65,41716,6,0,B|115:71|138:106|31:104,1,129.599996044922,2|0,0:0|0:0,0:0:0:0:
34,91,42049,2,0,L|228:80,1,172.799994726563,6|2,0:3|1:2,0:0:0:0:
127,191,42549,1,0,1:2:0:0:
34,91,42716,1,12,0:1:0:0:
216,169,43049,6,0,P|213:228|189:253,1,86.3999973632813,6|0,1:2|1:2,0:0:0:0:
126,356,43382,2,0,P|103:319|106:277,1,86.3999973632813,10|0,3:2|0:0,0:0:0:0:
267,304,43716,2,0,P|317:313|447:334,1,172.799994726563,2|10,1:2|3:2,0:0:0:0:
504,268,44216,1,2,0:0:0:0:
504,268,44299,1,2,0:0:0:0:
504,268,44382,2,0,P|512:226|472:176,1,86.3999973632813,0|0,1:2|1:2,0:0:0:0:
395,95,44716,5,12,0:1:0:0:
335,177,44882,1,0,1:2:0:0:
415,241,45049,1,8,0:0:0:0:
395,81,45382,2,0,P|354:94|262:103,1,129.599996044922,10|0,0:0|0:0,0:0:0:0:
251,97,45716,6,0,P|260:49|261:-1,1,86.3999973632813,10|0,0:0|1:2,0:0:0:0:
141,98,46049,2,0,P|132:50|131:0,1,86.3999973632813,8|0,0:0|1:2,0:0:0:0:
272,195,46382,2,0,P|312:167|348:132,1,86.3999973632813,10|8,0:0|1:3,0:0:0:0:
127,203,46716,2,0,P|86:175|50:140,1,86.3999973632813,10|4,1:3|1:2,0:0:0:0:
132,291,47049,6,0,P|205:324|282:279,1,172.799994726563,2|6,0:0|0:3,0:0:0:0:
203,236,47549,1,8,1:3:0:0:
63,352,47716,2,0,P|40:307|50:258,1,86.3999973632813,2|0,1:2|1:2,0:0:0:0:
111,82,48049,2,0,P|138:137|119:214,1,129.599996044922,12|0,0:1|0:0,0:0:0:0:
117,221,48382,6,0,P|83:170|105:61,1,172.799994726563,6|8,1:2|3:2,0:0:0:0:
101,65,49049,2,0,P|43:40|15:30,1,86.3999973632813,2|0,1:2|1:2,0:0:0:0:
177,134,49382,2,0,P|235:109|263:99,1,86.3999973632813,10|0,3:2|0:0,0:0:0:0:
56,245,49716,2,0,P|81:187|91:159,1,86.3999973632813,6|0,1:2|1:2,0:0:0:0:
194,27,50049,6,0,P|240:61|252:107,1,86.3999973632813,10|0,3:2|1:2,0:0:0:0:
371,249,50382,2,0,P|318:271|272:259,1,86.3999973632813,14|0,3:1|1:2,0:0:0:0:
347,87,50716,2,0,P|340:143|306:177,1,86.3999973632813,10|0,0:0|1:2,0:0:0:0:
213,328,51049,5,6,1:2:0:0:
213,328,51216,1,0,1:2:0:0:
56,245,51382,2,0,P|63:306|86:333,1,86.3999973632813,10|0,0:0|0:0,0:0:0:0:
149,260,51716,1,0,1:2:0:0:
119,166,51882,1,0,1:2:0:0:
202,119,52049,2,0,P|223:156|222:198,1,86.3999973632813,8|2,0:0|0:0,0:0:0:0:
33,165,52382,6,0,P|43:89|140:104,1,172.799994726563,0|10,1:2|0:0,0:0:0:0:
119,166,52882,1,2,0:0:0:0:
197,33,53049,2,0,P|250:39|288:45,1,86.3999973632813,2|0,1:2|1:2,0:0:0:0:
475,27,53382,2,0,P|422:33|384:39,1,86.3999973632813,12|0,0:1|0:0,0:0:0:0:
339,238,53716,6,0,B|316:164|367:192|338:112,1,129.599996044922,4|0,1:2|0:0,0:0:0:0:
338,112,54049,2,0,P|326:166|346:209,1,86.3999973632813,10|0,0:0|0:0,0:0:0:0:
483,194,54382,2,0,P|416:178|336:248,1,172.799994726563,2|8,1:2|0:0,0:0:0:0:
295,331,54882,1,2,0:0:0:0:
295,331,54966,1,0,0:0:0:0:
295,331,55049,2,0,P|245:330|218:306,1,86.3999973632813,0|2,1:2|1:2,0:0:0:0:
339,238,55382,2,0,L|371:279,1,43.1999986816407,10|0,0:0|0:0,0:0:0:0:
436,375,55549,1,8,0:0:0:0:
436,375,55632,1,8,0:0:0:0:
436,375,55716,6,0,P|452:319|457:285,1,86.3999973632813,2|0,1:2|1:2,0:0:0:0:
359,154,56049,2,0,P|346:195|338:237,1,86.3999973632813,10|8,0:0|0:3,0:0:0:0:
442,293,56299,1,8,0:3:0:0:
456,291,56382,1,4,1:2:0:0:
507,203,56549,1,0,1:2:0:0:
442,131,56716,2,0,P|394:147|348:154,1,86.3999973632813,10|8,0:0|0:3,0:0:0:0:
252,131,56966,1,8,0:3:0:0:
238,121,57049,2,0,P|190:105|144:98,1,86.3999973632813,2|0,1:2|1:2,0:0:0:0:
40,176,57382,2,0,P|41:224|66:254,1,86.3999973632813,10|8,0:0|0:3,0:0:0:0:
166,314,57632,5,8,0:3:0:0:
180,308,57716,1,2,1:2:0:0:
341,263,57882,1,0,1:2:0:0:
273,337,58049,1,8,0:0:0:0:
249,230,58216,1,8,0:3:0:0:
310,151,58382,5,2,1:2:0:0:
471,106,58548,1,0,1:2:0:0:
379,73,58715,1,8,0:0:0:0:
403,180,58882,1,8,0:3:0:0:
288,68,59049,5,2,1:2:0:0:
487,189,59216,2,0,P|469:238|438:258,1,86.3999973632813,2|8,1:2|0:0,0:0:0:0:
449,24,59549,5,2,1:2:0:0:
442,256,59716,2,0,P|391:269|357:255,1,86.3999973632813,2|8,1:2|0:0,0:0:0:0:
379,73,60049,5,2,1:2:0:0:
442,256,60216,1,2,1:2:0:0:
213,126,60549,5,0,3:0:0:0:
176,217,60716,1,0,3:0:0:0:
181,213,60799,1,0,3:0:0:0:
185,219,60882,2,0,L|135:234,1,43.1999986816407,0|0,3:0|3:0,0:0:0:0:
246,286,61049,2,0,L|294:303,1,43.1999986816407,0|0,3:0|0:0,0:0:0:0:
0,384,61382,6,0,L|3:354,1,21.5999993408203,8|0,0:1|0:0,0:0:0:0:
12,351,61716,6,0,B|61:299|126:319|126:319|135:355|159:368,1,172.799994726563,6|0,1:2|0:0,0:0:0:0:
169,375,62049,1,10,0:0:0:0:
215,218,62216,2,0,B|192:211|175:189|175:189|171:215|154:234,1,96,2|0,0:0|1:2,0:0:0:0:
305,315,62549,2,0,P|340:283|387:275,1,96,2|8,0:0|0:0,0:0:0:0:
205,302,62882,1,2,0:0:0:0:
377,358,63049,6,0,P|445:370|500:326,1,144,2|0,1:2|0:0,0:0:0:0:
512,303,63382,1,10,0:0:0:0:
411,196,63549,2,0,L|392:93,1,96,2|0,0:0|1:2,0:0:0:0:
494,218,63882,2,0,L|485:170,1,48,2|0,0:0|0:0,0:0:0:0:
346,249,64049,2,0,P|298:232|241:230,1,96,8|0,0:0|0:0,0:0:0:0:
47,292,64382,6,0,P|65:244|112:226,1,96,2|0,1:2|0:0,0:0:0:0:
123,11,64715,2,0,P|155:51|147:101,1,96,10|0,0:0|0:0,0:0:0:0:
4,129,65049,2,0,P|54:121|93:153,1,96,2|0,1:2|0:0,0:0:0:0:
123,306,65382,1,10,0:0:0:0:
252,177,65549,6,0,B|280:151|333:139|333:139|299:143|269:117,1,144,2|0,0:0|0:0,0:0:0:0:
324,66,65882,2,0,L|316:138,1,48,2|0,0:1|0:0,0:0:0:0:
317,226,66049,1,10,0:1:0:0:
206,115,66216,1,2,0:1:0:0:
206,115,66299,1,0,0:0:0:0:
206,115,66382,5,2,1:2:0:0:
105,149,66549,1,2,0:0:0:0:
4,180,66716,1,10,0:0:0:0:
179,197,66882,5,2,0:0:0:0:
179,197,66966,1,2,0:0:0:0:
179,197,67049,2,0,B|86:180,1,76.8,4|2,1:3|0:0,0:0:0:0:
269,52,67382,6,0,B|306:-10|393:3|393:82|346:83,1,172.799994726563,12|0,0:1|0:0,0:0:0:0:
227,120,67716,2,0,P|202:102|192:78,1,48,2|0,1:2|0:0,0:0:0:0:
203,10,67882,1,0,3:0:0:0:
306,148,68049,2,0,L|321:243,1,96,10|0,0:0|3:0,0:0:0:0:
411,372,68382,6,0,B|420:346|430:297|430:297|429:326|451:348,1,115.2,2|0,1:2|0:0,0:0:0:0:
504,296,68716,6,0,P|434:330|334:322,1,172.799994726563,12|0,0:1|0:0,0:0:0:0:
427,362,69049,2,0,L|416:313,1,48,2|0,1:2|0:0,0:0:0:0:
397,228,69216,1,0,3:2:0:0:
251,338,69382,2,0,P|217:372|170:381,1,96,10|2,0:0|3:2,0:0:0:0:
48,257,69716,6,0,B|90:231|116:265|114:269|112:273|141:315|189:285,1,144,2|0,1:2|0:0,0:0:0:0:
240,233,70049,2,0,B|282:182|237:121|237:121|249:166|223:210,1,192,8|0,0:0|1:2,0:0:0:0:
81,127,70549,1,2,0:0:0:0:
158,149,70716,1,10,0:0:0:0:
139,71,70882,1,2,0:0:0:0:
303,31,71049,5,4,1:2:0:0:
274,148,71216,1,8,0:0:0:0:
308,13,71382,1,8,0:0:0:0:
429,88,71549,1,8,0:0:0:0:
405,96,71632,1,8,0:0:0:0:
380,104,71716,6,0,B|358:205|358:205|379:222|386:260,1,144,4|0,1:3|0:0,0:0:0:0:
342,299,72049,2,0,P|315:278|308:252,1,48,8|0,0:0|0:0,0:0:0:0:
508,295,72216,1,8,0:0:0:0:
512,315,72299,1,8,0:0:0:0:
502,331,72382,6,0,B|462:307|419:327|419:327|402:372|356:379,1,172.799994726563,6|0,1:2|0:0,0:0:0:0:
331,378,72716,1,10,0:0:0:0:
212,317,72882,2,0,L|191:212,1,96,2|0,0:0|1:2,0:0:0:0:
304,95,73216,2,0,L|283:200,1,96,2|8,0:0|0:0,0:0:0:0:
318,11,73549,1,2,0:0:0:0:
176,138,73716,6,0,P|117:127|59:62,1,144,2|0,1:2|0:0,0:0:0:0:
55,42,74049,1,10,0:0:0:0:
166,212,74216,2,0,P|199:177|252:172,1,96,2|0,0:0|1:2,0:0:0:0:
416,106,74549,2,0,L|407:59,1,48,2|0,0:0|0:0,0:0:0:0:
318,11,74716,2,0,L|336:105,1,96,8|0,0:0|0:0,0:0:0:0:
433,269,75049,6,0,P|461:231|507:220,1,96,2|0,1:2|0:0,0:0:0:0:
350,370,75382,2,0,L|246:347,1,96,10|0,0:0|0:0,0:0:0:0:
97,265,75716,2,0,L|237:233,1,144,2|0,1:2|0:0,0:0:0:0:
261,229,76049,1,10,0:0:0:0:
340,92,76216,6,0,B|303:60|245:70|245:70|235:104|199:114,1,144,2|0,0:0|0:0,0:0:0:0:
174,48,76549,2,0,L|193:109,1,48,2|0,0:1|0:0,0:0:0:0:
288,150,76716,1,10,0:1:0:0:
123,184,76882,1,2,0:1:0:0:
123,184,76966,1,0,0:0:0:0:
123,184,77049,5,2,1:2:0:0:
46,126,77216,1,2,0:0:0:0:
71,34,77382,1,10,0:0:0:0:
207,84,77549,5,2,0:0:0:0:
207,84,77632,1,2,0:0:0:0:
207,84,77716,2,0,B|238:104|274:78|274:78|244:81|225:66,1,115.2,4|0,1:3|0:0,0:0:0:0:
264,3,78049,6,0,L|239:187,1,172.799994726563,12|0,0:1|0:0,0:0:0:0:
325,182,78382,2,0,L|332:128,1,48,2|0,1:2|0:0,0:0:0:0:
339,52,78549,1,0,3:0:0:0:
498,104,78716,2,0,P|452:114|423:151,1,96,10|0,0:0|3:0,0:0:0:0:
391,298,79049,6,0,B|405:269|397:240|397:240|411:267|439:276,1,115.2,2|0,1:2|0:0,0:0:0:0:
442,358,79382,6,0,P|360:334|261:317,1,172.799994726563,12|0,0:1|0:0,0:0:0:0:
248,245,79716,2,0,P|227:255|207:277,1,48,2|0,1:2|0:0,0:0:0:0:
184,348,79882,1,0,3:2:0:0:
26,223,80049,2,0,P|68:180|117:177,1,96,10|2,0:0|3:2,0:0:0:0:
241,105,80382,6,0,P|277:71|274:-2,1,115.2,2|0,1:2|0:0,0:0:0:0:
209,36,80716,6,0,L|241:205,1,172.799994726563,12|0,0:1|0:0,0:0:0:0:
325,256,81049,2,0,P|358:212|414:202,1,96,2|0,1:2|3:0,0:0:0:0:
418,206,81299,1,0,0:0:0:0:
418,206,81382,1,12,0:1:0:0:
355,341,81549,5,8,0:0:0:0:
355,341,81632,1,8,0:0:0:0:
355,341,81716,2,0,B|363:369|401:372|401:372|378:351|374:315,1,115.2,0|0,1:2|0:0,0:0:0:0:
270,315,82049,6,0,B|234:287|187:298|166:339|171:341|177:343|159:378|112:395|73:366,1,230.39999296875,12|0,0:1|1:2,0:0:0:0:
39,220,82549,1,8,0:0:0:0:
39,220,82632,1,8,0:0:0:0:
39,220,82716,2,0,P|85:245|97:303,1,96,8|8,0:0|1:3,0:0:0:0:
204,196,83049,6,0,P|146:168|127:62,1,144,4|0,1:2|0:0,0:0:0:0:
129,68,83382,2,0,L|221:42,1,96,10|0,0:0|3:2,0:0:0:0:
327,119,83716,2,0,B|378:109|415:147|415:147|408:90|438:57,1,192,2|8,1:2|0:0,0:0:0:0:
221,42,84216,6,0,L|129:68,1,96,2|0,0:0|1:2,0:0:0:0:
22,97,84549,1,2,0:0:0:0:
177,209,84715,1,10,0:0:0:0:
199,129,84882,1,2,0:0:0:0:
52,230,85049,2,0,L|75:338,1,96,2|0,1:2|0:0,0:0:0:0:
257,381,85382,6,0,B|267:345|301:340|304:345|305:349|342:341|357:305|336:266|305:269,1,172.799994726563,14|0,0:1|0:0,0:0:0:0:
257,381,85716,2,0,B|262:346|235:326|230:328|226:332|197:307|200:269|237:244|264:260,1,172.799994726563,6|0,1:2|0:0,0:0:0:0:
293,233,86049,6,0,L|273:328,1,96,10|0,0:0|3:0,0:0:0:0:
425,383,86382,2,0,L|386:194,1,192,2|8,1:2|0:0,0:0:0:0:
368,100,86882,1,2,0:0:0:0:
213,197,87049,6,0,P|176:166|130:161,1,96,6|2,1:2|0:0,0:0:0:0:
299,51,87382,2,0,P|336:19|382:14,1,96,14|10,0:0|0:0,0:0:0:0:
405,21,87632,1,8,0:0:0:0:
405,21,87716,1,10,0:0:0:0:
436,169,87882,1,10,0:0:0:0:
241,112,88049,2,0,B|212:83|215:47|215:47|190:80|154:84,1,144,12|0,0:1|0:0,0:0:0:0:
175,161,88382,5,12,0:0:0:0:
175,161,88716,2,0,L|201:262,1,96,10|0,0:0|1:2,0:0:0:0:
82,120,89049,2,0,L|108:221,1,96,10|0,0:0|1:2,0:0:0:0:
217,19,89382,2,0,L|243:120,1,96,10|0,0:0|1:2,0:0:0:0:
198,253,89716,5,12,0:1:0:0:
198,253,90049,2,0,P|159:216|103:217,1,96,10|0,0:0|1:2,0:0:0:0:
272,152,90382,2,0,P|284:99|255:51,1,96,10|0,0:0|1:2,0:0:0:0:
380,186,90716,1,10,0:0:0:0:
403,183,90799,1,8,0:0:0:0:
425,173,90882,1,8,1:3:0:0:
443,157,90965,1,8,1:3:0:0:
454,136,91049,6,0,L|483:244,1,96,12|0,0:0|1:2,0:0:0:0:
281,330,91382,2,0,L|305:237,1,96,10|0,0:0|1:2,0:0:0:0:
349,74,91716,1,12,0:1:0:0:
209,199,91882,2,0,B|186:192|169:170|169:170|165:196|148:215,1,96,2|8,1:2|0:0,0:0:0:0:
0,179,92216,1,2,1:2:0:0:
0,179,92299,1,0,1:2:0:0:
0,179,92382,6,0,P|54:168|98:154,1,96,12|2,0:0|1:2,0:0:0:0:
330,97,92716,2,0,P|283:105|237:119,1,96,12|2,0:1|1:2,0:0:0:0:
92,332,93049,6,0,P|111:275|121:230,1,96,14|0,0:0|1:2,0:0:0:0:
189,0,93383,2,0,P|172:45|160:91,1,96,10|8,1:3|1:3,0:0:0:0:
223,241,93716,5,10,0:0:0:0:
82,89,93882,1,10,0:0:0:0:
70,74,94216,5,10,0:0:0:0:
235,258,94382,1,10,0:0:0:0:
214,144,94716,5,0,1:0:0:0:
180,152,94799,1,0,1:0:0:0:
149,161,94882,1,0,1:0:0:0:
116,171,94965,1,0,1:0:0:0:
84,179,95049,1,10,0:0:0:0:
445,205,96049,1,8,0:3:0:0:
445,205,96382,6,0,P|429:260|428:304,1,96,6|0,1:1|3:2,0:0:0:0:
378,98,96715,2,0,P|348:37|326:9,1,96,10|0,0:0|3:0,0:0:0:0:
512,109,97049,1,2,1:2:0:0:
339,186,97215,2,0,L|234:162,1,96,2|8,3:2|3:2,0:0:0:0:
130,246,97549,6,0,B|186:272|186:272|235:251|235:251|315:269,1,192,2|2,3:2|3:2,0:0:0:0:
339,186,98049,1,10,0:0:0:0:
235,342,98215,1,2,3:2:0:0:
129,167,98382,2,0,P|50:263|116:326,1,192,2|10,1:2|3:2,0:0:0:0:
334,364,99049,6,0,P|405:340|447:332,1,96,2|0,1:2|3:2,0:0:0:0:
246,200,99382,2,0,P|226:149|216:103,1,96,10|0,0:0|3:2,0:0:0:0:
246,313,99715,1,2,1:2:0:0:
357,175,99882,2,0,B|405:185|405:185|420:229,1,96,2|8,3:2|3:2,0:0:0:0:
246,313,100215,6,0,B|204:306|168:327|168:327|135:317|135:317|99:339|41:322,1,192,2|2,3:2|3:2,0:0:0:0:
168,235,100715,1,10,3:2:0:0:
106,77,100882,1,2,3:2:0:0:
46,150,101049,2,0,P|120:188|191:87,1,192,2|10,1:2|0:0,0:0:0:0:
298,213,101716,6,0,P|247:187|162:241,1,144,6|0,1:3|0:0,0:0:0:0:
168,235,102049,2,0,L|190:178,1,48,12|0,1:1|0:0,0:0:0:0:
251,76,102215,1,8,0:0:0:0:
251,76,102299,1,8,0:0:0:0:
251,76,102382,1,10,0:0:0:0:
340,31,102549,1,8,1:3:0:0:
440,38,102715,1,8,1:3:0:0:
512,107,102882,1,6,1:2:0:0:
459,315,103215,5,0,1:2:0:0:
352,318,103382,1,10,0:0:0:0:
295,222,103549,1,10,0:0:0:0:
402,221,103716,1,10,0:0:0:0:
180,359,104216,5,2,0:0:0:0:
180,359,104299,1,2,0:0:0:0:
180,359,104382,2,0,P|67:346|19:341,1,153.6,6|0,1:2|1:2,0:0:0:0:
130,247,104882,1,2,0:0:0:0:
130,247,104966,1,0,0:0:0:0:
130,247,105049,2,0,P|127:193|36:130,1,153.6,0|0,1:2|1:2,0:0:0:0:
0,222,105549,2,0,P|42:251|5:216,1,153.6,2|2,3:2|0:0,0:0:0:0:
55,131,106049,5,0,1:2:0:0:
51,117,106216,1,2,0:0:0:0:
159,94,106382,5,2,1:2:0:0:
162,79,106549,1,2,0:0:0:0:
267,113,106715,5,2,1:2:0:0:
277,102,106882,1,0,3:0:0:0:
340,190,107049,5,0,1:2:0:0:
340,190,107382,1,2,1:2:0:0:
433,146,107549,1,2,0:0:0:0:
293,278,107716,2,0,P|250:267|136:244,2,153.6,2|2|2,1:2|1:2|1:2,0:0:0:0:
449,363,108716,5,2,1:2:0:0:
462,315,108799,1,8,0:0:0:0:
460,267,108882,1,8,0:0:0:0:
443,235,108965,1,8,0:0:0:0:
423,210,109049,1,8,0:0:0:0:
411,182,109132,1,8,0:0:0:0:
409,162,109215,1,8,0:0:0:0:
414,149,109298,1,8,0:0:0:0:
422,143,109382,2,0,L|470:161,3,38.4,8|8|8|8,0:0|0:0|0:0|0:0,0:0:0:0:
363,81,109716,6,0,B|311:82|291:129|291:129|280:65|217:57|217:57|169:122|219:188|219:188|273:225|234:294|234:294|175:276|175:233|175:233|194:208|193:179,1,614.4,4|0,1:2|0:0,0:0:0:0:
193,182,111382,6,0,P|177:220|235:265,1,115.2
236,274,111716,2,0,P|234:231|174:188,1,115.2,0|0,3:2|0:0,0:0:0:0:
169,180,112049,2,0,P|167:239|249:292,1,153.6,0|8,0:0|0:0,0:0:0:0:
351,282,112716,5,8,0:0:0:0:
441,244,112882,1,8,0:0:0:0:
355,299,113049,1,8,0:0:0:0:
237,292,113216,1,8,0:0:0:0:
323,186,113382,1,8,0:0:0:0:
410,80,113549,1,8,0:0:0:0:
236,47,113716,6,0,P|229:71|232:91,3,38.4,0|0|0|0,3:0|3:0|3:0|3:0,0:0:0:0:
222,167,114049,2,0,P|205:176|192:190,3,38.4,0|0|0|0,3:0|3:0|3:0|3:0,0:0:0:0:
124,245,114382,6,0,L|103:242,1,19.2,10|0,0:0|0:0,0:0:0:0:
257,311,114632,2,0,L|236:308,1,19.2,10|0,0:0|0:0,0:0:0:0:
389,384,114882,2,0,L|368:381,1,19.2,10|0,0:0|0:0,0:0:0:0:
209,383,115049,6,0,P|187:315|216:226,1,153.6,6|0,1:2|1:2,0:0:0:0:
317,193,115549,2,0,P|346:252|335:279,1,76.8,2|0,0:0|1:2,0:0:0:0:
279,314,115882,2,0,P|349:296|437:290,1,153.6,2|2,0:0|0:0,0:0:0:0:
429,289,116382,1,0,1:2:0:0:
483,210,116549,1,2,0:0:0:0:
344,127,116716,6,0,P|315:186|326:213,1,76.8,2|0,1:2|0:0,0:0:0:0:
433,293,117049,1,2,1:2:0:0:
483,210,117216,1,2,0:0:0:0:
296,290,117382,2,0,P|246:270|192:177,1,153.6,2|0,1:2|1:2,0:0:0:0:
193,188,118049,5,2,1:2:0:0:
116,118,118216,1,2,0:0:0:0:
171,2,118382,2,0,P|197:52|183:132,1,115.2,2|0,1:2|0:0,0:0:0:0:
193,188,118716,2,0,P|140:169|117:119,1,115.2,10|8,0:0|1:3,0:0:0:0:
97,40,119049,1,10,0:0:0:0:
193,188,119549,6,0,L|190:209,1,19.2,10|0,0:0|0:0,0:0:0:0:
305,58,119882,2,0,L|308:39,1,19.2,10|0,0:0|0:0,0:0:0:0:
494,240,120382,6,0,B|442:240|372:214|372:214|394:229|404:258,1,172.799994726563,4|8,1:2|0:0,0:0:0:0:
401,250,120882,1,0,3:0:0:0:
496,154,121049,2,0,P|449:150|403:133,1,86.3999973632813,0|0,1:2|3:0,0:0:0:0:
328,281,121382,2,0,P|285:284|243:296,1,86.3999973632813,8|0,0:0|3:0,0:0:0:0:
213,163,121716,6,0,P|255:159|297:147,1,86.3999973632813,0|0,1:2|3:0,0:0:0:0:
122,133,122049,2,0,P|103:171|93:213,1,86.3999973632813,10|0,0:0|3:0,0:0:0:0:
193,69,122382,2,0,P|168:33|137:4,1,86.3999973632813,2|0,1:2|3:0,0:0:0:0:
324,20,122716,2,0,L|293:161,1,129.599996044922,10|0,0:0|3:0,0:0:0:0:
311,170,123049,6,0,B|386:154|377:216|466:194,1,129.599996044922,2|0,1:2|0:0,0:0:0:0:
453,197,123382,2,0,P|482:163|471:123,1,86.3999973632813,8|0,0:0|3:0,0:0:0:0:
331,252,123716,6,0,B|256:268|265:206|176:228,1,129.599996044922,2|0,1:2|0:0,0:0:0:0:
189,225,124049,2,0,P|160:259|171:299,1,86.3999973632813,8|0,0:0|3:0,0:0:0:0:
3,166,124382,6,0,L|150:134,1,129.599996044922,4|0,1:3|0:0,0:0:0:0:
156,134,124716,1,12,0:1:0:0:
274,187,124882,1,8,1:3:0:0:
274,187,124966,1,8,1:3:0:0:
274,187,125049,6,0,P|280:152|264:124,1,43.1999986816407,10|10,1:3|1:3,0:0:0:0:
344,98,125216,2,0,P|317:75|285:75,1,43.1999986816407,10|10,1:3|1:3,0:0:0:0:
202,0,125382,2,0,L|223:96,1,86.3999973632813,2|0,1:3|1:2,0:0:0:0:
148,245,125716,6,0,P|190:251|224:282,1,86.3999973632813,10|0,0:0|1:2,0:0:0:0:
343,359,126049,2,0,P|374:330|417:324,1,86.3999973632813,8|0,0:0|1:2,0:0:0:0:
512,199,126382,1,10,0:0:0:0:
438,234,126548,1,8,1:3:0:0:
417,324,126716,1,8,1:3:0:0:
343,359,126882,1,4,1:2:0:0:
438,234,127049,6,0,B|441:188|447:147|447:147|436:172|417:184,1,129.599996044922,2|0,0:0|0:0,0:0:0:0:
392,182,127382,2,0,P|329:166|222:151,1,172.799994726563,6|2,0:3|1:2,0:0:0:0:
183,270,127882,1,0,1:2:0:0:
392,182,128049,1,12,0:1:0:0:
182,354,128382,6,0,P|127:340|109:318,1,86.3999973632813,6|0,1:2|1:2,0:0:0:0:
256,221,128716,2,0,P|271:275|261:302,1,86.3999973632813,10|0,3:2|0:0,0:0:0:0:
79,225,129049,2,0,B|125:209|162:236|162:236|152:190|185:157,1,172.799994726563,2|10,1:2|3:2,0:0:0:0:
257,82,129549,1,2,0:0:0:0:
257,82,129632,1,0,0:0:0:0:
257,82,129716,6,0,L|170:59,1,86.3999973632813,0|0,1:2|1:2,0:0:0:0:
0,101,130049,1,12,0:1:0:0:
99,130,130216,1,0,1:2:0:0:
173,59,130382,1,8,0:0:0:0:
293,225,130716,2,0,B|325:232|342:267|342:267|336:228|355:202,1,129.599996044922,10|0,0:0|0:0,0:0:0:0:
402,145,131049,6,0,P|429:188|419:244,1,86.3999973632813,10|0,0:0|1:2,0:0:0:0:
240,287,131382,2,0,P|213:244|223:188,1,86.3999973632813,8|0,0:0|1:2,0:0:0:0:
376,66,131716,2,0,P|426:64|470:100,1,86.3999973632813,10|8,0:0|1:3,0:0:0:0:
184,129,132049,2,0,P|147:151|130:190,1,86.3999973632813,10|4,1:3|1:2,0:0:0:0:
225,0,132382,6,0,B|206:58|263:81|256:70|305:88|298:141,1,172.799994726563,2|6,0:0|0:3,0:0:0:0:
307,5,132882,1,8,1:3:0:0:
137,50,133049,2,0,P|92:45|44:28,1,86.3999973632813,2|0,1:2|1:2,0:0:0:0:
7,160,133382,2,0,P|72:168|133:186,1,129.599996044922,12|0,0:1|0:0,0:0:0:0:
224,207,133716,6,0,P|142:212|104:285,1,172.799994726563,6|8,1:2|3:2,0:0:0:0:
103,285,134382,2,0,P|55:273|11:264,1,86.3999973632813,2|0,1:2|1:2,0:0:0:0:
185,352,134716,2,0,P|233:340|277:331,1,86.3999973632813,10|0,3:2|0:0,0:0:0:0:
224,207,135049,2,0,P|232:164|243:122,1,86.3999973632813,6|0,1:2|1:2,0:0:0:0:
386,33,135382,6,0,P|423:68|413:123,1,86.3999973632813,10|0,3:2|1:2,0:0:0:0:
504,266,135716,2,0,P|464:281|425:265,1,86.3999973632813,14|0,3:1|1:2,0:0:0:0:
511,115,136049,2,0,P|504:156|471:182,1,86.3999973632813,10|0,0:0|1:2,0:0:0:0:
348,309,136382,5,6,1:2:0:0:
348,309,136549,1,0,1:2:0:0:
242,228,136716,2,0,P|184:217|143:213,1,86.3999973632813,10|0,0:0|0:0,0:0:0:0:
284,121,137049,1,0,1:2:0:0:
200,135,137216,1,0,1:2:0:0:
130,30,137382,2,0,P|188:41|229:45,1,86.3999973632813,8|2,0:0|0:0,0:0:0:0:
382,41,137716,6,0,B|349:54|349:54|293:114|343:192,1,172.799994726563,0|10,1:2|0:0,0:0:0:0:
419,133,138216,1,2,0:0:0:0:
504,249,138382,2,0,P|457:234|407:224,1,86.3999973632813,2|0,1:2|1:2,0:0:0:0:
256,354,138716,2,0,P|297:340|339:331,1,86.3999973632813,12|0,0:1|0:0,0:0:0:0:
117,210,139049,6,0,P|205:230|280:244,1,129.599996044922,4|0,1:2|0:0,0:0:0:0:
269,244,139382,2,0,P|296:200|281:161,1,86.3999973632813,10|0,0:0|0:0,0:0:0:0:
359,45,139716,2,0,P|290:61|178:81,1,172.799994726563,2|8,1:2|0:0,0:0:0:0:
58,35,140216,1,2,0:0:0:0:
58,35,140299,1,0,0:0:0:0:
58,35,140382,2,0,P|27:69|29:111,1,86.3999973632813,0|2,1:2|1:2,0:0:0:0:
159,173,140716,2,0,P|137:168|116:163,1,43.1999986816407,10|0,0:0|0:0,0:0:0:0:
35,237,140882,1,8,0:0:0:0:
35,237,140965,1,8,0:0:0:0:
35,237,141049,6,0,P|79:244|132:260,1,86.3999973632813,2|0,1:2|1:2,0:0:0:0:
273,315,141382,2,0,P|230:321|188:333,1,86.3999973632813,10|8,0:0|0:3,0:0:0:0:
114,269,141632,1,8,0:3:0:0:
119,255,141716,1,4,1:2:0:0:
190,190,141882,1,0,1:2:0:0:
284,217,142049,2,0,P|333:233|393:242,1,86.3999973632813,10|8,0:0|0:3,0:0:0:0:
404,140,142299,1,8,0:3:0:0:
392,129,142382,2,0,P|343:113|283:104,1,86.3999973632813,2|0,1:2|1:2,0:0:0:0:
170,25,142716,2,0,P|206:55|215:115,1,86.3999973632813,10|8,0:0|0:3,0:0:0:0:
205,196,142966,5,8,0:3:0:0:
190,190,143049,1,2,1:2:0:0:
129,101,143216,1,0,1:2:0:0:
46,137,143382,1,8,0:0:0:0:
107,226,143549,1,8,0:3:0:0:
349,143,143716,5,2,1:2:0:0:
288,232,143882,1,0,1:2:0:0:
205,196,144049,1,8,0:0:0:0:
266,107,144216,1,8,0:3:0:0:
217,285,144383,5,8,0:0:0:0:
217,285,144466,1,8,0:0:0:0:
217,285,144550,2,0,P|168:294|130:305,1,86.3999973632813,8|8,1:3|1:3,0:0:0:0:
380,232,144882,5,8,0:0:0:0:
380,232,144965,1,8,0:0:0:0:
380,232,145049,2,0,P|429:223|467:212,1,86.3999973632813,8|8,1:3|1:3,0:0:0:0:
313,319,145382,5,0,1:2:0:0:
266,107,145549,1,0,1:2:0:0:
266,107,145882,5,0,3:0:0:0:
175,144,146049,1,0,3:0:0:0:
179,139,146132,1,0,3:0:0:0:
173,135,146215,2,0,L|158:185,1,43.1999986816407,0|0,3:0|3:0,0:0:0:0:
106,73,146382,2,0,L|89:25,1,43.1999986816407,0|0,3:0|0:0,0:0:0:0:
8,275,146716,6,0,L|38:266,1,21.5999993408203,8|0,0:1|0:0,0:0:0:0:
40,277,147049,6,0,B|76:255|116:258|116:258|163:276|206:253,1,172.799994726563,6|0,1:2|0:0,0:0:0:0:
160,176,147382,1,10,0:0:0:0:
101,348,147549,2,0,P|167:355|219:340,1,96,2|0,0:0|1:2,0:0:0:0:
312,239,147882,2,0,P|303:187|294:135,1,96,2|8,0:0|0:0,0:0:0:0:
214,89,148216,1,2,0:0:0:0:
206,253,148382,6,0,P|278:270|310:354,1,144,2|0,1:2|0:0,0:0:0:0:
311,345,148716,1,10,0:0:0:0:
463,307,148882,2,0,P|474:240|483:196,1,96,2|0,0:0|1:2,0:0:0:0:
413,138,149216,2,0,L|424:92,1,48,2|0,0:0|0:0,0:0:0:0:
501,56,149382,2,0,P|458:95|419:89,1,96,8|0,0:0|0:0,0:0:0:0:
342,21,149716,6,0,P|272:8|197:55,1,144,2|0,1:2|0:0,0:0:0:0:
190,39,150049,2,0,L|216:191,1,144,10|0,0:0|0:0,0:0:0:0:
226,195,150382,2,0,P|156:208|81:161,1,144,2|0,1:2|0:0,0:0:0:0:
85,163,150716,1,10,0:0:0:0:
248,107,150882,6,0,P|305:150|268:273,1,192,2|2,0:0|0:1,0:0:0:0:
200,323,151382,1,10,0:1:0:0:
108,273,151549,1,2,0:1:0:0:
22,341,151716,1,2,1:2:0:0:
13,354,151882,1,2,0:0:0:0:
107,254,152049,1,10,0:0:0:0:
209,337,152216,1,2,0:0:0:0:
356,214,152382,6,0,P|375:263|319:324,1,115.2,4|0,1:3|0:0,0:0:0:0:
330,303,152716,2,0,P|326:232|348:92,1,172.799994726563,12|0,0:1|0:0,0:0:0:0:
401,75,153049,6,0,P|433:34|514:52,1,115.2,2|0,1:2|0:0,0:0:0:0:
491,53,153382,2,0,P|431:91|299:142,1,172.799994726563,10|0,0:0|0:0,0:0:0:0:
258,104,153716,6,0,P|206:96|181:17,1,115.2,2|0,1:2|0:0,0:0:0:0:
193,37,154050,2,0,P|255:69|366:158,1,172.799994726563,12|0,0:1|0:0,0:0:0:0:
419,220,154382,6,0,L|410:268,3,48,2|0|0|0,1:2|0:0|0:0|0:0,0:0:0:0:
330,303,154716,1,10,0:0:0:0:
302,280,154799,1,2,0:0:0:0:
268,268,154882,1,2,0:2:0:0:
232,267,154966,1,2,0:2:0:0:
198,278,155049,6,0,B|166:281|133:319|133:319|98:322|58:298,1,144,2|0,1:2|0:0,0:0:0:0:
24,235,155382,2,0,P|33:177|40:119,1,96,8|0,0:0|0:0,0:0:0:0:
134,44,155716,1,0,1:2:0:0:
309,122,155882,1,2,0:0:0:0:
323,118,155966,1,0,0:0:0:0:
337,114,156049,1,10,0:0:0:0:
141,59,156216,1,2,0:0:0:0:
374,37,156382,6,0,P|414:77|347:202,1,192,4|8,1:2|0:0,0:0:0:0:
265,278,156882,1,8,0:0:0:0:
265,278,156966,1,8,0:0:0:0:
265,278,157049,2,0,P|211:261|116:249,1,144,4|0,1:3|0:0,0:0:0:0:
51,300,157382,2,0,P|92:245|55:145,1,144,8|8,0:0|0:0,0:0:0:0:
54,57,157716,6,0,B|16:72|8:119|8:119|69:55|172:59,1,230.39999296875,6|10,1:2|0:0,0:0:0:0:
240,100,158216,2,0,P|254:159|228:204,1,96,2|0,0:0|1:2,0:0:0:0:
187,384,158549,2,0,P|173:325|199:280,1,96,2|8,0:0|0:0,0:0:0:0:
153,213,158882,1,2,0:0:0:0:
273,274,159049,2,0,P|344:277|408:181,1,192,2|10,1:2|0:0,0:0:0:0:
311,183,159549,2,0,P|283:136|266:99,1,96,2|0,0:0|1:2,0:0:0:0:
360,33,159882,1,2,0:0:0:0:
408,185,160049,2,0,P|436:138|453:101,1,96,8|0,0:0|0:0,0:0:0:0:
338,275,160382,6,0,B|225:298|288:207|129:254,1,192,2|10,1:2|0:0,0:0:0:0:
198,335,160882,1,0,0:0:0:0:
71,251,161049,2,0,P|82:205|120:177,1,96,2|0,1:2|0:0,0:0:0:0:
198,335,161382,1,10,0:0:0:0:
208,184,161549,2,0,P|165:165|120:177,1,96,2|0,0:0|1:2,0:0:0:0:
198,335,161882,6,0,P|262:321|327:321,1,96,2|10,0:1|0:1,0:0:0:0:
392,348,162216,1,2,0:1:0:0:
469,292,162382,1,2,1:2:0:0:
442,197,162549,1,2,0:0:0:0:
328,133,162716,1,10,0:0:0:0:
321,7,162882,1,2,0:0:0:0:
430,84,163049,6,0,P|394:112|308:134,1,115.2,4|0,1:3|0:0,0:0:0:0:
313,138,163382,2,0,P|267:167|219:217,1,115.199996484375,12|0,0:1|0:0,0:0:0:0:
320,380,163716,6,0,P|313:334|337:249,1,115.2,2|0,1:2|0:0,0:0:0:0:
331,251,164049,2,0,P|328:196|309:130,1,115.199996484375,10|0,0:0|3:0,0:0:0:0:
119,136,164382,6,0,P|161:153|223:216,1,115.2,2|0,1:2|0:0,0:0:0:0:
225,210,164715,2,0,P|274:237|340:251,1,115.199996484375,12|0,0:1|0:0,0:0:0:0:
406,326,165049,6,0,L|453:311,3,48,2|0|0|0,1:2|0:0|0:2|0:0,0:0:0:0:
320,380,165382,1,10,0:0:0:0:
292,357,165466,1,2,0:0:0:0:
258,344,165548,1,2,0:0:0:0:
222,343,165632,1,2,0:0:0:0:
188,353,165716,6,0,B|151:351|151:351|106:338|90:261,1,115.2,2|0,1:2|0:0,0:0:0:0:
27,255,166049,6,0,P|73:217|176:265,1,172.799994726563,12|0,0:1|0:0,0:0:0:0:
100,296,166382,6,0,P|101:244|118:113,1,144,2|0,1:2|0:0,0:0:0:0:
113,134,166716,2,0,P|107:75|95:24,1,96,12|8,0:1|0:0,0:0:0:0:
87,27,166966,1,8,0:0:0:0:
76,38,167049,6,0,B|145:104|216:28,1,153.6,0|12,1:2|0:1,0:0:0:0:
210,33,167549,1,0,0:0:0:0:
334,165,167716,6,0,P|351:110|386:49,1,96,0|8,1:2|0:0,0:0:0:0:
434,20,167966,1,8,0:0:0:0:
444,23,168049,2,0,P|468:77|424:149,1,144,8|8,0:0|1:3,0:0:0:0:
334,165,168382,6,0,B|288:154|288:154|223:170|200:200,1,144,4|0,1:2|0:0,0:0:0:0:
199,211,168716,2,0,P|206:269|243:292,1,96,10|0,0:0|3:2,0:0:0:0:
324,367,169049,2,0,B|364:358|364:358|402:358|402:358|454:336|524:343,1,192,2|8,1:2|0:0,0:0:0:0:
380,269,169549,1,2,0:0:0:0:
380,269,169632,1,0,0:0:0:0:
380,269,169716,2,0,P|349:222|358:159,1,96,0|2,1:2|0:0,0:0:0:0:
396,53,170049,1,10,0:0:0:0:
471,112,170216,1,2,0:0:0:0:
263,202,170382,6,0,P|205:176|95:148,1,144,2|0,1:2|0:0,0:0:0:0:
118,144,170716,6,0,P|68:198|154:280,1,172.799994726563,14|0,0:1|0:0,0:0:0:0:
124,266,171049,6,0,P|132:203|98:31,2,230.39999296875,6|10|2,1:2|0:0|1:2,0:0:0:0:
149,373,171882,2,0,P|101:372|58:354,1,96,0|8,0:0|0:0,0:0:0:0:
217,311,172216,1,2,0:0:0:0:
217,311,172299,1,0,0:0:0:0:
217,311,172382,2,0,P|273:305|342:283,1,96,6|2,1:2|0:0,0:0:0:0:
411,219,172716,6,0,L|429:170,1,48,14|0,0:0|0:0,0:0:0:0:
300,47,172882,2,0,L|318:96,1,48,10|8,0:0|0:0,0:0:0:0:
271,202,173049,2,0,L|320:184,1,48,10|0,0:0|0:0,0:0:0:0:
455,84,173216,2,0,L|406:66,1,48,10|0,0:0|0:0,0:0:0:0:
203,5,173382,2,0,P|149:13|50:52,1,144,12|0,0:1|0:0,0:0:0:0:
12,113,173716,5,12,0:0:0:0:
12,113,174049,2,0,P|36:167|39:214,1,96,10|0,0:0|1:2,0:0:0:0:
167,164,174382,2,0,P|160:222|139:264,1,96,10|0,0:0|1:2,0:0:0:0:
275,285,174716,2,0,P|240:332|201:358,1,96,10|0,0:0|1:2,0:0:0:0:
83,340,175049,5,12,0:1:0:0:
210,354,175382,2,0,P|248:324|275:285,1,96,10|0,0:0|1:2,0:0:0:0:
364,380,175716,2,0,P|381:335|385:288,1,96,10|0,0:0|1:2,0:0:0:0:
509,325,176049,1,10,0:0:0:0:
507,301,176132,1,8,0:0:0:0:
502,277,176215,1,8,1:3:0:0:
493,255,176299,1,8,1:3:0:0:
481,234,176382,6,0,P|463:182|473:134,1,96,12|0,0:0|1:2,0:0:0:0:
384,0,176716,2,0,P|402:52|392:100,1,96,10|0,0:0|1:2,0:0:0:0:
317,136,177049,1,12,0:1:0:0:
153,72,177216,2,0,P|206:54|246:43,1,96,2|8,1:2|0:0,0:0:0:0:
165,183,177549,1,2,1:2:0:0:
165,183,177632,1,0,1:2:0:0:
165,183,177716,2,0,P|153:235|138:315,1,96,12|2,0:0|1:2,0:0:0:0:
86,359,178049,5,12,0:1:0:0:
11,263,178216,1,2,1:2:0:0:
191,357,178382,2,0,P|252:344|296:335,1,96,14|0,0:0|1:2,0:0:0:0:
299,335,178632,1,0,1:0:0:0:
313,332,178716,1,10,1:3:0:0:
426,265,178882,1,8,1:3:0:0:
416,128,179049,5,10,0:0:0:0:
405,355,179216,1,10,0:0:0:0:
267,163,179549,5,10,0:0:0:0:
426,265,179716,1,10,0:0:0:0:
333,262,180049,5,0,1:0:0:0:
358,220,180132,1,0,1:0:0:0:
381,185,180216,1,0,1:0:0:0:
403,151,180299,1,0,1:0:0:0:
416,128,180382,1,10,0:0:0:0:
30,315,181716,6,0,P|73:269|164:285,1,144.000005493164,6|0,1:2|1:2,0:0:0:0:
206,191,182216,2,0,P|249:145|340:161,1,144.000005493164,10|0,0:0|1:2,0:0:0:0:
407,104,182716,1,10,0:0:0:0:
375,262,182882,2,0,P|370:244|366:227,1,36.0000013732911,8|8,0:0|0:0,0:0:0:0:
282,222,183049,1,8,0:0:0:0:
277,244,183132,1,8,0:0:0:0:
273,267,183215,1,8,0:0:0:0:
269,290,183299,1,8,0:0:0:0:
264,313,183382,1,8,0:0:0:0:
152,283,183549,5,2,1:2:0:0:
430,339,183882,1,2,1:2:0:0:
152,283,184216,1,2,1:2:0:0:
197,187,184382,6,0,L|183:83,1,86.3999973632813,6|0,1:3|0:0,0:0:0:0:
183,78,184716,1,14,0:0:0:0:
65,148,184882,1,2,1:2:0:0:
65,148,184966,1,0,1:2:0:0:
65,148,185049,2,0,P|23:122|8:84,1,86.3999973632813,0|0,1:2|3:0,0:0:0:0:
155,0,185382,2,0,P|113:26|99:62,1,86.3999973632813,10|0,0:0|3:0,0:0:0:0:
264,144,185716,6,0,B|364:125|364:125|342:154,1,129.599996044922,2|0,1:2|0:0,0:0:0:0:
336,168,186049,1,10,0:0:0:0:
477,53,186216,1,2,3:2:0:0:
477,53,186299,1,0,3:0:0:0:
477,53,186382,2,0,P|458:104|456:155,1,86.3999973632813,0|0,1:2|3:0,0:0:0:0:
481,285,186716,1,8,0:0:0:0:
413,220,186882,1,2,3:2:0:0:
306,365,187049,6,0,P|295:302|267:186,1,172.799994726563,2|8,1:2|0:0,0:0:0:0:
154,149,187549,1,2,3:2:0:0:
154,149,187632,1,0,3:0:0:0:
154,149,187716,2,0,P|170:201|177:245,1,86.3999973632813,0|0,1:0|3:0,0:0:0:0:
351,153,188049,2,0,P|335:101|328:57,1,86.3999973632813,10|0,0:0|3:0,0:0:0:0:
510,225,188382,6,0,B|487:207|442:201|442:201|394:226|364:256,1,129.599996044922,2|2,1:2|3:2,0:0:0:0:
372,255,188716,1,8,0:0:0:0:
316,369,188882,1,2,3:2:0:0:
316,369,188966,1,0,0:0:0:0:
316,369,189049,2,0,P|267:355|210:347,1,86.3999973632813,0|2,1:2|3:2,0:0:0:0:
132,370,189382,1,8,0:0:0:0:
90,218,189549,1,2,3:2:0:0:
204,251,189716,6,0,P|133:218|128:129,1,172.799994726563,4|10,1:1|0:0,0:0:0:0:
90,218,190216,1,2,3:2:0:0:
284,144,190382,2,0,P|233:144|198:174,1,86.3999973632813,2|0,1:2|3:2,0:0:0:0:
108,299,190716,2,0,P|65:301|29:278,1,86.3999973632813,10|2,0:0|3:2,0:0:0:0:
126,131,191049,6,0,P|130:214|204:251,1,172.799994726563,6|10,1:2|0:0,0:0:0:0:
90,218,191549,1,2,3:2:0:0:
204,102,191716,2,0,P|183:64|145:47,1,86.3999973632813,2|0,1:2|3:2,0:0:0:0:
108,299,192049,2,0,P|146:281|166:244,1,86.3999973632813,10|0,0:0|3:2,0:0:0:0:
284,137,192382,5,4,1:1:0:0:
401,269,192632,1,10,0:0:0:0:
227,304,192883,1,2,1:2:0:0:
402,149,193049,5,6,1:2:0:0:
328,368,193299,1,4,1:3:0:0:
175,194,193550,1,2,1:2:0:0:
303,237,193716,5,14,0:0:0:0:
303,237,193882,1,0,1:0:0:0:
284,129,194049,5,10,0:1:0:0:
284,129,194215,1,0,0:0:0:0:
264,24,194382,5,10,0:1:0:0:
384,56,194549,2,0,P|360:60|335:65,1,43.1999986816407,8|8,0:1|0:1,0:0:0:0:
192,139,194716,1,10,0:1:0:0:
235,144,194799,1,8,0:1:0:0:
278,150,194882,1,8,0:1:0:0:
321,157,194966,1,8,0:1:0:0:
363,167,195049,5,0,1:2:0:0:
463,137,195216,1,0,1:2:0:0:
227,289,195549,5,0,1:2:0:0:
327,259,195716,1,0,1:2:0:0:
438,242,196049,5,0,1:2:0:0:
254,186,196216,1,8,0:0:0:0:
254,186,196549,5,0,1:2:0:0:
243,100,196716,1,8,0:3:0:0:
239,22,196882,1,8,0:3:0:0:
239,22,196966,1,8,0:3:0:0:
239,22,197049,6,0,P|196:35|139:46,1,76.8,8|8,0:3|0:3,0:0:0:0:
254,186,197382,2,0,P|297:173|354:162,1,76.8,8|2,0:0|0:0,0:0:0:0:
330,43,197716,5,8,0:0:0:0:
159,161,197882,1,8,0:0:0:0:
254,186,198216,5,8,0:0:0:0:
83,304,198382,2,0,P|72:263|59:228,2,76.8,8|8|8,0:0|0:3|0:3,0:0:0:0:
182,331,198882,6,0,B|275:317|232:386|352:366,1,153.6,4|0,1:1|1:2,0:0:0:0:
462,331,199382,5,8,0:0:0:0:
469,316,199549,1,8,0:3:0:0:
385,267,199716,5,8,0:3:0:0:
382,234,199883,1,10,0:3:0:0:
281,262,200049,5,10,0:3:0:0:
239,201,200216,1,10,0:3:0:0:
182,331,200382,6,0,P|123:312|21:298,1,153.6,6|2,1:2|1:2,0:0:0:0:
164,219,200882,2,0,P|199:207|260:199,1,76.8,2|8,0:0|0:0,0:0:0:0:
389,214,201216,1,2,0:0:0:0:
389,214,201299,1,8,0:0:0:0:
389,214,201382,2,0,P|382:255|272:270,1,153.6,0|2,1:2|1:2,0:0:0:0:
238,200,201882,1,8,0:0:0:0:
232,100,202049,2,0,P|249:58|296:44,1,76.8,2|2,1:2|0:0,0:0:0:0:
300,48,202299,1,8,0:0:0:0:
315,62,202382,2,0,L|307:158,1,76.8,8|0,0:0|0:0,0:0:0:0:
291,285,202716,1,2,1:2:0:0:
291,285,202882,1,8,0:0:0:0:
182,369,203049,6,0,P|139:346|88:331,1,76.8,4|8,1:1|0:0,0:0:0:0:
151,221,203382,2,0,P|137:185|118:151,1,76.8,0|0,1:2|1:2,0:0:0:0:
171,37,203716,1,8,0:0:0:0:
3,23,204049,2,0,P|37:53|75:62,1,76.8,2|8,1:2|0:0,0:0:0:0:
171,37,204382,5,2,1:2:0:0:
261,16,204549,1,8,0:0:0:0:
322,121,204716,5,0,1:2:0:0:
412,142,204883,1,0,1:2:0:0:
502,55,205049,5,8,0:0:0:0:
502,55,205382,1,2,1:2:0:0:
412,142,205549,1,8,0:0:0:0:
435,267,205716,2,0,P|409:321|301:307,1,153.6,2|0,1:2|1:2,0:0:0:0:
115,377,206382,2,0,P|141:323|249:337,1,153.6,12|0,0:1|1:2,0:0:0:0:
435,267,207049,5,6,1:2:0:0:
323,327,207216,1,8,0:0:0:0:
226,316,207382,1,8,0:0:0:0:
115,377,207549,1,2,0:0:0:0:
96,378,207632,1,8,0:0:0:0:
82,372,207716,2,0,B|57:336|57:336|72:221,1,153.6,12|10,0:1|0:0,0:0:0:0:
100,124,208216,1,8,0:0:0:0:
100,124,208299,1,8,0:0:0:0:
100,124,208382,6,0,L|142:134,3,38.4,0|0|0|0,1:2|1:2|1:2|1:2,0:0:0:0:
235,90,208716,2,0,L|277:80,3,38.4,0|0|0|0,1:2|1:2|1:2|1:2,0:0:0:0:
393,134,209049,5,8,0:0:0:0:
388,172,209132,1,8,0:0:0:0:
384,210,209215,1,8,0:0:0:0:
379,248,209299,1,8,0:0:0:0:
375,286,209382,6,0,L|351:231,1,38.4,8|8,0:0|0:0,0:0:0:0:
272,81,209549,1,4,1:3:0:0:
512,0,209882,5,8,0:0:0:0:
375,286,210216,1,8,0:0:0:0:
272,81,210382,1,8,0:0:0:0:
256,192,221716,12,0,222966,0:0:0:0:
256,192,223049,12,0,224382,0:0:0:0:
144,103,225716,6,0,B|103:151|130:211|130:211|178:223|193:265,1,187.199991430664,6|0,1:2|0:0,0:0:0:0:
155,315,226049,2,0,P|129:304|113:279,1,48,10|0,0:0|0:0,0:0:0:0:
206,155,226216,2,0,P|252:145|300:135,1,96,2|0,0:0|1:2,0:0:0:0:
71,50,226549,2,0,P|116:64|144:103,1,96,2|8,0:0|0:0,0:0:0:0:
64,135,226882,1,2,0:0:0:0:
220,67,227049,6,0,P|285:58|383:32,1,144,2|0,1:2|0:0,0:0:0:0:
388,33,227382,1,10,0:0:0:0:
498,148,227549,2,0,P|458:166|426:213,1,96,2|0,0:0|1:2,0:0:0:0:
399,339,227882,2,0,P|391:310|403:271,1,48,2|0,0:0|0:0,0:0:0:0:
476,279,228049,2,0,P|398:249|302:234,1,144,8|0,0:0|0:0,0:0:0:0:
264,202,228382,6,0,P|228:167|228:108,1,96,2|0,1:2|0:0,0:0:0:0:
275,282,228716,1,10,0:0:0:0:
104,241,228882,1,0,0:0:0:0:
104,241,228966,1,0,0:0:0:0:
104,241,229049,2,0,P|161:248|212:264,1,96,2|0,1:2|0:0,0:0:0:0:
302,134,229382,1,10,0:0:0:0:
402,304,229549,6,0,B|326:302|345:360|270:358,1,144,2|0,0:0|0:0,0:0:0:0:
229,270,229882,2,0,P|264:275|284:291,1,48,2|0,0:1|0:0,0:0:0:0:
400,382,230049,2,0,P|435:377|455:361,1,48,10|0,0:1|0:0,0:0:0:0:
470,252,230216,1,2,0:1:0:0:
470,252,230299,1,0,0:0:0:0:
470,252,230382,5,2,1:2:0:0:
404,191,230549,1,2,0:0:0:0:
321,220,230716,1,10,0:0:0:0:
422,102,230882,5,2,0:0:0:0:
422,102,230966,1,2,0:0:0:0:
422,102,231049,2,0,P|417:53|369:73,1,115.2,4|0,1:3|0:0,0:0:0:0:
311,121,231382,6,0,P|240:106|115:92,1,172.799994726563,12|0,0:1|0:0,0:0:0:0:
93,36,231716,2,0,B|71:24|71:24|81:45,1,48,2|0,1:2|0:0,0:0:0:0:
160,171,231882,1,0,3:0:0:0:
0,187,232049,2,0,P|42:166|100:148,1,96,10|0,0:0|3:0,0:0:0:0:
221,285,232382,6,0,P|169:328|103:313,1,115.2,2|0,1:2|0:0,0:0:0:0:
152,254,232716,6,0,B|245:216|214:300|324:252,1,172.799994726563,12|0,0:1|0:0,0:0:0:0:
368,191,233049,2,0,P|374:157|381:133,1,48,2|0,1:2|0:0,0:0:0:0:
277,180,233216,1,0,3:2:0:0:
295,86,233382,2,0,P|289:136|274:186,1,96,10|2,0:0|3:2,0:0:0:0:
402,302,233716,6,0,P|443:262|518:281,1,115.2,2|0,1:2|0:0,0:0:0:0:
469,340,234049,6,0,L|266:294,1,172.799994726563,12|0,0:1|0:0,0:0:0:0:
235,249,234382,2,0,P|179:266|128:278,1,96,2|0,1:2|3:0,0:0:0:0:
112,285,234632,1,0,0:0:0:0:
112,285,234716,1,12,0:1:0:0:
195,174,234882,5,8,0:0:0:0:
195,174,234966,1,8,0:0:0:0:
195,174,235049,2,0,B|226:147|223:108|223:108|200:97|187:69,1,115.2,0|0,1:2|0:0,0:0:0:0:
259,38,235382,6,0,B|125:86|125:86|92:77|71:51|87:9,1,230.39999296875,12|0,0:1|1:2,0:0:0:0:
18,166,235882,1,8,0:0:0:0:
18,166,235966,1,8,0:0:0:0:
18,166,236049,2,0,P|66:176|112:194,1,96,8|8,0:0|1:3,0:0:0:0:
258,133,236382,6,0,B|339:105|339:105|377:123|369:158,1,144,4|0,1:2|0:0,0:0:0:0:
392,174,236716,2,0,P|381:230|376:282,1,96,10|0,0:0|3:2,0:0:0:0:
291,346,237049,2,0,B|215:352|163:300|163:300|205:308|234:288,1,192,2|8,1:2|0:0,0:0:0:0:
376,268,237549,6,0,P|382:221|392:174,1,96,2|0,0:0|1:2,0:0:0:0:
441,25,237882,1,2,0:0:0:0:
274,135,238049,1,10,0:0:0:0:
392,88,238216,1,2,0:0:0:0:
495,237,238382,2,0,P|431:210|345:187,1,144,2|0,1:2|0:0,0:0:0:0:
331,207,238716,6,0,P|249:223|188:167,1,172.799994726563,14|0,0:1|0:0,0:0:0:0:
104,125,239049,6,0,L|118:9,1,115.199996484375,6|0,1:2|0:0,0:0:0:0:
4,163,239382,2,0,L|26:346,1,172.799994726563,10|0,0:0|0:0,0:0:0:0:
52,351,239716,2,0,B|209:296|130:398|292:359,1,230.39999296875,2|8,1:2|0:0,0:0:0:0:
272,205,240216,1,2,0:0:0:0:
260,192,240299,1,0,0:0:0:0:
247,186,240382,2,0,P|215:234|228:289,1,115.199996484375,6|2,1:2|0:0,0:0:0:0:
348,303,240716,6,0,P|378:293|404:268,1,57.5999982421876,14|0,0:0|0:0,0:0:0:0:
502,172,240882,2,0,P|472:182|446:207,1,57.5999982421876,10|8,0:0|0:0,0:0:0:0:
512,336,241049,2,0,P|502:306|477:280,1,57.5999982421876,10|0,0:0|0:0,0:0:0:0:
355,187,241216,2,0,P|365:157|390:131,1,57.5999982421876,10|0,0:0|0:0,0:0:0:0:
510,69,241382,2,0,P|462:139|349:107,1,172.799994726563,12|0,0:1|0:0,0:0:0:0:
296,116,241716,6,0,P|311:57|328:0,1,115.199996484375,12|0,0:0|1:2,0:0:0:0:
164,34,242049,5,10,0:0:0:0:
206,119,242216,1,0,1:2:0:0:
140,177,242382,5,10,0:0:0:0:
60,128,242549,1,0,1:2:0:0:
38,262,242716,5,10,0:0:0:0:
131,261,242883,1,0,1:2:0:0:
248,379,243049,1,12,0:1:0:0:
248,379,243382,5,10,0:0:0:0:
206,294,243549,1,0,1:2:0:0:
272,236,243715,5,10,0:0:0:0:
352,285,243882,1,0,1:2:0:0:
374,151,244049,5,10,0:0:0:0:
328,153,244132,1,8,0:0:0:0:
281,152,244216,1,8,1:3:0:0:
234,152,244299,1,8,1:3:0:0:
188,154,244382,6,0,P|130:125|107:72,1,115.199996484375,12|0,0:0|1:2,0:0:0:0:
295,37,244716,2,0,P|287:98|280:159,1,115.199996484375,10|0,0:0|1:2,0:0:0:0:
206,294,245049,1,12,0:1:0:0:
388,265,245216,2,0,P|381:207|373:150,1,115.199996484375,2|8,1:2|0:0,0:0:0:0:
303,315,245549,6,0,P|413:296|498:367,1,230.39999296875,2|2,1:2|1:2,0:0:0:0:
392,383,246049,1,12,0:1:0:0:
206,294,246216,1,2,1:2:0:0:
388,265,246382,1,14,0:0:0:0:
303,315,246549,1,0,1:2:0:0:
306,326,246632,1,0,0:0:0:0:
308,336,246716,2,0,L|282:207,1,115.199996484375,10|8,1:3|1:3,0:0:0:0:
154,158,247049,5,10,0:0:0:0:
375,114,247216,1,10,0:0:0:0:
196,87,247549,5,10,0:0:0:0:
306,65,247716,1,10,0:0:0:0:
240,15,248049,5,0,1:0:0:0:
240,15,248132,1,0,1:0:0:0:
240,15,248216,1,0,1:0:0:0:
240,15,248299,1,0,1:0:0:0:
240,15,248382,1,10,0:0:0:0:
214,231,250382,6,0,P|220:208|223:184,3,43.1999986816407,8|8|8|8,1:3|1:3|1:3|1:3,0:0:0:0:
311,136,250716,6,0,P|240:147|119:174,1,172.799994726563,8|0,0:0|0:0,0:0:0:0:
61,167,251049,6,0,P|44:114|5:74,1,96,14|0,1:1|3:2,0:0:0:0:
182,0,251382,2,0,P|152:37|139:83,1,96,10|0,0:0|3:0,0:0:0:0:
222,188,251716,1,2,1:2:0:0:
311,136,251882,2,0,P|367:117|426:110,1,96,2|8,3:2|3:2,0:0:0:0:
511,247,252216,6,0,B|456:212|456:212|391:217|326:241,1,192,2|2,3:2|3:2,0:0:0:0:
390,383,252716,1,10,0:0:0:0:
482,337,252882,1,2,3:2:0:0:
307,327,253049,2,0,P|248:279|266:173,1,192,2|10,1:2|3:2,0:0:0:0:
21,108,253716,6,0,P|28:168|53:211,1,96,2|0,1:2|3:2,0:0:0:0:
200,109,254049,2,0,P|196:61|177:17,1,96,10|0,0:0|3:2,0:0:0:0:
116,135,254382,1,2,1:2:0:0:
194,212,254549,2,0,P|239:196|286:189,1,96,2|8,3:2|3:2,0:0:0:0:
471,78,254882,6,0,B|363:54|391:121|266:99,1,192,2|0,3:2|3:2,0:0:0:0:
194,212,255382,1,8,0:0:0:0:
335,319,255549,1,8,0:0:0:0:
414,257,255716,2,0,P|425:198|431:158,1,96,8|8,0:0|1:3,0:0:0:0:
234,69,256049,2,0,P|260:60|293:47,1,48,8|8,0:0|0:0,0:0:0:0:
337,147,256216,2,0,P|311:138|278:125,1,48,8|0,0:0|0:0,0:0:0:0:
219,185,256382,5,10,0:0:0:0:
375,0,256549,2,0,P|393:58|382:119,1,96,10|0,0:0|0:0,0:0:0:0:
164,123,256882,2,0,P|146:65|157:4,1,96,14|0,0:0|0:0,0:0:0:0:
286,211,257216,2,0,B|208:218|241:258|149:268,1,144,10|8,0:0|0:3,0:0:0:0:
148,303,257549,6,0,P|187:345|315:311,1,192,6|2,1:2|1:2,0:0:0:0:
460,257,258049,1,12,0:1:0:0:
428,341,258216,1,2,1:2:0:0:
329,150,258382,2,0,P|338:196|353:242,1,96,12|0,0:0|1:2,0:0:0:0:
512,363,258716,2,0,P|501:315|486:269,1,96,12|8,0:1|0:0,0:0:0:0:
497,194,258966,1,8,0:0:0:0:
497,194,259049,5,10,0:0:0:0:
349,329,259216,2,0,P|305:352|250:353,1,96,10|0,0:0|0:0,0:0:0:0:
135,322,259549,2,0,P|93:295|64:248,1,96,10|8,0:3|0:3,0:0:0:0:
24,167,259882,2,0,P|26:117|52:69,1,96,2|0,1:2|1:0,0:0:0:0:
198,56,260216,6,0,P|205:121|146:240,1,192,6|8,1:2|0:0,0:0:0:0:
251,271,260716,1,10,0:0:0:0:
251,271,260799,1,8,0:0:0:0:
251,271,260882,2,0,P|299:259|312:257,1,48,8|8,0:0|0:0,0:0:0:0:
344,104,261050,1,10,0:0:0:0:
344,104,261133,1,8,0:0:0:0:
344,104,261216,2,0,P|296:116|283:118,1,48,8|8,0:0|0:0,0:0:0:0:
398,180,261382,2,0,P|446:168|459:166,1,48,10|8,0:0|0:0,0:0:0:0:
507,109,261549,5,6,1:2:0:0:
256,192,261632,12,0,267049,0:0:0:0:
