osu file format v14

[General]
AudioFilename: audio.mp3
AudioLeadIn: 0
PreviewTime: 146017
Countdown: 0
SampleSet: Soft
StackLeniency: 0.7
Mode: 0
LetterboxInBreaks: 0
WidescreenStoryboard: 1

[Editor]
Bookmarks: 29726,61726,95059,120392
DistanceSpacing: 1.1
BeatDivisor: 4
GridSize: 32
TimelineZoom: 1.5

[Metadata]
Title:Pledge of liberation
TitleUnicode:Pledge of liberation
Artist:Enterprise (CV: Ishikawa Yui)
ArtistUnicode:エンタープライズ (CV: 石川由依)
Creator:Hinae
Version:Collab Hard
Source:アズールレーン
Tags:-hitomi l1ght_u light_u kanui kennethbbg azur lane character theme song japanese rock jrock j-rock tv anime
BeatmapID:3945113
BeatmapSetID:1830432

[Difficulty]
HPDrainRate:4
CircleSize:3.5
OverallDifficulty:6.5
ApproachRate:8
SliderMultiplier:1.42
SliderTickRate:1

[Events]
//Background and Video events
0,0,"mywaifu.jpg",0,0
//Break Periods
2,212392,223966
//Storyboard Layer 0 (Background)
//Storyboard Layer 1 (Fail)
//Storyboard Layer 2 (Pass)
//Storyboard Layer 3 (Foreground)
//Storyboard Layer 4 (Overlay)
//Storyboard Sound Samples

[TimingPoints]
383,333.333333333333,4,2,1,40,1,0
716,-333.333333333333,4,2,1,40,0,0
1716,-166.666666666667,4,2,1,40,0,0
7549,-166.666666666667,4,2,1,42,0,0
7716,-166.666666666667,4,2,1,44,0,0
7882,-166.666666666667,4,2,1,46,0,0
8049,-166.666666666667,4,2,1,48,0,0
8216,-166.666666666667,4,2,1,50,0,0
8382,-166.666666666667,4,2,1,55,0,0
9716,-111.111111111111,4,2,1,60,0,0
11049,-100,4,2,4,70,0,0
11132,-100,4,2,1,70,0,0
13382,-100,4,2,2,70,0,0
13799,-100,4,2,1,70,0,0
16049,-100,4,2,2,70,0,0
16132,-100,4,2,1,70,0,0
18882,-100,4,2,1,50,0,0
19049,-133.333333333333,4,2,4,50,0,0
19132,-133.333333333333,4,2,1,50,0,0
23716,-133.333333333333,4,2,1,70,0,0
24382,-111.111111111111,4,2,1,60,0,0
28716,-111.111111111111,4,2,1,70,0,0
29716,-111.111111111111,4,2,4,50,0,0
29799,-111.111111111111,4,2,1,50,0,0
33716,-111.111111111111,4,2,1,70,0,0
35049,-111.111111111111,4,2,1,60,0,0
39049,-111.111111111111,4,2,1,65,0,0
39716,-111.111111111111,4,2,2,65,0,0
40382,-111.111111111111,4,2,1,70,0,0
43049,-111.111111111111,4,2,1,60,0,0
45716,-111.111111111111,4,2,1,70,0,0
48382,-111.111111111111,4,2,1,60,0,0
49716,-111.111111111111,4,2,2,60,0,0
51049,-111.111111111111,4,2,1,60,0,0
59049,-111.111111111111,4,2,1,70,0,0
60382,-111.111111111111,4,2,3,50,0,0
61382,-74.0740740740741,4,2,3,65,0,0
61716,-83.3333333333333,4,2,3,80,0,1
61799,-83.3333333333333,4,2,1,80,0,1
62216,-86.9565217391304,4,2,1,80,0,1
64382,-86.9565217391304,4,2,2,80,0,1
65549,-86.9565217391304,4,2,1,80,0,1
65882,-86.9565217391304,4,2,1,85,0,1
66382,-86.9565217391304,4,2,1,80,0,1
71049,-86.9565217391304,4,2,1,85,0,1
72382,-86.9565217391304,4,2,3,80,0,1
72466,-86.9565217391304,4,2,1,80,0,1
75049,-86.9565217391304,4,2,2,80,0,1
76216,-86.9565217391304,4,2,1,80,0,1
80716,-86.9565217391304,4,2,1,85,0,1
81049,-86.9565217391304,4,2,1,80,0,1
81382,-86.9565217391304,4,2,1,85,0,1
81716,-86.9565217391304,4,2,1,75,0,1
82049,-86.9565217391304,4,2,1,85,0,1
82716,-86.9565217391304,4,2,1,84,0,1
82799,-86.9565217391304,4,2,1,83,0,1
82882,-86.9565217391304,4,2,1,82,0,1
82966,-86.9565217391304,4,2,1,81,0,1
83049,-86.9565217391304,4,2,1,70,0,1
85049,-86.9565217391304,4,2,2,70,0,1
86049,-86.9565217391304,4,2,1,70,0,1
87049,-86.9565217391304,4,2,1,75,0,1
88382,-86.9565217391304,4,2,1,90,0,1
95049,-100,4,2,1,90,0,0
96049,-100,4,2,1,50,0,0
96382,-100,4,2,4,70,0,0
96466,-100,4,2,1,70,0,0
98716,-100,4,2,2,70,0,0
99132,-100,4,2,1,70,0,0
101382,-100,4,2,2,70,0,0
101466,-100,4,2,1,70,0,0
104216,-100,4,2,1,50,0,0
104382,-133.333333333333,4,2,4,50,0,0
104466,-133.333333333333,4,2,1,50,0,0
108799,-133.333333333333,4,2,1,51,0,0
108882,-100,4,2,1,52,0,0
108966,-100,4,2,1,53,0,0
109049,-100,4,2,1,54,0,0
109132,-100,4,2,1,55,0,0
109216,-100,4,2,1,56,0,0
109299,-100,4,2,1,57,0,0
109382,-100,4,2,1,58,0,0
109466,-100,4,2,1,60,0,0
109549,-100,4,2,1,62,0,0
109632,-100,4,2,1,64,0,0
109716,-312.5,4,2,1,68,0,0
109799,-312.5,4,2,1,60,0,0
111716,-312.5,4,2,1,50,0,0
112382,-111.111111111111,4,2,1,50,0,0
112716,-111.111111111111,4,2,1,52,0,0
112882,-111.111111111111,4,2,1,54,0,0
113049,-111.111111111111,4,2,1,56,0,0
113216,-111.111111111111,4,2,1,58,0,0
113382,-111.111111111111,4,2,1,60,0,0
113549,-111.111111111111,4,2,1,62,0,0
113716,-111.111111111111,4,2,1,50,0,0
114382,-111.111111111111,4,2,1,70,0,0
115049,-111.111111111111,4,2,4,50,0,0
115132,-111.111111111111,4,2,1,50,0,0
119049,-111.111111111111,4,2,1,50,0,0
120382,-111.111111111111,4,2,1,60,0,0
124382,-111.111111111111,4,2,1,65,0,0
125049,-111.111111111111,4,2,2,65,0,0
125716,-100,4,2,1,70,0,0
128382,-100,4,2,1,60,0,0
131049,-100,4,2,1,70,0,0
133716,-100,4,2,1,60,0,0
135049,-100,4,2,2,70,0,0
136382,-111.111111111111,4,2,1,60,0,0
144382,-100,4,2,1,70,0,0
145716,-100,4,2,3,50,0,0
146716,-80,4,2,3,65,0,0
147049,-71.4285714285714,4,2,3,80,0,1
147132,-71.4285714285714,4,2,1,80,0,1
147382,-86.9565217391304,4,2,1,80,0,1
149716,-86.9565217391304,4,2,2,80,0,1
150882,-86.9565217391304,4,2,1,80,0,1
151216,-86.9565217391304,4,2,1,85,0,1
151716,-86.9565217391304,4,2,1,80,0,1
156382,-86.9565217391304,4,2,1,85,0,1
157716,-86.9565217391304,4,2,3,80,0,1
157799,-86.9565217391304,4,2,1,80,0,1
160382,-86.9565217391304,4,2,2,80,0,1
161549,-86.9565217391304,4,2,1,80,0,1
161716,-86.9565217391304,4,2,1,85,0,1
162382,-86.9565217391304,4,2,1,80,0,1
166049,-86.9565217391304,4,2,1,85,0,1
166382,-86.9565217391304,4,2,1,80,0,1
166716,-86.9565217391304,4,2,1,85,0,1
167049,-86.9565217391304,4,2,1,75,0,1
167382,-86.9565217391304,4,2,1,85,0,1
167716,-86.9565217391304,4,2,1,80,0,1
167882,-86.9565217391304,4,2,1,85,0,1
168049,-86.9565217391304,4,2,1,84,0,1
168132,-86.9565217391304,4,2,1,83,0,1
168216,-86.9565217391304,4,2,1,82,0,1
168299,-86.9565217391304,4,2,1,81,0,1
168382,-86.9565217391304,4,2,1,70,0,1
170382,-86.9565217391304,4,2,2,70,0,1
171382,-86.9565217391304,4,2,1,70,0,1
172382,-86.9565217391304,4,2,1,75,0,1
173716,-86.9565217391304,4,2,1,90,0,1
180382,-100,4,2,1,90,0,0
181716,-133.333333333333,4,2,1,60,0,0
183049,-100,4,2,1,62,0,0
183132,-100,4,2,1,64,0,0
183216,-100,4,2,1,66,0,0
183299,-100,4,2,1,68,0,0
183382,-100,4,2,1,70,0,0
183549,-100,4,2,1,60,0,0
183882,-100,4,2,1,65,0,0
184216,-100,4,2,1,70,0,0
184382,-100,4,2,1,80,0,0
189216,-100,4,2,2,80,0,0
189716,-100,4,2,1,80,0,0
191049,-100,4,2,1,85,0,0
192382,-86.9565217391304,4,2,1,80,0,0
193716,-86.9565217391304,4,2,1,90,0,0
195049,-100,4,2,1,60,0,0
201049,-117.647058823529,4,2,1,60,0,0
205716,-117.647058823529,4,2,2,60,0,0
205799,-117.647058823529,4,2,1,60,0,0
208382,-100,4,2,1,60,0,0
208716,-100,4,2,1,62,0,0
209049,-100,4,2,1,64,0,0
209132,-100,4,2,1,66,0,0
209216,-100,4,2,1,68,0,0
209299,-100,4,2,1,70,0,0
209382,-100,4,2,1,72,0,0
209466,-100,4,2,1,74,0,0
209549,-100,4,2,1,80,0,0
224716,-333.333333333333,4,2,1,50,0,0
225049,-333.333333333333,4,2,1,60,0,0
225382,-333.333333333333,4,2,1,70,0,0
225716,-86.9565217391304,4,2,3,80,0,1
225799,-86.9565217391304,4,2,1,80,0,1
228382,-86.9565217391304,4,2,2,80,0,1
229549,-86.9565217391304,4,2,1,80,0,1
229882,-86.9565217391304,4,2,1,85,0,1
230382,-86.9565217391304,4,2,1,80,0,1
234049,-86.9565217391304,4,2,1,85,0,1
234382,-86.9565217391304,4,2,1,80,0,1
234716,-86.9565217391304,4,2,1,85,0,1
235049,-86.9565217391304,4,2,1,75,0,1
235382,-86.9565217391304,4,2,1,85,0,1
235716,-86.9565217391304,4,2,1,80,0,1
235882,-86.9565217391304,4,2,1,85,0,1
236049,-86.9565217391304,4,2,1,84,0,1
236132,-86.9565217391304,4,2,1,83,0,1
236216,-86.9565217391304,4,2,1,82,0,1
236299,-86.9565217391304,4,2,1,81,0,1
236382,-86.9565217391304,4,2,1,70,0,1
238716,-86.9565217391304,4,2,2,70,0,1
239382,-86.9565217391304,4,2,1,70,0,1
241716,-86.9565217391304,4,2,1,90,0,1
248382,-100,4,2,1,90,0,0
250382,-100,4,2,1,60,0,0
251049,-100,4,2,4,70,0,0
251132,-100,4,2,1,70,0,0
253382,-100,4,2,2,70,0,0
253799,-100,4,2,1,70,0,0
256049,-100,4,2,2,70,0,0
256382,-100,4,2,1,70,0,0
267049,-100,4,2,20,20,0,0

[Colours]
Combo1 : 106,181,255
Combo2 : 152,152,205
Combo3 : 159,64,255
Combo4 : 255,255,128
Combo5 : 255,128,128

[HitObjects]
115,70,716,6,0,P|145:76|162:82,2,42.5999986999512,2|2|2,0:0|0:0|0:0,0:0:0:0:
48,10,1716,6,0,P|27:44|33:101,1,85.1999973999024,2|0,0:1|0:0,0:0:0:0:
89,146,2216,2,0,P|104:177|98:234,1,85.1999973999024,2|2,0:0|0:0,0:0:0:0:
9,368,2882,5,0,0:0:0:0:
9,368,3049,2,0,P|49:356|95:343,1,85.1999973999024,2|0,0:2|0:0,0:0:0:0:
155,288,3549,2,0,P|195:300|241:313,1,85.1999973999024,2|2,0:0|0:0,0:0:0:0:
483,380,4382,6,0,P|495:340|515:282,2,85.1999973999024,2|2|2,0:0|0:0|0:0,0:0:0:0:
372,257,5382,1,0,0:0:0:0:
372,257,5549,2,0,P|407:258|450:224,1,85.1999973999024,2|2,0:0|0:0,0:0:0:0:
474,54,6382,6,0,P|482:24|491:-1,2,42.5999986999512,2|2|2,0:0|0:0|0:0,0:0:0:0:
506,132,6882,2,0,P|467:139|392:91,1,127.799996099854,2|2,0:0|0:0,0:0:0:0:
335,33,7549,1,2,0:2:0:0:
335,33,7716,2,0,P|306:43|283:53,1,42.5999986999512,2|2,0:1|0:1,0:0:0:0:
229,102,8049,2,0,P|200:92|177:82,1,42.5999986999512,2|2,0:1|0:1,0:0:0:0:
109,29,8382,6,0,P|70:23|1:124,1,170.399994799805,2|2,0:1|0:0,0:0:0:0:
263,180,9716,6,0,L|303:192,2,31.9499990249634,8|0|0,0:0|1:2|1:2,0:0:0:0:
206,240,10049,2,0,L|166:252,2,31.9499990249634,8|0|0,0:0|1:2|1:2,0:0:0:0:
267,295,10382,1,8,0:0:0:0:
273,297,10466,1,0,1:2:0:0:
278,299,10549,1,0,1:2:0:0:
207,357,10716,2,0,P|175:361|113:375,1,95.8499970748902,8|0,0:0|0:0,0:0:0:0:
99,380,11049,6,0,P|87:344|73:302,1,71,14|0,1:1|3:2,0:0:0:0:
14,243,11382,2,0,P|26:207|40:165,1,71,10|0,0:0|3:0,0:0:0:0:
20,83,11716,1,2,1:2:0:0:
20,83,11882,2,0,P|65:86|95:117,1,71,2|8,3:2|3:2,0:0:0:0:
154,162,12216,6,0,P|206:174|286:119,1,142,2|2,3:2|3:2,0:0:0:0:
325,50,12716,1,10,0:0:0:0:
325,50,12882,1,2,3:2:0:0:
398,105,13049,2,0,P|435:93|485:80,1,71,2|0,1:2|3:0,0:0:0:0:
487,174,13382,2,0,P|450:186|400:199,1,71,10|0,3:2|3:2,0:0:0:0:
355,262,13716,6,0,P|315:219|223:229,2,142,2|10|2,1:2|0:0|1:2,0:0:0:0:
416,331,14549,2,0,P|459:318|508:304,1,71,2|8,3:2|3:2,0:0:0:0:
333,381,14882,6,0,P|272:365|176:341,1,142,2|2,3:2|3:2,0:0:0:0:
109,370,15382,1,10,3:2:0:0:
109,370,15549,1,2,3:2:0:0:
48,300,15716,2,0,P|41:259|33:217,1,71,2|0,1:2|3:2,0:0:0:0:
109,174,16049,2,0,P|116:133|124:91,1,71,10|0,0:0|3:0,0:0:0:0:
55,39,16382,6,0,P|105:15|210:53,1,142,6|12,1:3|1:1,0:0:0:0:
263,101,16882,1,8,0:0:0:0:
263,101,16966,1,8,0:0:0:0:
263,101,17049,2,0,P|303:88|353:74,1,71,10|8,0:0|1:3,0:0:0:0:
402,21,17382,1,8,1:3:0:0:
471,81,17549,2,0,B|513:111|513:111|464:222,1,142,6|0,1:2|1:2,0:0:0:0:
418,265,18049,1,10,0:0:0:0:
418,265,18216,1,10,0:0:0:0:
475,336,18382,1,10,0:0:0:0:
201,379,18882,5,2,0:0:0:0:
201,379,18966,1,2,0:0:0:0:
201,379,19049,2,0,P|187:330|167:255,1,106.500004062653,6|0,1:2|1:2,0:0:0:0:
104,225,19549,2,0,P|129:203|207:199,1,106.500004062653,2|2,0:0|0:0,0:0:0:0:
318,73,20216,2,0,P|271:79|212:40,1,106.500004062653,2|2,0:0|0:0,0:0:0:0:
149,4,20716,2,0,P|121:14|94:24,1,53.2500020313264,0|2,1:2|0:0,0:0:0:0:
98,107,21049,2,0,P|126:97|153:87,1,53.2500020313264,2|2,1:2|0:0,0:0:0:0:
198,157,21382,2,0,P|190:196|175:269,1,106.500004062653,2|0,1:2|1:2,0:0:0:0:
85,383,22049,6,0,P|76:352|67:324,1,53.2500020313264,2|2,1:2|0:0,0:0:0:0:
96,251,22382,2,0,P|61:245|-2:291,2,106.500004062653,2|2|2,1:2|1:2|1:2,0:0:0:0:
232,352,23382,1,2,1:2:0:0:
355,234,23716,5,10,0:0:0:0:
355,234,23882,1,10,0:0:0:0:
484,348,24382,6,0,P|430:344|362:397,2,127.799996099854,4|8|0,1:2|0:0|1:2,0:0:0:0:
429,260,25216,1,0,0:0:0:0:
429,260,25382,2,0,P|437:213|443:173,1,63.8999980499268,8|0,0:0|0:0,0:0:0:0:
487,120,25716,2,0,B|459:103|459:103|360:129,1,127.799996099854,0|10,1:2|0:0,0:0:0:0:
302,73,26216,1,0,3:0:0:0:
302,73,26382,2,0,P|293:35|284:-3,1,63.8999980499268,2|0,1:2|3:0,0:0:0:0:
198,29,26716,2,0,P|207:67|216:105,1,63.8999980499268,10|0,0:0|3:0,0:0:0:0:
155,160,27049,6,0,P|123:133|31:136,1,127.799996099854,2|8,1:2|0:0,0:0:0:0:
2,306,27716,2,0,P|43:293|144:263,1,127.799996099854,2|8,1:2|0:0,0:0:0:0:
206,315,28216,1,0,0:0:0:0:
206,315,28382,6,0,P|198:348|188:388,1,63.8999980499268,0|0,1:2|0:0,0:0:0:0:
283,370,28716,2,0,P|291:337|301:297,1,63.8999980499268,8|8,0:0|0:0,0:0:0:0:
358,229,29049,2,0,L|404:218,4,31.9499990249634,8|8|8|8|8,0:3|0:0|0:3|0:0|0:0,0:0:0:0:
269,190,29549,1,8,0:0:0:0:
269,190,29632,1,8,0:0:0:0:
269,190,29716,6,0,P|234:140|246:75,1,127.799996099854,6|0,1:2|1:2,0:0:0:0:
305,4,30216,2,0,P|350:19|376:20,1,63.8999980499268,2|0,0:0|1:2,0:0:0:0:
408,95,30549,2,0,P|453:80|479:79,1,63.8999980499268,2|0,0:0|1:2,0:0:0:0:
503,156,30882,2,0,P|488:278|489:307,1,127.799996099854,2|0,0:0|0:0,0:0:0:0:
433,353,31382,2,0,P|345:349|324:320,1,127.799996099854,2|2,1:2|1:2,0:0:0:0:
349,239,31882,1,2,0:0:0:0:
349,239,32049,1,2,1:2:0:0:
234,106,32382,5,0,1:2:0:0:
111,183,32716,2,0,L|118:258,1,63.8999980499268,2|2,1:2|0:0,0:0:0:0:
38,290,33049,2,0,L|30:180,1,95.8499970748902,2|0,1:2|0:0,0:0:0:0:
27,161,33382,1,10,0:0:0:0:
53,81,33549,1,8,1:3:0:0:
53,81,33632,1,8,1:3:0:0:
53,81,33716,5,10,0:0:0:0:
249,10,34216,5,10,0:0:0:0:
326,130,34549,1,10,0:0:0:0:
156,324,35049,6,0,P|233:272|290:278,1,127.799996099854,4|8,1:2|0:0,0:0:0:0:
342,315,35549,2,0,L|350:243,1,63.8999980499268,0|0,0:0|1:2,0:0:0:0:
433,215,35882,1,0,0:0:0:0:
433,215,36049,2,0,L|412:67,1,127.799996099854,8|0,0:0|1:2,0:0:0:0:
225,5,36716,6,0,P|180:20|154:21,1,63.8999980499268,10|0,0:0|3:0,0:0:0:0:
119,98,37049,2,0,P|74:83|48:82,1,63.8999980499268,2|0,1:2|3:0,0:0:0:0:
11,158,37382,2,0,P|26:203|27:229,1,63.8999980499268,10|0,0:0|3:0,0:0:0:0:
114,240,37716,2,0,P|100:316|92:371,1,127.799996099854,2|8,1:2|0:0,0:0:0:0:
271,355,38382,2,0,P|261:291|249:229,1,127.799996099854,2|8,1:2|0:0,0:0:0:0:
280,52,39049,6,0,P|358:36|400:86,1,127.799996099854,4|12,1:3|0:1,0:0:0:0:
439,150,39549,1,8,1:3:0:0:
439,150,39632,1,8,1:3:0:0:
439,150,39716,2,0,P|484:135|510:134,1,63.8999980499268,10|10,1:3|1:3,0:0:0:0:
510,223,40050,1,2,1:3:0:0:
510,223,40216,1,0,1:2:0:0:
431,265,40382,6,0,L|422:328,1,63.8999980499268,10|0,0:0|1:2,0:0:0:0:
344,373,40716,2,0,L|335:309,1,63.8999980499268,8|0,0:0|1:2,0:0:0:0:
262,244,41049,1,10,0:0:0:0:
188,293,41216,1,8,1:3:0:0:
188,293,41382,1,8,1:3:0:0:
120,234,41549,6,0,P|129:296|99:351,1,127.799996099854,4|0,1:2|1:2,0:0:0:0:
45,280,42049,2,0,L|33:208,1,63.8999980499268,6|8,0:3|1:3,0:0:0:0:
29,190,42299,1,8,1:3:0:0:
29,190,42382,1,2,1:2:0:0:
4,103,42549,1,0,1:2:0:0:
58,31,42716,2,0,P|103:33|135:88,1,95.8499970748902,12|0,0:1|0:0,0:0:0:0:
145,113,43049,6,0,L|209:102,1,63.8999980499268,6|0,1:2|1:2,0:0:0:0:
276,44,43382,2,0,L|340:55,1,63.8999980499268,10|0,3:2|0:0,0:0:0:0:
400,120,43716,2,0,P|385:179|390:196,1,63.8999980499268,2|0,1:2|1:2,0:0:0:0:
452,262,44049,1,10,3:2:0:0:
452,262,44216,6,0,L|308:277,1,127.799996099854,2|0,0:0|1:2,0:0:0:0:
235,281,44716,2,0,L|246:217,1,63.8999980499268,12|0,0:1|1:2,0:0:0:0:
279,135,45049,2,0,L|268:71,1,63.8999980499268,8|0,0:0|1:2,0:0:0:0:
206,6,45382,1,10,0:0:0:0:
33,53,45716,6,0,L|41:116,1,63.8999980499268,10|0,0:0|1:2,0:0:0:0:
105,179,46050,2,0,L|96:242,1,63.8999980499268,8|0,0:0|1:2,0:0:0:0:
29,302,46383,1,10,0:0:0:0:
91,373,46550,1,8,1:3:0:0:
91,373,46716,1,10,1:3:0:0:
143,301,46882,6,0,P|180:285|249:332,1,127.799996099854,4|0,1:2|1:2,0:0:0:0:
332,300,47382,2,0,L|395:308,1,63.8999980499268,6|8,0:3|1:3,0:0:0:0:
449,380,47716,2,0,L|512:371,1,63.8999980499268,2|0,1:2|1:2,0:0:0:0:
509,282,48049,1,12,0:1:0:0:
410,132,48382,6,0,L|341:120,1,63.8999980499268,6|0,1:2|1:2,0:0:0:0:
279,180,48716,1,8,3:2:0:0:
125,89,49049,2,0,L|138:160,1,63.8999980499268,2|0,1:2|1:2,0:0:0:0:
173,233,49383,2,0,L|164:296,1,63.8999980499268,10|0,3:2|0:0,0:0:0:0:
111,368,49716,6,0,P|65:347|48:305,1,95.8499970748902,6|0,1:2|0:0,0:0:0:0:
43,262,50049,2,0,L|53:181,1,63.8999980499268,10|0,3:2|1:2,0:0:0:0:
6,120,50382,2,0,L|-4:39,1,63.8999980499268,14|0,3:1|1:2,0:0:0:0:
75,11,50716,2,0,P|106:4|147:31,1,63.8999980499268,10|0,0:0|1:2,0:0:0:0:
169,98,51049,6,0,L|238:110,1,63.8999980499268,6|0,1:2|1:2,0:0:0:0:
299,49,51383,1,10,0:0:0:0:
450,144,51716,2,0,L|462:213,1,63.8999980499268,0|0,1:2|1:2,0:0:0:0:
402,271,52049,1,8,0:0:0:0:
440,361,52216,6,0,P|326:316|313:322,1,127.799996099854,2|2,0:0|1:2,0:0:0:0:
260,366,52716,1,10,0:0:0:0:
260,366,52882,1,2,0:0:0:0:
189,310,53049,2,0,L|202:238,1,63.8999980499268,2|0,1:2|1:2,0:0:0:0:
262,181,53383,2,0,L|253:117,1,63.8999980499268,12|0,0:1|0:0,0:0:0:0:
211,38,53716,6,0,P|164:68|124:57,1,95.8499970748902,4|0,1:2|0:0,0:0:0:0:
90,33,54049,2,0,L|73:122,1,63.8999980499268,10|0,0:0|0:0,0:0:0:0:
10,154,54382,2,0,L|27:243,1,63.8999980499268,2|0,1:2|1:2,0:0:0:0:
78,287,54716,1,8,0:0:0:0:
10,344,54882,6,0,P|74:317|146:352,1,127.799996099854,2|2,0:0|1:2,0:0:0:0:
204,378,55382,1,10,0:0:0:0:
270,317,55549,1,8,0:0:0:0:
270,317,55632,1,8,0:0:0:0:
270,317,55716,2,0,L|259:242,1,63.8999980499268,2|0,1:2|1:2,0:0:0:0:
207,181,56049,2,0,L|218:106,1,63.8999980499268,10|8,0:0|0:3,0:0:0:0:
223,73,56299,1,8,0:3:0:0:
223,73,56382,5,4,1:2:0:0:
300,27,56549,1,0,1:2:0:0:
379,68,56716,2,0,L|386:140,1,63.8999980499268,10|8,0:0|0:3,0:0:0:0:
473,147,57049,2,0,L|466:219,1,63.8999980499268,2|0,1:2|1:2,0:0:0:0:
409,279,57382,1,10,0:0:0:0:
488,339,57549,1,8,0:3:0:0:
488,339,57632,1,8,0:3:0:0:
488,339,57716,6,0,P|426:334|368:381,1,127.799996099854,2|8,1:2|0:0,0:0:0:0:
299,323,58216,1,8,0:3:0:0:
299,323,58382,2,0,L|227:330,1,63.8999980499268,2|0,1:2|1:2,0:0:0:0:
153,366,58715,2,0,L|81:359,1,63.8999980499268,8|8,0:0|0:3,0:0:0:0:
20,286,59049,5,2,1:2:0:0:
20,286,59132,1,0,1:0:0:0:
20,286,59216,1,2,1:2:0:0:
98,217,59382,1,8,0:0:0:0:
23,160,59549,1,2,1:2:0:0:
23,160,59632,1,0,1:0:0:0:
23,160,59716,1,2,1:2:0:0:
89,82,59882,1,8,0:0:0:0:
188,136,60049,5,2,1:2:0:0:
188,136,60216,1,2,1:2:0:0:
425,42,61382,6,0,B|413:25|380:23|380:23|411:37|435:66|433:113,1,143.775000548458,8|0,0:1|0:0,0:0:0:0:
493,139,61716,6,0,P|439:126|343:208,1,170.399994799805,6|10,1:2|0:0,0:0:0:0:
413,262,62216,2,0,P|458:252|513:239,1,81.6500015573502,2|0,0:0|1:2,0:0:0:0:
506,332,62549,2,0,P|461:342|406:355,1,81.6500015573502,2|8,0:0|0:0,0:0:0:0:
340,322,62882,1,2,0:0:0:0:
265,372,63049,6,0,B|219:344|219:344|180:383|101:386,1,163.3000031147,2|10,1:2|0:0,0:0:0:0:
61,315,63549,2,0,P|72:267|84:215,1,81.6500015573502,2|0,0:0|1:2,0:0:0:0:
27,168,63882,1,2,0:0:0:0:
27,168,64049,2,0,P|16:120|4:68,1,81.6500015573502,8|0,0:0|0:0,0:0:0:0:
81,12,64382,6,0,P|139:23|232:40,1,122.475002336025,2|0,1:2|0:0,0:0:0:0:
219,37,64716,2,0,P|200:96|193:127,1,81.6500015573502,10|0,0:0|0:0,0:0:0:0:
119,162,65049,2,0,P|164:149|261:223,1,163.3000031147,2|10,1:2|0:0,0:0:0:0:
321,269,65549,2,0,P|365:255|434:236,1,81.6500015573502,2|0,0:0|1:2,0:0:0:0:
461,180,65882,1,2,0:1:0:0:
461,180,66049,2,0,P|472:126|483:86,1,81.6500015573502,10|2,0:1|0:1,0:0:0:0:
416,35,66382,6,0,P|376:43|332:58,2,81.6500015573502,2|2|10,1:2|0:0|0:0,0:0:0:0:
355,151,66882,2,0,P|306:153|230:41,1,163.3000031147,2|2,0:0|0:0,0:0:0:0:
160,20,67382,1,12,0:1:0:0:
10,120,67716,6,0,P|21:163|31:212,1,81.6500015573502,2|0,1:2|3:0,0:0:0:0:
22,289,68049,1,10,0:0:0:0:
182,369,68382,6,0,P|193:322|208:271,1,81.6500015573502,2|0,1:2|0:0,0:0:0:0:
163,207,68716,2,0,P|215:199|284:249,1,122.475002336025,12|0,0:1|0:0,0:0:0:0:
283,243,69049,2,0,P|332:228|371:218,1,81.6500015573502,2|0,1:2|3:2,0:0:0:0:
435,270,69382,1,10,0:0:0:0:
366,328,69549,1,2,3:2:0:0:
441,376,69716,6,0,P|470:326|459:209,2,163.3000031147,2|8|0,1:2|0:0|1:2,0:0:0:0:
366,328,70549,1,2,0:0:0:0:
366,328,70716,1,10,0:0:0:0:
289,374,70882,2,0,P|248:364|196:351,1,81.6500015573502,2|4,0:0|1:2,0:0:0:0:
164,276,71216,5,8,0:0:0:0:
232,218,71382,1,8,0:0:0:0:
166,146,71549,1,8,0:0:0:0:
166,146,71632,1,8,0:0:0:0:
166,146,71716,2,0,P|154:100|142:61,1,81.6500015573502,4|0,1:3|1:2,0:0:0:0:
232,29,72049,2,0,P|244:75|256:114,1,81.6500015573502,8|8,0:0|0:0,0:0:0:0:
260,128,72299,1,8,0:0:0:0:
260,128,72382,6,0,P|311:119|401:200,1,163.3000031147,6|10,1:2|0:0,0:0:0:0:
476,141,72882,2,0,P|489:93|501:55,1,81.6500015573502,2|0,0:0|1:2,0:0:0:0:
418,21,73216,2,0,P|405:69|393:107,1,81.6500015573502,2|8,0:0|0:0,0:0:0:0:
335,166,73549,1,2,0:0:0:0:
335,166,73716,6,0,P|344:221|362:344,1,163.3000031147,2|10,1:2|0:0,0:0:0:0:
285,377,74216,2,0,P|247:362|204:347,1,81.6500015573502,2|0,0:0|1:2,0:0:0:0:
159,272,74549,1,2,0:0:0:0:
159,272,74716,2,0,P|120:285|82:300,1,81.6500015573502,8|0,0:0|0:0,0:0:0:0:
36,377,75049,6,0,P|-4:333|16:245,1,122.475002336025,2|0,1:2|0:0,0:0:0:0:
15,255,75382,2,0,P|2:206|-9:160,1,81.6500015573502,10|0,0:0|0:0,0:0:0:0:
57,110,75716,2,0,B|114:91|114:91|158:108|158:108|225:91,1,163.3000031147,2|10,1:2|0:0,0:0:0:0:
266,22,76216,2,0,P|308:33|353:49,1,81.6500015573502,2|0,0:0|1:2,0:0:0:0:
406,110,76549,1,2,0:1:0:0:
406,110,76716,2,0,P|448:99|493:83,1,81.6500015573502,10|2,0:1|0:1,0:0:0:0:
337,182,77049,6,0,P|329:232|316:275,2,81.6500015573502,2|2|10,1:2|0:0|0:0,0:0:0:0:
410,295,77549,2,0,P|349:286|259:362,1,163.3000031147,2|0,0:0|0:0,0:0:0:0:
193,383,78049,2,0,P|156:368|108:357,1,81.6500015573502,12|0,0:1|0:0,0:0:0:0:
115,358,78299,1,0,0:0:0:0:
115,358,78382,2,0,P|130:321|141:273,1,81.6500015573502,2|0,1:2|3:0,0:0:0:0:
64,230,78716,1,10,0:0:0:0:
6,59,79049,6,0,P|53:53|134:26,1,122.475002336025,2|0,1:2|0:0,0:0:0:0:
143,21,79382,2,0,P|200:4|276:103,1,163.3000031147,12|2,0:1|1:2,0:0:0:0:
335,131,79882,1,0,3:2:0:0:
399,67,80049,2,0,P|443:55|485:35,1,81.6500015573502,10|2,0:0|3:2,0:0:0:0:
509,127,80382,6,0,P|498:186|482:285,1,122.475002336025,2|0,1:2|0:0,0:0:0:0:
487,264,80716,2,0,P|439:248|397:237,1,81.6500015573502,12|0,0:1|0:0,0:0:0:0:
340,298,81049,1,2,1:2:0:0:
340,298,81216,1,0,3:0:0:0:
277,234,81382,2,0,P|271:188|263:140,1,81.6500015573502,12|8,0:1|0:0,0:0:0:0:
265,153,81632,1,8,0:0:0:0:
265,153,81716,6,0,P|213:139|155:182,1,122.475002336025,0|0,1:2|0:0,0:0:0:0:
90,123,82049,2,0,P|119:187|161:301,1,163.3000031147,12|0,0:1|1:2,0:0:0:0:
111,354,82549,1,8,0:0:0:0:
111,354,82632,1,8,0:0:0:0:
111,354,82716,2,0,L|65:344,3,40.8250007786751,8|8|8|8,0:0|1:3|1:3|1:3,0:0:0:0:
49,342,83049,6,0,P|19:302|58:180,1,163.3000031147,4|10,1:2|0:0,0:0:0:0:
104,136,83549,1,0,3:2:0:0:
104,136,83632,1,0,3:2:0:0:
104,136,83716,2,0,B|197:105|186:168|276:133,1,163.3000031147,2|8,1:2|0:0,0:0:0:0:
331,78,84216,6,0,P|383:55|474:138,1,163.3000031147,2|2,0:0|0:0,0:0:0:0:
505,193,84716,1,10,0:0:0:0:
505,193,84882,1,2,0:0:0:0:
443,258,85049,2,0,P|456:305|469:354,1,81.6500015573502,2|0,1:2|0:0,0:0:0:0:
361,327,85382,6,0,B|285:289|285:289|262:296|257:320,1,122.475002336025,14|0,0:1|0:0,0:0:0:0:
248,335,85716,2,0,B|161:378|161:378|107:371|126:311,1,163.3000031147,6|10,1:2|0:0,0:0:0:0:
52,276,86216,1,0,3:0:0:0:
52,276,86382,2,0,B|32:263|32:263|79:126,1,163.3000031147,2|8,1:2|0:0,0:0:0:0:
16,64,86882,1,2,0:0:0:0:
88,10,87049,6,0,P|134:20|190:31,1,81.6500015573502,6|2,1:2|0:0,0:0:0:0:
229,91,87382,2,0,P|275:81|331:70,1,81.6500015573502,14|10,0:0|0:0,0:0:0:0:
308,74,87632,1,8,0:0:0:0:
308,74,87716,1,10,0:0:0:0:
380,21,87882,1,10,0:0:0:0:
450,77,88049,2,0,P|435:128|423:177,1,81.6500015573502,12|0,0:1|0:0,0:0:0:0:
491,219,88382,6,0,P|433:206|330:288,1,163.3000031147,12|10,0:0|0:0,0:0:0:0:
310,336,88882,1,0,1:2:0:0:
241,277,89049,2,0,P|196:289|152:303,1,81.6500015573502,10|0,0:0|1:2,0:0:0:0:
110,372,89382,2,0,P|69:365|21:353,1,81.6500015573502,10|0,0:0|1:2,0:0:0:0:
9,267,89716,6,0,P|20:209|42:86,1,163.3000031147,12|10,0:1|0:0,0:0:0:0:
106,47,90216,1,0,1:2:0:0:
179,98,90382,2,0,P|199:142|201:188,1,81.6500015573502,10|0,0:0|1:2,0:0:0:0:
146,240,90716,1,10,0:0:0:0:
135,253,90799,1,8,0:0:0:0:
134,267,90882,1,8,1:3:0:0:
203,323,91049,6,0,P|260:318|299:304,1,81.6500015573502,12|0,0:0|1:2,0:0:0:0:
343,243,91382,2,0,P|398:233|446:278,1,122.475002336025,10|0,0:0|0:0,0:0:0:0:
454,290,91716,1,12,0:1:0:0:
454,290,91882,1,2,1:2:0:0:
491,191,92049,2,0,P|507:135|514:102,1,81.6500015573502,8|2,0:0|1:2,0:0:0:0:
453,43,92382,6,0,P|417:51|359:60,1,81.6500015573502,12|2,0:0|1:2,0:0:0:0:
312,125,92716,2,0,P|276:117|218:108,1,81.6500015573502,12|2,0:1|1:2,0:0:0:0:
154,49,93049,2,0,P|130:92|125:148,1,81.6500015573502,14|0,0:0|1:2,0:0:0:0:
59,197,93382,2,0,P|83:240|88:296,1,81.6500015573502,10|8,1:3|1:3,0:0:0:0:
160,339,93716,5,10,0:0:0:0:
160,339,93882,1,10,0:0:0:0:
329,237,94216,1,10,0:0:0:0:
329,237,94382,1,10,0:0:0:0:
168,123,94716,2,0,L|157:175,4,40.8250007786751,0|0|0|0|10,1:0|1:0|1:0|1:0|0:0,0:0:0:0:
203,102,96382,6,0,P|239:90|281:76,1,71,6|0,1:1|3:2,0:0:0:0:
346,12,96715,2,0,P|382:24|424:38,1,71,10|0,0:0|3:0,0:0:0:0:
504,31,97049,1,2,1:2:0:0:
504,31,97215,2,0,P|501:76|470:106,1,71,2|8,3:2|3:2,0:0:0:0:
431,194,97549,6,0,P|379:182|299:237,1,142,2|2,3:2|3:2,0:0:0:0:
292,321,98049,1,10,0:0:0:0:
292,321,98215,1,2,3:2:0:0:
187,325,98382,2,0,P|150:313|100:300,1,71,2|0,1:2|3:0,0:0:0:0:
70,221,98715,2,0,B|82:215|35:230|2:241,1,71,10|0,3:2|3:2,0:0:0:0:
1,136,99049,6,0,P|-4:67|42:17,2,142,2|10|2,1:2|0:0|1:2,0:0:0:0:
86,99,99882,2,0,P|129:112|178:126,1,71,2|8,3:2|3:2,0:0:0:0:
251,86,100215,6,0,P|235:147|211:243,1,142,2|2,3:2|3:2,0:0:0:0:
131,296,100715,1,10,3:2:0:0:
131,296,100882,1,2,3:2:0:0:
201,357,101049,2,0,P|242:364|284:372,1,71,2|0,1:2|3:2,0:0:0:0:
329,288,101382,2,0,P|370:281|412:273,1,71,10|0,0:0|3:0,0:0:0:0:
477,352,101715,6,0,P|501:302|463:197,1,142,6|12,1:3|1:1,0:0:0:0:
429,141,102215,1,8,0:0:0:0:
429,141,102299,1,8,0:0:0:0:
429,141,102382,2,0,P|389:154|339:168,1,71,10|8,0:0|1:3,0:0:0:0:
273,206,102715,1,8,1:3:0:0:
195,153,102882,2,0,B|177:106|177:106|210:8,1,142,6|0,1:2|1:2,0:0:0:0:
295,69,103382,1,10,0:0:0:0:
295,69,103549,1,10,0:0:0:0:
381,34,103715,1,10,0:0:0:0:
512,384,104215,5,2,0:0:0:0:
512,384,104299,1,2,0:0:0:0:
512,384,104382,2,0,P|498:335|478:260,1,106.500004062653,6|0,1:2|1:2,0:0:0:0:
510,200,104882,2,0,P|458:199|415:229,1,106.500004062653,2|2,0:0|0:0,0:0:0:0:
309,370,105549,2,0,P|263:343|211:348,1,106.500004062653,2|2,3:2|0:0,0:0:0:0:
137,284,106049,2,0,P|147:256|157:229,1,53.2500020313264,0|2,1:2|0:0,0:0:0:0:
229,177,106382,2,0,P|219:149|209:122,1,53.2500020313264,2|2,1:2|0:0,0:0:0:0:
130,33,106715,2,0,P|184:34|242:10,1,106.500004062653,2|0,1:2|1:2,0:0:0:0:
418,9,107382,6,0,P|427:40|436:68,1,53.2500020313264,2|2,1:2|0:0,0:0:0:0:
420,155,107715,2,0,P|455:161|518:115,2,106.500004062653,2|2|2,1:2|1:2|1:2,0:0:0:0:
286,258,108716,1,2,1:2:0:0:
286,258,108799,1,8,0:0:0:0:
286,258,108882,2,0,L|239:248,3,35.5,8|8|8|8,0:0|0:0|0:0|0:0,0:0:0:0:
221,233,109216,2,0,L|174:243,3,35.5,8|8|8|8,0:0|0:0|0:0|0:0,0:0:0:0:
147,263,109549,1,8,0:0:0:0:
147,263,109632,1,8,0:0:0:0:
147,263,109716,6,0,B|98:264|75:293|75:293|66:342|29:391,1,181.76,6|0,1:2|0:0,0:0:0:0:
386,378,112216,5,0,1:2:0:0:
386,378,112299,1,0,1:2:0:0:
386,378,112382,2,0,P|453:360|533:346,1,127.799996099854,8|8,0:0|0:0,0:0:0:0:
442,270,112882,1,8,0:0:0:0:
489,188,113049,1,8,0:0:0:0:
489,188,113216,1,8,0:0:0:0:
433,110,113382,1,8,0:0:0:0:
433,110,113549,1,8,0:0:0:0:
503,52,113716,5,0,3:0:0:0:
189,114,114382,5,10,0:0:0:0:
86,55,114632,5,10,0:0:0:0:
15,152,114882,5,10,0:0:0:0:
15,152,115049,2,0,P|37:226|51:282,1,127.799996099854,6|0,1:2|1:2,0:0:0:0:
129,336,115549,2,0,P|174:321|200:320,1,63.8999980499268,2|0,0:0|1:2,0:0:0:0:
246,252,115882,2,0,P|291:267|317:268,1,63.8999980499268,2|0,0:0|1:2,0:0:0:0:
390,322,116215,2,0,P|335:239|349:203,1,127.799996099854,2|2,0:0|0:0,0:0:0:0:
380,146,116715,2,0,P|294:143|269:170,1,127.799996099854,2|2,1:2|1:2,0:0:0:0:
204,102,117215,1,2,0:0:0:0:
204,102,117382,1,2,1:2:0:0:
37,185,117715,5,0,1:2:0:0:
94,325,118049,2,0,L|169:318,1,63.8999980499268,2|2,1:2|0:0,0:0:0:0:
211,241,118382,2,0,L|219:131,1,95.8499970748902,2|0,1:2|0:0,0:0:0:0:
222,112,118715,1,10,0:0:0:0:
181,24,118882,1,8,1:3:0:0:
181,24,118965,1,8,1:3:0:0:
181,24,119049,5,10,0:0:0:0:
388,149,119549,5,10,0:0:0:0:
471,277,119882,1,10,0:0:0:0:
263,375,120382,6,0,B|199:362|225:323|139:307,2,127.799996099854,4|8|0,1:2|0:0|1:2,0:0:0:0:
324,309,121216,1,0,0:0:0:0:
324,309,121382,2,0,P|330:269|337:229,1,63.8999980499268,8|0,0:0|0:0,0:0:0:0:
390,175,121716,2,0,P|347:157|257:196,1,127.799996099854,0|10,1:2|0:0,0:0:0:0:
203,122,122216,1,0,3:0:0:0:
203,122,122382,2,0,P|210:80|219:44,1,63.8999980499268,2|0,1:2|3:0,0:0:0:0:
127,35,122716,2,0,P|120:77|111:113,1,63.8999980499268,10|0,0:0|3:0,0:0:0:0:
39,145,123049,6,0,P|50:200|67:289,1,127.799996099854,2|8,1:2|0:0,0:0:0:0:
217,363,123716,2,0,P|206:308|189:219,1,127.799996099854,2|8,1:2|0:0,0:0:0:0:
253,172,124216,1,0,0:0:0:0:
327,220,124382,2,0,P|373:208|435:194,1,95.8499970748902,4|0,1:3|0:0,0:0:0:0:
439,196,124716,2,0,P|432:154|423:118,1,63.8999980499268,12|8,0:1|1:3,0:0:0:0:
423,115,124966,1,8,1:3:0:0:
423,115,125049,1,10,1:3:0:0:
473,44,125216,1,10,1:3:0:0:
391,8,125382,2,0,P|348:18|319:28,1,63.8999980499268,2|0,1:3|1:2,0:0:0:0:
245,92,125716,6,0,P|205:81|151:68,1,71,10|0,0:0|1:2,0:0:0:0:
109,21,126049,2,0,P|69:32|15:45,1,71,8|0,0:0|1:2,0:0:0:0:
5,117,126382,2,0,P|15:155|30:214,1,71,10|8,0:0|1:3,0:0:0:0:
16,274,126716,1,8,1:3:0:0:
16,274,126882,6,0,P|67:267|141:325,1,142,4|0,1:2|1:2,0:0:0:0:
204,369,127382,1,6,0:3:0:0:
272,316,127549,1,8,1:3:0:0:
272,316,127632,1,8,1:3:0:0:
272,316,127716,2,0,P|260:279|247:229,1,71,2|0,1:2|1:2,0:0:0:0:
293,174,128049,1,12,0:1:0:0:
369,21,128382,6,0,P|391:58|402:97,1,71,6|0,1:2|1:2,0:0:0:0:
461,143,128716,2,0,P|444:196|418:303,1,142,10|2,3:2|1:2,0:0:0:0:
479,350,129216,1,0,1:2:0:0:
479,350,129382,1,10,3:2:0:0:
311,383,129716,6,0,P|265:367|224:353,1,71,0|0,1:2|1:2,0:0:0:0:
203,284,130049,2,0,P|157:300|116:314,1,71,12|0,0:1|1:2,0:0:0:0:
74,367,130382,1,8,0:0:0:0:
74,367,130549,1,0,1:2:0:0:
12,299,130716,1,10,0:0:0:0:
77,141,131049,6,0,P|70:105|62:63,1,71,10|0,0:0|1:2,0:0:0:0:
152,44,131382,2,0,P|159:80|167:122,1,71,8|0,0:0|1:2,0:0:0:0:
237,171,131716,1,10,0:0:0:0:
237,171,131882,1,8,1:3:0:0:
310,115,132049,1,10,1:3:0:0:
259,37,132216,6,0,P|310:79|402:78,1,142,4|0,1:2|1:2,0:0:0:0:
454,25,132716,1,6,0:3:0:0:
501,115,132882,1,8,1:3:0:0:
501,115,132966,1,8,1:3:0:0:
501,115,133049,2,0,P|484:168|477:196,1,71,2|0,1:2|1:2,0:0:0:0:
414,248,133382,1,12,0:1:0:0:
296,367,133716,6,0,P|260:349|228:341,1,71,6|0,1:2|1:2,0:0:0:0:
171,279,134049,2,0,P|119:272|39:332,1,142,8|2,3:2|1:2,0:0:0:0:
11,238,134549,1,0,1:2:0:0:
11,238,134716,2,0,P|19:190|25:161,1,71,10|0,3:2|0:0,0:0:0:0:
10,65,135049,6,0,P|53:76|103:89,1,71,6|0,1:2|1:2,0:0:0:0:
141,154,135382,2,0,P|184:143|234:130,1,71,10|0,3:2|1:2,0:0:0:0:
264,61,135716,1,14,3:1:0:0:
264,61,135882,1,0,1:2:0:0:
341,112,136049,2,0,P|329:154|320:192,1,71,10|0,0:0|1:2,0:0:0:0:
403,242,136382,6,0,P|440:234|485:222,1,63.8999980499268,6|0,1:2|1:2,0:0:0:0:
404,339,136716,2,0,B|324:336|351:362|267:355,1,127.799996099854,10|0,0:0|1:2,0:0:0:0:
224,292,137216,1,0,1:2:0:0:
224,292,137382,1,8,0:0:0:0:
162,356,137549,6,0,P|116:369|36:309,1,127.799996099854,2|2,0:0|1:2,0:0:0:0:
3,255,138049,2,0,P|11:213|21:175,1,63.8999980499268,10|2,0:0|0:0,0:0:0:0:
14,102,138382,1,2,1:2:0:0:
14,102,138549,1,0,1:2:0:0:
92,145,138716,2,0,P|126:135|176:120,1,63.8999980499268,12|0,0:1|0:0,0:0:0:0:
214,61,139049,6,0,P|238:101|250:144,1,63.8999980499268,4|0,1:2|1:2,0:0:0:0:
321,162,139382,2,0,B|372:147|372:147|406:165|406:165|467:149,1,127.799996099854,10|2,0:0|1:2,0:0:0:0:
503,92,139882,1,0,1:2:0:0:
503,92,140049,1,8,0:0:0:0:
445,23,140216,6,0,P|407:4|336:57,1,127.799996099854,2|2,0:0|1:2,0:0:0:0:
264,96,140716,1,10,0:0:0:0:
324,176,140882,1,8,0:0:0:0:
324,176,140966,1,8,0:0:0:0:
324,176,141049,2,0,P|309:221|302:247,1,63.8999980499268,2|0,1:2|1:2,0:0:0:0:
371,296,141382,2,0,P|386:341|393:367,1,63.8999980499268,10|8,0:0|0:3,0:0:0:0:
399,376,141632,1,8,0:3:0:0:
399,376,141716,6,0,P|434:361|472:351,2,63.8999980499268,4|0|10,1:2|1:2|0:0,0:0:0:0:
302,352,142216,1,8,0:3:0:0:
302,352,142299,1,8,0:3:0:0:
302,352,142382,2,0,P|260:342|223:333,1,63.8999980499268,2|0,1:2|1:2,0:0:0:0:
159,378,142716,1,10,0:0:0:0:
89,322,142882,1,8,0:3:0:0:
89,322,142966,1,8,0:3:0:0:
89,322,143049,6,0,P|97:275|112:175,1,127.799996099854,2|8,1:2|0:0,0:0:0:0:
42,135,143549,1,8,0:3:0:0:
42,135,143632,1,8,0:3:0:0:
42,135,143716,2,0,P|33:98|26:66,1,63.8999980499268,2|0,1:2|1:2,0:0:0:0:
93,11,144049,1,8,0:0:0:0:
163,66,144216,1,8,0:3:0:0:
244,16,144382,5,8,0:0:0:0:
244,16,144466,1,8,0:0:0:0:
244,16,144549,2,0,P|265:51|274:93,1,71,8|8,1:3|1:3,0:0:0:0:
217,152,144882,1,8,0:0:0:0:
217,152,144966,1,8,0:0:0:0:
217,152,145049,2,0,P|196:187|187:229,1,71,8|8,1:3|1:3,0:0:0:0:
256,281,145382,1,0,1:2:0:0:
331,239,145549,1,0,1:2:0:0:
450,321,146716,6,0,B|481:338|493:371|493:371|483:338|493:281,1,133.125,8|0,0:1|0:0,0:0:0:0:
462,234,147049,6,0,B|393:278|426:299|346:358,1,149.099995449829,6|0,1:2|0:0,0:0:0:0:
354,351,147382,1,10,0:0:0:0:
285,280,147549,2,0,P|296:236|312:186,1,81.6500015573502,2|0,0:0|1:2,0:0:0:0:
370,137,147882,2,0,P|359:93|343:43,1,81.6500015573502,2|8,0:0|0:0,0:0:0:0:
274,5,148216,1,2,0:0:0:0:
199,55,148382,6,0,B|116:41|134:87|31:70,1,163.3000031147,2|10,1:2|0:0,0:0:0:0:
7,155,148882,2,0,P|18:200|27:249,1,81.6500015573502,2|0,0:0|1:2,0:0:0:0:
97,297,149216,1,2,0:0:0:0:
97,297,149382,2,0,P|82:344|70:388,1,81.6500015573502,8|0,0:0|0:0,0:0:0:0:
189,341,149716,6,0,P|241:350|308:290,1,122.475002336025,2|0,1:2|0:0,0:0:0:0:
302,299,150049,2,0,P|288:249|276:203,1,81.6500015573502,10|0,0:0|0:0,0:0:0:0:
207,167,150382,2,0,B|167:85|167:85|182:30|242:42,1,163.3000031147,2|10,1:2|0:0,0:0:0:0:
299,4,150882,2,0,P|345:17|394:31,1,81.6500015573502,2|0,0:0|1:2,0:0:0:0:
452,86,151216,1,2,0:1:0:0:
452,86,151382,2,0,P|432:138|420:178,1,81.6500015573502,10|2,0:1|0:1,0:0:0:0:
358,225,151716,6,0,P|378:277|390:317,2,81.6500015573502,2|2|10,1:2|0:0|0:0,0:0:0:0:
474,324,152216,2,0,P|413:324|324:400,1,163.3000031147,2|0,0:0|0:0,0:0:0:0:
260,329,152716,1,12,0:1:0:0:
87,377,153049,2,0,P|81:331|70:278,1,81.6500015573502,2|0,1:2|3:0,0:0:0:0:
27,219,153382,1,10,0:0:0:0:
155,92,153716,6,0,P|108:78|61:58,1,81.6500015573502,2|0,1:2|0:0,0:0:0:0:
139,187,154049,2,0,P|200:195|257:148,1,122.475002336025,12|0,0:1|0:0,0:0:0:0:
258,142,154382,2,0,P|248:100|238:60,1,81.6500015573502,2|0,1:2|3:2,0:0:0:0:
314,12,154716,1,10,0:0:0:0:
376,75,154882,1,2,3:2:0:0:
462,50,155049,6,0,B|385:90|412:127|334:164,2,163.3000031147,2|8|0,1:2|0:0|1:2,0:0:0:0:
504,135,155882,1,2,0:0:0:0:
504,135,156049,1,10,0:0:0:0:
448,205,156216,2,0,P|459:249|472:304,1,81.6500015573502,2|4,0:0|1:2,0:0:0:0:
423,363,156549,5,8,0:0:0:0:
347,314,156716,1,8,0:0:0:0:
272,364,156882,1,8,0:0:0:0:
272,364,156966,1,8,0:0:0:0:
272,364,157049,2,0,P|226:349|186:342,1,81.6500015573502,4|0,1:3|1:2,0:0:0:0:
134,274,157382,2,0,P|88:289|48:296,1,81.6500015573502,8|8,0:0|0:0,0:0:0:0:
37,298,157632,1,8,0:0:0:0:
37,298,157716,6,0,P|-5:253|53:171,1,163.3000031147,6|10,1:2|0:0,0:0:0:0:
105,114,158216,2,0,P|95:67|83:24,1,81.6500015573502,2|0,0:0|1:2,0:0:0:0:
172,9,158549,2,0,P|182:56|194:99,1,81.6500015573502,2|8,0:0|0:0,0:0:0:0:
264,140,158882,1,2,0:0:0:0:
324,73,159049,6,0,B|357:46|357:46|405:95|482:74,1,163.3000031147,2|10,1:2|0:0,0:0:0:0:
510,156,159549,2,0,P|497:204|484:256,1,81.6500015573502,2|0,0:0|1:2,0:0:0:0:
429,302,159882,1,2,0:0:0:0:
429,302,160049,2,0,P|379:288|341:278,1,81.6500015573502,8|0,0:0|0:0,0:0:0:0:
300,205,160382,6,0,P|251:199|175:267,1,122.475002336025,2|0,1:2|0:0,0:0:0:0:
175,251,160716,2,0,P|188:300|200:351,1,81.6500015573502,10|0,0:0|0:0,0:0:0:0:
117,377,161049,2,0,B|39:353|39:353|75:268,1,163.3000031147,2|10,1:2|0:0,0:0:0:0:
18,204,161549,2,0,P|11:158|0:101,1,81.6500015573502,2|0,0:0|1:2,0:0:0:0:
59,52,161882,1,2,0:1:0:0:
59,52,162049,2,0,P|101:52|151:75,1,81.6500015573502,10|2,0:1|0:1,0:0:0:0:
201,129,162382,6,0,P|243:129|293:106,2,81.6500015573502,2|2|10,1:2|0:0|0:0,0:0:0:0:
144,198,162882,2,0,B|158:254|158:254|128:299|128:299|144:365,1,163.3000031147,2|0,0:0|0:0,0:0:0:0:
224,379,163382,2,0,P|270:366|332:351,1,81.6500015573502,12|0,0:1|0:0,0:0:0:0:
321,339,163632,1,0,0:0:0:0:
321,339,163716,2,0,P|367:352|429:367,1,81.6500015573502,2|0,1:2|3:0,0:0:0:0:
475,311,164049,1,10,0:0:0:0:
393,151,164382,6,0,P|386:103|368:25,1,122.475002336025,2|0,1:2|0:0,0:0:0:0:
366,14,164716,2,0,P|308:0|223:73,1,163.3000031147,12|2,0:1|1:2,0:0:0:0:
171,126,165216,1,0,3:2:0:0:
107,62,165382,2,0,P|66:50|15:35,1,81.6500015573502,10|2,0:0|3:2,0:0:0:0:
4,126,165716,6,0,P|46:162|30:233,1,122.475002336025,2|0,1:2|0:0,0:0:0:0:
22,235,166049,2,0,P|31:279|43:334,1,81.6500015573502,12|0,0:1|0:0,0:0:0:0:
111,367,166382,1,2,1:2:0:0:
111,367,166549,1,0,3:0:0:0:
175,304,166716,2,0,P|219:315|267:325,1,81.6500015573502,12|8,0:1|0:0,0:0:0:0:
272,328,166966,1,8,0:0:0:0:
272,328,167049,6,0,B|331:309|322:284|395:268,1,122.475002336025,0|0,1:2|0:0,0:0:0:0:
457,261,167382,2,0,B|398:239|398:239|389:196|389:196|323:166,1,163.3000031147,12|0,0:1|1:2,0:0:0:0:
294,93,167882,1,8,0:0:0:0:
294,93,167966,1,8,0:0:0:0:
294,93,168049,2,0,L|303:41,3,40.8250007786751,8|8|8|8,0:0|1:3|1:3|1:3,0:0:0:0:
315,23,168382,6,0,B|398:33|383:81|477:92,1,163.3000031147,4|10,1:2|0:0,0:0:0:0:
499,180,168882,1,0,3:2:0:0:
499,180,168966,1,0,3:2:0:0:
499,180,169049,2,0,P|483:250|459:368,1,163.3000031147,2|8,1:2|0:0,0:0:0:0:
380,372,169549,2,0,P|327:380|252:302,1,163.3000031147,2|2,0:0|0:0,0:0:0:0:
188,246,170049,1,10,0:0:0:0:
188,246,170216,1,2,0:0:0:0:
114,297,170382,2,0,P|125:341|135:385,1,81.6500015573502,2|0,1:2|0:0,0:0:0:0:
21,299,170716,6,0,B|30:248|30:248|60:227|60:227|75:170,1,122.475002336025,14|0,0:1|0:0,0:0:0:0:
30,125,171049,2,0,B|102:144|89:189|177:209,1,163.3000031147,6|10,1:2|0:0,0:0:0:0:
238,151,171549,1,0,3:0:0:0:
238,151,171716,2,0,B|279:67|279:67|208:17,1,163.3000031147,2|8,1:2|0:0,0:0:0:0:
132,7,172216,1,2,0:0:0:0:
64,72,172382,6,0,P|75:120|86:172,1,81.6500015573502,6|2,1:2|0:0,0:0:0:0:
22,219,172716,2,0,P|11:267|0:319,1,81.6500015573502,14|10,0:0|0:0,0:0:0:0:
4,298,172966,1,8,0:0:0:0:
4,298,173049,1,10,0:0:0:0:
79,368,173216,1,10,0:0:0:0:
147,295,173382,2,0,P|193:308|236:320,1,81.6500015573502,12|0,0:1|0:0,0:0:0:0:
296,384,173716,6,0,P|324:343|274:238,1,163.3000031147,12|10,0:0|0:0,0:0:0:0:
223,180,174216,1,0,1:2:0:0:
284,114,174382,2,0,P|322:127|369:145,1,81.6500015573502,10|0,0:0|1:2,0:0:0:0:
419,72,174716,2,0,P|457:59|504:41,1,81.6500015573502,10|0,0:0|1:2,0:0:0:0:
504,158,175049,6,0,P|487:222|461:330,1,163.3000031147,12|10,0:1|0:0,0:0:0:0:
392,371,175549,1,0,1:2:0:0:
330,305,175716,2,0,P|286:318|242:336,1,81.6500015573502,10|0,0:0|1:2,0:0:0:0:
170,377,176049,1,10,0:0:0:0:
150,378,176132,1,8,0:0:0:0:
130,370,176216,1,8,1:3:0:0:
71,302,176382,6,0,P|80:255|97:203,1,81.6500015573502,12|0,0:0|1:2,0:0:0:0:
27,156,176716,2,0,P|4:111|39:42,1,122.475002336025,10|0,0:0|0:0,0:0:0:0:
55,28,177049,1,12,0:1:0:0:
55,28,177216,1,2,1:2:0:0:
124,84,177382,2,0,P|164:69|206:55,1,81.6500015573502,8|2,0:0|1:2,0:0:0:0:
300,122,177716,6,0,P|284:140|292:208,1,81.6500015573502,12|2,0:0|1:2,0:0:0:0:
232,265,178049,2,0,P|250:281|318:273,1,81.6500015573502,12|2,0:1|1:2,0:0:0:0:
377,335,178382,2,0,P|393:317|385:249,1,81.6500015573502,14|0,0:0|1:2,0:0:0:0:
442,195,178716,2,0,P|424:179|356:187,1,81.6500015573502,10|8,1:3|1:3,0:0:0:0:
300,122,179049,5,10,0:0:0:0:
300,122,179216,1,10,0:0:0:0:
164,238,179549,1,10,0:0:0:0:
164,238,179716,1,10,0:0:0:0:
43,105,180049,2,0,L|50:48,4,40.8250007786751,0|0|0|0|10,1:0|1:0|1:0|1:0|0:0,0:0:0:0:
6,364,181716,6,0,P|55:364|122:337,1,106.500004062653,6|0,1:2|1:2,0:0:0:0:
150,270,182216,2,0,P|199:270|266:297,1,106.500004062653,10|0,0:0|1:2,0:0:0:0:
308,354,182716,1,10,0:0:0:0:
379,295,182882,1,8,0:0:0:0:
379,295,182966,1,8,0:0:0:0:
379,295,183049,2,0,L|387:242,4,35.5,8|8|8|8|8,0:0|0:0|0:0|0:0|0:0,0:0:0:0:
325,189,183549,6,0,B|299:144|321:104|290:34,2,142,2|2|2,1:2|1:2|1:2,0:0:0:0:
444,287,184382,6,0,P|392:277|326:352,1,142,6|14,1:3|0:0,0:0:0:0:
256,376,184882,2,0,P|214:361|185:353,1,71,2|0,1:2|1:2,0:0:0:0:
126,292,185216,1,0,3:0:0:0:
126,292,185382,2,0,P|84:307|55:315,1,71,10|0,0:0|3:0,0:0:0:0:
6,236,185716,6,0,P|12:185|25:75,1,142,2|10,1:2|0:0,0:0:0:0:
92,34,186216,2,0,B|146:22|146:22|188:44|188:44|254:29,1,142,2|0,3:2|3:0,0:0:0:0:
301,88,186716,1,8,3:2:0:0:
311,108,186799,1,0,3:0:0:0:
307,131,186882,1,2,3:2:0:0:
242,197,187049,6,0,P|209:232|227:315,1,106.5,2|0,1:2|0:0,0:0:0:0:
221,298,187382,1,8,0:0:0:0:
285,360,187549,2,0,B|363:337|334:307|413:284,1,142,2|0,3:2|3:0,0:0:0:0:
470,221,188049,2,0,P|478:178|491:136,1,71,10|0,0:0|3:0,0:0:0:0:
436,73,188382,6,0,B|383:46|383:46|346:92,2,106.5,2|2|2,1:2|3:2|3:2,0:0:0:0:
486,150,189049,1,0,1:2:0:0:
394,180,189216,2,0,P|348:191|310:205,1,71,2|8,3:2|0:0,0:0:0:0:
247,149,189549,1,2,3:2:0:0:
247,149,189632,1,0,3:2:0:0:
247,149,189716,6,0,P|203:141|154:196,1,106.5,4|0,1:1|0:0,0:0:0:0:
153,188,190049,2,0,P|165:229|177:272,1,71,10|2,0:0|3:2,0:0:0:0:
92,302,190382,2,0,P|80:261|68:218,1,71,2|0,1:2|3:2,0:0:0:0:
6,168,190716,2,0,P|10:123|17:71,1,71,10|2,0:0|3:2,0:0:0:0:
74,28,191049,6,0,P|129:38|205:55,1,106.5,6|0,1:2|0:0,0:0:0:0:
195,53,191382,2,0,P|201:87|185:128,1,71,10|2,0:0|3:2,0:0:0:0:
244,200,191716,2,0,P|270:177|313:171,1,71,2|0,1:2|3:2,0:0:0:0:
348,77,192049,2,0,P|315:65|288:30,1,71,10|0,0:0|3:2,0:0:0:0:
189,121,192382,6,0,B|133:146|157:169|88:201,2,122.475002336025,4|10|2,1:1|0:0|1:2,0:0:0:0:
244,200,193049,2,0,B|300:225|276:248|345:280,2,122.475002336025,6|4|2,1:2|1:3|1:2,0:0:0:0:
161,260,193716,6,0,P|123:272|79:293,1,81.6500015573502,14|0,0:0|1:0,0:0:0:0:
203,349,194049,2,0,P|241:361|285:382,1,81.6500015573502,10|0,0:1|0:0,0:0:0:0:
356,308,194382,1,10,0:1:0:0:
444,371,194549,1,8,0:1:0:0:
444,371,194632,1,8,0:1:0:0:
444,371,194716,2,0,L|498:355,3,40.8250007786751,10|8|8|8,0:1|0:1|0:1|0:1,0:0:0:0:
509,350,195049,6,0,P|497:303|488:268,1,71,0|0,1:2|1:2,0:0:0:0:
369,162,195549,2,0,P|381:115|390:80,1,71,0|0,1:2|1:2,0:0:0:0:
230,23,196049,1,0,1:2:0:0:
230,23,196216,2,0,P|176:20|103:89,1,142,8|0,0:0|1:2,0:0:0:0:
50,133,196716,1,8,0:3:0:0:
112,205,196882,1,8,0:3:0:0:
112,205,196966,1,8,0:3:0:0:
112,205,197049,2,0,P|97:246|87:279,1,71,8|8,0:3|0:3,0:0:0:0:
16,316,197382,1,8,0:0:0:0:
174,379,197716,6,0,P|213:364|248:353,1,71,8|8,0:0|0:0,0:0:0:0:
316,202,198216,1,8,0:0:0:0:
316,202,198382,2,0,P|282:190|249:178,1,71,8|8,0:0|0:3,0:0:0:0:
182,123,198716,1,8,0:3:0:0:
236,57,198882,6,0,P|270:21|366:31,1,142,4|0,1:1|1:2,0:0:0:0:
426,74,199382,2,0,P|414:119|405:160,1,71,8|8,0:0|0:3,0:0:0:0:
464,208,199716,2,0,P|472:248|480:288,1,71,8|10,0:3|0:3,0:0:0:0:
433,350,200049,1,10,0:3:0:0:
433,350,200216,1,10,0:3:0:0:
356,292,200382,6,0,B|281:259|281:259|239:285|245:324,1,142,6|2,1:2|1:2,0:0:0:0:
88,372,201049,2,0,P|77:329|65:298,1,60.3500011510849,8|2,0:0|0:0,0:0:0:0:
51,296,201299,1,8,0:0:0:0:
51,296,201382,2,0,P|62:253|74:222,1,60.3500011510849,0|8,1:2|0:0,0:0:0:0:
17,169,201716,1,2,1:2:0:0:
81,114,201882,2,0,P|114:126|155:141,1,60.3500011510849,8|2,0:0|1:2,0:0:0:0:
230,47,202299,1,8,0:0:0:0:
244,41,202382,2,0,P|252:75|259:113,1,60.3500011510849,8|0,0:0|0:0,0:0:0:0:
336,142,202716,2,0,P|374:151|405:162,1,60.3500011510849,2|8,1:2|0:0,0:0:0:0:
448,85,203049,5,4,1:1:0:0:
448,85,203216,2,0,P|486:74|516:66,2,60.3500011510849,8|0|0,0:0|1:2|1:2,0:0:0:0:
367,34,203716,1,8,0:0:0:0:
264,105,203966,1,8,0:0:0:0:
252,115,204049,2,0,P|261:156|267:185,1,60.3500011510849,2|8,1:2|0:0,0:0:0:0:
212,247,204382,5,2,1:2:0:0:
212,247,204549,2,0,P|172:236|144:231,1,60.3500011510849,8|0,0:0|1:2,0:0:0:0:
277,357,205049,2,0,P|324:372|391:334,1,120.70000230217,8|2,0:0|1:2,0:0:0:0:
454,293,205549,1,8,0:0:0:0:
401,226,205716,6,0,P|411:174|430:92,1,120.70000230217,2|0,1:2|1:2,0:0:0:0:
275,32,206382,2,0,P|265:84|246:166,1,120.70000230217,12|0,0:1|1:2,0:0:0:0:
186,205,206882,1,8,0:0:0:0:
127,130,207049,1,6,1:2:0:0:
127,130,207216,2,0,P|84:144|50:155,1,60.3500011510849,8|8,0:0|0:0,0:0:0:0:
72,245,207549,1,2,0:0:0:0:
72,245,207632,1,8,0:0:0:0:
72,245,207716,2,0,P|118:226|189:203,1,120.70000230217,12|10,0:1|0:0,0:0:0:0:
259,274,208216,5,8,0:0:0:0:
259,274,208299,1,8,0:0:0:0:
259,274,208382,2,0,L|298:285,3,35.5,0|0|0|0,1:2|1:2|1:2|1:2,0:0:0:0:
318,303,208716,2,0,L|357:292,3,35.5,0|0|0|0,1:2|1:2|1:2|1:2,0:0:0:0:
372,268,209049,2,0,L|411:279,3,35.5,8|8|8|8,0:0|0:0|0:0|0:0,0:0:0:0:
427,298,209382,1,8,0:0:0:0:
496,242,209549,6,0,B|475:196|496:151|464:93,2,142,4|8|8,1:3|0:0|0:0,0:0:0:0:
512,360,210382,1,8,0:0:0:0:
66,74,224716,6,0,P|62:56|53:28,2,42.5999986999512,2|2|2,0:0|0:0|0:0,0:0:0:0:
16,264,225716,6,0,B|99:215|99:215|140:228|127:280,1,163.3000031147,6|10,1:2|0:0,0:0:0:0:
183,339,226216,2,0,P|229:326|285:311,1,81.6500015573502,2|0,0:0|1:2,0:0:0:0:
318,247,226549,2,0,P|364:260|420:275,1,81.6500015573502,2|8,0:0|0:0,0:0:0:0:
451,340,226882,1,2,0:0:0:0:
504,267,227049,6,0,P|491:193|474:92,1,163.3000031147,2|10,1:2|0:0,0:0:0:0:
432,27,227549,2,0,P|390:42|342:63,1,81.6500015573502,2|0,0:0|1:2,0:0:0:0:
288,115,227882,1,2,0:0:0:0:
288,115,228049,2,0,P|246:100|198:79,1,81.6500015573502,8|0,0:0|0:0,0:0:0:0:
157,13,228382,6,0,P|103:8|32:67,1,122.475002336025,2|0,1:2|0:0,0:0:0:0:
37,53,228716,2,0,P|47:99|57:150,1,81.6500015573502,10|0,0:0|0:0,0:0:0:0:
15,214,229049,2,0,B|104:234|75:274|157:292,1,163.3000031147,2|10,1:2|0:0,0:0:0:0:
205,365,229549,2,0,P|250:357|308:347,1,81.6500015573502,2|0,0:0|1:2,0:0:0:0:
349,288,229882,1,2,0:1:0:0:
349,288,230049,2,0,P|392:299|442:309,1,81.6500015573502,10|2,0:1|0:1,0:0:0:0:
486,238,230382,6,0,P|476:195|463:139,2,81.6500015573502,2|2|10,1:2|0:0|0:0,0:0:0:0:
510,75,230882,2,0,P|456:70|365:141,1,163.3000031147,2|0,0:0|0:0,0:0:0:0:
314,59,231382,2,0,P|273:51|223:37,1,81.6500015573502,12|0,0:1|0:0,0:0:0:0:
234,40,231632,1,0,0:0:0:0:
234,40,231716,2,0,P|219:84|200:124,1,81.6500015573502,2|0,1:2|3:0,0:0:0:0:
254,191,232049,1,10,0:0:0:0:
172,350,232382,6,0,P|143:317|54:320,1,122.475002336025,2|0,1:2|0:0,0:0:0:0:
12,369,232716,2,0,P|28:299|50:195,1,163.3000031147,12|2,0:1|1:2,0:0:0:0:
4,130,233216,1,0,3:2:0:0:
73,73,233382,2,0,P|114:84|172:103,1,81.6500015573502,10|2,0:0|3:2,0:0:0:0:
228,48,233716,6,0,P|278:11|354:26,1,122.475002336025,2|0,1:2|0:0,0:0:0:0:
353,31,234049,2,0,P|403:20|458:8,1,81.6500015573502,12|0,0:1|0:0,0:0:0:0:
498,74,234382,1,2,1:2:0:0:
498,74,234549,1,0,3:0:0:0:
438,141,234716,2,0,P|450:190|459:240,1,81.6500015573502,12|8,0:1|0:0,0:0:0:0:
463,251,234966,1,8,0:0:0:0:
463,251,235049,6,0,P|408:246|355:294,1,122.475002336025,0|0,1:2|0:0,0:0:0:0:
344,321,235382,2,0,B|254:298|293:253|179:228,1,163.3000031147,12|0,0:1|1:2,0:0:0:0:
142,297,235882,1,8,0:0:0:0:
142,297,235966,1,8,0:0:0:0:
142,297,236049,2,0,L|94:309,3,40.8250007786751,8|8|8|8,0:0|1:3|1:3|1:3,0:0:0:0:
74,313,236382,6,0,P|28:284|30:169,1,163.3000031147,4|10,1:2|0:0,0:0:0:0:
77,113,236882,1,0,3:2:0:0:
77,113,236966,1,0,3:2:0:0:
77,113,237049,2,0,P|125:120|246:155,1,163.3000031147,2|8,1:2|0:0,0:0:0:0:
312,103,237549,2,0,B|370:106|399:65|399:65|374:99|392:153,1,163.3000031147,2|2,0:0|0:0,0:0:0:0:
448,197,238049,1,10,0:0:0:0:
448,197,238216,1,2,0:0:0:0:
397,271,238382,2,0,P|349:261|306:253,1,81.6500015573502,2|0,1:2|0:0,0:0:0:0:
246,197,238716,6,0,B|215:167|177:170|177:170|203:174|221:206,1,122.475002336025,14|0,0:1|0:0,0:0:0:0:
164,255,239049,2,0,B|142:309|77:295|77:295|121:298|138:246,1,163.3000031147,6|10,1:2|0:0,0:0:0:0:
64,208,239549,1,0,3:0:0:0:
16,135,239716,2,0,B|-11:56|-11:56|19:1|69:27,1,163.3000031147,2|8,1:2|0:0,0:0:0:0:
132,82,240216,1,2,0:0:0:0:
207,21,240382,6,0,P|251:33|299:45,1,81.6500015573502,6|2,1:2|0:0,0:0:0:0:
334,117,240716,2,0,P|378:105|426:93,1,81.6500015573502,14|10,0:0|0:0,0:0:0:0:
412,96,240966,1,8,0:0:0:0:
412,96,241049,1,10,0:0:0:0:
478,168,241216,1,10,0:0:0:0:
417,235,241382,2,0,P|428:285|437:335,1,81.6500015573502,12|0,0:1|0:0,0:0:0:0:
369,379,241716,6,0,B|288:363|312:319|218:305,1,163.3000031147,12|10,0:0|0:0,0:0:0:0:
165,239,242216,1,0,1:2:0:0:
92,291,242382,2,0,P|101:333|111:384,1,81.6500015573502,10|0,0:0|1:2,0:0:0:0:
18,366,242716,2,0,P|9:324|-1:273,1,81.6500015573502,10|0,0:0|1:2,0:0:0:0:
51,211,243049,6,0,B|95:137|95:137|16:77,1,163.3000031147,12|10,0:1|0:0,0:0:0:0:
78,12,243549,1,0,1:2:0:0:
154,59,243716,2,0,P|195:49|249:36,1,81.6500015573502,10|0,0:0|1:2,0:0:0:0:
301,91,244049,1,10,0:0:0:0:
321,104,244132,1,8,0:0:0:0:
343,100,244216,1,8,1:3:0:0:
411,37,244382,6,0,P|436:81|443:119,1,81.6500015573502,12|0,0:0|1:2,0:0:0:0:
502,181,244716,2,0,P|477:225|470:263,1,81.6500015573502,10|0,0:0|1:2,0:0:0:0:
414,325,245049,2,0,P|370:300|332:293,1,81.6500015573502,12|2,0:1|1:2,0:0:0:0:
268,239,245382,1,8,0:0:0:0:
202,300,245549,1,2,1:2:0:0:
125,253,245716,6,0,P|136:204|149:149,1,81.6500015573502,12|2,0:0|1:2,0:0:0:0:
54,158,246049,2,0,P|44:197|35:237,1,81.6500015573502,12|2,0:1|1:2,0:0:0:0:
62,323,246382,2,0,P|99:346|156:342,1,81.6500015573502,14|0,0:0|1:2,0:0:0:0:
207,291,246716,1,10,1:3:0:0:
276,346,246882,1,8,1:3:0:0:
355,304,247049,5,10,0:0:0:0:
355,304,247216,1,10,0:0:0:0:
239,173,247549,1,10,0:0:0:0:
239,173,247716,1,10,0:0:0:0:
381,64,248049,2,0,L|427:82,4,40.8250007786751,0|0|0|0|10,1:0|1:0|1:0|1:0|0:0,0:0:0:0:
62,37,250382,6,0,L|21:52,4,35.5,8|8|8|8|8,1:3|1:3|1:3|1:3|0:0,0:0:0:0:
172,129,251049,6,0,P|209:138|249:148,1,71,14|0,1:1|3:2,0:0:0:0:
296,72,251382,2,0,P|333:63|373:53,1,71,10|0,0:0|3:0,0:0:0:0:
442,115,251716,1,2,1:2:0:0:
442,115,251882,2,0,P|432:156|423:204,1,71,2|8,3:2|3:2,0:0:0:0:
499,241,252216,2,0,P|439:228|365:301,1,142,2|2,3:2|3:2,0:0:0:0:
345,357,252716,2,0,P|304:342|262:331,1,71,10|2,0:0|3:2,0:0:0:0:
226,257,253049,2,0,P|238:213|247:168,1,71,2|0,1:2|3:0,0:0:0:0:
152,173,253382,2,0,P|140:217|131:262,1,71,10|0,3:2|3:2,0:0:0:0:
78,315,253716,6,0,P|17:302|13:216,2,142,2|10|2,1:2|0:0|1:2,0:0:0:0:
149,373,254549,2,0,P|190:360|225:352,1,71,2|8,3:2|3:2,0:0:0:0:
285,290,254882,2,0,B|258:222|306:213|266:122,1,142,2|0,3:2|3:2,0:0:0:0:
340,83,255382,1,8,0:0:0:0:
270,21,255549,5,8,0:0:0:0:
270,21,255632,1,8,0:0:0:0:
270,21,255716,2,0,P|226:33|190:45,1,71,8|8,0:0|1:3,0:0:0:0:
140,109,256049,1,8,0:0:0:0:
118,116,256132,1,8,0:0:0:0:
97,105,256216,1,8,0:0:0:0:
32,39,256382,5,10,0:0:0:0:
32,39,256549,1,10,0:0:0:0:
114,203,256882,2,0,B|32:239|77:255|-11:290,1,142,14|10,0:0|0:0,0:0:0:0:
0,285,257382,1,8,0:3:0:0:
76,343,257549,6,0,P|131:328|200:387,1,142,6|2,1:2|1:2,0:0:0:0:
265,314,258049,2,0,P|303:303|345:289,1,71,12|2,0:1|1:2,0:0:0:0:
400,356,258382,2,0,P|438:367|480:381,1,71,12|0,0:0|1:2,0:0:0:0:
508,293,258716,1,12,0:1:0:0:
439,231,258882,1,8,0:0:0:0:
439,231,258966,1,8,0:0:0:0:
439,231,259049,5,10,0:0:0:0:
494,156,259216,1,10,0:0:0:0:
367,21,259549,2,0,P|348:73|319:174,1,142,10|2,0:3|1:2,0:0:0:0:
251,213,260049,1,0,1:0:0:0:
316,278,260216,2,0,P|262:264|185:330,1,142,6|8,1:2|0:0,0:0:0:0:
123,247,260716,6,0,L|128:197,3,35.5,10|8|8|8,0:0|0:0|0:0|0:0,0:0:0:0:
107,187,261049,2,0,L|102:137,3,35.5,10|8|8|8,0:0|0:0|0:0|0:0,0:0:0:0:
125,129,261382,1,10,0:0:0:0:
125,129,261466,1,8,0:0:0:0:
125,129,261549,1,6,1:2:0:0:
256,192,261632,12,0,267049,0:0:0:0:
