osu file format v14

[General]
AudioFilename: audio.mp3
AudioLeadIn: 0
PreviewTime: 10162
Countdown: 0
SampleSet: None
StackLeniency: 0.5
Mode: 0
LetterboxInBreaks: 0
WidescreenStoryboard: 0

[Editor]
Bookmarks: 11027,32970,54664,76606,98549,120242,142184,164127,175099,196793
DistanceSpacing: 1.5
BeatDivisor: 8
GridSize: 4
TimelineZoom: 3.400005

[Metadata]
Title:The Last Garrison
TitleUnicode:The Last Garrison
Artist:Enter Shikari
ArtistUnicode:Enter Shikari
Creator:h4d0uk3n1
Version:Still Alive
Source:
Tags:mindsweep trancecore alternative drum and bass
BeatmapID:1354754
BeatmapSetID:638666

[Difficulty]
HPDrainRate:5.5
CircleSize:4
OverallDifficulty:8.8
ApproachRate:9.2
SliderMultiplier:2.1
SliderTickRate:1

[Events]
//Background and Video events
0,0,"bgbgbg.jpg",0,0
//Break Periods
2,142184,163557
//Storyboard Layer 0 (Background)
//Storyboard Layer 1 (Fail)
//Storyboard Layer 2 (Pass)
//Storyboard Layer 3 (Foreground)
//Storyboard Sound Samples

[TimingPoints]
9656,342.857142857143,4,3,3,75,1,0
10341,-200,4,3,3,75,0,0
10941,-200,4,3,3,5,0,0
11027,-100,4,3,3,75,0,1
11198,-100,4,3,3,75,0,0
28941,-100,4,3,3,5,0,0
29027,-100,4,3,3,75,0,0
31170,-100,4,3,3,5,0,0
31256,-100,4,3,3,75,0,0
31770,-100,4,3,3,25,0,0
31856,-100,4,3,3,50,0,0
31941,-100,4,3,3,75,0,0
32284,-100,4,3,3,49,0,0
32370,-100,4,3,3,62,0,0
32456,-100,4,3,3,75,0,0
32970,338.983050847458,4,3,3,75,1,0
32970,-200,4,3,3,75,0,0
35936,-200,4,3,3,5,0,0
36020,-200,4,3,3,75,0,0
39325,-200,4,3,3,5,0,0
39410,-200,4,3,3,75,0,0
43308,-300,4,3,3,75,0,0
43732,-300,4,3,3,5,0,0
43817,-200,4,3,3,75,0,0
48139,-200,4,3,3,5,0,0
48224,-200,4,3,3,75,0,0
49156,-200,4,3,3,5,0,0
49241,-200,4,3,3,75,0,0
50173,-200,4,3,3,5,0,0
50258,-200,4,3,3,75,0,0
51868,-200,4,3,3,5,0,0
51953,-200,4,3,3,75,0,0
54664,342.857142857143,4,3,3,50,1,0
54664,-200,4,3,3,50,0,0
58178,-200,4,3,3,5,0,0
58264,-200,4,3,3,50,0,0
69492,-200,4,3,3,5,0,0
69578,-200,4,3,3,50,0,0
73264,-200,4,3,3,5,0,0
73349,-200,4,3,3,50,0,0
74978,-200,4,3,3,5,0,0
75064,-200,4,3,3,50,0,0
75921,-100,4,3,3,50,0,0
76606,-100,4,3,3,75,0,1
76778,-100,4,3,3,75,0,0
78749,-100,4,3,3,5,0,0
78835,-100,4,3,3,75,0,0
90064,-100,4,3,3,5,0,0
90149,-100,4,3,3,75,0,0
91264,-100,4,3,3,5,0,0
91349,-100,4,3,3,75,0,0
95035,-100,4,3,3,5,0,0
95121,-100,4,3,3,75,0,0
96749,-100,4,3,3,5,0,0
96835,-100,4,3,3,75,0,0
97349,-100,4,3,3,25,0,0
97435,-100,4,3,3,50,0,0
97521,-100,4,3,3,75,0,0
97864,-100,4,3,3,49,0,0
97949,-100,4,3,3,62,0,0
98035,-100,4,3,3,75,0,0
98549,338.983050847458,4,3,3,75,1,0
98549,-200,4,3,3,75,0,0
104904,-200,4,3,3,5,0,0
104989,-200,4,3,3,75,0,0
105243,-200,4,3,3,5,0,0
105328,-200,4,3,3,75,0,0
106599,-200,4,3,3,5,0,0
106684,-200,4,3,3,75,0,0
107616,-200,4,3,3,5,0,0
107701,-200,4,3,3,75,0,0
108887,-300,4,3,3,75,0,0
109311,-300,4,3,3,5,0,0
109396,-200,4,3,3,75,0,0
115752,-200,4,3,3,5,0,0
115837,-200,4,3,3,75,0,0
116091,-200,4,3,3,5,0,0
116176,-200,4,3,3,75,0,0
117108,-200,4,3,3,5,0,0
117193,-200,4,3,3,75,0,0
117447,-200,4,3,3,5,0,0
117532,-200,4,3,3,75,0,0
120242,342.857142857143,4,3,3,50,1,0
120242,-200,4,3,3,50,0,0
122899,-200,4,3,3,5,0,0
122984,-200,4,3,3,50,0,0
129242,-200,4,3,3,5,0,0
129327,-200,4,3,3,50,0,0
129584,-200,4,3,3,5,0,0
129670,-200,4,3,3,50,0,0
134727,-200,4,3,3,5,0,0
134813,-200,4,3,3,50,0,0
138842,-200,4,3,3,5,0,0
138927,-200,4,3,3,50,0,0
140556,-200,4,3,3,5,0,0
140642,-200,4,3,3,50,0,0
142184,-200,4,3,3,30,0,0
170299,-200,4,3,3,40,0,0
170984,-200,4,3,3,50,0,0
171670,-200,4,3,3,60,0,0
172356,-200,4,3,3,40,0,0
173642,-200,4,3,3,75,0,0
173813,-200,4,3,3,40,0,0
173984,-200,4,3,3,75,0,0
174413,-200,4,3,3,49,0,0
174499,-200,4,3,3,62,0,0
174584,-200,4,3,3,75,0,0
174713,-300,4,3,3,75,0,0
175099,338.983050847458,4,3,3,75,1,0
175099,-200,4,3,3,75,0,0
181454,-200,4,3,3,5,0,0
181539,-200,4,3,3,75,0,0
181793,-200,4,3,3,5,0,0
181878,-200,4,3,3,75,0,0
183149,-200,4,3,3,5,0,0
183234,-200,4,3,3,75,0,0
185437,-300,4,3,3,75,0,0
185861,-300,4,3,3,5,0,0
185946,-200,4,3,3,75,0,0
191285,-200,4,3,3,5,0,0
191370,-200,4,3,3,75,0,0
192302,-200,4,3,3,5,0,0
192387,-200,4,3,3,75,0,0
192641,-200,4,3,3,5,0,0
192726,-200,4,3,3,75,0,0
194082,-100,4,3,3,75,0,0
194166,-100,4,3,3,5,0,0
194251,-100,4,3,3,75,0,0
194336,-100,4,3,3,5,0,0
194421,-100,4,3,3,75,0,0
196031,-100,4,3,3,5,0,0
196115,-100,4,3,3,75,0,0
196793,-80,4,3,3,75,0,1
207471,-80,4,3,3,75,0,0
207641,-80,4,3,3,75,0,1
218488,-200,4,3,3,20,0,0

[Colours]
Combo1 : 0,128,255
Combo2 : 167,167,167
Combo3 : 255,51,51
Combo4 : 160,0,0
Combo5 : 255,255,0
Combo6 : 255,128,0
Combo7 : 0,0,128

[HitObjects]
325,177,10341,6,0,P|294:229|179:284,1,183.75
171,287,11027,6,0,P|231:283|296:290,1,105,12|0,0:1|0:0,0:0:0:0:
454,334,11370,1,2,0:0:0:0:
474,144,11541,1,2,0:0:0:0:
476,128,11627,1,2,0:0:0:0:
478,112,11713,5,8,0:0:0:0:
328,75,11884,1,2,0:0:0:0:
480,97,12056,1,2,0:0:0:0:
328,59,12227,1,2,0:0:0:0:
483,81,12398,85,2,0:0:0:0:
327,44,12570,1,2,0:0:0:0:
486,65,12741,1,2,0:0:0:0:
327,28,12913,1,2,0:0:0:0:
331,216,13084,6,0,P|300:263|241:306,1,105,8|2,0:0|0:0,0:0:0:0:
121,363,13427,2,0,P|151:315|161:245,1,105,0|2,0:0|0:0,0:0:0:0:
161,110,13770,2,0,P|163:54|171:-3,2,105,0|0|2,0:0|0:0|0:0,0:0:0:0:
161,268,14284,1,2,0:0:0:0:
170,255,14370,1,2,0:0:0:0:
179,242,14456,85,8,0:0:0:0:
251,232,14627,1,2,0:0:0:0:
323,222,14798,1,2,0:0:0:0:
444,306,14970,1,8,0:0:0:0:
372,316,15141,1,2,0:0:0:0:
300,326,15313,1,2,0:0:0:0:
395,212,15484,1,8,0:0:0:0:
385,140,15656,1,0,0:0:0:0:
375,68,15827,5,2,0:0:0:0:
375,68,15913,1,2,0:0:0:0:
375,68,15998,1,8,0:0:0:0:
395,212,16170,2,0,P|338:226|292:243,1,105,2|2,0:0|0:0,0:0:0:0:
280,248,16427,1,8,0:0:0:0:
265,255,16513,86,0,P|222:221|184:162,1,105,2|0,0:0|0:0,0:0:0:0:
128,20,16856,2,0,P|111:70|59:148,1,105,2|2,0:0|0:0,0:0:0:0:
76,128,17113,1,2,0:0:0:0:
67,140,17198,5,8,0:0:0:0:
113,301,17370,1,2,0:0:0:0:
67,140,17541,1,2,0:0:0:0:
113,301,17713,1,2,0:0:0:0:
244,199,17884,85,2,0:0:0:0:
75,221,18056,1,2,0:0:0:0:
244,199,18227,1,2,0:0:0:0:
75,221,18398,1,2,0:0:0:0:
364,275,18570,6,0,P|353:326|350:378,2,105,8|2|0,0:0|0:0|0:0,0:0:0:0:
207,295,19084,1,2,0:0:0:0:
277,153,19256,2,0,P|289:101|291:49,1,105
342,198,19598,1,2,0:0:0:0:
507,176,19770,1,2,0:0:0:0:
507,176,19856,1,2,0:0:0:0:
507,176,19941,86,0,P|495:234|494:299,1,105,8|2,0:0|0:0,0:0:0:0:
371,380,20284,1,2,0:0:0:0:
423,230,20456,1,8,0:0:0:0:
266,264,20627,2,0,P|228:301|201:346,1,105,2|2,0:0|0:0,0:0:0:0:
232,199,20970,2,0,P|253:138|258:81,1,105,8|0,0:0|0:0,0:0:0:0:
408,66,21313,5,2,0:0:0:0:
408,66,21398,1,2,0:0:0:0:
408,66,21484,1,8,0:0:0:0:
410,251,21656,1,8,0:0:0:0:
480,51,21827,1,0,0:0:0:0:
476,280,21998,86,0,P|434:320|384:319,1,105,2|0,0:0|0:0,0:0:0:0:
233,295,22341,2,0,P|171:294|125:304,1,105,2|2,0:0|0:0,0:0:0:0:
114,307,22598,1,2,0:0:0:0:
97,312,22684,6,0,P|95:259|86:207,2,105,8|2|2,0:0|0:0|0:0,0:0:0:0:
133,146,23198,2,0,P|181:55|274:10,1,210,8|2,0:3|0:0,0:0:0:0:
289,168,23713,2,0,P|297:207|336:278,1,105,8|0,0:0|0:0,0:0:0:0:
432,382,24056,1,8,0:3:0:0:
199,379,24227,86,0,P|213:321|205:274,1,105,2|0,0:0|0:0,0:0:0:0:
157,2,24570,2,0,P|151:107|174:208,1,210,2|0,0:0|0:0,0:0:0:0:
283,94,25084,2,0,P|338:60|384:41,1,105,2|0,0:0|0:0,0:0:0:0:
321,192,25427,6,0,P|314:242|341:287,1,105,8|0,0:0|0:0,0:0:0:0:
492,334,25770,1,2,0:0:0:0:
340,376,25941,1,8,0:0:0:0:
386,228,26113,2,0,P|402:172|410:110,1,105,0|2,0:0|0:0,0:0:0:0:
411,115,26370,1,2,0:0:0:0:
412,104,26456,1,8,0:0:0:0:
280,17,26627,2,0,P|264:73|256:135,1,105,0|2,0:0|0:0,0:0:0:0:
281,292,26970,2,0,P|262:243|256:192,2,105,8|2|0,0:0|0:0|0:0,0:0:0:0:
114,189,27484,86,0,P|56:174|-3:169,1,105,2|0,0:0|0:0,0:0:0:0:
32,325,27827,2,0,P|90:340|149:345,1,105,2|0,0:0|0:0,0:0:0:0:
291,325,28170,2,0,P|310:267|351:216,1,105,8|0,0:0|0:0,0:0:0:0:
477,169,28513,1,2,0:0:0:0:
320,159,28684,2,0,P|233:129|176:85,1,157.5,8|0,0:0|0:0,0:0:0:0:
170,78,29027,1,2,0:0:0:0:
244,215,29198,2,0,P|262:268|275:341,1,105,8|0,0:0|0:0,0:0:0:0:
417,376,29541,1,2,0:0:0:0:
429,218,29713,6,0,L|438:103,1,105,8|2,0:0|0:0,0:0:0:0:
287,63,30056,2,0,L|278:167,2,105,8|0|0,0:0|0:0|0:0,0:0:0:0:
216,207,30570,86,0,P|184:264|173:327,1,105,2|0,0:0|0:0,0:0:0:0:
142,147,30913,2,0,P|114:82|45:20,1,157.5,8|0,0:0|0:0,0:0:0:0:
37,16,31256,1,2,0:0:0:0:
72,170,31427,1,8,0:0:0:0:
188,63,31598,5,8,0:0:0:0:
207,219,31770,1,8,0:0:0:0:
208,234,31856,1,8,0:0:0:0:
210,249,31941,1,8,0:0:0:0:
273,101,32113,1,8,0:0:0:0:
311,253,32285,1,8,0:0:0:0:
314,268,32371,1,8,0:0:0:0:
318,283,32456,1,8,0:0:0:0:
361,128,32627,1,8,0:0:0:0:
418,274,32799,1,0,0:0:0:0:
279,351,32970,6,0,P|227:366|170:368,1,105,12|0,0:1|0:0,0:0:0:0:
26,319,33647,1,8,0:0:0:0:
50,294,33817,1,0,0:0:0:0:
71,266,33986,1,0,0:0:0:0:
88,235,34156,1,0,0:0:0:0:
166,98,34325,6,0,P|160:151|160:203,1,105,2|0,0:0|0:0,0:0:0:0:
236,76,35003,1,8,0:0:0:0:
270,69,35173,1,0,0:0:0:0:
304,60,35342,1,0,0:0:0:0:
337,49,35512,1,0,0:0:0:0:
318,205,35681,86,0,P|310:254|309:303,1,78.75,2|0,0:0|0:0,0:0:0:0:
308,302,36020,2,0,P|263:283|250:281,1,52.5
211,133,36359,1,8,0:0:0:0:
222,212,36529,1,0,0:0:0:0:
180,279,36698,1,0,0:0:0:0:
259,282,36868,1,0,0:0:0:0:
104,296,37037,5,2,0:0:0:0:
70,141,37376,2,0,L|72:194,1,52.5
111,41,37715,2,0,P|122:64|130:89,2,52.5,8|0|0,0:0|0:0|0:0,0:0:0:0:
148,195,38393,86,0,P|158:243|176:300,1,105,2|0,0:0|0:0,0:0:0:0:
322,352,39071,2,0,P|328:320|349:267,1,78.75,8|0,0:0|0:0,0:0:0:0:
354,259,39410,2,0,P|324:270|296:274,1,52.5
146,264,39749,5,2,0:0:0:0:
113,108,40088,2,0,P|125:132|130:158,1,52.5
197,13,40427,2,0,P|188:38|175:61,1,52.5,8|0,0:0|0:0,0:0:0:0:
245,98,40766,2,0,P|271:112|289:128,1,52.5
443,99,41105,85,2,0:0:0:0:
434,256,41444,2,0,L|431:308,1,52.5
282,361,41783,2,0,L|277:304,1,52.5,8|0,0:0|0:0,0:0:0:0:
199,321,42122,2,0,P|169:336|151:353,1,52.5
1,315,42461,6,0,P|33:291|63:227,1,105,2|0,0:0|0:0,0:0:0:0:
54,77,43139,1,8,0:0:0:0:
58,154,43308,38,0,P|99:139|125:104,1,87.5
129,84,43817,38,0,P|145:121|194:177,1,105,12|0,0:1|0:0,0:0:0:0:
322,90,44495,1,8,0:0:0:0:
356,86,44664,1,0,0:0:0:0:
387,70,44834,1,0,0:0:0:0:
408,43,45003,1,0,0:0:0:0:
315,168,45173,6,0,P|309:227|296:273,1,105,2|0,0:0|0:0,0:0:0:0:
171,366,45851,1,8,0:0:0:0:
202,350,46020,1,0,0:0:0:0:
236,343,46190,1,0,0:0:0:0:
271,344,46359,1,0,0:0:0:0:
424,382,46529,85,2,0:0:0:0:
465,229,46868,2,0,P|461:255|459:281,1,52.5
423,126,47207,2,0,L|469:149,2,52.5,8|0|0,0:0|0:0|0:0,0:0:0:0:
392,199,47715,1,0,0:0:0:0:
347,48,47885,6,0,L|335:131,1,78.75,2|0,0:0|0:0,0:0:0:0:
333,145,48224,2,0,P|320:123|291:104,1,52.5
317,263,48563,2,0,L|324:320,1,52.5,8|0,0:0|0:0,0:0:0:0:
257,358,48902,2,0,L|237:281,1,78.75
233,262,49241,86,0,P|214:285|138:320,1,105,2|0,0:0|0:0,0:0:0:0:
231,184,49919,2,0,P|245:146|249:108,1,78.75,8|0,0:0|0:0,0:0:0:0:
250,88,50258,2,0,P|294:103|310:105,1,52.5
457,112,50597,5,2,0:0:0:0:
487,266,50936,2,0,P|484:227|476:205,1,52.5
381,91,51275,2,0,P|378:62|380:32,1,52.5,8|0,0:0|0:0,0:0:0:0:
304,65,51614,2,0,P|273:80|223:88,1,78.75
210,90,51953,85,2,0:0:0:0:
329,149,52292,2,0,P|321:174|320:201,1,52.5
325,358,52631,2,0,P|332:333|334:306,1,52.5,8|0,0:0|0:0,0:0:0:0:
384,245,52970,2,0,P|402:271|424:290,1,52.5
405,129,53308,6,0,P|377:85|322:70,1,105,2|0,0:0|0:0,0:0:0:0:
481,114,53986,53,8,0:0:0:0:
465,271,54156,1,8,0:0:0:0:
481,114,54325,1,8,0:0:0:0:
465,271,54495,1,8,0:0:0:0:
392,243,54664,70,0,P|356:209|331:153,1,105,2|2,0:0|0:0,0:0:0:0:
359,4,55349,2,0,P|341:22|331:46,2,52.5
407,67,55864,1,2,0:0:0:0:
255,25,56035,1,8,0:3:0:0:
274,101,56206,1,2,0:0:0:0:
198,78,56378,2,0,P|146:76|102:107,1,105
111,262,57064,1,0,0:0:0:0:
260,212,57406,85,2,0:0:0:0:
229,366,57749,1,2,0:0:0:0:
306,351,57921,2,0,L|388:335,1,78.75
402,332,58264,2,0,P|401:305|409:280,1,52.5
478,316,58606,1,2,0:0:0:0:
334,251,58778,5,8,0:3:0:0:
462,159,58949,1,8,0:3:0:0:
398,205,59121,1,2,0:0:0:0:
417,48,59292,2,0,L|410:101,1,52.5,8|0,0:3|0:0,0:0:0:0:
336,70,59635,2,0,L|305:57,2,26.25
333,148,59978,1,2,0:0:0:0:
330,226,60149,86,0,L|224:247,1,105,2|2,0:0|0:0,0:0:0:0:
149,262,60664,1,0,0:0:0:0:
201,320,60835,2,0,P|202:346|195:371,2,52.5
124,337,61349,1,2,0:0:0:0:
174,187,61521,2,0,P|184:156|186:136,1,52.5,8|2,0:3|0:0,0:0:0:0:
260,162,61864,2,0,P|274:210|287:274,1,105
434,310,62549,2,0,L|438:373,1,52.5
510,333,62892,6,0,L|513:218,1,105,2|2,0:0|0:0,0:0:0:0:
476,157,63406,2,0,L|473:98,1,52.5
396,84,63749,2,0,L|393:143,1,52.5
392,215,64092,1,2,0:0:0:0:
322,74,64264,86,0,L|324:14,2,52.5,8|0|2,0:3|0:0|0:0,0:0:0:0:
245,209,64778,2,0,L|245:261,2,52.5,8|0|2,0:3|0:0|0:0,0:0:0:0:
244,50,65292,1,8,0:3:0:0:
321,187,65635,6,0,L|320:303,1,105,2|2,0:0|0:0,0:0:0:0:
320,371,66149,1,0,0:0:0:0:
243,351,66321,2,0,L|245:290,2,52.5
169,379,66835,1,2,0:0:0:0:
219,229,67006,2,0,P|219:194|211:171,1,52.5,8|2,0:3|0:0,0:0:0:0:
173,112,67349,2,0,P|208:80|236:20,1,105
302,69,67864,2,0,P|343:106|375:153,1,105
400,219,68378,85,2,0:0:0:0:
288,330,68721,2,0,P|303:299|319:284,2,52.5,2|0|0,0:0|0:0|0:0,0:0:0:0:
217,293,69235,2,0,P|178:308|143:336,1,78.75
137,346,69578,1,2,0:0:0:0:
68,206,69749,5,8,0:3:0:0:
224,215,69921,1,8,0:3:0:0:
189,144,70092,1,2,0:0:0:0:
341,177,70264,2,0,P|333:210|333:232,1,52.5,8|0,0:3|0:0,0:0:0:0:
346,305,70606,2,0,P|351:319|363:333,2,26.25
292,362,70949,1,2,0:0:0:0:
216,339,71121,86,0,P|165:335|105:345,1,105,2|2,0:0|0:0,0:0:0:0:
102,185,71806,2,0,L|105:247,2,52.5
181,186,72321,1,2,0:0:0:0:
197,29,72492,2,0,L|192:83,1,52.5,8|2,0:3|0:0,0:0:0:0:
244,140,72835,1,0,0:0:0:0:
295,198,73006,2,0,L|302:286,1,78.75
304,296,73349,2,0,P|320:272|344:258,1,52.5
497,247,73864,6,0,P|471:208|459:143,1,105,2|2,0:0|0:0,0:0:0:0:
341,46,74549,1,0,0:0:0:0:
294,108,74721,2,0,P|263:133|225:139,1,78.75
206,136,75064,53,2,0:0:0:0:
185,294,75235,1,8,0:0:0:0:
232,61,75578,5,2,0:0:0:0:
354,206,75749,1,8,0:0:0:0:
319,39,76092,53,2,0:0:0:0:
300,264,76264,2,0,L|291:368,1,105,8|0,0:0|0:0,0:0:0:0:
135,382,76606,6,0,L|126:277,2,105,12|0|2,0:1|0:0|0:0,0:0:0:0:
162,170,77121,1,2,0:0:0:0:
164,154,77206,1,2,0:0:0:0:
166,138,77292,85,8,0:0:0:0:
315,166,77464,1,2,0:0:0:0:
168,122,77635,1,2,0:0:0:0:
320,151,77806,1,2,0:0:0:0:
170,106,77978,5,2,0:0:0:0:
325,135,78149,1,2,0:0:0:0:
172,90,78321,1,2,0:0:0:0:
330,120,78492,1,2,0:0:0:0:
174,74,78664,86,0,P|197:108|207:139,1,52.5,8|0,0:0|0:0,0:0:0:0:
204,133,78835,2,0,P|127:148|90:174,1,105,2|0,0:0|0:0,0:0:0:0:
34,302,79178,2,0,P|31:249|40:198,2,105,2|0|0,0:0|0:0|0:0,0:0:0:0:
174,378,79692,1,2,0:0:0:0:
244,236,79864,1,2,0:0:0:0:
244,236,79949,1,2,0:0:0:0:
244,236,80035,5,8,0:0:0:0:
322,248,80206,1,2,0:0:0:0:
399,260,80378,1,2,0:0:0:0:
343,114,80549,1,8,3:0:0:0:
294,175,80721,1,2,0:0:0:0:
244,236,80892,1,2,0:0:0:0:
399,260,81064,1,8,0:0:0:0:
372,187,81235,1,0,3:0:0:0:
343,114,81406,85,2,0:0:0:0:
343,114,81492,1,2,0:0:0:0:
343,114,81578,1,8,0:0:0:0:
244,236,81749,2,0,P|222:290|222:349,1,105,2|2,0:0|0:0,0:0:0:0:
224,351,82006,1,8,0:0:0:0:
229,365,82092,6,0,P|202:319|152:278,1,105,2|0,0:0|0:0,0:0:0:0:
15,228,82435,2,0,P|62:199|99:143,1,105,2|2,0:0|0:0,0:0:0:0:
99,146,82692,1,2,0:0:0:0:
105,132,82778,85,8,0:0:0:0:
271,179,82949,1,2,0:0:0:0:
153,66,83121,1,2,0:0:0:0:
258,185,83292,1,2,0:0:0:0:
228,33,83464,5,2,0:0:0:0:
245,190,83635,1,2,0:0:0:0:
308,42,83806,1,2,0:0:0:0:
232,197,83978,1,2,0:0:0:0:
472,106,84149,86,0,P|420:107|372:88,2,105,8|2|0,0:0|0:0|0:0,0:0:0:0:
490,263,84664,1,2,0:0:0:0:
364,168,84835,2,0,P|350:217|308:248,1,105
150,252,85178,1,2,0:0:0:0:
289,170,85349,1,2,0:0:0:0:
289,170,85435,1,2,0:0:0:0:
288,169,85521,6,0,P|254:131|243:80,1,105,8|2,0:0|0:0,0:0:0:0:
400,58,85864,1,2,0:0:0:0:
254,4,86035,1,8,0:0:0:0:
172,135,86206,86,0,P|140:168|69:203,1,105,2|2,0:0|0:0,0:0:0:0:
7,333,86549,2,0,P|45:296|91:272,1,105,8|0,0:0|0:0,0:0:0:0:
254,281,86892,5,2,0:0:0:0:
254,281,86978,1,2,0:0:0:0:
254,281,87064,1,8,0:0:0:0:
88,196,87235,1,8,0:0:0:0:
98,383,87406,1,0,0:0:0:0:
115,125,87578,86,0,L|122:19,1,105,2|0,0:0|0:0,0:0:0:0:
168,244,87921,2,0,L|188:347,1,105,2|2,0:0|0:0,0:0:0:0:
192,363,88178,1,2,0:0:0:0:
196,380,88264,2,0,P|207:330|245:291,1,105,8|2,0:0|0:0,0:0:0:0:
203,140,88606,1,2,0:0:0:0:
343,67,88778,2,0,P|360:169|308:257,1,210,8|2,0:0|0:0,0:0:0:0:
438,166,89292,2,0,P|437:114|425:63,1,105,8|0,0:0|0:0,0:0:0:0:
507,198,89635,1,8,0:0:0:0:
267,144,89806,6,0,P|206:132|105:120,1,157.5,2|0,0:0|0:0,0:0:0:0:
95,120,90149,2,0,P|132:146|204:308,1,210,2|0,0:0|0:0,0:0:0:0:
267,143,90664,2,0,P|295:100|334:65,1,105,2|0,0:0|0:0,0:0:0:0:
290,216,91006,86,0,P|288:281|323:376,1,157.5,8|0,0:0|0:0,0:0:0:0:
326,380,91349,1,2,0:0:0:0:
210,272,91521,1,8,0:0:0:0:
367,274,91692,2,0,P|415:280|479:310,1,105,0|2,0:0|0:0,0:0:0:0:
480,309,91949,1,2,0:0:0:0:
492,319,92035,2,0,P|478:245|480:201,1,105,8|0,0:0|0:0,0:0:0:0:
497,58,92378,1,2,0:0:0:0:
408,188,92549,2,0,P|360:175|291:165,2,105,8|2|0,0:0|0:0|0:0,0:0:0:0:
206,246,93064,6,0,P|155:256|107:277,1,105,2|0,0:0|0:0,0:0:0:0:
268,293,93406,2,0,P|325:303|384:308,1,105,2|0,0:0|0:0,0:0:0:0:
409,147,93749,2,0,P|424:198|423:250,1,105,8|0,0:0|0:0,0:0:0:0:
464,97,94092,1,2,0:0:0:0:
349,205,94264,2,0,P|295:119|195:95,1,210,8|2,0:0|0:0,0:0:0:0:
350,68,94778,2,0,P|424:52|503:18,1,157.5,8|0,0:0|0:0,0:0:0:0:
512,10,95121,1,2,0:0:0:0:
461,158,95292,2,0,P|455:207|455:265,2,105,8|2|0,0:0|0:0|0:0,0:0:0:0:
388,298,95806,86,0,P|362:343|327:383,1,105
176,337,96149,2,0,P|122:329|56:333,1,105,2|0,0:0|0:0,0:0:0:0:
226,280,96492,2,0,P|303:258|385:218,1,157.5,8|0,0:0|0:0,0:0:0:0:
386,217,96835,1,2,0:0:0:0:
229,205,97006,1,8,0:0:0:0:
319,75,97178,5,8,0:0:0:0:
300,231,97349,1,8,0:0:0:0:
298,246,97435,1,8,0:0:0:0:
296,261,97521,1,8,0:0:0:0:
214,124,97692,1,8,0:0:0:0:
226,280,97864,1,8,0:0:0:0:
226,297,97949,1,8,0:0:0:0:
227,312,98035,1,8,0:0:0:0:
76,356,98206,1,8,0:0:0:0:
231,384,98378,1,0,0:0:0:0:
105,290,98549,6,0,P|116:238|116:184,1,105,12|0,0:1|0:0,0:0:0:0:
143,31,99226,1,8,0:0:0:0:
160,61,99396,1,0,0:0:0:0:
171,94,99565,1,0,0:0:0:0:
173,129,99735,1,0,0:0:0:0:
318,193,99904,6,0,P|377:203|427:204,1,105,2|0,0:0|0:0,0:0:0:0:
273,257,100582,1,8,0:0:0:0:
239,267,100752,1,0,0:0:0:0:
208,282,100921,1,0,0:0:0:0:
178,301,101091,1,0,0:0:0:0:
336,303,101260,85,2,0:0:0:0:
493,312,101599,2,0,P|504:350|511:368,1,52.5
351,380,101938,2,0,L|298:382,2,52.5,8|0|0,0:0|0:0|0:0,0:0:0:0:
410,327,102447,1,0,0:0:0:0:
252,318,102616,5,2,0:0:0:0:
94,326,102955,2,0,P|97:361|101:381,1,52.5
91,220,103294,2,0,P|92:186|92:165,1,52.5,8|0,0:0|0:0,0:0:0:0:
166,141,103633,2,0,L|171:195,1,52.5
175,350,103972,86,0,P|183:309|224:250,1,105,2|0,0:0|0:0,0:0:0:0:
374,246,104650,2,0,P|380:295|389:334,1,78.75,8|0,0:0|0:0,0:0:0:0:
392,341,104989,2,0,P|417:307|453:281,1,78.75
463,275,105328,5,2,0:0:0:0:
308,303,105667,2,0,P|310:330|311:363,1,52.5
262,204,106006,2,0,P|249:241|246:257,1,52.5,8|0,0:0|0:0,0:0:0:0:
233,331,106345,2,0,P|207:358|162:371,1,78.75
148,370,106684,85,2,0:0:0:0:
142,212,107023,2,0,P|137:174|129:154,1,52.5
89,8,107362,2,0,P|90:48|125:78,1,78.75,8|0,0:0|0:0,0:0:0:0:
134,82,107701,2,0,P|162:71|188:67,1,52.5
336,108,108040,6,0,P|260:126|228:128,1,105,2|0,0:0|0:0,0:0:0:0:
230,285,108718,1,8,0:0:0:0:
233,206,108887,38,0,P|280:224|303:256,1,87.5
307,272,109396,38,0,P|301:230|254:181,1,105,12|0,0:1|0:0,0:0:0:0:
105,152,110074,1,8,0:0:0:0:
139,148,110243,1,0,0:0:0:0:
173,140,110413,1,0,0:0:0:0:
206,129,110582,1,0,0:0:0:0:
339,43,110752,6,0,P|337:89|347:155,1,105,2|0,0:0|0:0,0:0:0:0:
422,285,111430,1,8,0:0:0:0:
423,250,111599,1,0,0:0:0:0:
422,215,111769,1,0,0:0:0:0:
417,180,111938,1,0,0:0:0:0:
357,327,112108,85,2,0:0:0:0:
342,170,112447,2,0,P|313:175|289:181,1,52.5
280,338,112786,2,0,P|251:341|226:341,1,52.5,8|0,0:0|0:0,0:0:0:0:
194,269,113125,1,0,0:0:0:0:
149,333,113294,1,0,0:0:0:0:
141,175,113464,5,2,0:0:0:0:
157,18,113803,2,0,L|153:72,1,52.5
212,217,114142,2,0,L|229:159,2,52.5,8|0|0,0:0|0:0|0:0,0:0:0:0:
153,70,114820,86,0,P|201:70|254:96,1,105,2|0,0:0|0:0,0:0:0:0:
306,242,115498,2,0,P|347:242|393:226,1,78.75,8|0,0:0|0:0,0:0:0:0:
399,220,115837,2,0,P|371:192|355:153,1,78.75
353,137,116176,5,2,0:0:0:0:
477,234,116515,2,0,L|470:286,1,52.5
345,381,116854,2,0,L|334:297,1,78.75,8|0,0:0|0:0,0:0:0:0:
331,283,117193,2,0,P|291:301|248:306,1,78.75
237,305,117532,85,2,0:0:0:0:
253,148,117871,2,0,L|247:201,1,52.5
162,332,118210,2,0,L|158:277,1,52.5,8|0,0:0|0:0,0:0:0:0:
84,250,118549,2,0,L|77:304,1,52.5
66,144,118887,6,0,L|63:37,1,105,2|0,0:0|0:0,0:0:0:0:
220,24,119565,69,8,0:0:0:0:
202,180,119735,1,8,0:0:0:0:
141,34,119904,1,8,0:0:0:0:
287,92,120074,1,8,0:0:0:0:
279,168,120242,54,0,P|275:221|278:282,1,105,2|2,0:0|0:0,0:0:0:0:
403,366,120927,1,0,0:0:0:0:
415,288,121099,2,0,P|417:261|417:225,1,52.5
408,157,121442,1,2,0:0:0:0:
336,296,121613,86,0,P|312:311|278:314,1,52.5,8|2,0:0|0:0,0:0:0:0:
286,235,121956,2,0,P|271:191|229:141,1,105
211,301,122642,2,0,P|181:327|160:366,1,78.75
156,379,122984,6,0,P|149:334|118:277,1,105,2|2,0:0|0:0,0:0:0:0:
57,234,123499,2,0,P|69:202|71:179,1,52.5
67,105,123842,2,0,P|65:78|72:53,1,52.5
143,87,124184,1,2,0:0:0:0:
295,46,124356,85,8,0:0:0:0:
254,198,124527,1,8,0:0:0:0:
330,180,124699,1,2,0:0:0:0:
349,336,124870,2,0,P|343:310|329:288,1,52.5,8|0,0:0|0:0,0:0:0:0:
270,340,125213,2,0,P|273:352|275:365,2,26.25
192,327,125556,1,2,0:0:0:0:
114,337,125727,6,0,P|111:294|95:229,1,105,2|2,0:0|0:0,0:0:0:0:
59,163,126242,1,0,0:0:0:0:
102,96,126413,2,0,P|114:71|120:40,2,52.5
137,167,126927,1,2,0:0:0:0:
150,323,127099,86,0,P|151:361|149:379,1,52.5,8|2,0:0|0:0,0:0:0:0:
227,364,127442,2,0,P|233:308|249:254,1,105
393,313,128127,2,0,P|392:339|400:364,1,52.5
471,329,128470,2,0,P|465:278|429:241,1,105,2|2,0:0|0:0,0:0:0:0:
409,165,128984,2,0,P|409:136|431:88,1,78.75
442,77,129327,2,0,P|416:81|356:71,1,78.75
346,66,129670,1,2,0:0:0:0:
357,223,129842,6,0,P|359:249|361:275,1,52.5,8|0,0:0|0:0,0:0:0:0:
343,351,130184,1,2,0:0:0:0:
280,205,130356,2,0,P|271:181|257:159,1,52.5,8|0,0:0|0:0,0:0:0:0:
269,81,130699,1,2,0:0:0:0:
205,225,130870,1,8,0:0:0:0:
48,206,131213,86,0,P|51:239|49:314,1,105,2|2,0:0|0:0,0:0:0:0:
103,367,131727,1,0,0:0:0:0:
179,348,131899,2,0,P|183:320|191:290,2,52.5
251,380,132413,1,2,0:0:0:0:
220,225,132584,5,8,0:0:0:0:
297,208,132756,1,2,0:0:0:0:
300,129,132927,2,0,L|302:25,1,105
380,40,133442,2,0,L|387:155,1,105
393,223,133956,85,2,0:0:0:0:
497,103,134299,1,2,0:0:0:0:
496,181,134470,2,0,P|493:232|486:266,1,78.75
484,278,134813,2,0,P|461:286|431:306,1,52.5
381,356,135156,1,2,0:0:0:0:
372,198,135327,5,8,0:0:0:0:
222,246,135499,1,8,0:0:0:0:
211,323,135670,1,2,0:0:0:0:
54,301,135842,2,0,P|60:257|60:246,1,52.5,8|0,0:0|0:0,0:0:0:0:
59,170,136184,2,0,P|59:145|60:137,2,26.25
128,207,136527,1,2,0:0:0:0:
176,144,136699,86,0,P|204:186|200:238,1,105,2|2,0:0|0:0,0:0:0:0:
358,245,137384,2,0,L|366:302,1,52.5
380,374,137727,1,0,0:0:0:0:
305,347,137899,1,2,0:0:0:0:
436,259,138070,6,0,L|436:201,2,52.5,8|2|0,0:0|0:0|0:0,0:0:0:0:
358,245,138584,2,0,P|352:197|342:166,1,78.75
333,150,138927,2,0,P|303:173|281:182,1,52.5
246,330,139442,86,0,P|214:317|140:304,1,105,2|2,0:0|0:0,0:0:0:0:
40,186,140127,1,0,0:0:0:0:
55,263,140299,2,0,P|90:245|113:213,1,78.75
118,194,140642,69,2,0:0:0:0:
74,339,140813,1,8,0:0:0:0:
230,360,141156,5,2,0:0:0:0:
217,164,141327,1,8,0:0:0:0:
370,126,141670,53,2,0:0:0:0:
365,381,141842,1,8,0:0:0:0:
217,185,164127,69,10,0:0:0:0:
217,185,164470,1,10,0:0:0:0:
217,185,164813,1,10,0:0:0:0:
217,185,165156,1,10,0:0:0:0:
217,185,165499,1,10,0:0:0:0:
217,185,165842,1,10,0:0:0:0:
217,185,166184,1,10,0:0:0:0:
295,199,166356,1,0,0:0:0:0:
217,185,166527,1,10,0:0:0:0:
295,199,166699,1,0,0:0:0:0:
339,133,166870,85,10,0:0:0:0:
339,133,167213,1,10,0:0:0:0:
339,133,167556,1,10,0:0:0:0:
339,133,167899,1,10,0:0:0:0:
339,133,168242,1,10,0:0:0:0:
339,133,168584,1,10,0:0:0:0:
339,133,168927,1,10,0:0:0:0:
339,133,169270,1,10,0:0:0:0:
182,114,169442,1,0,0:0:0:0:
244,259,169613,69,10,0:0:0:0:
246,278,169784,1,8,0:0:0:0:
262,253,169956,1,10,0:0:0:0:
256,279,170127,1,8,0:0:0:0:
280,245,170299,1,10,0:0:0:0:
267,280,170470,1,8,0:0:0:0:
298,236,170642,1,10,0:0:0:0:
278,282,170813,1,8,0:0:0:0:
314,224,170984,5,10,0:0:0:0:
289,283,171156,1,8,0:0:0:0:
329,212,171327,1,10,0:0:0:0:
300,285,171499,1,8,0:0:0:0:
342,197,171670,1,10,0:0:0:0:
311,288,171842,1,8,0:0:0:0:
354,182,172013,1,10,0:0:0:0:
322,290,172184,1,8,0:0:0:0:
364,165,172356,53,10,0:0:0:0:
367,184,172442,1,8,0:0:0:0:
368,204,172527,1,8,0:0:0:0:
367,223,172613,1,8,0:0:0:0:
363,243,172699,1,10,0:0:0:0:
356,268,172784,1,8,0:0:0:0:
345,292,172870,1,8,0:0:0:0:
331,314,172956,1,8,0:0:0:0:
313,333,173042,1,10,0:0:0:0:
288,354,173127,1,8,0:0:0:0:
259,370,173213,1,8,0:0:0:0:
228,381,173299,1,8,0:0:0:0:
196,385,173384,1,10,0:0:0:0:
157,383,173470,5,8,0:0:0:0:
169,346,173556,1,8,0:0:0:0:
178,308,173642,1,8,0:0:0:0:
182,269,173727,1,10,0:0:0:0:
182,229,173813,85,8,0:0:0:0:
155,267,173899,1,8,0:0:0:0:
124,300,173984,1,8,0:0:0:0:
88,328,174070,1,8,0:0:0:0:
8,84,174242,5,8,0:0:0:0:
223,162,174413,1,8,0:0:0:0:
250,88,174499,1,8,0:0:0:0:
261,10,174584,1,8,0:0:0:0:
282,214,174756,70,0,P|281:245|283:270,1,52.5
286,292,175099,38,0,P|341:296|380:332,1,105,12|0,0:1|0:0,0:0:0:0:
349,172,175776,1,8,0:0:0:0:
343,137,175946,1,0,0:0:0:0:
342,102,176115,1,0,0:0:0:0:
345,67,176285,1,0,0:0:0:0:
187,70,176454,6,0,P|142:83|93:114,1,105,2|0,0:0|0:0,0:0:0:0:
13,249,177132,1,8,0:0:0:0:
45,237,177302,1,0,0:0:0:0:
74,218,177471,1,0,0:0:0:0:
98,192,177641,1,0,0:0:0:0:
255,173,177810,85,2,0:0:0:0:
274,329,178149,2,0,P|304:338|327:336,1,52.5
333,179,178488,1,8,0:0:0:0:
288,244,178658,1,0,0:0:0:0:
209,238,178827,1,0,0:0:0:0:
177,165,178997,1,0,0:0:0:0:
120,311,179166,5,2,0:0:0:0:
21,189,179505,2,0,P|29:164|35:139,1,52.5
39,297,179844,2,0,L|40:354,2,52.5,8|0|0,0:0|0:0|0:0,0:0:0:0:
112,156,180522,86,0,P|106:105|70:68,1,105,2|0,0:0|0:0,0:0:0:0:
189,171,181200,2,0,P|231:168|269:155,1,78.75,8|0,0:0|0:0,0:0:0:0:
283,147,181539,2,0,P|273:181|272:233,1,78.75
274,243,181878,5,2,0:0:0:0:
421,297,182217,2,0,L|418:349,1,52.5
353,205,182556,2,0,L|354:260,1,52.5,8|0,0:0|0:0,0:0:0:0:
325,331,182895,2,0,P|276:324|241:339,1,78.75
233,345,183234,85,2,0:0:0:0:
79,315,183573,2,0,P|87:296|95:259,1,52.5
27,121,183912,2,0,P|25:147|33:171,1,52.5,8|0,0:0|0:0,0:0:0:0:
105,138,184251,2,0,P|107:111|99:87,1,52.5
253,122,184590,6,0,P|244:170|244:236,1,105,2|0,0:0|0:0,0:0:0:0:
407,268,185268,1,8,0:0:0:0:
331,287,185437,38,0,P|320:222|320:194,1,87.5
321,180,185946,38,0,P|356:193|426:188,1,105,12|0,0:1|0:0,0:0:0:0:
433,31,186624,1,8,0:0:0:0:
400,18,186793,1,0,0:0:0:0:
365,15,186963,1,0,0:0:0:0:
331,21,187132,1,0,0:0:0:0:
321,180,187302,6,0,P|278:221|235:233,1,105,2|0,0:0|0:0,0:0:0:0:
79,210,187980,1,8,0:0:0:0:
74,175,188149,1,0,0:0:0:0:
60,143,188319,1,0,0:0:0:0:
36,117,188488,1,0,0:0:0:0:
157,220,188658,85,2,0:0:0:0:
176,377,188997,2,0,L|235:369,1,52.5
384,352,189336,1,8,0:0:0:0:
389,273,189505,1,0,0:0:0:0:
310,268,189675,1,0,0:0:0:0:
305,347,189844,1,0,0:0:0:0:
315,189,190014,5,2,0:0:0:0:
157,178,190353,2,0,L|104:173,1,52.5
94,331,190692,1,8,0:0:0:0:
99,252,190861,1,0,0:0:0:0:
178,257,191031,2,0,L|266:264,1,78.75
275,264,191370,86,0,P|254:235|238:161,1,105,2|0,0:0|0:0,0:0:0:0:
296,21,192048,2,0,P|300:65|300:110,1,78.75,8|0,0:0|0:0,0:0:0:0:
300,119,192387,2,0,P|340:107|375:79,1,78.75
383,71,192726,5,2,0:0:0:0:
381,175,193065,2,0,L|381:228,1,52.5
412,382,193404,2,0,L|412:329,1,52.5,8|0,0:0|0:0,0:0:0:0:
341,296,193743,1,0,0:0:0:0:
183,305,194082,54,0,L|184:363,1,52.5,2|0,0:0|0:0,0:0:0:0:
98,320,194251,2,0,L|91:374,1,52.5,2|0,0:0|0:0,0:0:0:0:
82,181,194421,2,0,L|74:71,1,105,8|0,0:0|0:0,0:0:0:0:
231,53,194760,2,0,L|223:162,1,105,8|0,0:0|0:0,0:0:0:0:
265,328,195099,1,2,0:0:0:0:
269,342,195183,1,2,0:0:0:0:
274,356,195268,6,0,L|269:231,1,105,8|2,0:0|0:0,0:0:0:0:
429,273,195607,1,8,0:0:0:0:
437,35,195776,1,8,0:0:0:0:
358,29,195946,2,0,L|355:93,1,52.5,2|0,0:0|0:0,0:0:0:0:
347,336,196115,85,8,0:0:0:0:
277,87,196285,1,8,0:0:0:0:
347,336,196454,1,8,0:0:0:0:
277,87,196624,1,8,0:0:0:0:
262,356,196793,38,0,P|192:358|125:346,1,131.25,14|0,0:1|0:0,0:0:0:0:
55,164,197132,2,0,P|152:250|280:254,1,262.5,8|0,0:0|0:0,0:0:0:0:
355,125,197641,1,2,0:0:0:0:
494,263,197810,2,0,P|442:266|359:296,1,131.25,8|0,0:0|0:0,0:0:0:0:
233,227,198149,54,0,P|204:170|208:74,1,131.25,2|0,0:0|0:0,0:0:0:0:
292,278,198488,2,0,P|255:329|164:356,2,131.25,8|0|0,0:0|0:0|0:0,0:0:0:0:
412,368,198997,1,2,0:0:0:0:
430,172,199166,2,0,P|421:121|360:47,1,131.25,8|0,0:0|0:0,0:0:0:0:
235,7,199505,38,0,P|244:87|224:153,1,131.25,2|0,0:0|0:0,0:0:0:0:
145,320,199844,2,0,P|152:239|186:179,1,131.25,8|0,3:0|0:0,0:0:0:0:
306,264,200183,1,0,0:0:0:0:
231,135,200353,1,2,0:0:0:0:
257,329,200522,1,8,0:0:0:0:
296,184,200692,1,0,0:0:0:0:
440,219,200861,54,0,P|429:278|379:357,1,131.25,2|0,0:0|0:0,0:0:0:0:
207,236,201200,2,0,P|141:226|55:230,1,131.25,8|0,0:0|0:0,0:0:0:0:
8,95,201539,1,0,0:0:0:0:
0,240,201709,1,2,0:0:0:0:
81,63,201878,2,0,P|126:52|219:49,1,131.25,8|0,0:0|0:0,0:0:0:0:
318,158,202217,38,0,P|311:230|315:296,1,131.25,2|0,0:0|0:0,0:0:0:0:
498,358,202556,2,0,P|508:247|493:76,1,262.5,8|0,0:0|0:0,0:0:0:0:
428,228,203065,1,2,0:0:0:0:
445,34,203234,2,0,P|387:55|297:61,1,131.25,8|0,0:0|0:0,0:0:0:0:
172,32,203573,54,0,P|149:78|126:164,1,131.25,2|0,0:0|0:0,0:0:0:0:
156,365,203912,2,0,P|137:309|128:230,2,131.25,8|0|0,0:0|0:0|0:0,0:0:0:0:
206,221,204421,1,2,0:0:0:0:
372,249,204590,2,0,P|425:269|497:316,1,131.25,8|0,0:0|0:0,0:0:0:0:
416,180,204929,38,0,P|400:116|399:50,1,131.25,2|0,0:0|0:0,0:0:0:0:
207,2,205268,2,0,P|202:132|227:261,1,262.5,8|0,0:0|0:0,0:0:0:0:
307,380,205776,1,2,0:0:0:0:
144,268,205946,2,0,P|84:240|22:220,1,131.25,8|0,0:0|0:0,0:0:0:0:
0,73,206285,54,0,P|59:100|121:120,1,131.25,2|0,0:0|0:0,0:0:0:0:
316,160,206624,2,0,P|306:223|303:307,1,131.25,8|0,0:0|0:0,0:0:0:0:
419,352,206963,1,2,0:0:0:0:
478,164,207132,5,8,0:0:0:0:
340,22,207302,1,8,0:0:0:0:
478,164,207471,1,8,0:0:0:0:
312,95,207641,22,0,P|247:80|153:70,1,131.25,14|0,0:1|0:0,0:0:0:0:
51,219,207980,2,0,P|116:234|210:244,2,131.25,8|0|0,0:0|0:0|0:0,0:0:0:0:
11,75,208488,1,2,0:0:0:0:
185,158,208658,2,0,P|247:178|312:189,1,131.25,8|0,0:0|0:0,0:0:0:0:
461,200,208997,54,0,P|451:250|451:335,1,131.25,2|0,0:0|0:0,0:0:0:0:
311,190,209336,2,0,P|281:67|162:29,1,262.5,8|0,0:0|0:0,0:0:0:0:
319,0,209844,1,2,0:0:0:0:
187,159,210014,2,0,P|187:219|176:306,1,131.25,8|0,0:0|0:0,0:0:0:0:
45,351,210353,38,0,P|45:291|56:204,1,131.25,2|0,0:0|0:0,0:0:0:0:
96,34,210692,2,0,P|151:65|225:81,1,131.25,8|0,0:0|0:0,0:0:0:0:
372,70,211031,1,0,0:0:0:0:
246,152,211200,1,2,0:0:0:0:
400,0,211370,1,8,0:0:0:0:
341,142,211539,1,0,0:0:0:0:
494,123,211709,54,0,P|477:178|466:255,1,131.25,2|0,0:0|0:0,0:0:0:0:
305,365,212048,2,0,P|244:330|164:307,1,131.25,8|0,0:0|0:0,0:0:0:0:
40,290,212387,1,0,0:0:0:0:
156,384,212556,1,2,0:0:0:0:
60,212,212726,2,0,P|47:140|48:76,1,131.25,8|0,0:0|0:0,0:0:0:0:
183,28,213065,38,0,P|142:77|142:141,1,131.25,2|0,0:0|0:0,0:0:0:0:
237,312,213404,2,0,P|307:211|235:111,1,262.5,8|0,0:0|0:0,0:0:0:0:
382,133,213912,1,2,0:0:0:0:
201,212,214082,2,0,P|156:250|110:323,1,131.25,8|0,0:0|0:0,0:0:0:0:
136,163,214421,54,0,P|146:103|141:25,1,131.25,2|0,0:0|0:0,0:0:0:0:
339,32,214760,2,0,P|407:42|482:65,2,131.25,8|0|0,0:0|0:0|0:0,0:0:0:0:
446,135,215268,1,2,0:0:0:0:
253,98,215437,2,0,P|172:92|104:94,1,131.25,8|0,0:0|0:0,0:0:0:0:
36,214,215776,38,0,P|80:235|119:318,1,131.25,2|0,0:0|0:0,0:0:0:0:
309,345,216115,2,0,P|302:196|231:73,1,262.5,8|0,0:0|0:0,0:0:0:0:
232,245,216624,1,2,0:0:0:0:
339,81,216793,2,0,P|393:68|472:17,1,131.25,8|0,0:0|0:0,0:0:0:0:
378,155,217132,53,2,0:0:0:0:
512,91,217302,1,0,0:0:0:0:
377,233,217471,2,0,P|323:265|236:295,1,131.25,8|0,0:0|0:0,0:0:0:0:
63,318,217810,5,8,0:0:0:0:
128,56,217980,1,8,0:0:0:0:
251,316,218149,85,8,0:0:0:0:
198,14,218319,1,8,0:0:0:0:
256,192,218488,12,0,220522,0:0:0:0:
