osu file format v14

[General]
AudioFilename: audio.mp3
AudioLeadIn: 0
PreviewTime: 10162
Countdown: 0
SampleSet: None
StackLeniency: 0.5
Mode: 0
LetterboxInBreaks: 0
WidescreenStoryboard: 0

[Editor]
Bookmarks: 11027,32970,54664,76606,98549,120242,142184,164127,175099,196793
DistanceSpacing: 1.5
BeatDivisor: 4
GridSize: 8
TimelineZoom: 1.100005

[Metadata]
Title:The Last Garrison
TitleUnicode:The Last Garrison
Artist:Enter Shikari
ArtistUnicode:Enter Shikari
Creator:h4d0uk3n1
Version:Hard
Source:
Tags:mindsweep trancecore alternative drum and bass
BeatmapID:1359709
BeatmapSetID:638666

[Difficulty]
HPDrainRate:5
CircleSize:3.5
OverallDifficulty:6
ApproachRate:8
SliderMultiplier:1.2
SliderTickRate:1

[Events]
//Background and Video events
0,0,"bgbgbg.jpg",0,0
//Break Periods
2,142184,163377
//Storyboard Layer 0 (Background)
//Storyboard Layer 1 (Fail)
//Storyboard Layer 2 (Pass)
//Storyboard Layer 3 (Foreground)
//Storyboard Sound Samples

[TimingPoints]
9656,342.857142857143,4,3,3,75,1,0
11027,-100,4,3,3,75,0,1
11198,-100,4,3,3,75,0,0
31770,-100,4,3,3,25,0,0
31856,-100,4,3,3,50,0,0
31941,-100,4,3,3,75,0,0
32284,-100,4,3,3,49,0,0
32370,-100,4,3,3,62,0,0
32456,-100,4,3,3,75,0,0
32970,338.983050847458,4,3,3,75,1,0
32970,-133.333333333333,4,3,3,75,0,0
54664,342.857142857143,4,3,3,50,1,0
54664,-133.333333333333,4,3,3,50,0,0
76606,-100,4,3,3,75,0,1
76778,-100,4,3,3,75,0,0
97349,-100,4,3,3,25,0,0
97435,-100,4,3,3,50,0,0
97521,-100,4,3,3,75,0,0
97864,-100,4,3,3,49,0,0
97949,-100,4,3,3,62,0,0
98035,-100,4,3,3,75,0,0
98549,338.983050847458,4,3,3,75,1,0
98549,-133.333333333333,4,3,3,75,0,0
120242,342.857142857143,4,3,3,50,1,0
120242,-133.333333333333,4,3,3,50,0,0
142184,-133.333333333333,4,3,3,30,0,0
170299,-133.333333333333,4,3,3,40,0,0
170984,-133.333333333333,4,3,3,50,0,0
171670,-133.333333333333,4,3,3,60,0,0
172356,-133.333333333333,4,3,3,40,0,0
175099,338.983050847458,4,3,3,75,1,0
175099,-133.333333333333,4,3,3,75,0,0
196793,-100,4,3,3,75,0,1
207471,-100,4,3,3,75,0,0
207641,-100,4,3,3,75,0,1
218488,-100,4,3,3,20,0,0

[Colours]
Combo1 : 0,128,255
Combo2 : 167,167,167
Combo3 : 255,51,51
Combo4 : 160,0,0
Combo5 : 255,255,0
Combo6 : 255,128,0
Combo7 : 0,0,128

[HitObjects]
77,66,11027,22,0,B|105:111|105:111|119:186,1,120,12|2,0:1|0:0,0:0:0:0:
61,298,11541,1,2,0:0:0:0:
61,298,11627,1,2,0:0:0:0:
61,297,11713,6,0,L|49:379,1,60,8|2,0:0|0:0,0:0:0:0:
152,266,12055,2,0,L|168:347,1,60,2|2,0:0|0:0,0:0:0:0:
226,205,12398,2,0,L|269:275,1,60,2|2,0:0|0:0,0:0:0:0:
274,122,12741,2,0,L|339:173,1,60,2|2,0:0|0:0,0:0:0:0:
435,231,13084,86,0,B|436:262|436:262|426:289,1,60,8|2,0:0|0:0,0:0:0:0:
389,371,13427,2,0,P|362:357|332:349,1,60,0|2,0:0|0:0,0:0:0:0:
285,272,13770,2,0,P|316:253|347:244,2,60,0|0|2,0:0|0:0|0:0,0:0:0:0:
197,376,14284,1,2,0:0:0:0:
197,376,14369,1,2,0:0:0:0:
197,376,14455,6,0,L|180:308,2,60,8|2|2,0:0|0:0|0:0,0:0:0:0:
82,303,14970,2,0,L|99:235,2,60,8|2|2,0:0|0:0|0:0,0:0:0:0:
192,224,15484,2,0,L|177:165,1,60,8|0,0:0|0:0,0:0:0:0:
146,33,15827,2,0,L|138:3,2,30,2|2|8,0:0|0:0|0:0,0:0:0:0:
234,51,16170,2,0,L|248:109,1,60,2|2,0:0|0:0,0:0:0:0:
378,145,16513,86,0,B|395:90|395:90|430:38,1,120,2|2,0:0|0:0,0:0:0:0:
468,176,17027,1,2,0:0:0:0:
468,176,17113,1,2,0:0:0:0:
468,176,17198,6,0,L|498:227,1,60,8|2,0:0|0:0,0:0:0:0:
363,233,17541,2,0,L|374:291,1,60,2|2,0:0|0:0,0:0:0:0:
244,250,17884,2,0,L|234:309,1,60,2|2,0:0|0:0,0:0:0:0:
126,225,18227,2,0,L|96:277,1,60,2|2,0:0|0:0,0:0:0:0:
4,175,18570,86,0,B|0:145|0:145|4:114,2,60,8|2|0,0:0|0:0|0:0,0:0:0:0:
89,142,19084,1,2,0:0:0:0:
178,151,19256,2,0,L|256:154,2,60,0|0|2,0:0|0:0|0:0,0:0:0:0:
189,285,19770,1,2,0:0:0:0:
189,285,19856,1,2,0:0:0:0:
189,285,19941,6,0,L|193:359,1,60,8|2,0:0|0:0,0:0:0:0:
280,325,20284,1,2,0:0:0:0:
275,238,20456,1,8,0:0:0:0:
275,238,20627,2,0,L|346:229,1,60,2|2,0:0|0:0,0:0:0:0:
457,287,20970,2,0,L|386:296,1,60,8|0,0:0|0:0,0:0:0:0:
388,159,21313,2,0,L|347:142,2,30,2|2|8,0:0|0:0|0:0,0:0:0:0:
477,146,21656,2,0,L|493:89,1,60,8|0,0:0|0:0,0:0:0:0:
380,19,21998,86,0,B|318:24|318:24|263:43,1,120,2|2,0:0|0:0,0:0:0:0:
182,82,22513,1,2,0:0:0:0:
182,82,22598,1,2,0:0:0:0:
182,81,22684,2,0,P|153:91|122:94,2,60,8|2|2,0:0|0:0|0:0,0:0:0:0:
207,168,23198,2,0,P|241:205|271:276,1,120,8|2,0:3|0:0,0:0:0:0:
301,135,23713,2,0,P|324:82|368:39,1,120,8|8,0:3|0:3,0:0:0:0:
503,32,24227,6,0,B|487:59|487:59|478:95,1,60,2|0,0:0|0:0,0:0:0:0:
476,176,24570,2,0,B|462:234|462:234|431:286,1,120,2|0,0:0|0:0,0:0:0:0:
347,318,25084,2,0,B|318:320|318:320|288:332,1,60,2|0,0:0|0:0,0:0:0:0:
154,329,25427,86,0,P|107:275|73:302,1,120,8|2,0:0|0:0,0:0:0:0:
173,196,25941,1,8,0:0:0:0:
166,105,26113,2,0,L|162:39,1,60,0|2,0:0|0:0,0:0:0:0:
162,45,26370,1,2,0:0:0:0:
162,45,26456,1,8,0:0:0:0:
250,58,26627,2,0,L|331:66,1,60,0|2,0:0|0:0,0:0:0:0:
435,113,26970,2,0,L|364:126,2,60,8|2|0,0:0|0:0|0:0,0:0:0:0:
423,247,27484,6,0,L|420:306,1,60,2|0,0:0|0:0,0:0:0:0:
330,327,27827,2,0,L|337:241,1,60,2|0,0:0|0:0,0:0:0:0:
204,231,28170,2,0,P|131:220|60:239,1,120,8|2,0:0|0:0,0:0:0:0:
186,137,28684,2,0,P|232:79|251:8,1,120,8|2,0:0|0:0,0:0:0:0:
276,168,29198,2,0,P|302:236|354:288,1,120,8|2,0:0|0:0,0:0:0:0:
460,316,29713,2,0,P|438:295|424:268,2,60,8|2|8,0:0|0:0|0:0,0:0:0:0:
510,241,30227,86,0,L|509:165,1,60
510,90,30570,2,0,P|480:95|454:109,1,60,2|0,0:0|0:0,0:0:0:0:
383,165,30913,2,0,P|349:135|338:115,2,60,8|0|2,0:0|0:0|0:0,0:0:0:0:
380,300,31427,6,0,L|377:359,1,60,8|8,0:0|0:0,0:0:0:0:
287,366,31770,2,0,L|288:323,2,30,8|8|8,0:0|0:0|0:0,0:0:0:0:
196,369,32113,1,8,0:0:0:0:
197,279,32284,2,0,L|160:272,2,30,8|8|8,0:0|0:0|0:0,0:0:0:0:
232,196,32627,2,0,L|160:162,1,60,8|0,0:0|0:0,0:0:0:0:
42,156,32970,6,0,P|50:202|73:241,1,90.0000034332277,12|0,0:1|0:0,0:0:0:0:
161,255,33647,2,0,L|212:258,3,45.0000017166138,8|0|0|0,0:0|0:0|0:0|0:0,0:0:0:0:
250,260,34325,2,0,P|298:190|317:180,1,90.0000034332277,2|0,0:0|0:0,0:0:0:0:
388,166,35003,2,0,L|400:215,3,45.0000017166138,8|0|0|0,0:0|0:0|0:0|0:0,0:0:0:0:
411,253,35681,5,2,0:0:0:0:
355,323,36020,1,0,0:0:0:0:
271,285,36359,2,0,L|272:236,2,45.0000017166138,8|0|0,0:0|0:0|0:0,0:0:0:0:
251,325,36868,1,0,0:0:0:0:
228,363,37037,1,2,0:0:0:0:
138,354,37376,1,0,0:0:0:0:
115,267,37715,2,0,L|55:269,2,45.0000017166138,8|0|0,0:0|0:0|0:0,0:0:0:0:
129,177,38393,86,0,L|323:182,1,180.000006866455,2|8,0:0|0:0,0:0:0:0:
395,153,39410,1,0,0:0:0:0:
330,91,39749,2,0,L|135:96,1,180.000006866455,2|8,0:0|0:0,0:0:0:0:
68,56,40766,1,0,0:0:0:0:
77,145,41105,6,0,P|37:167|13:204,2,90.0000034332277,2|0|8,0:0|0:0|0:0,0:0:0:0:
163,171,42122,1,0,0:0:0:0:
98,233,42461,2,0,P|107:278|112:321,1,90.0000034332277,2|0,0:0|0:0,0:0:0:0:
201,309,43139,1,8,0:0:0:0:
238,333,43308,2,0,L|332:334,1,90.0000034332277
366,311,43817,86,0,P|401:336|461:326,1,90.0000034332277,12|0,0:1|0:0,0:0:0:0:
472,247,44495,2,0,P|465:227|462:199,3,45.0000017166138,8|0|0|0,0:0|0:0|0:0|0:0,0:0:0:0:
464,158,45173,2,0,P|471:109|490:69,1,90.0000034332277,2|0,0:0|0:0,0:0:0:0:
411,23,45851,2,0,P|399:43|390:63,3,45.0000017166138,8|0|0|0,0:0|0:0|0:0|0:0,0:0:0:0:
352,38,46529,6,0,P|310:21|265:18,1,90.0000034332277,2|0,0:0|0:0,0:0:0:0:
174,33,47207,2,0,P|139:32|118:31,2,45.0000017166138,8|0|0,0:0|0:0|0:0,0:0:0:0:
195,72,47715,1,0,0:0:0:0:
219,110,47885,1,2,0:0:0:0:
134,141,48224,1,0,0:0:0:0:
203,198,48563,2,0,L|202:250,2,45.0000017166138,8|0|0,0:0|0:0|0:0,0:0:0:0:
289,172,49241,86,0,P|335:196|322:320,1,180.000006866455,2|8,0:0|0:0,0:0:0:0:
395,375,50258,1,0,0:0:0:0:
470,325,50597,2,0,L|474:135,1,180.000006866455,2|8,0:0|0:0,0:0:0:0:
474,54,51614,1,0,0:0:0:0:
390,21,51953,6,0,P|322:48|336:148,1,180.000006866455,2|8,0:0|0:0,0:0:0:0:
417,161,52970,1,0,0:0:0:0:
495,117,53308,2,0,P|507:159|496:203,1,90.0000034332277,2|0,0:0|0:0,0:0:0:0:
447,328,53986,54,0,L|390:340,1,45.0000017166138,8|8,0:0|0:0,0:0:0:0:
318,305,54325,2,0,L|260:301,1,45.0000017166138,8|8,0:0|0:0,0:0:0:0:
234,323,54664,70,0,B|218:332|218:332|199:331|181:335|181:335|163:330|146:331,1,90.0000034332277,2|2,0:0|0:0,0:0:0:0:
57,124,55864,1,2,0:0:0:0:
95,147,56035,2,0,L|157:152,1,45.0000017166138,8|2,0:3|0:0,0:0:0:0:
182,135,56378,2,0,P|229:99|274:189,1,180.000006866455
366,198,57406,86,0,B|397:205|397:205|456:193,1,90.0000034332277,2|2,0:0|0:0,0:0:0:0:
498,183,57921,2,0,P|491:140|493:86,1,90.0000034332277,0|0,0:0|0:0,0:0:0:0:
417,42,58606,1,2,0:0:0:0:
372,32,58778,2,0,L|371:92,2,45.0000017166138,8|8|2,0:3|0:3|0:0,0:0:0:0:
328,19,59292,1,8,0:3:0:0:
269,87,59635,2,0,L|271:121,2,22.5000008583069,0|0|0,0:0|0:0|0:0,0:0:0:0:
224,77,59978,1,2,0:0:0:0:
181,64,60149,6,0,B|148:103|96:107,1,90.0000034332277,2|2,0:0|0:0,0:0:0:0:
123,330,61349,1,2,0:0:0:0:
158,358,61521,2,0,L|202:355,1,45.0000017166138,8|2,0:3|0:0,0:0:0:0:
235,324,61864,2,0,P|279:324|323:336,1,90.0000034332277,0|0,0:0|0:0,0:0:0:0:
472,236,62892,86,0,P|427:235|383:223,1,90.0000034332277,2|2,0:0|0:0,0:0:0:0:
342,206,63406,2,0,P|360:170|363:105,2,90.0000034332277,0|0|2,0:0|0:0|0:0,0:0:0:0:
300,187,64264,2,0,P|254:173|158:171,2,135.000005149841,8|8|8,0:3|0:3|0:3,0:0:0:0:
289,276,65635,6,0,P|332:293|383:297,1,90.0000034332277,2|2,0:0|0:0,0:0:0:0:
403,79,66835,1,2,0:0:0:0:
416,121,67006,2,0,L|412:179,1,45.0000017166138,8|2,0:3|0:0,0:0:0:0:
98,187,68378,86,0,P|96:243|116:289,1,90.0000034332277,2|2,0:0|0:0,0:0:0:0:
330,299,69578,1,2,0:0:0:0:
369,278,69749,2,0,L|377:329,2,45.0000017166138,8|8|2,0:3|0:3|0:0,0:0:0:0:
408,255,70264,1,8,0:3:0:0:
431,168,70606,2,0,L|457:170,2,22.5000008583069
392,145,70949,1,2,0:0:0:0:
353,122,71121,6,0,P|305:129|258:108,1,90.0000034332277,2|2,0:0|0:0,0:0:0:0:
47,145,72321,1,2,0:0:0:0:
69,183,72492,2,0,L|67:245,1,45.0000017166138,8|2,0:3|0:0,0:0:0:0:
341,383,73864,86,0,P|332:345|361:303,1,90.0000034332277,2|2,0:0|0:0,0:0:0:0:
510,138,75064,69,2,0:0:0:0:
509,182,75235,1,8,0:0:0:0:
421,158,75578,5,2,0:0:0:0:
378,170,75750,1,8,0:0:0:0:
374,80,76092,53,2,0:0:0:0:
349,44,76264,1,8,0:0:0:0:
238,92,76606,6,0,B|204:40|204:40|146:31,1,120,12|2,0:1|0:0,0:0:0:0:
28,40,77121,1,2,0:0:0:0:
28,40,77207,1,2,0:0:0:0:
28,40,77292,86,0,L|36:113,1,60,8|2,0:0|0:0,0:0:0:0:
107,213,77635,2,0,L|107:135,1,60,2|2,0:0|0:0,0:0:0:0:
155,26,77978,2,0,L|163:99,1,60,2|2,0:0|0:0,0:0:0:0:
234,199,78321,2,0,L|234:139,1,60,2|2,0:0|0:0,0:0:0:0:
282,12,78664,5,8,0:0:0:0:
371,17,78835,2,0,P|400:15|429:6,2,60,2|0|2,0:0|0:0|0:0,0:0:0:0:
322,93,79349,2,0,P|331:146|365:221,1,120,0|2,0:0|0:0,0:0:0:0:
423,328,79864,1,2,0:0:0:0:
423,328,79949,1,2,0:0:0:0:
423,328,80035,86,0,L|364:315,2,60,8|2|2,0:0|0:0|0:0,0:0:0:0:
293,369,80549,2,0,L|234:381,2,60,8|2|2,3:0|0:0|0:0,0:0:0:0:
165,322,81064,2,0,L|105:318,1,60,8|0,0:0|3:0,0:0:0:0:
118,184,81406,2,0,L|115:214,2,30,2|2|8,0:0|0:0|0:0,0:0:0:0:
128,93,81749,2,0,L|134:33,1,60,2|2,0:0|0:0,0:0:0:0:
268,15,82092,6,0,B|276:76|276:76|307:125,1,120,2|2,0:0|0:0,0:0:0:0:
426,189,82606,1,2,0:0:0:0:
426,189,82692,1,2,0:0:0:0:
426,189,82778,86,0,B|479:221,1,60,8|2,0:0|0:0,0:0:0:0:
352,268,83121,2,0,B|381:322,1,60,2|2,0:0|0:0,0:0:0:0:
248,299,83464,2,0,B|246:360,1,60,2|2,0:0|0:0,0:0:0:0:
142,273,83806,2,0,B|110:326,1,60,2|2,0:0|0:0,0:0:0:0:
12,231,84149,6,0,B|5:204|5:204|9:173,2,60,8|2|0,0:0|0:0|0:0,0:0:0:0:
95,194,84664,1,2,0:0:0:0:
68,107,84835,2,0,P|44:88|28:63,1,60
120,36,85178,2,0,P|150:35|186:44,1,60,2|2,0:0|0:0,0:0:0:0:
180,42,85435,1,2,0:0:0:0:
180,42,85521,86,0,L|251:30,2,60,8|2|2,0:0|0:0|0:0,0:0:0:0:
235,165,86035,2,0,L|290:119,2,60,8|2|2,0:0|0:0|0:0,0:0:0:0:
344,244,86549,2,0,L|364:187,1,60,8|0,0:0|0:0,0:0:0:0:
412,61,86892,2,0,L|424:27,2,30,2|2|8,0:0|0:0|0:0,0:0:0:0:
447,144,87235,2,0,L|456:203,1,60,8|0,0:0|0:0,0:0:0:0:
400,326,87578,6,0,B|341:326|341:326|281:340,1,120,2|2,0:0|0:0,0:0:0:0:
155,376,88092,1,2,0:0:0:0:
155,376,88178,1,2,0:0:0:0:
155,376,88264,2,0,P|158:307|122:244,1,120,8|2,0:0|0:0,0:0:0:0:
62,148,88778,2,0,P|126:151|190:199,1,120,8|2,0:0|0:0,0:0:0:0:
239,296,89292,2,0,P|240:254|247:221,2,60,8|0|8,0:0|0:0|0:0,0:0:0:0:
355,360,89806,86,0,B|369:330|369:330|388:311,1,60,2|0,0:0|0:0,0:0:0:0:
466,266,90149,2,0,B|482:206|482:206|481:148,1,120,2|0,0:0|0:0,0:0:0:0:
468,58,90664,2,0,B|440:50|440:50|410:52,1,60,2|0,0:0|0:0,0:0:0:0:
285,103,91006,6,0,P|226:109|153:83,1,120,8|2,0:0|0:0,0:0:0:0:
64,5,91521,1,8,0:0:0:0:
78,93,91692,2,0,P|74:143|67:163,1,60,0|2,0:0|0:0,0:0:0:0:
71,152,91949,1,2,0:0:0:0:
71,152,92035,1,8,0:0:0:0:
45,238,92206,2,0,P|29:262|6:282,1,60,0|2,0:0|0:0,0:0:0:0:
136,243,92549,2,0,P|165:230|198:206,2,60,8|2|0,0:0|0:0|0:0,0:0:0:0:
203,362,93064,86,0,L|262:351,1,60,2|0,0:0|0:0,0:0:0:0:
331,294,93406,2,0,L|390:283,1,60,2|0,0:0|0:0,0:0:0:0:
459,168,93749,2,0,P|469:116|509:38,1,120,8|2,0:0|0:0,0:0:0:0:
375,115,94264,2,0,P|337:129|244:135,1,120,8|2,0:0|0:0,0:0:0:0:
133,82,94778,2,0,P|149:147|200:199,1,120,8|2,0:0|0:0,0:0:0:0:
299,253,95292,2,0,P|289:224|272:199,2,60,8|2|0,0:0|0:0|0:0,0:0:0:0:
237,318,95806,6,0,L|177:326,1,60
88,339,96149,2,0,P|89:297|82:262,1,60,2|0,0:0|0:0,0:0:0:0:
33,206,96492,2,0,P|12:227|0:254,2,60,8|0|2,0:0|0:0|0:0,0:0:0:0:
163,169,97006,86,0,L|151:86,1,60,8|8,0:0|0:0,0:0:0:0:
236,71,97349,2,0,L|249:111,2,30,8|8|8,0:0|0:0|0:0,0:0:0:0:
313,25,97692,1,8,0:0:0:0:
402,34,97864,2,0,L|401:83,2,30,8|8|8,0:0|0:0|0:0,0:0:0:0:
492,31,98206,2,0,L|496:108,1,60,8|0,0:0|0:0,0:0:0:0:
508,181,98549,22,0,P|510:225|493:267,1,90.0000034332277,12|0,0:1|0:0,0:0:0:0:
404,251,99226,2,0,L|363:276,3,45.0000017166138,8|0|0|0,0:0|0:0|0:0|0:0,0:0:0:0:
327,298,99904,2,0,P|252:300|218:311,1,90.0000034332277,2|0,0:0|0:0,0:0:0:0:
154,339,100582,2,0,L|109:331,3,45.0000017166138,8|0|0|0,0:0|0:0|0:0|0:0,0:0:0:0:
66,320,101260,5,2,0:0:0:0:
40,231,101599,1,0,0:0:0:0:
107,171,101938,2,0,L|165:183,2,45.0000017166138,8|0|0,0:0|0:0|0:0,0:0:0:0:
96,126,102447,1,0,0:0:0:0:
88,81,102616,1,2,0:0:0:0:
173,54,102955,1,0,0:0:0:0:
246,106,103294,2,0,L|247:152,2,45.0000017166138,8|0|0,0:0|0:0|0:0,0:0:0:0:
332,81,103972,86,0,L|336:282,1,180.000006866455,2|8,0:0|0:0,0:0:0:0:
340,351,104989,1,0,0:0:0:0:
414,301,105328,2,0,P|442:217|511:161,1,180.000006866455,2|8,0:0|0:0,0:0:0:0:
445,99,106345,1,0,0:0:0:0:
355,109,106684,6,0,L|356:200,2,90.0000034332277,2|0|8,0:0|0:0|0:0,0:0:0:0:
353,18,107701,1,0,0:0:0:0:
441,35,108040,2,0,L|448:125,1,90.0000034332277,2|0,0:0|0:0,0:0:0:0:
455,214,108718,1,8,0:0:0:0:
427,249,108887,2,0,L|330:267,1,90.0000034332277
303,238,109396,86,0,P|253:262|202:252,1,90.0000034332277,12|0,0:1|0:0,0:0:0:0:
158,192,110074,2,0,P|144:208|134:229,3,45.0000017166138,8|0|0|0,0:0|0:0|0:0|0:0,0:0:0:0:
124,273,110752,2,0,P|112:323|92:367,1,90.0000034332277,2|0,0:0|0:0,0:0:0:0:
183,383,111430,2,0,L|233:380,3,45.0000017166138,8|0|0|0,0:0|0:0|0:0|0:0,0:0:0:0:
272,373,112108,5,2,0:0:0:0:
327,301,112447,1,0,0:0:0:0:
409,336,112786,2,0,L|413:384,2,45.0000017166138,8|0|0,0:0|0:0|0:0,0:0:0:0:
450,318,113294,1,0,0:0:0:0:
491,301,113464,1,2,0:0:0:0:
471,213,113803,1,0,0:0:0:0:
502,128,114142,2,0,L|509:78,2,45.0000017166138,8|0|0,0:0|0:0|0:0,0:0:0:0:
414,105,114820,86,0,B|353:93|353:93|238:127,1,180.000006866455,2|8,0:0|0:0,0:0:0:0:
149,123,115837,1,0,0:0:0:0:
193,203,116176,2,0,B|254:215|254:215|369:181,1,180.000006866455,2|8,0:0|0:0,0:0:0:0:
443,133,117193,1,0,0:0:0:0:
446,223,117532,6,0,P|411:301|318:282,1,180.000006866455,2|8,0:0|0:0,0:0:0:0:
274,220,118549,1,0,0:0:0:0:
238,303,118887,2,0,P|186:323|141:332,1,90.0000034332277,2|0,0:0|0:0,0:0:0:0:
16,327,119565,54,0,P|20:304|22:282,1,45.0000017166138,8|8,0:0|0:0,0:0:0:0:
70,206,119904,2,0,P|73:164|76:148,1,45.0000017166138,8|8,0:0|0:0,0:0:0:0:
97,123,120242,70,0,B|111:129|120:136|120:136|148:128|183:130,1,90.0000034332277,2|2,0:0|0:0,0:0:0:0:
407,113,121442,1,2,0:0:0:0:
378,147,121613,2,0,L|388:207,1,45.0000017166138,8|2,0:0|0:0,0:0:0:0:
424,215,121956,2,0,P|462:244|409:338,1,180.000006866455,0|0,0:0|0:0,0:0:0:0:
318,330,122984,86,0,P|262:328|218:337,1,90.0000034332277,2|2,0:0|0:0,0:0:0:0:
185,347,123499,2,0,P|156:321|137:267,1,90.0000034332277,0|0,0:0|0:0,0:0:0:0:
131,184,124184,1,2,0:0:0:0:
174,170,124356,2,0,L|187:110,2,45.0000017166138,8|8|2,0:0|0:0|0:0,0:0:0:0:
218,161,124870,1,8,0:0:0:0:
281,224,125213,2,0,L|278:251,2,22.5000008583069,0|0|0,0:0|0:0|0:0,0:0:0:0:
325,233,125556,1,2,0:0:0:0:
368,242,125727,6,0,P|380:204|427:171,1,90.0000034332277,2|2,0:0|0:0,0:0:0:0:
228,52,126927,1,2,0:0:0:0:
255,87,127099,2,0,L|251:140,1,45.0000017166138,8|2,0:0|0:0,0:0:0:0:
221,165,127442,2,0,P|177:156|61:227,1,180.000006866455,0|0,0:0|0:0,0:0:0:0:
135,275,128470,86,0,P|164:308|175:358,1,90.0000034332277,2|2,0:0|0:0,0:0:0:0:
220,348,128984,2,0,L|314:342,1,90.0000034332277
400,338,129670,1,2,0:0:0:0:
387,294,129842,2,0,L|390:145,2,135.000005149841,8|8|8,0:0|0:0|0:0,0:0:0:0:
479,301,131213,6,0,L|486:204,1,90.0000034332277,2|2,0:0|0:0,0:0:0:0:
331,48,132413,1,2,0:0:0:0:
310,88,132584,2,0,L|265:94,1,45.0000017166138,8|2,0:0|0:0,0:0:0:0:
101,363,133956,86,0,P|118:320|158:300,1,90.0000034332277,2|2,0:0|0:0,0:0:0:0:
379,314,135155,1,2,0:0:0:0:
395,272,135327,2,0,L|436:308,2,45.0000017166138,8|8|2,0:0|0:0|0:0,0:0:0:0:
411,230,135841,1,8,0:0:0:0:
450,149,136184,2,0,L|487:150,2,22.5000008583069,0|0|0,0:0|0:0|0:0,0:0:0:0:
452,103,136527,1,2,0:0:0:0:
454,57,136699,6,0,L|351:67,1,90.0000034332277,2|2,0:0|0:0,0:0:0:0:
139,84,137899,1,2,0:0:0:0:
165,120,138070,2,0,L|158:176,1,45.0000017166138,8|2,0:0|0:0,0:0:0:0:
435,317,139442,86,0,P|381:321|373:285,1,90.0000034332277,2|2,0:0|0:0,0:0:0:0:
408,72,140642,69,2,0:0:0:0:
405,116,140813,1,8,0:0:0:0:
318,139,141156,5,2,0:0:0:0:
315,95,141327,1,8,0:0:0:0:
225,87,141670,53,2,0:0:0:0:
222,131,141841,1,8,0:0:0:0:
36,72,164127,70,0,L|38:167,1,90.0000034332277,10|10,0:0|0:0,0:0:0:0:
125,182,164813,2,0,L|129:86,1,90.0000034332277,10|10,0:0|0:0,0:0:0:0:
217,77,165499,2,0,L|219:172,1,90.0000034332277,10|10,0:0|0:0,0:0:0:0:
306,188,166184,2,0,L|310:92,1,90.0000034332277,10|10,0:0|0:0,0:0:0:0:
399,94,166870,86,0,L|496:97,1,90.0000034332277,10|10,0:0|0:0,0:0:0:0:
506,185,167556,2,0,L|409:188,1,90.0000034332277,10|10,0:0|0:0,0:0:0:0:
393,275,168242,2,0,L|490:278,1,90.0000034332277,10|10,0:0|0:0,0:0:0:0:
489,367,168928,2,0,L|392:370,1,90.0000034332277,10|10,0:0|0:0,0:0:0:0:
309,362,169613,70,0,L|258:363,1,45.0000017166138,10|8,0:0|0:0,0:0:0:0:
223,342,169956,2,0,L|164:345,1,45.0000017166138,10|8,0:0|0:0,0:0:0:0:
140,369,170299,2,0,L|94:368,1,45.0000017166138,10|8,0:0|0:0,0:0:0:0:
57,342,170642,2,0,L|-5:344,1,45.0000017166138,10|8,0:0|0:0,0:0:0:0:
14,298,170984,5,10,0:0:0:0:
20,253,171156,1,8,0:0:0:0:
59,231,171327,2,0,L|59:182,1,45.0000017166138,10|8,0:0|0:0,0:0:0:0:
31,150,171670,1,10,0:0:0:0:
32,104,171842,1,8,0:0:0:0:
69,79,172013,2,0,L|68:19,1,45.0000017166138,10|8,0:0|0:0,0:0:0:0:
256,192,172356,12,0,174756,0:0:0:0:
196,138,175099,86,0,P|212:180|204:224,1,90.0000034332277,12|0,0:1|0:0,0:0:0:0:
122,188,175776,2,0,L|97:234,3,45.0000017166138,8|0|0|0,0:0|0:0|0:0|0:0,0:0:0:0:
79,267,176454,2,0,P|155:311|176:312,1,90.0000034332277,2|0,0:0|0:0,0:0:0:0:
228,260,177132,2,0,P|249:251|271:248,3,45.0000017166138,8|0|0|0,0:0|0:0|0:0|0:0,0:0:0:0:
317,254,177810,5,2,0:0:0:0:
370,326,178149,1,0,0:0:0:0:
459,322,178488,2,0,L|484:360,2,45.0000017166138,8|0|0,0:0|0:0|0:0,0:0:0:0:
461,276,178997,1,0,0:0:0:0:
462,231,179166,1,2,0:0:0:0:
504,151,179505,1,0,0:0:0:0:
448,80,179844,2,0,L|452:28,2,45.0000017166138,8|0|0,0:0|0:0|0:0,0:0:0:0:
392,151,180522,86,0,P|346:167|244:84,1,180.000006866455,2|8,0:0|0:0,0:0:0:0:
317,41,181539,1,0,0:0:0:0:
233,8,181878,2,0,P|157:36|66:111,1,180.000006866455,2|8,0:0|0:0,0:0:0:0:
30,171,182895,1,0,0:0:0:0:
69,251,183234,6,0,P|79:302|79:348,2,90.0000034332277,2|0|8,0:0|0:0|0:0,0:0:0:0:
120,173,184251,1,0,0:0:0:0:
209,177,184590,2,0,L|313:179,1,90.0000034332277,2|0,0:0|0:0,0:0:0:0:
383,210,185268,1,8,0:0:0:0:
353,243,185437,2,0,L|358:343,1,90.0000034332277
392,362,185946,86,0,P|430:315|473:303,1,90.0000034332277,12|0,0:1|0:0,0:0:0:0:
465,215,186624,2,0,L|473:157,3,45.0000017166138,8|0|0|0,0:0|0:0|0:0|0:0,0:0:0:0:
478,125,187302,2,0,P|467:90|465:24,1,90.0000034332277,2|0,0:0|0:0,0:0:0:0:
373,33,187980,2,0,L|320:33,3,45.0000017166138,8|0|0|0,0:0|0:0|0:0|0:0,0:0:0:0:
282,33,188658,5,2,0:0:0:0:
271,122,188997,1,0,0:0:0:0:
197,69,189336,2,0,L|155:39,2,45.0000017166138,8|0|0,0:0|0:0|0:0,0:0:0:0:
159,94,189844,1,0,0:0:0:0:
122,120,190014,1,2,0:0:0:0:
165,199,190353,1,0,0:0:0:0:
84,239,190692,2,0,L|37:234,2,45.0000017166138,8|0|0,0:0|0:0|0:0,0:0:0:0:
116,323,191370,86,0,B|173:346|173:346|306:336,1,180.000006866455,2|8,0:0|0:0,0:0:0:0:
380,350,192387,1,0,0:0:0:0:
346,266,192726,2,0,B|289:243|289:243|156:253,1,180.000006866455,2|8,0:0|0:0,0:0:0:0:
88,215,193743,1,0,0:0:0:0:
256,192,194082,12,8,196454,0:0:0:0:
121,77,196793,70,0,L|131:163,1,60,14|0,0:1|0:0,0:0:0:0:
218,138,197132,2,0,L|293:115,2,60,8|0|0,0:0|0:0|0:0,0:0:0:0:
212,228,197641,1,2,0:0:0:0:
212,228,197810,2,0,L|207:310,1,60,8|0,0:0|0:0,0:0:0:0:
293,317,198149,38,0,L|298:235,1,60,2|0,0:0|0:0,0:0:0:0:
386,258,198488,2,0,L|449:282,2,60,8|0|0,0:0|0:0|0:0,0:0:0:0:
378,163,198997,1,2,0:0:0:0:
378,163,199166,2,0,L|373:87,1,60,8|0,0:0|0:0,0:0:0:0:
285,87,199505,54,0,L|280:163,1,60,2|0,0:0|0:0,0:0:0:0:
194,170,199844,2,0,L|202:248,1,60,8|0,3:0|0:0,0:0:0:0:
209,319,200183,2,0,L|296:305,1,60,0|2,0:0|0:0,0:0:0:0:
357,325,200522,2,0,L|438:339,1,60,8|0,0:0|0:0,0:0:0:0:
492,287,200861,38,0,L|488:205,1,60,2|0,0:0|0:0,0:0:0:0:
427,160,201200,2,0,L|431:74,1,60,8|0,0:0|0:0,0:0:0:0:
431,9,201539,1,0,0:0:0:0:
351,52,201709,1,2,0:0:0:0:
263,32,201878,2,0,L|188:41,1,60,8|0,0:0|0:0,0:0:0:0:
113,47,202217,54,0,L|119:125,1,60,2|0,0:0|0:0,0:0:0:0:
181,171,202556,2,0,L|174:315,1,120,8|0,0:0|0:0,0:0:0:0:
170,381,203065,1,2,0:0:0:0:
170,381,203234,2,0,L|246:378,1,60,8|0,0:0|0:0,0:0:0:0:
320,374,203573,38,0,L|322:303,1,60,2|0,0:0|0:0,0:0:0:0:
365,235,203912,2,0,L|358:102,1,120,8|0,0:0|0:0,0:0:0:0:
354,24,204421,1,2,0:0:0:0:
354,24,204590,2,0,L|425:29,1,60,8|0,0:0|0:0,0:0:0:0:
503,33,204929,54,0,L|502:114,1,60,2|0,0:0|0:0,0:0:0:0:
478,180,205268,2,0,L|504:261,2,60,8|0|0,0:0|0:0|0:0,0:0:0:0:
394,146,205776,1,2,0:0:0:0:
394,146,205946,2,0,L|396:63,1,60,8|0,0:0|0:0,0:0:0:0:
305,79,206285,38,0,L|233:80,1,60,2|0,0:0|0:0,0:0:0:0:
182,145,206624,2,0,L|105:145,1,60,8|0,0:0|0:0,0:0:0:0:
119,54,206963,1,2,0:0:0:0:
29,53,207132,1,8,0:0:0:0:
29,53,207302,1,8,0:0:0:0:
29,53,207471,1,8,0:0:0:0:
32,143,207641,54,0,P|23:182|5:212,1,60,14|0,0:1|0:0,0:0:0:0:
24,289,207980,2,0,L|31:348,2,60,8|0|0,0:0|0:0|0:0,0:0:0:0:
113,296,208488,1,2,0:0:0:0:
113,296,208658,2,0,P|137:279|167:274,1,60,8|0,0:0|0:0,0:0:0:0:
256,284,208997,38,0,P|247:246|249:204,1,60,2|0,0:0|0:0,0:0:0:0:
259,135,209336,2,0,P|323:136|385:152,1,120,8|0,0:0|0:0,0:0:0:0:
356,243,209844,1,2,0:0:0:0:
356,243,210014,2,0,P|398:248|432:245,1,60,8|0,0:0|0:0,0:0:0:0:
505,248,210353,54,0,P|493:207|494:177,1,60,2|0,0:0|0:0,0:0:0:0:
478,100,210692,2,0,P|470:71|453:46,1,60,8|0,0:0|0:0,0:0:0:0:
366,72,211031,2,0,L|287:71,1,60,0|2,0:0|0:0,0:0:0:0:
303,161,211370,2,0,L|229:162,1,60,8|0,0:0|0:0,0:0:0:0:
175,102,211709,38,0,L|111:109,1,60,2|0,0:0|0:0,0:0:0:0:
27,118,212048,2,0,L|31:190,1,60,8|0,0:0|0:0,0:0:0:0:
36,267,212387,1,0,0:0:0:0:
110,216,212556,1,2,0:0:0:0:
115,305,212726,2,0,L|118:371,1,60,8|0,0:0|0:0,0:0:0:0:
206,382,213065,54,0,P|241:366|280:361,1,60,2|0,0:0|0:0,0:0:0:0:
352,357,213404,2,0,P|389:359|478:332,1,120,8|0,0:0|0:0,0:0:0:0:
437,252,213912,1,2,0:0:0:0:
437,252,214082,2,0,P|434:199|438:177,1,60,8|0,0:0|0:0,0:0:0:0:
457,105,214421,38,0,P|423:94|392:89,1,60,2|0,0:0|0:0,0:0:0:0:
309,85,214760,2,0,P|271:78|225:60,2,60,8|0|0,0:0|0:0|0:0,0:0:0:0:
320,174,215268,1,2,0:0:0:0:
320,174,215437,2,0,L|330:243,1,60,8|0,0:0|0:0,0:0:0:0:
344,322,215776,54,0,P|303:341|282:368,1,60,2|0,0:0|0:0,0:0:0:0:
202,349,216115,2,0,P|167:340|135:322,2,60,8|0|0,0:0|0:0|0:0,0:0:0:0:
246,269,216624,1,2,0:0:0:0:
246,269,216793,2,0,P|230:221|229:199,1,60,8|0,0:0|0:0,0:0:0:0:
232,121,217132,38,0,P|233:91|226:62,1,60,2|0,0:0|0:0,0:0:0:0:
316,73,217471,2,0,P|353:74|387:68,1,60,8|0,0:0|0:0,0:0:0:0:
464,57,217810,69,8,0:0:0:0:
464,57,217980,1,8,0:0:0:0:
464,57,218149,1,8,0:0:0:0:
464,57,218319,1,8,0:0:0:0:
256,192,218488,12,0,220522,0:0:0:0:
