osu file format v14

[General]
AudioFilename: audio.mp3
AudioLeadIn: 0
PreviewTime: 10162
Countdown: 0
SampleSet: None
StackLeniency: 0.5
Mode: 0
LetterboxInBreaks: 0
WidescreenStoryboard: 0

[Editor]
Bookmarks: 11027,32970,54664,76606,98549,120242,142184,164127,175099,196793
DistanceSpacing: 0.9
BeatDivisor: 4
GridSize: 8
TimelineZoom: 0.6000057

[Metadata]
Title:The Last Garrison
TitleUnicode:The Last Garrison
Artist:Enter Shikari
ArtistUnicode:Enter Shikari
Creator:h4d0uk3n1
Version:Normal
Source:
Tags:mindsweep trancecore alternative drum and bass
BeatmapID:1357788
BeatmapSetID:638666

[Difficulty]
HPDrainRate:3
CircleSize:2.6
OverallDifficulty:3.5
ApproachRate:4.2
SliderMultiplier:0.999999999999999
SliderTickRate:1

[Events]
//Background and Video events
0,0,"bgbgbg.jpg",0,0
//Break Periods
2,142184,162831
//Storyboard Layer 0 (Background)
//Storyboard Layer 1 (Fail)
//Storyboard Layer 2 (Pass)
//Storyboard Layer 3 (Foreground)
//Storyboard Sound Samples

[TimingPoints]
9656,342.857142857143,4,3,3,75,1,0
11027,-100,4,3,3,75,0,1
11198,-100,4,3,3,75,0,0
32970,338.983050847458,4,3,3,75,1,0
54664,342.857142857143,4,3,3,50,1,0
54664,-100,4,3,3,50,0,0
76606,-100,4,3,3,75,0,1
76778,-100,4,3,3,75,0,0
98549,338.983050847458,4,3,3,75,1,0
120242,342.857142857143,4,3,3,50,1,0
120242,-100,4,3,3,50,0,0
142184,-100,4,3,3,30,0,0
170299,-100,4,3,3,40,0,0
170984,-100,4,3,3,50,0,0
171670,-100,4,3,3,60,0,0
172356,-100,4,3,3,40,0,0
175099,338.983050847458,4,3,3,75,1,0
196793,-100,4,3,3,75,0,1
207471,-100,4,3,3,75,0,0
207641,-100,4,3,3,75,0,1
218488,-100,4,3,3,20,0,0

[Colours]
Combo1 : 0,128,255
Combo2 : 167,167,167
Combo3 : 255,51,51
Combo4 : 160,0,0
Combo5 : 255,255,0
Combo6 : 255,128,0
Combo7 : 0,0,128

[HitObjects]
190,229,11027,22,0,P|200:290|247:329,1,99.9999999999999,12|2,0:1|0:0,0:0:0:0:
310,344,11713,1,8,0:0:0:0:
390,303,12056,1,2,0:0:0:0:
371,214,12398,1,2,0:0:0:0:
454,179,12741,1,2,0:0:0:0:
422,94,13084,2,0,P|372:50|324:39,1,99.9999999999999,8|0,0:0|0:0,0:0:0:0:
298,119,13770,6,0,P|240:132|196:130,1,99.9999999999999,0|2,0:0|0:0,0:0:0:0:
114,99,14456,2,0,P|108:147|130:191,1,99.9999999999999,8|2,0:0|0:0,0:0:0:0:
216,220,15141,1,2,0:0:0:0:
257,300,15484,2,0,P|305:289|372:289,1,99.9999999999999,8|2,0:0|0:0,0:0:0:0:
445,299,16170,1,2,0:0:0:0:
474,214,16513,86,0,B|484:165|484:165|469:117,1,99.9999999999999,2|2,0:0|0:0,0:0:0:0:
379,112,17198,1,8,0:0:0:0:
289,107,17541,1,2,0:0:0:0:
234,178,17884,1,2,0:0:0:0:
144,174,18227,1,2,0:0:0:0:
106,92,18570,2,0,B|93:43|93:43|52:13,1,99.9999999999999,8|0,0:0|0:0,0:0:0:0:
15,95,19256,6,0,L|46:214,1,99.9999999999999,0|2,0:0|0:0,0:0:0:0:
63,278,19941,1,8,0:0:0:0:
127,215,20284,2,0,L|223:241,1,99.9999999999999,2|2,0:0|0:0,0:0:0:0:
309,264,20970,1,8,0:0:0:0:
288,176,21313,2,0,L|359:105,1,99.9999999999999,2|8,0:0|0:0,0:0:0:0:
422,43,21998,86,0,P|446:85|444:134,1,99.9999999999999,2|2,0:0|0:0,0:0:0:0:
388,206,22684,2,0,P|408:264|501:317,1,150,8|8,0:0|0:3,0:0:0:0:
343,327,23713,2,0,P|276:323|218:310,1,99.9999999999999,8|8,0:3|0:3,0:0:0:0:
200,305,24227,1,2,0:0:0:0:
114,275,24570,6,0,P|101:204|176:161,1,150,2|2,0:0|0:0,0:0:0:0:
245,147,25427,2,0,P|288:103|319:14,1,150,8|8,0:0|0:0,0:0:0:0:
452,7,26456,2,0,P|484:70|495:158,1,150,8|8,0:0|0:0,0:0:0:0:
403,244,27484,86,0,P|354:249|311:274,1,99.9999999999999,2|2,0:0|0:0,0:0:0:0:
264,351,28170,2,0,B|167:376|167:376|112:360,2,150,8|8|8,0:0|0:0|0:0,0:0:0:0:
225,269,29541,2,0,B|203:225|203:225|208:174,1,99.9999999999999,2|2,0:0|0:0,0:0:0:0:
224,85,30227,5,0,0:0:0:0:
305,49,30570,2,0,P|312:98|292:142,1,99.9999999999999,2|8,0:0|0:0,0:0:0:0:
340,219,31256,1,2,0:0:0:0:
404,156,31598,2,0,P|396:107|417:62,1,99.9999999999999,8|8,0:0|0:0,0:0:0:0:
486,120,32284,2,0,P|493:168|472:213,1,99.9999999999999,8|8,0:0|0:0,0:0:0:0:
396,263,32970,6,0,L|179:243,1,200,12|8,0:1|0:0,0:0:0:0:
49,141,34325,2,0,L|266:161,1,200,2|8,0:0|0:0,0:0:0:0:
426,183,35681,5,2,0:0:0:0:
374,256,36020,2,0,L|265:246,2,99.9999999999999,0|8|0,0:0|0:0|0:0,0:0:0:0:
463,263,37037,2,0,P|514:184|466:103,1,200,2|8,0:0|0:0,0:0:0:0:
287,113,38393,86,0,P|225:122|88:85,1,200,2|8,0:0|0:0,0:0:0:0:
7,246,39749,2,0,P|69:237|206:274,1,200,2|8,0:0|0:0,0:0:0:0:
378,243,41105,6,0,L|385:343,2,99.9999999999999,2|0|8,0:0|0:0|0:0,0:0:0:0:
365,64,42461,2,0,L|237:85,1,99.9999999999999,2|0,0:0|0:0,0:0:0:0:
208,149,43139,2,0,L|80:170,1,99.9999999999999,8|0,0:0|0:0,0:0:0:0:
50,233,43817,86,0,P|115:306|211:328,1,200,12|8,0:1|0:0,0:0:0:0:
208,149,45173,2,0,P|177:96|280:34,1,200,2|8,0:0|0:0,0:0:0:0:
436,92,46529,5,2,0:0:0:0:
449,180,46868,2,0,L|466:289,2,99.9999999999999,0|8|0,0:0|0:0|0:0,0:0:0:0:
364,148,47885,2,0,P|290:83|192:83,1,200,2|8,0:0|0:0,0:0:0:0:
134,253,49241,86,0,B|153:300|153:300|285:367,1,200,2|8,0:0|0:0,0:0:0:0:
454,304,50597,2,0,B|435:257|435:257|302:189,1,200,2|8,0:0|0:0,0:0:0:0:
136,118,51953,6,0,L|342:90,1,200,2|8,0:0|0:0,0:0:0:0:
341,270,53308,2,0,L|238:284,1,99.9999999999999,2|0,0:0|0:0,0:0:0:0:
168,230,53986,1,8,0:0:0:0:
79,220,54325,1,8,0:0:0:0:
38,140,54664,22,0,L|64:34,1,99.9999999999999,2|2,0:0|0:0,0:0:0:0:
140,301,56035,1,8,0:3:0:0:
369,23,57406,2,0,P|381:92|437:125,1,99.9999999999999,2|2,0:0|0:0,0:0:0:0:
464,373,58778,2,0,P|478:268|496:213,2,150,8|8|0,0:3|0:3|0:0,0:0:0:0:
374,380,60149,85,2,0:0:0:0:
350,293,60492,1,2,0:0:0:0:
79,288,61521,1,8,0:3:0:0:
433,223,62892,2,0,P|442:163|422:126,1,99.9999999999999,2|2,0:0|0:0,0:0:0:0:
164,202,64264,2,0,P|94:180|63:114,2,150,8|8|8,0:3|0:3|0:3,0:0:0:0:
154,112,65635,6,0,P|203:121|241:153,1,99.9999999999999,2|2,0:0|0:0,0:0:0:0:
487,52,67006,1,8,0:3:0:0:
188,254,68378,1,2,0:0:0:0:
174,343,68721,1,2,0:0:0:0:
424,243,69749,2,0,P|442:318|516:379,2,150,8|8|0,0:3|0:3|0:0,0:0:0:0:
437,153,71121,86,0,P|440:92|418:32,1,99.9999999999999,2|2,0:0|0:0,0:0:0:0:
159,46,72492,1,8,0:3:0:0:
308,373,73864,2,0,L|312:243,1,99.9999999999999,2|2,0:0|0:0,0:0:0:0:
159,46,75235,2,0,L|153:229,1,150,8|8,0:0|0:0,0:0:0:0:
151,331,76264,1,8,0:0:0:0:
233,366,76606,38,0,P|283:376|358:375,1,99.9999999999999,12|2,0:1|0:0,0:0:0:0:
420,361,77292,1,8,0:0:0:0:
424,271,77635,1,2,0:0:0:0:
488,207,77978,1,2,0:0:0:0:
492,117,78321,1,2,0:0:0:0:
416,68,78664,2,0,L|291:79,1,99.9999999999999,8|0,0:0|0:0,0:0:0:0:
228,59,79349,6,0,L|98:49,1,99.9999999999999,0|2,0:0|0:0,0:0:0:0:
85,130,80035,2,0,P|127:155|150:198,2,99.9999999999999,8|2|2,0:0|0:0|0:0,0:0:0:0:
61,217,81064,2,0,P|34:257|33:306,2,99.9999999999999,8|2|2,0:0|0:0|0:0,0:0:0:0:
121,285,82092,86,0,P|176:321|220:332,1,99.9999999999999,2|2,0:0|0:0,0:0:0:0:
298,333,82778,2,0,L|309:204,1,99.9999999999999,8|2,0:0|0:0,0:0:0:0:
383,186,83464,2,0,L|394:57,1,99.9999999999999,2|2,0:0|0:0,0:0:0:0:
319,32,84149,2,0,P|289:86|227:117,1,99.9999999999999,8|0,0:0|0:0,0:0:0:0:
170,127,84835,6,0,P|105:131|42:155,1,99.9999999999999,0|2,0:0|0:0,0:0:0:0:
51,228,85521,2,0,P|70:298|136:329,2,150,8|8|8,0:0|0:0|0:0,0:0:0:0:
140,240,86892,2,0,L|262:247,1,99.9999999999999,2|8,0:0|0:0,0:0:0:0:
329,255,87578,86,0,P|359:195|404:176,1,99.9999999999999,2|2,0:0|0:0,0:0:0:0:
474,163,88264,2,0,P|432:103|360:94,1,150,8|8,0:0|0:0,0:0:0:0:
241,157,89292,2,0,P|198:130|173:82,1,99.9999999999999,8|8,0:0|0:0,0:0:0:0:
168,43,89806,1,2,0:0:0:0:
79,64,90149,6,0,L|65:229,1,150,2|2,0:0|0:0,0:0:0:0:
116,287,91006,2,0,P|183:317|216:383,2,150,8|8|8,0:0|0:0|0:0,0:0:0:0:
162,159,92549,1,8,0:0:0:0:
255,256,93064,86,0,L|367:287,1,99.9999999999999,2|2,0:0|0:0,0:0:0:0:
435,250,93749,2,0,P|405:182|424:93,1,150,8|8,0:0|0:0,0:0:0:0:
308,26,94778,2,0,P|262:67|169:74,1,150,8|8,0:0|0:0,0:0:0:0:
45,108,95806,5,0,0:0:0:0:
58,197,96149,2,0,L|76:309,1,99.9999999999999,2|8,0:0|0:0,0:0:0:0:
88,383,96835,1,2,0:0:0:0:
157,325,97178,86,0,P|218:308|262:318,1,99.9999999999999,8|8,0:0|0:0,0:0:0:0:
335,351,97864,2,0,P|391:371|449:356,1,99.9999999999999,8|8,0:0|0:0,0:0:0:0:
499,306,98549,22,0,B|519:249|492:196|471:228|443:175|462:120,1,200,12|8,0:1|0:0,0:0:0:0:
286,82,99904,2,0,B|306:138|279:191|258:159|230:212|249:267,1,200,2|8,0:0|0:0,0:0:0:0:
78,324,101260,5,2,0:0:0:0:
61,235,101599,1,0,0:0:0:0:
47,146,101938,2,0,L|123:82,1,99.9999999999999,8|0,0:0|0:0,0:0:0:0:
195,27,102616,1,2,0:0:0:0:
210,204,103294,2,0,L|328:229,1,99.9999999999999,8|0,0:0|0:0,0:0:0:0:
395,247,103972,86,0,P|420:172|403:23,1,200,2|8,0:0|0:0,0:0:0:0:
239,101,105328,2,0,P|140:110|44:82,1,200,2|8,0:0|0:0,0:0:0:0:
6,258,106684,6,0,B|0:310|34:350|34:350|82:328|97:277,1,200,2|8,0:0|0:0,0:0:0:0:
168,112,108040,2,0,B|183:61|231:38,1,99.9999999999999,2|0,0:0|0:0,0:0:0:0:
319,20,108718,2,0,P|381:40|419:76,1,99.9999999999999,8|0,0:0|0:0,0:0:0:0:
357,136,109396,86,0,P|315:238|313:344,1,200,12|8,0:1|0:0,0:0:0:0:
137,376,110752,2,0,P|129:276|94:181,1,200,2|8,0:0|0:0,0:0:0:0:
215,48,112108,5,2,0:0:0:0:
230,136,112447,1,0,0:0:0:0:
319,146,112786,2,0,L|444:162,1,99.9999999999999,8|0,0:0|0:0,0:0:0:0:
466,235,113464,1,2,0:0:0:0:
289,270,114142,2,0,P|227:305|183:350,1,99.9999999999999,8|0,0:0|0:0,0:0:0:0:
133,270,114820,86,0,P|157:212|179:71,1,200,2|8,0:0|0:0,0:0:0:0:
351,23,116176,2,0,P|382:107|403:247,1,200,2|8,0:0|0:0,0:0:0:0:
246,307,117532,6,0,P|231:361|163:292,1,200,2|8,0:0|0:0,0:0:0:0:
232,128,118887,2,0,P|233:78|207:36,1,99.9999999999999,2|0,0:0|0:0,0:0:0:0:
146,103,119565,1,8,0:0:0:0:
56,111,119904,1,8,0:0:0:0:
65,199,120243,22,0,L|75:298,1,99.9999999999999,2|2,0:0|0:0,0:0:0:0:
340,348,121613,1,8,0:0:0:0:
455,7,122984,2,0,P|425:52|362:81,1,99.9999999999999,2|2,0:0|0:0,0:0:0:0:
117,47,124356,1,8,0:0:0:0:
208,146,124870,2,0,P|224:223|221:322,1,150,8|0,0:0|0:0,0:0:0:0:
140,326,125727,85,2,0:0:0:0:
91,250,126070,1,2,0:0:0:0:
291,69,127099,1,8,0:0:0:0:
489,368,128470,2,0,L|476:252,1,99.9999999999999,2|2,0:0|0:0,0:0:0:0:
213,326,129842,2,0,P|141:330|36:288,2,150,8|8|8,0:0|0:0|0:0,0:0:0:0:
225,236,131213,6,0,P|253:183|287:159,1,99.9999999999999,2|2,0:0|0:0,0:0:0:0:
470,355,132584,1,8,0:0:0:0:
292,41,133956,1,2,0:0:0:0:
287,130,134299,1,2,0:0:0:0:
155,365,135327,2,0,P|150:295|131:207,2,150,8|8|0,0:0|0:0|0:0,0:0:0:0:
242,382,136699,86,0,P|291:357|324:325,1,99.9999999999999,2|2,0:0|0:0,0:0:0:0:
451,87,138070,1,8,0:0:0:0:
91,67,139442,2,0,L|93:176,1,99.9999999999999,2|2,0:0|0:0,0:0:0:0:
293,347,140813,2,0,L|295:186,2,150,8|8|8,0:0|0:0|0:0,0:0:0:0:
426,219,164127,6,0,L|412:350,1,99.9999999999999,10|10,0:0|0:0,0:0:0:0:
325,308,164813,2,0,L|180:293,1,99.9999999999999,10|10,0:0|0:0,0:0:0:0:
143,334,165499,2,0,L|-2:349,2,99.9999999999999,10|10|10,0:0|0:0|0:0,0:0:0:0:
152,244,166527,1,10,0:0:0:0:
103,168,166870,86,0,L|95:60,1,99.9999999999999,10|10,0:0|0:0,0:0:0:0:
185,78,167556,2,0,L|298:90,1,99.9999999999999,10|10,0:0|0:0,0:0:0:0:
368,121,168242,2,0,L|471:111,1,99.9999999999999,10|10,0:0|0:0,0:0:0:0:
459,200,168927,2,0,L|447:299,1,99.9999999999999,10|10,0:0|0:0,0:0:0:0:
356,304,169613,85,10,0:0:0:0:
266,296,169956,1,10,0:0:0:0:
183,333,170299,1,10,0:0:0:0:
93,325,170642,1,10,0:0:0:0:
12,365,170984,2,0,L|2:264,1,99.9999999999999,10|10,0:0|0:0,0:0:0:0:
38,182,171670,2,0,L|50:79,1,99.9999999999999,10|10,0:0|0:0,0:0:0:0:
256,192,172356,12,8,174413,0:0:0:0:
185,148,175099,86,0,L|169:48,2,99.9999999999999,12|0|8,0:1|0:0|0:0,0:0:0:0:
215,325,176454,2,0,P|246:241|338:184,1,200,2|8,0:0|0:0,0:0:0:0:
511,229,177810,5,2,0:0:0:0:
436,280,178149,2,0,L|444:379,2,99.9999999999999,0|8|0,0:0|0:0|0:0,0:0:0:0:
428,187,179166,2,0,B|422:105|422:105|415:31|352:24,1,200,2|8,0:0|0:0,0:0:0:0:
319,201,180522,86,0,P|271:311|192:354,1,200,2|8,0:0|0:0,0:0:0:0:
187,170,181878,2,0,P|235:60|314:17,1,200,2|8,0:0|0:0,0:0:0:0:
367,188,183234,6,0,P|421:236|462:251,2,99.9999999999999,2|0|8,0:0|0:0|0:0,0:0:0:0:
196,247,184590,1,2,0:0:0:0:
313,110,185268,2,0,P|270:80|222:65,1,99.9999999999999,8|0,0:0|0:0,0:0:0:0:
135,52,185946,86,0,B|115:101|126:149|126:149|89:181|75:234,1,200,12|8,0:1|0:0,0:0:0:0:
230,326,187302,2,0,P|260:264|407:214,1,200,2|8,0:0|0:0,0:0:0:0:
414,34,188658,5,2,0:0:0:0:
344,91,188997,2,0,L|237:101,1,99.9999999999999,0|8,0:0|0:0,0:0:0:0:
154,108,189675,1,0,0:0:0:0:
75,60,190014,2,0,P|75:155|159:199,1,200,2|8,0:0|0:0,0:0:0:0:
338,181,191370,86,0,P|420:227|417:323,1,200,2|8,0:0|0:0,0:0:0:0:
239,351,192726,2,0,P|171:356|128:351,2,99.9999999999999,2|0|8,0:0|0:0|0:0,0:0:0:0:
256,192,194082,12,8,196115,0:0:0:0:
142,66,196793,5,14,0:1:0:0:
218,113,197132,2,0,L|349:120,1,99.9999999999999,8|0,0:0|0:0,0:0:0:0:
407,124,197810,1,8,0:0:0:0:
357,199,198149,1,2,0:0:0:0:
374,287,198488,2,0,L|258:303,1,99.9999999999999,8|0,0:0|0:0,0:0:0:0:
185,311,199166,1,8,0:0:0:0:
102,346,199505,53,2,0:0:0:0:
114,256,199844,2,0,P|109:199|76:155,1,99.9999999999999,8|0,3:0|0:0,0:0:0:0:
14,108,200522,1,8,0:0:0:0:
25,18,200861,1,2,0:0:0:0:
112,1,201200,2,0,P|118:50|150:88,2,99.9999999999999,8|0|8,0:0|0:0|0:0,0:0:0:0:
202,14,202217,37,2,0:0:0:0:
291,24,202556,2,0,L|307:144,1,99.9999999999999,8|0,0:0|0:0,0:0:0:0:
393,138,203234,1,8,0:0:0:0:
482,150,203573,1,2,0:0:0:0:
474,239,203912,2,0,L|464:358,1,99.9999999999999,8|0,0:0|0:0,0:0:0:0:
377,359,204590,1,8,0:0:0:0:
361,270,204929,53,2,0:0:0:0:
271,267,205268,2,0,L|164:263,1,99.9999999999999,8|0,0:0|0:0,0:0:0:0:
80,258,205946,1,8,0:0:0:0:
72,168,206285,1,2,0:0:0:0:
163,174,206624,2,0,L|262:177,2,99.9999999999999,8|2|8,0:0|0:0|0:0,0:0:0:0:
173,84,207641,37,14,0:1:0:0:
258,55,207980,2,0,P|322:50|373:59,1,99.9999999999999,8|0,0:0|0:0,0:0:0:0:
371,143,208658,1,8,0:0:0:0:
460,148,208997,1,2,0:0:0:0:
482,235,209336,2,0,P|470:296|444:332,1,99.9999999999999,8|0,0:0|0:0,0:0:0:0:
365,361,210014,1,8,0:0:0:0:
340,274,210353,53,2,0:0:0:0:
250,270,210692,2,0,B|200:268|200:268|155:304,1,99.9999999999999,8|0,0:0|0:0,0:0:0:0:
88,352,211370,1,8,0:0:0:0:
79,262,211709,1,2,0:0:0:0:
5,209,212048,2,0,L|0:108,2,99.9999999999999,8|0|8,0:0|0:0|0:0,0:0:0:0:
89,176,213065,37,2,0:0:0:0:
162,227,213404,2,0,L|282:236,1,99.9999999999999,8|0,0:0|0:0,0:0:0:0:
351,243,214082,1,8,0:0:0:0:
386,160,214421,1,2,0:0:0:0:
317,100,214760,2,0,P|326:52|353:10,2,99.9999999999999,8|0|8,0:0|0:0|0:0,0:0:0:0:
241,147,215776,53,2,0:0:0:0:
261,234,216115,2,0,P|251:282|224:324,1,99.9999999999999,8|0,0:0|0:0,0:0:0:0:
138,353,216793,1,8,0:0:0:0:
49,336,217132,1,2,0:0:0:0:
108,268,217471,1,8,0:0:0:0:
77,183,217810,6,0,L|73:76,1,99.9999999999999,8|8,0:0|0:0,0:0:0:0:
256,192,218488,12,0,220522,0:0:0:0:
