osu file format v14

[General]
AudioFilename: audio.mp3
AudioLeadIn: 0
PreviewTime: 10162
Countdown: 0
SampleSet: None
StackLeniency: 0.6
Mode: 0
LetterboxInBreaks: 0
WidescreenStoryboard: 0

[Editor]
Bookmarks: 11027,32970,54664,76606,98549,120242,142184,164127,175099,196793
DistanceSpacing: 1.5
BeatDivisor: 4
GridSize: 4
TimelineZoom: 1.100006

[Metadata]
Title:The Last Garrison
TitleUnicode:The Last Garrison
Artist:Enter Shikari
ArtistUnicode:Enter Shikari
Creator:h4d0uk3n1
Version:Insane
Source:
Tags:mindsweep trancecore alternative drum and bass
BeatmapID:1360038
BeatmapSetID:638666

[Difficulty]
HPDrainRate:5
CircleSize:3.7
OverallDifficulty:8
ApproachRate:9
SliderMultiplier:1.5
SliderTickRate:1

[Events]
//Background and Video events
0,0,"bgbgbg.jpg",0,0
//Break Periods
2,142184,163527
//Storyboard Layer 0 (Background)
//Storyboard Layer 1 (Fail)
//Storyboard Layer 2 (Pass)
//Storyboard Layer 3 (Foreground)
//Storyboard Sound Samples

[TimingPoints]
9656,342.857142857143,4,3,3,75,1,0
11027,-100,4,3,3,75,0,1
11198,-100,4,3,3,75,0,0
31770,-100,4,3,3,25,0,0
31856,-100,4,3,3,50,0,0
31941,-100,4,3,3,75,0,0
32284,-100,4,3,3,49,0,0
32370,-100,4,3,3,62,0,0
32456,-100,4,3,3,75,0,0
32970,338.983050847458,4,3,3,75,1,0
32970,-153.846153846154,4,3,3,75,0,0
43308,-300,4,3,3,75,0,0
43817,-153.846153846154,4,3,3,75,0,0
54664,342.857142857143,4,3,3,50,1,0
54664,-200,4,3,3,50,0,0
76606,-100,4,3,3,75,0,1
76778,-100,4,3,3,75,0,0
97349,-100,4,3,3,25,0,0
97435,-100,4,3,3,50,0,0
97521,-100,4,3,3,75,0,0
97864,-100,4,3,3,49,0,0
97949,-100,4,3,3,62,0,0
98035,-100,4,3,3,75,0,0
98549,338.983050847458,4,3,3,75,1,0
98549,-153.846153846154,4,3,3,75,0,0
108887,-300,4,3,3,75,0,0
109396,-153.846153846154,4,3,3,75,0,0
120242,342.857142857143,4,3,3,50,1,0
120242,-200,4,3,3,50,0,0
142184,-200,4,3,3,30,0,0
169613,-166.666666666667,4,3,3,30,0,0
170299,-142.857142857143,4,3,3,40,0,0
170984,-125,4,3,3,50,0,0
171670,-111.111111111111,4,3,3,60,0,0
172356,-100,4,3,3,40,0,0
173642,-100,4,3,3,75,0,0
173813,-100,4,3,3,40,0,0
173984,-100,4,3,3,75,0,0
174413,-100,4,3,3,49,0,0
174499,-100,4,3,3,62,0,0
174584,-100,4,3,3,75,0,0
174756,-300,4,3,3,75,0,0
175099,338.983050847458,4,3,3,75,1,0
175099,-153.846153846154,4,3,3,75,0,0
185437,-300,4,3,3,75,0,0
185946,-153.846153846154,4,3,3,75,0,0
194082,-100,4,3,3,75,0,0
196793,-80,4,3,3,75,0,1
207471,-80,4,3,3,75,0,0
207641,-80,4,3,3,75,0,1
218488,-200,4,3,3,20,0,0

[Colours]
Combo1 : 0,128,255
Combo2 : 167,167,167
Combo3 : 255,51,51
Combo4 : 160,0,0
Combo5 : 255,255,0
Combo6 : 255,128,0
Combo7 : 0,0,128

[HitObjects]
162,49,10341,6,0,P|176:86|180:135,1,75,0|0,0:0|0:0,0:0:0:0:
72,154,10684,2,0,P|58:117|54:68,1,75,0|0,0:0|0:0,0:0:0:0:
170,40,11027,6,0,P|185:90|186:193,1,150,12|2,0:1|0:0,0:0:0:0:
122,343,11541,1,2,0:0:0:0:
122,343,11627,1,2,0:0:0:0:
122,343,11713,6,0,L|37:353,1,75,8|2,0:0|0:0,0:0:0:0:
217,292,12055,2,0,L|138:258,1,75,2|2,0:0|0:0,0:0:0:0:
324,295,12398,2,0,L|272:226,1,75,2|2,0:0|0:0,0:0:0:0:
415,351,12741,2,0,L|405:265,1,75,2|2,0:0|0:0,0:0:0:0:
408,98,13084,86,0,L|425:247,1,150,8|0,0:0|0:0,0:0:0:0:
324,295,13598,1,2,0:0:0:0:
435,278,13770,2,0,L|511:265,2,75,0|0|2,0:0|0:0|0:0,0:0:0:0:
324,295,14284,1,2,0:0:0:0:
324,314,14370,1,2,0:0:0:0:
324,332,14455,6,0,L|250:344,2,75,8|2|2,0:0|0:0|0:0,0:0:0:0:
150,359,14970,2,0,L|176:286,2,75,8|2|2,0:0|0:0|0:0,0:0:0:0:
213,194,15484,2,0,P|244:220|288:233,1,75,8|0,0:0|0:0,0:0:0:0:
448,224,15827,1,2,0:0:0:0:
448,224,15912,1,2,0:0:0:0:
448,224,15998,1,8,0:0:0:0:
347,172,16170,1,2,0:0:0:0:
352,284,16341,1,2,0:0:0:0:
404,111,16513,86,0,P|349:39|267:19,1,150,2|2,0:0|0:0,0:0:0:0:
131,42,17027,1,2,0:0:0:0:
131,42,17113,1,2,0:0:0:0:
131,42,17198,6,0,L|140:132,1,75,8|2,0:0|0:0,0:0:0:0:
155,291,17541,2,0,L|146:201,1,75,2|2,0:0|0:0,0:0:0:0:
150,40,17884,2,0,L|159:130,1,75,2|2,0:0|0:0,0:0:0:0:
174,289,18227,2,0,L|165:199,1,75,2|2,0:0|0:0,0:0:0:0:
169,38,18570,86,0,L|178:128,2,75,8|2|0,0:0|0:0|0:0,0:0:0:0:
281,50,19084,1,2,0:0:0:0:
277,162,19256,6,0,L|272:263,1,75,0|0,0:0|0:0,0:0:0:0:
290,348,19598,2,0,L|294:246,1,75,2|2,0:0|0:0,0:0:0:0:
294,257,19856,1,2,0:0:0:0:
294,242,19941,86,0,L|381:248,2,75,8|2|2,0:0|0:0|0:0,0:0:0:0:
462,240,20456,2,0,L|375:234,2,75,8|2|2,0:0|0:0|0:0,0:0:0:0:
294,227,20970,2,0,L|219:221,1,75,8|0,0:0|0:0,0:0:0:0:
106,214,21313,2,0,L|68:211,2,37.5,2|2|8,0:0|0:0|0:0,0:0:0:0:
214,245,21656,1,8,0:0:0:0:
101,237,21827,1,0,0:0:0:0:
247,323,21998,6,0,P|294:335|401:345,1,150,2|2,0:0|0:0,0:0:0:0:
328,189,22513,1,2,0:0:0:0:
328,189,22598,1,2,0:0:0:0:
328,189,22684,2,0,P|323:146|362:39,1,150,8|2,0:0|0:0,0:0:0:0:
247,176,23198,2,0,P|205:203|101:238,1,150,8|2,0:3|0:0,0:0:0:0:
279,251,23713,2,0,P|313:261|354:281,2,75,8|0|8,0:3|0:0|0:3,0:0:0:0:
380,115,24227,86,0,P|367:159|344:198,1,75,2|0,0:0|0:0,0:0:0:0:
332,16,24570,2,0,P|281:78|207:114,1,150,2|0,0:0|0:0,0:0:0:0:
107,114,25084,2,0,P|137:153|145:183,1,75,2|0,0:0|0:0,0:0:0:0:
130,346,25427,6,0,P|176:279|241:234,1,150,8|2,0:0|0:0,0:0:0:0:
341,216,25941,2,0,P|356:269|433:334,1,150,8|2,0:0|0:0,0:0:0:0:
443,335,26370,1,2,0:0:0:0:
461,338,26456,2,0,P|480:278|465:179,1,150,8|2,0:0|0:0,0:0:0:0:
410,96,26970,2,0,P|390:58|384:20,2,75,8|2|0,0:0|0:0|0:0,0:0:0:0:
257,22,27484,86,0,P|194:14|91:17,1,150,2|2,0:0|0:0,0:0:0:0:
20,220,28170,2,0,P|83:241|173:305,1,150,8|2,0:0|0:0,0:0:0:0:
233,365,28684,2,0,P|276:316|370:268,1,150,8|2,0:0|0:0,0:0:0:0:
461,261,29198,2,0,P|443:207|442:176,1,75,8|0,0:0|0:0,0:0:0:0:
447,76,29541,1,2,0:0:0:0:
279,55,29713,6,0,L|188:44,1,75,8|2,0:0|0:0,0:0:0:0:
257,206,30056,2,0,L|348:217,2,75,8|0|0,0:0|0:0|0:0,0:0:0:0:
144,192,30570,86,0,L|69:182,1,75,2|0,0:0|0:0,0:0:0:0:
14,281,30913,2,0,P|73:292|164:353,1,150,8|2,0:0|0:0,0:0:0:0:
316,364,31427,1,8,0:0:0:0:
257,206,31598,5,8,0:0:0:0:
228,384,31770,1,8,0:0:0:0:
228,384,31856,1,8,0:0:0:0:
228,384,31941,1,8,0:0:0:0:
335,252,32113,1,8,0:0:0:0:
169,226,32284,1,8,0:0:0:0:
169,226,32370,1,8,0:0:0:0:
168,225,32456,2,0,P|172:188|188:155,2,75,8|8|0,0:0|0:0|0:0,0:0:0:0:
174,128,32970,6,0,P|192:85|200:30,1,97.4999955368044,12|0,0:1|0:0,0:0:0:0:
345,48,33647,2,0,L|393:52,1,48.7499977684022,8|0,0:0|0:0,0:0:0:0:
458,86,33986,2,0,L|409:81,1,48.7499977684022,0|0,0:0|0:0,0:0:0:0:
389,112,34325,6,0,L|379:215,1,97.4999955368044,2|0,0:0|0:0,0:0:0:0:
368,355,35003,2,0,L|372:306,1,48.7499977684022,8|0,0:0|0:0,0:0:0:0:
349,236,35342,2,0,L|344:284,1,48.7499977684022,0|0,0:0|0:0,0:0:0:0:
310,298,35681,86,0,L|212:289,1,97.4999955368044,2|0,0:0|0:0,0:0:0:0:
81,353,36359,2,0,L|137:358,2,48.7499977684022,8|0|0,0:0|0:0|0:0,0:0:0:0:
93,317,36868,1,0,0:0:0:0:
103,281,37037,6,0,B|104:182,1,97.4999955368044,2|0,0:0|0:0,0:0:0:0:
106,36,37715,2,0,L|58:25,2,48.7499977684022,8|0|0,0:0|0:0|0:0,0:0:0:0:
248,72,38393,86,0,P|236:130|244:168,1,97.4999955368044,2|0,0:0|0:0,0:0:0:0:
339,277,39071,2,0,P|284:253|245:253,1,97.4999955368044,8|0,0:0|0:0,0:0:0:0:
112,311,39749,6,0,P|170:303|204:283,1,97.4999955368044,2|0,0:0|0:0,0:0:0:0:
260,149,40427,2,0,P|302:126|351:122,1,97.4999955368044,8|0,0:0|0:0,0:0:0:0:
408,257,41105,85,2,0:0:0:0:
322,278,41444,1,0,0:0:0:0:
180,241,41783,1,8,0:0:0:0:
94,230,42122,1,0,0:0:0:0:
126,87,42461,6,0,P|138:133|187:145,1,97.4999955368044,2|0,0:0|0:0,0:0:0:0:
321,102,43139,1,8,0:0:0:0:
341,242,43308,38,0,L|333:181,1,62.5,0|0,0:0|0:0,0:0:0:0:
326,174,43817,38,0,L|339:270,1,97.4999955368044,12|0,0:1|0:0,0:0:0:0:
223,359,44495,1,8,0:0:0:0:
237,325,44664,1,0,0:0:0:0:
240,289,44834,1,0,0:0:0:0:
231,254,45003,1,0,0:0:0:0:
211,224,45173,6,0,P|192:190|190:130,1,97.4999955368044,2|0,0:0|0:0,0:0:0:0:
304,41,45851,1,8,0:0:0:0:
301,77,46020,1,0,0:0:0:0:
298,113,46190,1,0,0:0:0:0:
295,150,46359,1,0,0:0:0:0:
292,186,46529,86,0,L|311:286,1,97.4999955368044,2|0,0:0|0:0,0:0:0:0:
455,302,47207,2,0,L|450:352,2,48.7499977684022,8|0|0,0:0|0:0|0:0,0:0:0:0:
459,265,47715,1,0,0:0:0:0:
463,229,47885,6,0,P|434:228|400:166,1,97.4999955368044,2|0,0:0|0:0,0:0:0:0:
502,71,48563,2,0,L|509:127,2,48.7499977684022,8|0|0,0:0|0:0|0:0,0:0:0:0:
355,61,49241,86,0,L|257:55,1,97.4999955368044,2|0,0:0|0:0,0:0:0:0:
111,51,49919,2,0,P|149:80|168:124,1,97.4999955368044,8|0,0:0|0:0,0:0:0:0:
166,271,50597,6,0,P|188:222|231:200,1,97.4999955368044,2|0,0:0|0:0,0:0:0:0:
361,255,51275,2,0,L|355:359,1,97.4999955368044,8|0,0:0|0:0,0:0:0:0:
493,304,51953,85,2,0:0:0:0:
480,218,52292,1,0,0:0:0:0:
505,73,52631,1,8,0:0:0:0:
427,32,52970,1,0,0:0:0:0:
294,91,53308,6,0,P|312:126|324:190,1,97.4999955368044,2|0,0:0|0:0,0:0:0:0:
300,327,53986,54,0,L|241:335,1,48.7499977684022,8|8,0:0|0:0,0:0:0:0:
463,307,54325,2,0,L|404:315,1,48.7499977684022,8|8,0:0|0:0,0:0:0:0:
303,304,54664,70,0,L|215:316,1,75,2|2,0:0|0:0,0:0:0:0:
111,329,55349,2,0,P|111:349|107:371,2,37.5,0|0|0,0:0|0:0|0:0,0:0:0:0:
27,340,55864,1,2,0:0:0:0:
40,201,56035,2,0,L|43:163,1,37.5,8|2,0:3|0:0,0:0:0:0:
51,79,56378,2,0,P|71:118|178:154,1,150
277,135,57406,86,0,L|281:220,1,75,2|2,0:0|0:0,0:0:0:0:
362,230,57921,2,0,L|366:145,2,75,0|0|2,0:0|0:0|0:0,0:0:0:0:
360,377,58778,1,8,0:3:0:0:
360,377,58949,2,0,L|360:331,1,37.5,8|2,0:3|0:0,0:0:0:0:
231,277,59292,2,0,L|230:314,1,37.5,8|0,0:3|0:0,0:0:0:0:
155,355,59635,2,0,L|155:382,2,18.75,0|0|0,0:0|0:0|0:0,0:0:0:0:
72,338,59978,1,2,0:0:0:0:
127,274,60149,6,0,P|127:234|106:190,1,75,2|2,0:0|0:0,0:0:0:0:
48,110,60835,2,0,P|40:92|38:74,2,37.5,0|0|0,0:0|0:0|0:0,0:0:0:0:
123,71,61349,1,2,0:0:0:0:
107,213,61521,2,0,L|103:250,1,37.5,8|2,0:3|0:0,0:0:0:0:
95,334,61864,2,0,P|170:342|243:374,1,150,0|0,0:0|0:0,0:0:0:0:
349,383,62892,86,0,L|431:374,1,75,2|2,0:0|0:0,0:0:0:0:
434,290,63406,2,0,P|452:256|480:229,2,75,0|0|2,0:0|0:0|0:0,0:0:0:0:
443,146,64264,2,0,L|444:108,2,37.5,8|0|2,0:3|0:0|0:0,0:0:0:0:
327,64,64778,2,0,L|328:24,2,37.5,8|0|2,0:3|0:0|0:0,0:0:0:0:
191,109,65292,1,8,0:0:0:0:
202,220,65635,6,0,L|209:293,1,75,2|2,0:0|0:0,0:0:0:0:
322,304,66321,2,0,L|320:341,2,37.5
323,219,66835,1,2,0:0:0:0:
465,220,67006,2,0,L|455:183,1,37.5,8|2,0:3|0:0,0:0:0:0:
433,102,67349,2,0,P|371:117|316:110,1,112.5
157,76,68378,86,0,L|161:164,1,75,2|2,0:0|0:0,0:0:0:0:
169,235,68892,2,0,P|127:247|95:272,2,75,0|0|2,0:0|0:0|0:0,0:0:0:0:
312,241,69749,2,0,L|318:285,2,37.5,8|8|2,0:3|0:3|0:0,0:0:0:0:
292,99,70264,2,0,L|286:61,1,37.5,8|0,0:3|0:0,0:0:0:0:
203,46,70606,2,0,L|204:21,2,18.75,0|0|0,0:0|0:0|0:0,0:0:0:0:
201,130,70949,1,2,0:0:0:0:
117,119,71121,6,0,P|64:124|31:136,1,75,2|2,0:0|0:0,0:0:0:0:
53,242,71806,2,0,L|57:281,2,37.5,0|0|0,0:0|0:0|0:0,0:0:0:0:
129,205,72321,1,2,0:0:0:0:
136,347,72492,2,0,L|91:352,2,37.5,8|2|0,0:3|0:0|0:0,0:0:0:0:
220,343,73006,2,0,L|299:356,1,75,0|0,0:0|0:0,0:0:0:0:
379,370,73521,1,0,0:0:0:0:
411,261,73864,86,0,P|407:218|416:181,1,75,2|2,0:0|0:0,0:0:0:0:
441,78,74549,2,0,P|427:97|409:108,1,37.5,0|0,0:0|0:0,0:0:0:0:
302,101,75064,69,2,0:0:0:0:
136,125,75235,1,8,0:0:0:0:
182,128,75578,5,2,0:0:0:0:
360,185,75749,1,8,0:0:0:0:
316,191,76092,53,2,0:0:0:0:
115,241,76264,1,8,0:0:0:0:
374,256,76606,6,0,P|367:309|348:355,1,75,12|0,0:1|0:0,0:0:0:0:
247,321,76949,2,0,P|195:330|149:350,1,75,2|2,0:0|0:0,0:0:0:0:
176,318,77206,1,2,0:0:0:0:
177,297,77292,86,0,L|183:206,1,75,8|2,0:0|0:0,0:0:0:0:
192,53,77635,2,0,L|187:127,1,75,2|2,0:0|0:0,0:0:0:0:
195,295,77978,2,0,L|201:204,1,75,2|2,0:0|0:0,0:0:0:0:
210,51,78321,2,0,L|205:125,1,75,2|2,0:0|0:0,0:0:0:0:
213,293,78664,5,8,0:0:0:0:
322,268,78835,2,0,P|324:305|313:341,2,75,2|0|2,0:0|0:0|0:0,0:0:0:0:
428,306,79349,86,0,P|430:249|393:143,1,150,0|2,0:0|0:0,0:0:0:0:
258,75,79864,1,2,0:0:0:0:
258,75,79949,1,2,0:0:0:0:
258,75,80035,6,0,L|263:0,2,75,8|2|2,0:0|0:0|0:0,0:0:0:0:
90,51,80549,2,0,L|97:144,2,75,8|2|2,3:0|0:0|0:0,0:0:0:0:
219,160,81064,2,0,L|214:250,1,75,8|0,0:0|3:0,0:0:0:0:
314,369,81406,1,2,0:0:0:0:
314,369,81492,1,2,0:0:0:0:
314,369,81578,1,8,0:0:0:0:
295,258,81749,1,2,0:0:0:0:
208,330,81921,1,2,0:0:0:0:
374,301,82092,86,0,L|384:121,1,150,2|2,0:0|0:0,0:0:0:0:
294,6,82606,1,2,0:0:0:0:
294,6,82692,1,2,0:0:0:0:
294,6,82778,6,0,P|304:47|340:95,1,75,8|2,0:0|0:0,0:0:0:0:
156,36,83121,2,0,P|185:66|240:90,1,75,2|2,0:0|0:0,0:0:0:0:
51,130,83464,2,0,P|91:141|151:134,1,75,2|2,0:0|0:0,0:0:0:0:
7,263,83806,2,0,P|48:253|96:217,1,75,2|2,0:0|0:0,0:0:0:0:
192,359,84149,85,8,0:0:0:0:
159,250,84321,2,0,P|181:179|241:136,1,150,2|2,0:0|0:0,0:0:0:0:
271,245,84835,6,0,P|290:291|313:327,1,75,0|0,0:0|0:0,0:0:0:0:
393,379,85178,2,0,P|394:331|407:289,1,75,2|2,0:0|0:0,0:0:0:0:
409,288,85435,1,2,0:0:0:0:
417,271,85521,86,0,P|435:223|438:183,2,75,8|2|2,0:0|0:0|0:0,0:0:0:0:
262,202,86035,2,0,P|253:151|236:115,2,75,8|2|2,0:0|0:0|0:0,0:0:0:0:
93,219,86549,2,0,P|60:179|27:156,1,75,8|0,0:0|0:0,0:0:0:0:
132,308,86892,2,0,L|130:354,2,37.5,2|2|8,0:0|0:0|0:0,0:0:0:0:
244,315,87235,1,8,0:0:0:0:
355,322,87406,1,0,0:0:0:0:
413,163,87578,6,0,B|380:181|341:176|341:176|326:139|335:102,1,150,2|2,0:0|0:0,0:0:0:0:
179,37,88092,1,2,0:0:0:0:
179,37,88178,1,2,0:0:0:0:
179,37,88264,2,0,P|162:116|171:211,1,150,8|2,0:0|0:0,0:0:0:0:
243,334,88778,2,0,P|260:255|251:160,1,150,8|2,0:0|0:0,0:0:0:0:
350,326,89292,2,0,P|359:289|361:252,2,75,8|0|8,0:0|0:0|0:0,0:0:0:0:
342,155,89806,86,0,P|355:191|375:222,1,75,2|0,0:0|0:0,0:0:0:0:
398,55,90149,2,0,P|443:112|528:149,1,150,2|0,0:0|0:0,0:0:0:0:
477,254,90664,2,0,P|463:314|460:358,1,75,2|0,0:0|0:0,0:0:0:0:
292,324,91006,6,0,P|240:328|133:350,1,150,8|2,0:0|0:0,0:0:0:0:
14,237,91521,2,0,P|66:233|173:211,1,150,8|2,0:0|0:0,0:0:0:0:
180,209,91949,1,2,0:0:0:0:
197,203,92035,2,0,P|145:150|137:77,1,150,8|2,0:0|0:0,0:0:0:0:
247,102,92549,2,0,L|320:118,2,75,8|2|0,0:0|0:0|0:0,0:0:0:0:
395,20,93064,86,0,P|348:76|348:160,1,150,2|2,0:0|0:0,0:0:0:0:
408,366,93749,2,0,P|383:295|309:234,1,150,8|2,0:0|0:0,0:0:0:0:
219,213,94264,2,0,P|279:169|299:99,1,150,8|2,0:0|0:0,0:0:0:0:
238,4,94778,2,0,P|267:26|289:57,1,75,8|0,0:0|0:0,0:0:0:0:
186,104,95121,1,2,0:0:0:0:
197,272,95292,6,0,L|201:346,1,75,8|2,0:0|0:0,0:0:0:0:
369,369,95635,2,0,L|452:379,2,75,0|0|0,0:0|0:0|0:0,0:0:0:0:
332,262,96149,86,0,P|354:226|396:199,1,75,2|0,0:0|0:0,0:0:0:0:
487,170,96492,2,0,P|412:177|341:154,1,150,8|2,0:0|0:0,0:0:0:0:
433,11,97006,1,8,0:0:0:0:
283,90,97178,5,8,0:0:0:0:
123,34,97349,1,8,0:0:0:0:
123,34,97435,1,8,0:0:0:0:
123,34,97521,1,8,0:0:0:0:
154,199,97692,1,8,0:0:0:0:
210,41,97864,1,8,0:0:0:0:
210,41,97950,1,8,0:0:0:0:
210,41,98035,2,0,P|206:78|208:115,2,75,8|8|0,0:0|0:0|0:0,0:0:0:0:
232,137,98549,6,0,P|236:183|231:243,1,97.4999955368044,12|0,0:1|0:0,0:0:0:0:
190,374,99226,1,8,0:0:0:0:
224,361,99395,1,0,0:0:0:0:
260,356,99564,1,0,0:0:0:0:
296,360,99734,1,0,0:0:0:0:
331,373,99904,6,0,P|351:323|346:270,1,97.4999955368044,2|0,0:0|0:0,0:0:0:0:
285,147,100582,1,8,0:0:0:0:
298,180,100752,1,0,0:0:0:0:
319,210,100921,1,0,0:0:0:0:
347,233,101091,1,0,0:0:0:0:
381,248,101260,86,0,P|376:214|383:150,1,97.4999955368044,2|0,0:0|0:0,0:0:0:0:
431,14,101938,2,0,P|426:37|418:60,2,48.7499977684022,8|0|0,0:0|0:0|0:0,0:0:0:0:
396,23,102447,1,0,0:0:0:0:
359,29,102616,6,0,P|299:32|260:25,1,97.4999955368044,2|0,0:0|0:0,0:0:0:0:
131,91,103294,2,0,P|128:63|121:43,2,48.7499977684022,8|0|0,0:0|0:0|0:0,0:0:0:0:
120,237,103972,86,0,P|122:297|142:335,1,97.4999955368044,2|0,0:0|0:0,0:0:0:0:
282,304,104650,2,0,P|322:302|384:314,1,97.4999955368044,8|0,0:0|0:0,0:0:0:0:
265,218,105328,6,0,P|235:187|208:134,1,97.4999955368044,2|0,0:0|0:0,0:0:0:0:
74,83,106006,2,0,P|103:113|130:166,1,97.4999955368044,8|0,0:0|0:0,0:0:0:0:
61,292,106684,85,2,0:0:0:0:
143,323,107023,1,0,0:0:0:0:
195,186,107362,1,8,0:0:0:0:
280,176,107701,1,0,0:0:0:0:
289,321,108040,6,0,P|316:365|358:371,1,97.4999955368044,2|0,0:0|0:0,0:0:0:0:
467,272,108718,1,8,0:0:0:0:
458,130,108887,38,0,L|461:192,1,62.5,0|0,0:0|0:0,0:0:0:0:
471,194,109396,38,0,L|465:89,1,97.4999955368044,12|0,0:1|0:0,0:0:0:0:
325,54,110074,2,0,L|328:106,1,48.7499977684022,8|0,0:0|0:0,0:0:0:0:
309,134,110413,2,0,L|306:186,1,48.7499977684022,0|0,0:0|0:0,0:0:0:0:
336,202,110752,6,0,L|342:307,1,97.4999955368044,2|0,0:0|0:0,0:0:0:0:
204,352,111430,2,0,L|201:299,1,48.7499977684022,8|0,0:0|0:0,0:0:0:0:
224,274,111769,2,0,L|227:221,1,48.7499977684022,0|0,0:0|0:0,0:0:0:0:
194,207,112108,86,0,L|188:102,1,97.4999955368044,2|0,0:0|0:0,0:0:0:0:
45,76,112786,2,0,L|52:25,2,48.7499977684022,8|0|0,0:0|0:0|0:0,0:0:0:0:
61,109,113294,1,0,0:0:0:0:
77,141,113464,6,0,L|80:241,1,97.4999955368044,2|0,0:0|0:0,0:0:0:0:
154,364,114142,2,0,L|152:314,2,48.7499977684022,8|0|0,0:0|0:0|0:0,0:0:0:0:
195,222,114820,86,0,P|206:175|235:137,1,97.4999955368044,2|0,0:0|0:0,0:0:0:0:
342,238,115498,2,0,P|382:265|412:305,1,97.4999955368044,8|0,0:0|0:0,0:0:0:0:
392,158,116176,6,0,P|382:106|393:57,1,97.4999955368044,2|0,0:0|0:0,0:0:0:0:
244,74,116854,2,0,P|195:91|159:125,1,97.4999955368044,8|0,0:0|0:0,0:0:0:0:
190,265,117532,85,2,0:0:0:0:
203,353,117871,1,0,0:0:0:0:
310,254,118210,1,8,0:0:0:0:
330,169,118549,1,0,0:0:0:0:
430,274,118887,6,0,L|458:367,1,97.4999955368044,2|0,0:0|0:0,0:0:0:0:
504,227,119565,54,0,L|509:178,1,48.7499977684022,8|8,0:0|0:0,0:0:0:0:
413,0,119904,2,0,L|418:49,1,48.7499977684022,8|8,0:0|0:0,0:0:0:0:
362,145,120242,70,0,P|314:125|285:121,1,75,2|2,0:0|0:0,0:0:0:0:
179,129,120927,2,0,L|177:85,2,37.5,0|0|0,0:0|0:0|0:0,0:0:0:0:
183,213,121442,1,2,0:0:0:0:
324,222,121613,2,0,L|319:263,1,37.5,8|2,0:0|0:0,0:0:0:0:
309,343,121956,2,0,P|267:327|167:352,1,150,0|0,0:0|0:0,0:0:0:0:
56,361,122984,86,0,P|72:316|73:281,1,75,2|2,0:0|0:0,0:0:0:0:
59,205,123499,2,0,P|53:165|64:128,2,75,0|0|2,0:0|0:0|0:0,0:0:0:0:
201,181,124356,1,8,0:0:0:0:
201,181,124527,2,0,L|206:225,1,37.5,8|2,0:0|0:0,0:0:0:0:
220,358,124870,2,0,L|227:314,1,37.5,8|0,0:0|0:0,0:0:0:0:
303,286,125213,2,0,L|301:260,2,18.75,0|0|0,0:0|0:0|0:0,0:0:0:0:
311,370,125556,1,2,0:0:0:0:
395,377,125727,6,0,L|474:382,1,75,2|2,0:0|0:0,0:0:0:0:
482,269,126413,2,0,L|487:226,2,37.5,0|0|0,0:0|0:0|0:0,0:0:0:0:
405,304,126927,1,2,0:0:0:0:
400,161,127099,2,0,L|398:119,1,37.5,8|2,0:0|0:0,0:0:0:0:
397,39,127442,2,0,P|387:61|275:83,1,150,0|0,0:0|0:0,0:0:0:0:
164,94,128470,86,0,L|85:102,1,75,2|2,0:0|0:0,0:0:0:0:
22,152,128984,2,0,L|96:144,2,75,0|0|2,0:0|0:0|0:0,0:0:0:0:
20,296,129842,2,0,L|19:333,2,37.5,8|0|2,0:0|0:0|0:0,0:0:0:0:
153,245,130356,2,0,L|153:206,2,37.5,8|0|2,0:0|0:0|0:0,0:0:0:0:
257,343,130870,1,8,0:0:0:0:
261,230,131213,6,0,L|264:153,1,75,2|2,0:0|0:0,0:0:0:0:
376,156,131899,2,0,L|416:156,2,37.5,0|0|0,0:0|0:0|0:0,0:0:0:0:
372,71,132413,1,2,0:0:0:0:
229,67,132584,2,0,L|186:66,1,37.5,8|2,0:0|0:0,0:0:0:0:
106,62,132927,2,0,P|115:94|79:167,1,112.5,0|0,0:0|0:0,0:0:0:0:
80,332,133956,86,0,L|82:249,1,75,2|2,0:0|0:0,0:0:0:0:
166,261,134470,2,0,L|247:266,2,75,0|0|2,0:0|0:0|0:0,0:0:0:0:
281,345,135327,2,0,L|316:361,2,37.5,8|8|2,0:0|0:0|0:0,0:0:0:0:
422,316,135842,2,0,L|458:308,1,37.5,8|0,0:0|0:0,0:0:0:0:
484,228,136184,2,0,L|491:205,2,18.75,0|0|0,0:0|0:0|0:0,0:0:0:0:
399,225,136527,1,2,0:0:0:0:
397,140,136699,6,0,L|396:63,1,75,2|2,0:0|0:0,0:0:0:0:
284,48,137384,2,0,L|282:10,2,37.5,0|0|0,0:0|0:0|0:0,0:0:0:0:
289,132,137899,1,2,0:0:0:0:
148,116,138070,2,0,L|110:111,2,37.5,8|2|0,0:0|0:0|0:0,0:0:0:0:
154,200,138584,2,0,L|160:282,1,75,0|0,0:0|0:0,0:0:0:0:
166,360,139099,1,0,0:0:0:0:
272,322,139442,86,0,P|294:352|332:370,1,75,2|2,0:0|0:0,0:0:0:0:
438,352,140127,2,0,P|422:334|408:325,1,37.5,0|0,0:0|0:0,0:0:0:0:
316,265,140642,69,2,0:0:0:0:
482,235,140813,1,8,0:0:0:0:
490,192,141156,5,2,0:0:0:0:
304,174,141327,1,8,0:0:0:0:
298,130,141670,53,2,0:0:0:0:
504,106,141842,1,8,0:0:0:0:
164,30,164127,69,10,0:0:0:0:
165,52,164470,1,10,0:0:0:0:
166,74,164813,1,10,0:0:0:0:
167,96,165156,1,10,0:0:0:0:
168,118,165499,1,10,0:0:0:0:
169,140,165841,1,10,0:0:0:0:
170,162,166184,2,0,L|222:168,1,37.5,10|0,0:0|0:0,0:0:0:0:
171,184,166527,2,0,L|208:188,1,37.5,10|0,0:0|0:0,0:0:0:0:
354,202,166870,85,10,0:0:0:0:
353,224,167213,1,10,0:0:0:0:
352,246,167556,1,10,0:0:0:0:
351,268,167899,1,10,0:0:0:0:
350,290,168242,1,10,0:0:0:0:
349,312,168584,1,10,0:0:0:0:
348,334,168927,1,10,0:0:0:0:
347,356,169270,2,0,L|295:362,1,37.5,10|0,0:0|0:0,0:0:0:0:
152,366,169613,70,0,L|151:320,1,44.999998626709,10|8,0:0|0:0,0:0:0:0:
146,163,169956,2,0,L|147:206,1,44.999998626709,10|8,0:0|0:0,0:0:0:0:
169,363,170299,6,0,L|167:310,1,52.4999983978272,10|8,0:0|0:0,0:0:0:0:
162,130,170642,2,0,L|163:182,1,52.4999983978272,10|8,0:0|0:0,0:0:0:0:
185,362,170984,54,0,L|183:301,1,60,10|8,0:0|0:0,0:0:0:0:
176,94,171327,2,0,L|177:153,1,60,10|8,0:0|0:0,0:0:0:0:
202,359,171670,6,0,L|200:290,1,67.4999979400635,10|8,0:0|0:0,0:0:0:0:
191,56,172013,2,0,L|193:123,1,67.4999979400635,10|8,0:0|0:0,0:0:0:0:
216,280,172356,86,0,L|213:328,3,37.5,10|8|8|8,0:0|0:0|0:0|0:0,0:0:0:0:
273,144,172699,2,0,L|270:96,3,37.5,10|8|8|8,0:0|0:0|0:0|0:0,0:0:0:0:
346,288,173042,6,0,L|343:336,3,37.5,10|8|8|8,0:0|0:0|0:0|0:0,0:0:0:0:
403,136,173384,2,0,L|400:88,2,37.5,10|8|8,0:0|0:0|0:0,0:0:0:0:
376,172,173642,1,8,0:0:0:0:
339,198,173727,86,0,L|384:216,2,37.5,10|8|8,0:0|0:0|0:0,0:0:0:0:
294,189,173984,1,8,0:0:0:0:
249,185,174070,1,8,0:0:0:0:
223,295,174242,1,8,0:0:0:0:
203,186,174413,5,8,0:0:0:0:
194,141,174499,1,8,0:0:0:0:
180,98,174584,1,8,0:0:0:0:
45,82,174756,70,0,L|47:124,1,37.5,0|0,0:0|0:0,0:0:0:0:
40,129,175099,38,0,L|38:228,1,97.4999955368044,12|0,0:1|0:0,0:0:0:0:
36,372,175776,2,0,L|37:322,1,48.7499977684022,8|0,0:0|0:0,0:0:0:0:
64,255,176115,2,0,L|63:304,1,48.7499977684022,0|0,0:0|0:0,0:0:0:0:
92,326,176454,6,0,P|142:352|187:341,1,97.4999955368044,2|0,0:0|0:0,0:0:0:0:
325,367,177132,2,0,L|374:375,1,48.7499977684022,8|0,0:0|0:0,0:0:0:0:
443,355,177471,2,0,L|394:347,1,48.7499977684022,0|0,0:0|0:0,0:0:0:0:
378,313,177810,86,0,P|369:276|373:212,1,97.4999955368044,2|0,0:0|0:0,0:0:0:0:
443,88,178488,2,0,P|452:65|451:40,2,48.7499977684022,8|0|0,0:0|0:0|0:0,0:0:0:0:
417,114,178997,1,0,0:0:0:0:
381,123,179166,6,0,P|362:83|307:67,1,97.4999955368044,2|0,0:0|0:0,0:0:0:0:
169,91,179844,2,0,L|111:86,2,48.7499977684022,8|0|0,0:0|0:0|0:0,0:0:0:0:
178,237,180522,86,0,L|185:341,1,97.4999955368044,2|0,0:0|0:0,0:0:0:0:
330,345,181200,2,0,L|323:241,1,97.4999955368044,8|0,0:0|0:0,0:0:0:0:
326,101,181878,6,0,P|329:156|339:205,1,97.4999955368044,2|0,0:0|0:0,0:0:0:0:
480,168,182556,2,0,P|477:113|467:64,1,97.4999955368044,8|0,0:0|0:0,0:0:0:0:
326,101,183234,85,2,0:0:0:0:
243,73,183573,1,0,0:0:0:0:
130,166,183912,1,8,0:0:0:0:
218,182,184251,1,0,0:0:0:0:
207,327,184590,6,0,P|163:344|111:339,1,97.4999955368044,2|0,0:0|0:0,0:0:0:0:
44,210,185268,1,8,0:0:0:0:
184,183,185437,38,0,L|119:196,1,62.5,0|0,0:0|0:0,0:0:0:0:
114,190,185946,38,0,L|209:171,1,97.4999955368044,12|0,0:1|0:0,0:0:0:0:
353,144,186624,1,8,0:0:0:0:
348,180,186793,1,0,0:0:0:0:
343,215,186963,1,0,0:0:0:0:
338,251,187132,1,0,0:0:0:0:
333,287,187302,6,0,P|358:245|400:207,1,97.4999955368044,2|0,0:0|0:0,0:0:0:0:
507,303,187980,1,8,0:0:0:0:
481,329,188149,1,0,0:0:0:0:
452,351,188319,1,0,0:0:0:0:
420,368,188488,1,0,0:0:0:0:
385,379,188658,86,0,P|346:363|284:359,1,97.4999955368044,2|0,0:0|0:0,0:0:0:0:
147,381,189336,2,0,L|98:380,2,48.7499977684022,8|0|0,0:0|0:0|0:0,0:0:0:0:
135,345,189844,1,0,0:0:0:0:
123,310,190014,6,0,P|129:276|124:207,1,97.4999955368044,2|0,0:0|0:0,0:0:0:0:
74,75,190692,2,0,P|90:99|99:124,2,48.7499977684022,8|0|0,0:0|0:0|0:0,0:0:0:0:
220,69,191370,86,0,P|269:72|322:90,1,97.4999955368044,2|0,0:0|0:0,0:0:0:0:
347,229,192048,2,0,P|357:265|387:322,1,97.4999955368044,8|0,0:0|0:0,0:0:0:0:
261,238,192726,6,0,P|209:250|166:268,1,97.4999955368044,2|0,0:0|0:0,0:0:0:0:
249,144,193404,2,0,P|270:124|295:59,1,97.4999955368044,8|0,0:0|0:0,0:0:0:0:
72,40,194082,53,2,0:0:0:0:
168,97,194251,1,2,0:0:0:0:
96,249,194421,2,0,L|108:345,1,75,8|0,0:0|0:0,0:0:0:0:
267,369,194760,2,0,L|276:294,1,75,8|0,0:0|0:0,0:0:0:0:
294,183,195099,1,2,0:0:0:0:
294,183,195183,1,2,0:0:0:0:
294,183,195268,6,0,L|307:277,1,75,8|2,0:0|0:0,0:0:0:0:
417,383,195607,1,8,0:0:0:0:
393,216,195776,2,0,L|382:141,1,75,8|2,0:0|0:0,0:0:0:0:
214,120,196115,1,8,0:0:0:0:
214,120,196285,1,8,0:0:0:0:
370,48,196454,1,8,0:0:0:0:
370,48,196624,1,8,0:0:0:0:
201,37,196793,22,0,L|107:31,1,93.75,14|0,0:1|0:0,0:0:0:0:
112,153,197132,2,0,L|119:340,1,187.5,8|0,0:0|0:0,0:0:0:0:
234,383,197641,1,2,0:0:0:0:
229,261,197810,2,0,L|225:167,1,93.75,8|0,0:0|0:0,0:0:0:0:
220,45,198149,54,0,P|283:56|324:90,1,93.75,2|0,0:0|0:0,0:0:0:0:
372,171,198488,2,0,P|352:82|398:3,1,187.5,8|0,0:0|0:0,0:0:0:0:
476,101,198997,1,2,0:0:0:0:
453,222,199166,2,0,P|449:264|449:334,1,93.75,8|0,0:0|0:0,0:0:0:0:
338,370,199505,38,0,P|336:327|326:258,1,93.75,2|0,0:0|0:0,0:0:0:0:
310,156,199844,2,0,P|303:216|281:284,1,93.75,8|0,3:0|0:0,0:0:0:0:
235,354,200183,1,0,0:0:0:0:
284,242,200353,1,2,0:0:0:0:
163,254,200522,1,8,0:0:0:0:
276,238,200692,1,0,0:0:0:0:
154,247,200861,54,0,P|142:200|152:152,1,93.75,2|0,0:0|0:0,0:0:0:0:
233,65,201200,2,0,P|162:124|71:114,1,187.5,8|0,0:0|0:0,0:0:0:0:
127,6,201709,1,2,0:0:0:0:
60,106,201878,2,0,P|62:159|53:221,1,93.75,8|0,0:0|0:0,0:0:0:0:
49,321,202217,38,0,P|47:268|56:206,1,93.75,2|0,0:0|0:0,0:0:0:0:
160,172,202556,2,0,P|143:261|159:373,1,187.5,8|0,0:0|0:0,0:0:0:0:
233,262,203065,1,2,0:0:0:0:
281,373,203234,2,0,P|304:321|360:284,1,93.75,8|0,0:0|0:0,0:0:0:0:
445,255,203573,54,0,P|386:211|378:187,1,93.75,2|0,0:0|0:0,0:0:0:0:
400,73,203912,2,0,P|377:162|297:207,1,187.5,8|0,0:0|0:0,0:0:0:0:
278,85,204421,1,2,0:0:0:0:
276,206,204590,2,0,P|282:263|297:306,1,93.75,8|0,0:0|0:0,0:0:0:0:
381,381,204929,38,0,P|331:350|256:338,1,93.75,2|0,0:0|0:0,0:0:0:0:
174,338,205268,2,0,P|87:313|44:233,1,187.5,8|0,0:0|0:0,0:0:0:0:
165,215,205776,1,2,0:0:0:0:
177,93,205946,2,0,L|187:0,1,93.75,8|0,0:0|0:0,0:0:0:0:
308,12,206285,54,0,L|318:105,1,93.75,2|0,0:0|0:0,0:0:0:0:
330,226,206624,2,0,L|340:133,2,93.75,8|0|2,0:0|0:0|0:0,0:0:0:0:
318,347,207132,5,8,0:0:0:0:
257,241,207302,1,8,0:0:0:0:
369,291,207471,1,8,0:0:0:0:
248,315,207641,22,0,L|157:335,1,93.75,14|0,0:1|0:0,0:0:0:0:
38,363,207980,2,0,P|113:314|117:224,1,187.5,8|0,0:0|0:0,0:0:0:0:
8,170,208488,1,2,0:0:0:0:
113,212,208658,2,0,P|162:219|212:217,1,93.75,8|0,0:0|0:0,0:0:0:0:
325,191,208997,54,0,P|258:227|231:263,1,93.75,2|0,0:0|0:0,0:0:0:0:
277,120,209336,2,0,P|242:36|158:0,1,187.5,8|0,0:0|0:0,0:0:0:0:
51,59,209844,1,2,0:0:0:0:
156,122,210014,2,0,P|144:183|124:234,1,93.75,8|0,0:0|0:0,0:0:0:0:
54,306,210353,38,0,P|87:282|136:256,1,93.75,2|0,0:0|0:0,0:0:0:0:
251,222,210692,2,0,P|227:263|223:309,1,93.75,8|0,0:0|0:0,0:0:0:0:
344,299,211031,1,0,0:0:0:0:
225,327,211200,1,2,0:0:0:0:
344,299,211370,1,8,0:0:0:0:
231,346,211539,1,0,0:0:0:0:
344,299,211709,54,0,P|394:261|420:223,1,93.75,2|0,0:0|0:0,0:0:0:0:
453,121,212048,2,0,P|402:196|312:214,1,187.5,8|0,0:0|0:0,0:0:0:0:
335,94,212556,1,2,0:0:0:0:
220,136,212726,2,0,P|169:165|126:199,1,93.75,8|0,0:0|0:0,0:0:0:0:
61,279,213065,38,0,P|87:227|99:167,1,93.75,2|0,0:0|0:0,0:0:0:0:
100,70,213404,2,0,P|106:128|176:261,1,187.5,8|0,0:0|0:0,0:0:0:0:
256,319,213912,1,2,0:0:0:0:
273,197,214082,2,0,P|317:213|352:244,1,93.75,8|0,0:0|0:0,0:0:0:0:
367,365,214421,54,0,P|375:310|400:253,1,93.75,2|0,0:0|0:0,0:0:0:0:
449,168,214760,2,0,P|383:111|273:70,1,187.5,8|0,0:0|0:0,0:0:0:0:
168,71,215268,1,2,0:0:0:0:
285,100,215437,2,0,P|267:145|221:182,1,93.75,8|0,0:0|0:0,0:0:0:0:
112,179,215776,38,0,P|162:189|229:215,1,93.75,2|0,0:0|0:0,0:0:0:0:
307,262,216115,2,0,P|220:237|139:280,1,187.5,8|0,0:0|0:0,0:0:0:0:
233,360,216624,1,2,0:0:0:0:
322,277,216793,2,0,P|378:247|424:236,1,93.75,8|0,0:0|0:0,0:0:0:0:
476,139,217132,54,0,P|430:141|383:148,1,93.75,2|0,0:0|0:0,0:0:0:0:
245,182,217471,2,0,P|281:152|299:109,1,93.75,8|0,0:0|0:0,0:0:0:0:
165,67,217810,5,8,0:0:0:0:
165,67,217980,1,8,0:0:0:0:
165,67,218149,1,8,0:0:0:0:
165,67,218319,1,8,0:0:0:0:
256,192,218488,12,0,220522,0:0:0:0:
