osu file format v14

[General]
AudioFilename: audio.mp3
AudioLeadIn: 0
PreviewTime: 162786
Countdown: 0
SampleSet: Normal
StackLeniency: 0.7
Mode: 1
LetterboxInBreaks: 0
WidescreenStoryboard: 1

[Editor]
Bookmarks: 4,16699,33395,50090,66786,83482,100177,129395,146090,162786,179482,196177
DistanceSpacing: 2.8
BeatDivisor: 4
GridSize: 32
TimelineZoom: 2

[Metadata]
Title:Rat Race
TitleUnicode:Rat Race
Artist:Enter Shikari
ArtistUnicode:Enter Shikari
Creator:Ulqui
Version:Muzukashii
Source:
Tags:electronicore post-hardcore alternative english rock hivie genjuro
BeatmapID:3086313
BeatmapSetID:1311567

[Difficulty]
HPDrainRate:6
CircleSize:2
OverallDifficulty:5
ApproachRate:10
SliderMultiplier:1.4
SliderTickRate:1

[Events]
//Background and Video events
0,0,"bg.jpg",0,-46
//Break Periods
//Storyboard Layer 0 (Background)
//Storyboard Layer 1 (Fail)
//Storyboard Layer 2 (Pass)
//Storyboard Layer 3 (Foreground)
//Storyboard Layer 4 (Overlay)
//Storyboard Sound Samples

[TimingPoints]
4,260.869565217391,4,1,0,85,1,0
4,-125,4,1,0,85,0,0
1895,-100,4,1,0,85,0,0
2025,-125,4,1,0,85,0,0
6069,-100,4,1,0,85,0,0
6199,-125,4,1,0,85,0,0
10243,-100,4,1,0,85,0,0
10373,-125,4,1,0,85,0,0
14417,-100,4,1,0,85,0,0
14547,-125,4,1,0,85,0,0
16699,-100,4,1,0,85,0,0
33395,-83.3333333333333,4,1,0,85,0,1
50090,-125,4,1,0,85,0,0
51982,-100,4,1,0,85,0,0
52112,-125,4,1,0,85,0,0
56156,-100,4,1,0,85,0,0
56286,-125,4,1,0,85,0,0
60330,-100,4,1,0,85,0,0
60460,-125,4,1,0,85,0,0
64503,-100,4,1,0,85,0,0
64633,-125,4,1,0,85,0,0
66786,-100,4,1,0,85,0,0
83482,-83.3333333333333,4,1,0,85,0,1
100177,-125,4,1,0,85,0,0
128286,-125,4,1,0,85,0,0
128417,-128.205128205128,4,1,0,85,0,0
128547,-131.578947368421,4,1,0,85,0,0
128677,-135.135135135135,4,1,0,85,0,0
128808,-138.888888888889,4,1,0,85,0,0
129395,-166.666666666667,4,1,0,85,0,1
133047,-166.666666666667,4,1,0,85,0,0
133569,-166.666666666667,4,1,0,85,0,1
145047,-166.666666666667,4,1,0,85,0,0
146090,-100,4,1,0,85,0,1
162786,-166.666666666667,4,1,0,85,0,1
179221,-166.666666666667,4,1,0,85,0,0
179482,-90.9090909090909,4,1,0,85,0,1
195786,-90.9090909090909,4,1,0,85,0,0

[HitObjects]
175,121,4,5,8,0:0:0:0:
181,133,264,1,8,0:0:0:0:
180,133,525,1,8,0:0:0:0:
180,133,656,1,8,0:0:0:0:
180,133,917,1,8,0:0:0:0:
181,133,1177,1,8,0:0:0:0:
180,133,1438,1,8,0:0:0:0:
180,133,1699,1,8,0:0:0:0:
180,133,1960,1,4,0:0:0:0:
202,111,2351,1,8,0:0:0:0:
160,148,2612,1,8,0:0:0:0:
156,150,2743,1,8,0:0:0:0:
155,151,3003,1,8,0:0:0:0:
152,158,3264,1,8,0:0:0:0:
151,158,3525,1,8,0:0:0:0:
152,159,3786,1,8,0:0:0:0:
152,158,4177,1,8,0:0:0:0:
151,158,4438,1,8,0:0:0:0:
152,159,4699,1,8,0:0:0:0:
152,159,4830,1,8,0:0:0:0:
152,158,5090,1,8,0:0:0:0:
153,165,5351,1,8,0:0:0:0:
152,159,5612,1,8,0:0:0:0:
152,159,5873,1,8,0:0:0:0:
153,165,6134,1,4,0:0:0:0:
193,141,6525,1,8,0:0:0:0:
193,141,6786,1,8,0:0:0:0:
193,141,6917,1,8,0:0:0:0:
193,141,7177,1,8,0:0:0:0:
193,141,7438,1,8,0:0:0:0:
193,141,7699,1,8,0:0:0:0:
193,141,7960,1,8,0:0:0:0:
193,141,8351,1,0,0:0:0:0:
193,141,8612,1,8,0:0:0:0:
193,141,8873,1,8,0:0:0:0:
193,141,9003,1,8,0:0:0:0:
193,141,9264,1,8,0:0:0:0:
193,141,9525,1,8,0:0:0:0:
193,141,9786,1,8,0:0:0:0:
193,141,10047,1,8,0:0:0:0:
193,141,10308,1,4,0:0:0:0:
162,177,10699,1,8,0:0:0:0:
162,177,10960,1,8,0:0:0:0:
162,177,11090,1,8,0:0:0:0:
162,177,11351,1,8,0:0:0:0:
162,177,11612,1,8,0:0:0:0:
162,177,11873,1,8,0:0:0:0:
162,177,12134,1,8,0:0:0:0:
162,177,12525,1,8,0:0:0:0:
162,177,12786,1,8,0:0:0:0:
162,177,13047,1,8,0:0:0:0:
162,177,13177,1,8,0:0:0:0:
162,177,13438,1,8,0:0:0:0:
162,177,13699,1,8,0:0:0:0:
162,177,13960,1,8,0:0:0:0:
162,177,14221,1,8,0:0:0:0:
162,177,14482,1,4,0:0:0:0:
171,168,14873,1,8,0:0:0:0:
171,170,15134,1,8,0:0:0:0:
171,170,15264,1,8,0:0:0:0:
171,168,15525,1,8,0:0:0:0:
171,168,15786,1,8,0:0:0:0:
171,170,16047,1,8,0:0:0:0:
189,142,16699,1,0,0:0:0:0:
156,125,16830,1,8,0:0:0:0:
134,139,16960,1,0,0:0:0:0:
134,139,17221,1,8,0:0:0:0:
134,139,17482,1,0,0:0:0:0:
163,118,17612,1,0,0:0:0:0:
134,139,17743,1,8,0:0:0:0:
176,132,18003,1,0,0:0:0:0:
176,132,18264,1,8,0:0:0:0:
166,85,18525,1,8,0:0:0:0:
166,85,18656,1,8,0:0:0:0:
137,129,19047,1,0,0:0:0:0:
137,129,19308,1,8,0:0:0:0:
137,129,19569,1,0,0:0:0:0:
172,55,19699,1,0,0:0:0:0:
137,129,19830,1,8,0:0:0:0:
137,129,20090,1,0,0:0:0:0:
137,129,20351,1,8,0:0:0:0:
140,139,20612,1,8,0:0:0:0:
151,59,20743,1,8,0:0:0:0:
142,147,21134,1,8,0:0:0:0:
64,112,21264,1,0,0:0:0:0:
142,157,21395,1,8,0:0:0:0:
142,158,21656,1,8,0:0:0:0:
142,158,21917,1,8,0:0:0:0:
142,158,22177,1,8,0:0:0:0:
142,164,22308,1,8,0:0:0:0:
142,158,22960,1,0,0:0:0:0:
142,158,23221,1,8,0:0:0:0:
76,106,23351,1,0,0:0:0:0:
142,158,23482,1,8,0:0:0:0:
142,158,23743,1,8,0:0:0:0:
142,158,24003,1,8,0:0:0:0:
142,158,24264,1,8,0:0:0:0:
142,158,24395,1,8,0:0:0:0:
142,158,25047,1,0,0:0:0:0:
193,113,25308,1,8,0:0:0:0:
193,113,25438,1,8,0:0:0:0:
193,113,25569,1,8,0:0:0:0:
188,124,25830,1,0,0:0:0:0:
188,127,26090,1,8,0:0:0:0:
188,129,26221,1,8,0:0:0:0:
182,134,26351,1,8,0:0:0:0:
182,134,26482,1,8,0:0:0:0:
182,134,26612,1,8,0:0:0:0:
181,139,26873,1,0,0:0:0:0:
201,47,27003,1,0,0:0:0:0:
181,139,27134,1,0,0:0:0:0:
146,79,27395,1,8,0:0:0:0:
141,42,27525,1,8,0:0:0:0:
193,132,27656,1,8,0:0:0:0:
157,83,27917,1,0,0:0:0:0:
157,83,28177,1,8,0:0:0:0:
202,125,28569,1,8,0:0:0:0:
201,125,28699,1,8,0:0:0:0:
182,168,28960,1,8,0:0:0:0:
82,96,29221,1,0,0:0:0:0:
154,145,29482,1,8,0:0:0:0:
154,145,29743,1,8,0:0:0:0:
154,145,30003,1,8,0:0:0:0:
154,145,30264,1,8,0:0:0:0:
154,145,30525,1,8,0:0:0:0:
154,145,30656,1,8,0:0:0:0:
133,178,31308,1,0,0:0:0:0:
133,178,31569,1,8,0:0:0:0:
133,178,31830,1,8,0:0:0:0:
133,178,32090,1,8,0:0:0:0:
133,178,32351,1,8,0:0:0:0:
133,178,32612,1,8,0:0:0:0:
133,178,32743,1,8,0:0:0:0:
169,110,33395,1,0,0:0:0:0:
138,124,33525,1,0,0:0:0:0:
169,110,33656,1,0,0:0:0:0:
142,135,33786,1,0,0:0:0:0:
142,136,34047,1,8,0:0:0:0:
141,136,34177,1,8,0:0:0:0:
135,140,34308,1,8,0:0:0:0:
135,140,34569,1,0,0:0:0:0:
135,140,34960,1,8,0:0:0:0:
135,141,35090,1,8,0:0:0:0:
133,159,35482,1,0,0:0:0:0:
132,161,35612,1,0,0:0:0:0:
132,162,35743,1,0,0:0:0:0:
130,166,35873,1,0,0:0:0:0:
130,168,36134,1,8,0:0:0:0:
120,182,36264,1,8,0:0:0:0:
119,182,36395,1,8,0:0:0:0:
120,185,36656,1,0,0:0:0:0:
122,192,37047,1,8,0:0:0:0:
121,192,37177,1,8,0:0:0:0:
124,192,37569,1,0,0:0:0:0:
175,147,37699,1,0,0:0:0:0:
175,147,38090,1,8,0:0:0:0:
175,147,38351,1,0,0:0:0:0:
175,147,38482,1,0,0:0:0:0:
175,147,38873,1,8,0:0:0:0:
175,147,39134,1,0,0:0:0:0:
171,153,39656,1,0,0:0:0:0:
168,155,39786,1,0,0:0:0:0:
171,153,40177,1,8,0:0:0:0:
171,153,40438,1,0,0:0:0:0:
165,158,40569,1,0,0:0:0:0:
165,158,40960,1,8,0:0:0:0:
161,167,41221,1,0,0:0:0:0:
158,176,41743,1,0,0:0:0:0:
157,178,41873,1,0,0:0:0:0:
139,185,42003,1,0,0:0:0:0:
141,185,42134,1,0,0:0:0:0:
146,167,42395,1,8,0:0:0:0:
147,167,42525,1,8,0:0:0:0:
147,167,42656,1,8,0:0:0:0:
168,163,42917,1,0,0:0:0:0:
168,163,43308,1,8,0:0:0:0:
166,168,43438,1,8,0:0:0:0:
179,168,43830,1,0,0:0:0:0:
177,171,43960,1,0,0:0:0:0:
174,173,44090,1,0,0:0:0:0:
173,174,44221,1,0,0:0:0:0:
173,174,44482,1,8,0:0:0:0:
173,174,44612,1,8,0:0:0:0:
173,174,44743,1,8,0:0:0:0:
177,171,45003,1,0,0:0:0:0:
173,174,45395,1,8,0:0:0:0:
173,174,45525,1,8,0:0:0:0:
177,171,45917,1,0,0:0:0:0:
177,171,46047,1,0,0:0:0:0:
173,174,46438,1,8,0:0:0:0:
177,171,46699,1,0,0:0:0:0:
132,212,46830,1,0,0:0:0:0:
139,208,47221,1,8,0:0:0:0:
139,208,47482,1,0,0:0:0:0:
145,202,48003,1,0,0:0:0:0:
145,202,48134,1,0,0:0:0:0:
145,202,48525,1,8,0:0:0:0:
145,202,48786,1,0,0:0:0:0:
145,202,48917,1,0,0:0:0:0:
145,202,49308,1,8,0:0:0:0:
145,202,49569,1,0,0:0:0:0:
192,76,49830,1,0,0:0:0:0:
133,156,50090,1,8,0:0:0:0:
131,179,50351,1,8,0:0:0:0:
131,179,50612,1,8,0:0:0:0:
131,179,50743,1,8,0:0:0:0:
131,182,51003,1,8,0:0:0:0:
131,179,51264,1,8,0:0:0:0:
131,179,51525,1,8,0:0:0:0:
131,179,51786,1,8,0:0:0:0:
131,182,52047,1,4,0:0:0:0:
179,104,52438,1,8,0:0:0:0:
179,104,52699,1,8,0:0:0:0:
179,104,52830,1,8,0:0:0:0:
179,104,53090,1,8,0:0:0:0:
174,110,53351,1,8,0:0:0:0:
170,114,53612,1,8,0:0:0:0:
169,114,53873,1,8,0:0:0:0:
174,110,54264,1,8,0:0:0:0:
170,114,54525,1,8,0:0:0:0:
169,114,54786,1,8,0:0:0:0:
169,114,54917,1,8,0:0:0:0:
168,117,55177,1,8,0:0:0:0:
170,114,55438,1,8,0:0:0:0:
169,114,55699,1,8,0:0:0:0:
169,114,55960,1,8,0:0:0:0:
168,117,56221,1,4,0:0:0:0:
167,122,56612,1,8,0:0:0:0:
166,122,56873,1,8,0:0:0:0:
158,126,57003,1,8,0:0:0:0:
157,126,57264,1,8,0:0:0:0:
157,126,57525,1,8,0:0:0:0:
157,126,57786,1,8,0:0:0:0:
158,126,58047,1,8,0:0:0:0:
157,126,58438,1,0,0:0:0:0:
157,126,58699,1,8,0:0:0:0:
158,126,58960,1,8,0:0:0:0:
158,126,59090,1,8,0:0:0:0:
157,126,59351,1,8,0:0:0:0:
157,126,59612,1,8,0:0:0:0:
158,126,59873,1,8,0:0:0:0:
158,126,60134,1,8,0:0:0:0:
157,126,60395,1,4,0:0:0:0:
162,102,60786,1,8,0:0:0:0:
160,105,61047,1,8,0:0:0:0:
160,105,61177,1,8,0:0:0:0:
160,105,61438,1,8,0:0:0:0:
162,102,61699,1,8,0:0:0:0:
160,105,61960,1,8,0:0:0:0:
160,105,62221,1,8,0:0:0:0:
162,102,62612,1,8,0:0:0:0:
160,105,62873,1,8,0:0:0:0:
160,105,63134,1,8,0:0:0:0:
160,105,63264,1,8,0:0:0:0:
162,102,63525,1,8,0:0:0:0:
160,105,63786,1,8,0:0:0:0:
160,105,64047,1,8,0:0:0:0:
160,105,64308,1,8,0:0:0:0:
160,105,64569,1,4,0:0:0:0:
175,76,64960,1,8,0:0:0:0:
174,80,65221,1,8,0:0:0:0:
173,81,65351,1,8,0:0:0:0:
173,87,65612,1,8,0:0:0:0:
170,93,65873,1,8,0:0:0:0:
170,93,66134,1,8,0:0:0:0:
196,213,66786,1,0,0:0:0:0:
186,128,67047,1,8,0:0:0:0:
186,128,67177,1,8,0:0:0:0:
186,128,67308,1,8,0:0:0:0:
186,128,67569,1,0,0:0:0:0:
186,128,67830,1,8,0:0:0:0:
186,128,67960,1,0,0:0:0:0:
186,128,68090,1,8,0:0:0:0:
186,128,68351,1,8,0:0:0:0:
186,128,68482,1,8,0:0:0:0:
186,128,68612,1,0,0:0:0:0:
186,128,68873,1,0,0:0:0:0:
183,134,69134,1,8,0:0:0:0:
183,134,69264,1,8,0:0:0:0:
181,136,69395,1,8,0:0:0:0:
181,136,69656,1,0,0:0:0:0:
181,136,69917,1,8,0:0:0:0:
183,134,70047,1,0,0:0:0:0:
183,134,70177,1,8,0:0:0:0:
175,70,70438,1,8,0:0:0:0:
175,70,70569,1,8,0:0:0:0:
175,70,70699,1,0,0:0:0:0:
148,90,70960,1,0,0:0:0:0:
197,135,71221,1,8,0:0:0:0:
191,139,71482,1,8,0:0:0:0:
161,97,71612,1,0,0:0:0:0:
187,147,71743,1,8,0:0:0:0:
185,148,72003,1,8,0:0:0:0:
184,147,72264,1,8,0:0:0:0:
182,147,72395,1,8,0:0:0:0:
183,92,73047,1,0,0:0:0:0:
160,144,73308,1,8,0:0:0:0:
160,144,73569,1,8,0:0:0:0:
183,92,73699,1,0,0:0:0:0:
160,144,73830,1,8,0:0:0:0:
160,144,74090,1,8,0:0:0:0:
160,144,74351,1,8,0:0:0:0:
160,144,74482,1,8,0:0:0:0:
187,91,75134,1,0,0:0:0:0:
187,91,75395,1,8,0:0:0:0:
187,91,75525,1,8,0:0:0:0:
187,91,75656,1,8,0:0:0:0:
169,63,75786,1,8,0:0:0:0:
181,97,75917,1,8,0:0:0:0:
160,97,76177,1,0,0:0:0:0:
160,97,76438,1,8,0:0:0:0:
147,105,76569,1,8,0:0:0:0:
136,115,76699,1,8,0:0:0:0:
144,115,76960,1,8,0:0:0:0:
141,119,77090,1,0,0:0:0:0:
146,122,77482,1,0,0:0:0:0:
147,122,77743,1,8,0:0:0:0:
142,137,78003,1,0,0:0:0:0:
141,138,78134,1,0,0:0:0:0:
138,142,78264,1,8,0:0:0:0:
167,98,78525,1,0,0:0:0:0:
167,98,78786,1,8,0:0:0:0:
167,98,78917,1,8,0:0:0:0:
160,107,79047,1,8,0:0:0:0:
164,113,79308,1,0,0:0:0:0:
164,113,79569,1,8,0:0:0:0:
164,113,79699,1,0,0:0:0:0:
164,113,79830,1,8,0:0:0:0:
164,113,80090,1,8,0:0:0:0:
164,113,80351,1,8,0:0:0:0:
164,113,80612,1,8,0:0:0:0:
164,113,80743,1,8,0:0:0:0:
153,92,81395,1,0,0:0:0:0:
153,92,81656,1,8,0:0:0:0:
153,92,81786,1,0,0:0:0:0:
147,98,81917,1,8,0:0:0:0:
147,99,82177,1,8,0:0:0:0:
147,99,82438,1,8,0:0:0:0:
147,99,82699,1,8,0:0:0:0:
147,99,82830,1,8,0:0:0:0:
175,132,83482,1,0,0:0:0:0:
175,132,83612,1,0,0:0:0:0:
175,132,83743,1,0,0:0:0:0:
175,132,83873,1,0,0:0:0:0:
175,132,84134,1,8,0:0:0:0:
175,132,84264,1,8,0:0:0:0:
175,132,84395,1,8,0:0:0:0:
184,135,84656,1,0,0:0:0:0:
180,142,85047,1,8,0:0:0:0:
180,142,85177,1,8,0:0:0:0:
184,135,85569,1,0,0:0:0:0:
184,135,85699,1,0,0:0:0:0:
180,142,85830,1,0,0:0:0:0:
180,142,85960,1,0,0:0:0:0:
191,140,86221,1,8,0:0:0:0:
191,140,86351,1,8,0:0:0:0:
191,140,86482,1,8,0:0:0:0:
191,141,86743,1,0,0:0:0:0:
191,140,87134,1,8,0:0:0:0:
191,140,87264,1,8,0:0:0:0:
191,141,87656,1,0,0:0:0:0:
184,171,87786,1,0,0:0:0:0:
182,173,88177,1,8,0:0:0:0:
182,173,88438,1,0,0:0:0:0:
182,173,88569,1,0,0:0:0:0:
182,173,88960,1,8,0:0:0:0:
182,173,89221,1,0,0:0:0:0:
182,173,89743,1,0,0:0:0:0:
182,173,89873,1,0,0:0:0:0:
182,173,90264,1,8,0:0:0:0:
182,173,90525,1,0,0:0:0:0:
182,173,90656,1,0,0:0:0:0:
182,173,91047,1,8,0:0:0:0:
182,173,91308,1,0,0:0:0:0:
147,158,91830,1,0,0:0:0:0:
129,157,91960,1,0,0:0:0:0:
128,158,92090,1,0,0:0:0:0:
128,158,92221,1,0,0:0:0:0:
129,159,92482,1,8,0:0:0:0:
130,159,92612,1,8,0:0:0:0:
129,160,92743,1,8,0:0:0:0:
129,157,93003,1,0,0:0:0:0:
129,159,93395,1,8,0:0:0:0:
129,159,93525,1,8,0:0:0:0:
129,157,93917,1,0,0:0:0:0:
129,159,94047,1,0,0:0:0:0:
158,163,94177,1,0,0:0:0:0:
158,163,94308,1,0,0:0:0:0:
156,161,94569,1,8,0:0:0:0:
156,161,94699,1,8,0:0:0:0:
156,162,94830,1,8,0:0:0:0:
158,163,95090,1,0,0:0:0:0:
156,161,95482,1,8,0:0:0:0:
156,161,95612,1,8,0:0:0:0:
158,163,96003,1,0,0:0:0:0:
158,163,96134,1,0,0:0:0:0:
156,161,96525,1,8,0:0:0:0:
158,163,96786,1,0,0:0:0:0:
158,163,96917,1,0,0:0:0:0:
156,161,97308,1,8,0:0:0:0:
158,163,97569,1,0,0:0:0:0:
156,161,98090,1,0,0:0:0:0:
156,161,98221,1,0,0:0:0:0:
158,163,98612,1,8,0:0:0:0:
156,161,98873,1,0,0:0:0:0:
156,161,99003,1,0,0:0:0:0:
158,163,99395,1,8,0:0:0:0:
158,163,99656,1,8,0:0:0:0:
158,163,100177,1,4,0:0:0:0:
204,141,100699,1,8,0:0:0:0:
204,141,100960,1,0,0:0:0:0:
110,96,101090,1,0,0:0:0:0:
110,96,101351,1,8,0:0:0:0:
109,105,101482,1,0,0:0:0:0:
114,117,101743,1,8,0:0:0:0:
114,138,102264,1,0,0:0:0:0:
133,141,102786,1,8,0:0:0:0:
139,146,103047,1,0,0:0:0:0:
140,149,103177,1,8,0:0:0:0:
166,132,103438,1,0,0:0:0:0:
163,133,103569,1,8,0:0:0:0:
163,134,103830,1,0,0:0:0:0:
163,134,103960,1,8,0:0:0:0:
163,134,104090,1,0,0:0:0:0:
166,132,104351,1,0,0:0:0:0:
118,88,104873,1,8,0:0:0:0:
118,88,105134,1,0,0:0:0:0:
118,88,105264,1,0,0:0:0:0:
118,88,105525,1,8,0:0:0:0:
118,88,105656,1,0,0:0:0:0:
118,88,105917,1,8,0:0:0:0:
164,91,106438,1,0,0:0:0:0:
155,94,106699,1,8,0:0:0:0:
155,95,106960,1,8,0:0:0:0:
159,103,107090,1,0,0:0:0:0:
160,103,107351,1,0,0:0:0:0:
160,103,107482,1,8,0:0:0:0:
160,105,107612,1,0,0:0:0:0:
161,115,107873,1,0,0:0:0:0:
169,121,108003,1,8,0:0:0:0:
169,124,108264,1,8,0:0:0:0:
169,126,108395,1,8,0:0:0:0:
168,128,108525,1,0,0:0:0:0:
111,104,109047,1,8,0:0:0:0:
111,104,109308,1,0,0:0:0:0:
111,104,109438,1,0,0:0:0:0:
111,104,109699,1,8,0:0:0:0:
116,113,109830,1,0,0:0:0:0:
116,114,110090,1,8,0:0:0:0:
151,139,110612,1,0,0:0:0:0:
164,125,110743,1,0,0:0:0:0:
162,127,110873,1,8,0:0:0:0:
162,133,111134,1,8,0:0:0:0:
162,133,111395,1,0,0:0:0:0:
162,133,111656,1,8,0:0:0:0:
161,142,112177,1,8,0:0:0:0:
161,142,112699,1,0,0:0:0:0:
161,142,113221,1,8,0:0:0:0:
161,142,113482,1,0,0:0:0:0:
161,142,113612,1,0,0:0:0:0:
161,142,113873,1,8,0:0:0:0:
161,142,114003,1,0,0:0:0:0:
161,142,114264,1,8,0:0:0:0:
161,142,114786,1,0,0:0:0:0:
147,143,115047,1,8,0:0:0:0:
147,143,115308,1,8,0:0:0:0:
147,143,115438,1,0,0:0:0:0:
147,143,115699,1,0,0:0:0:0:
147,143,115830,1,8,0:0:0:0:
147,143,115960,1,0,0:0:0:0:
147,143,116221,1,0,0:0:0:0:
125,140,116351,1,8,0:0:0:0:
125,140,116612,1,8,0:0:0:0:
125,140,116743,1,8,0:0:0:0:
125,140,116873,1,0,0:0:0:0:
157,154,117395,1,8,0:0:0:0:
153,68,117656,1,0,0:0:0:0:
157,152,117786,1,0,0:0:0:0:
157,154,118047,1,8,0:0:0:0:
153,68,118177,1,0,0:0:0:0:
157,154,118438,1,8,0:0:0:0:
153,68,118960,1,0,0:0:0:0:
137,84,119482,1,8,0:0:0:0:
137,85,119743,1,0,0:0:0:0:
136,86,119873,1,8,0:0:0:0:
164,102,120134,1,0,0:0:0:0:
164,105,120264,1,8,0:0:0:0:
170,115,120525,1,0,0:0:0:0:
170,117,120656,1,8,0:0:0:0:
168,120,120786,1,0,0:0:0:0:
168,122,121047,1,0,0:0:0:0:
169,124,121569,1,8,0:0:0:0:
168,120,121830,1,0,0:0:0:0:
168,122,121960,1,0,0:0:0:0:
169,122,122221,1,8,0:0:0:0:
169,124,122351,1,0,0:0:0:0:
169,124,122612,1,8,0:0:0:0:
193,91,123134,1,0,0:0:0:0:
193,91,123395,1,8,0:0:0:0:
193,91,123656,1,8,0:0:0:0:
187,96,123786,1,0,0:0:0:0:
172,104,124047,1,0,0:0:0:0:
168,108,124177,1,8,0:0:0:0:
165,110,124308,1,0,0:0:0:0:
165,118,124569,1,0,0:0:0:0:
158,125,124699,1,8,0:0:0:0:
156,139,124960,1,8,0:0:0:0:
153,145,125090,1,8,0:0:0:0:
147,154,125221,1,0,0:0:0:0:
140,216,125743,1,8,0:0:0:0:
140,216,126003,1,0,0:0:0:0:
140,216,126134,1,0,0:0:0:0:
140,216,126395,1,8,0:0:0:0:
140,216,126525,1,0,0:0:0:0:
140,216,126786,1,8,0:0:0:0:
147,194,127308,1,8,0:0:0:0:
147,194,127569,1,0,0:0:0:0:
147,194,127830,1,8,0:0:0:0:
170,128,128090,1,0,0:0:0:0:
170,128,128351,1,8,0:0:0:0:
162,149,128482,1,8,0:0:0:0:
162,149,128612,1,8,0:0:0:0:
162,149,128743,1,8,0:0:0:0:
162,149,128873,1,8,0:0:0:0:
191,171,129395,1,0,0:0:0:0:
158,105,129656,1,0,0:0:0:0:
191,171,129917,1,8,0:0:0:0:
188,178,130177,1,8,0:0:0:0:
187,181,130438,1,8,0:0:0:0:
187,181,130699,1,0,0:0:0:0:
188,178,130960,1,8,0:0:0:0:
135,156,131221,1,0,0:0:0:0:
136,170,131482,1,8,0:0:0:0:
136,179,131743,1,8,0:0:0:0:
137,185,132003,1,0,0:0:0:0:
137,185,132264,1,8,0:0:0:0:
137,185,132525,1,8,0:0:0:0:
139,154,132786,1,0,0:0:0:0:
49,139,133569,1,0,0:0:0:0:
45,151,133830,1,8,0:0:0:0:
46,160,134090,1,8,0:0:0:0:
47,162,134351,1,0,0:0:0:0:
49,165,134612,1,8,0:0:0:0:
49,168,134873,1,0,0:0:0:0:
49,169,135134,1,8,0:0:0:0:
49,169,135395,1,8,0:0:0:0:
49,165,135656,1,8,0:0:0:0:
49,169,135917,1,8,0:0:0:0:
149,80,136177,1,0,0:0:0:0:
103,84,136438,1,0,0:0:0:0:
49,165,136699,1,8,0:0:0:0:
49,165,136960,1,8,0:0:0:0:
137,80,137221,1,0,0:0:0:0:
49,165,137743,1,8,0:0:0:0:
156,110,138003,1,0,0:0:0:0:
153,108,138264,1,8,0:0:0:0:
153,108,138525,1,8,0:0:0:0:
153,108,138786,1,8,0:0:0:0:
194,79,139047,1,0,0:0:0:0:
193,86,139308,1,8,0:0:0:0:
192,92,139569,1,0,0:0:0:0:
191,96,139830,1,8,0:0:0:0:
189,99,140090,1,8,0:0:0:0:
189,99,140351,1,8,0:0:0:0:
189,99,140612,1,0,0:0:0:0:
191,96,140873,1,8,0:0:0:0:
189,99,141134,1,0,0:0:0:0:
189,99,141395,1,8,0:0:0:0:
189,99,141656,1,0,0:0:0:0:
191,96,141917,1,8,0:0:0:0:
189,99,142438,1,8,0:0:0:0:
189,99,142699,1,8,0:0:0:0:
188,102,142960,1,8,0:0:0:0:
189,99,143221,1,0,0:0:0:0:
185,106,143482,1,8,0:0:0:0:
185,106,143743,1,0,0:0:0:0:
188,102,144003,1,8,0:0:0:0:
185,106,144264,1,8,0:0:0:0:
185,106,144525,1,8,0:0:0:0:
185,106,144786,1,0,0:0:0:0:
188,102,145047,1,8,0:0:0:0:
185,106,145569,1,8,0:0:0:0:
196,165,146090,1,4,0:0:0:0:
193,184,146612,1,12,0:0:0:0:
193,184,146873,1,12,0:0:0:0:
193,180,147134,1,12,0:0:0:0:
193,180,147656,1,4,0:0:0:0:
193,180,148177,1,12,0:0:0:0:
170,106,148438,1,12,0:0:0:0:
170,106,148699,1,12,0:0:0:0:
196,99,148960,1,12,0:0:0:0:
170,106,149221,1,12,0:0:0:0:
170,106,149743,1,4,0:0:0:0:
192,133,150264,1,4,0:0:0:0:
158,185,150786,1,12,0:0:0:0:
158,185,151047,1,12,0:0:0:0:
158,185,151308,1,12,0:0:0:0:
164,110,151830,1,4,0:0:0:0:
198,76,152351,1,12,0:0:0:0:
198,76,152612,1,12,0:0:0:0:
198,76,152873,1,12,0:0:0:0:
198,76,153134,1,12,0:0:0:0:
198,76,153395,1,12,0:0:0:0:
198,76,153917,1,4,0:0:0:0:
198,76,154438,1,4,0:0:0:0:
198,76,154960,1,12,0:0:0:0:
198,76,155221,1,12,0:0:0:0:
198,76,155482,1,12,0:0:0:0:
198,76,156003,1,4,0:0:0:0:
198,76,156525,1,12,0:0:0:0:
198,76,156786,1,12,0:0:0:0:
198,76,157047,1,12,0:0:0:0:
198,76,157308,1,12,0:0:0:0:
198,76,157569,1,12,0:0:0:0:
198,76,158090,1,4,0:0:0:0:
208,145,158612,1,4,0:0:0:0:
208,145,159134,1,12,0:0:0:0:
208,145,159395,1,12,0:0:0:0:
208,145,159656,1,12,0:0:0:0:
208,145,160177,1,4,0:0:0:0:
208,145,160699,1,12,0:0:0:0:
208,145,160960,1,12,0:0:0:0:
208,145,161221,1,12,0:0:0:0:
208,145,161482,1,12,0:0:0:0:
208,145,161743,1,12,0:0:0:0:
208,145,162264,1,4,0:0:0:0:
176,134,162786,5,0,0:0:0:0:
207,192,163308,1,0,0:0:0:0:
207,202,163830,1,8,0:0:0:0:
180,141,164090,1,8,0:0:0:0:
180,141,164351,1,0,0:0:0:0:
180,141,164612,1,0,0:0:0:0:
180,141,164873,1,8,0:0:0:0:
180,141,165395,1,0,0:0:0:0:
180,148,165917,1,8,0:0:0:0:
180,148,166177,1,8,0:0:0:0:
180,148,166438,1,0,0:0:0:0:
180,148,166699,1,8,0:0:0:0:
180,148,166960,1,0,0:0:0:0:
180,148,167221,1,8,0:0:0:0:
180,148,167482,1,0,0:0:0:0:
180,148,168003,1,8,0:0:0:0:
180,148,168264,1,8,0:0:0:0:
180,148,168525,1,0,0:0:0:0:
180,148,168786,1,0,0:0:0:0:
180,148,169047,1,8,0:0:0:0:
180,158,169569,1,8,0:0:0:0:
180,158,169830,1,0,0:0:0:0:
180,158,170090,1,8,0:0:0:0:
180,158,170612,1,8,0:0:0:0:
180,158,171134,1,0,0:0:0:0:
180,158,171656,1,0,0:0:0:0:
180,158,172177,1,8,0:0:0:0:
180,158,172438,1,8,0:0:0:0:
170,72,172699,1,0,0:0:0:0:
170,74,172960,1,0,0:0:0:0:
170,72,173221,1,8,0:0:0:0:
182,124,173743,1,0,0:0:0:0:
182,124,174264,1,8,0:0:0:0:
182,124,174525,1,8,0:0:0:0:
182,124,174786,1,0,0:0:0:0:
182,124,175047,1,8,0:0:0:0:
217,84,175308,1,0,0:0:0:0:
217,84,175569,1,8,0:0:0:0:
182,124,175830,1,0,0:0:0:0:
182,124,176351,1,8,0:0:0:0:
182,124,176612,1,8,0:0:0:0:
182,124,176873,1,0,0:0:0:0:
182,124,177134,1,0,0:0:0:0:
182,124,177395,1,8,0:0:0:0:
182,124,177656,1,8,0:0:0:0:
182,124,177917,1,8,0:0:0:0:
182,124,178177,1,8,0:0:0:0:
182,124,178438,1,8,0:0:0:0:
182,124,178569,1,8,0:0:0:0:
182,124,178699,1,8,0:0:0:0:
182,124,178830,1,8,0:0:0:0:
182,124,178960,1,8,0:0:0:0:
202,128,179482,1,0,0:0:0:0:
162,141,179743,1,8,0:0:0:0:
162,142,179873,1,0,0:0:0:0:
170,171,180134,1,0,0:0:0:0:
171,172,180264,1,8,0:0:0:0:
169,181,180395,1,0,0:0:0:0:
184,213,180656,1,0,0:0:0:0:
184,267,180786,1,8,0:0:0:0:
187,257,181047,1,8,0:0:0:0:
187,259,181177,1,8,0:0:0:0:
186,137,181438,1,8,0:0:0:0:
186,137,181699,1,0,0:0:0:0:
186,137,181960,1,8,0:0:0:0:
186,137,182221,1,0,0:0:0:0:
163,104,182482,1,8,0:0:0:0:
172,119,182743,1,0,0:0:0:0:
186,137,183003,1,8,0:0:0:0:
181,138,183264,1,8,0:0:0:0:
181,139,183525,1,8,0:0:0:0:
181,143,183656,1,0,0:0:0:0:
182,85,183786,1,0,0:0:0:0:
182,85,183917,1,0,0:0:0:0:
175,82,184177,1,8,0:0:0:0:
175,82,184438,1,0,0:0:0:0:
173,84,184569,1,0,0:0:0:0:
173,85,184830,1,8,0:0:0:0:
172,91,184960,1,0,0:0:0:0:
169,104,185221,1,8,0:0:0:0:
173,85,185743,1,0,0:0:0:0:
168,90,185873,1,0,0:0:0:0:
172,91,186003,1,0,0:0:0:0:
170,120,186264,1,8,0:0:0:0:
165,131,186525,1,0,0:0:0:0:
165,133,186656,1,0,0:0:0:0:
166,134,186917,1,8,0:0:0:0:
164,140,187047,1,0,0:0:0:0:
163,144,187308,1,8,0:0:0:0:
206,81,187438,1,8,0:0:0:0:
206,81,187569,1,8,0:0:0:0:
206,81,187699,1,8,0:0:0:0:
206,81,187830,1,0,0:0:0:0:
206,128,188090,1,8,0:0:0:0:
206,128,188221,1,0,0:0:0:0:
204,148,188482,1,0,0:0:0:0:
204,149,188612,1,8,0:0:0:0:
193,156,188743,1,0,0:0:0:0:
192,160,189003,1,0,0:0:0:0:
190,163,189134,1,8,0:0:0:0:
187,156,189395,1,8,0:0:0:0:
186,156,189525,1,8,0:0:0:0:
186,156,189786,1,8,0:0:0:0:
186,156,190047,1,0,0:0:0:0:
187,156,190308,1,8,0:0:0:0:
186,156,190569,1,0,0:0:0:0:
186,156,190830,1,8,0:0:0:0:
186,156,191090,1,0,0:0:0:0:
186,156,191351,1,8,0:0:0:0:
186,167,191612,1,8,0:0:0:0:
186,168,191873,1,8,0:0:0:0:
186,168,192003,1,0,0:0:0:0:
180,76,192134,1,0,0:0:0:0:
180,76,192264,1,0,0:0:0:0:
180,76,192525,1,8,0:0:0:0:
180,76,192786,1,0,0:0:0:0:
180,76,192917,1,0,0:0:0:0:
176,86,193177,1,8,0:0:0:0:
176,87,193308,1,0,0:0:0:0:
179,93,193569,1,8,0:0:0:0:
181,81,194090,1,0,0:0:0:0:
176,86,194221,1,0,0:0:0:0:
176,87,194351,1,0,0:0:0:0:
179,93,194612,1,8,0:0:0:0:
176,90,194873,1,0,0:0:0:0:
176,93,195003,1,0,0:0:0:0:
176,93,195264,1,8,0:0:0:0:
179,93,195395,1,0,0:0:0:0:
176,99,195656,1,8,0:0:0:0:
176,101,195786,1,8,0:0:0:0:
