osu file format v14

[General]
AudioFilename: audio.mp3
AudioLeadIn: 0
PreviewTime: 162786
Countdown: 0
SampleSet: Normal
StackLeniency: 0.7
Mode: 1
LetterboxInBreaks: 0
WidescreenStoryboard: 1

[Editor]
Bookmarks: 4,16699,33395,50090,66786,83482,100177,129395,146090,162786,179482,196177
DistanceSpacing: 2.8
BeatDivisor: 2
GridSize: 32
TimelineZoom: 2

[Metadata]
Title:Rat Race
TitleUnicode:Rat Race
Artist:Enter Shikari
ArtistUnicode:Enter Shikari
Creator:Ulqui
Version:Kantan
Source:
Tags:electronicore post-hardcore alternative english rock hivie genjuro
BeatmapID:2721355
BeatmapSetID:1311567

[Difficulty]
HPDrainRate:7
CircleSize:2
OverallDifficulty:3
ApproachRate:10
SliderMultiplier:1.4
SliderTickRate:1

[Events]
//Background and Video events
0,0,"bg.jpg",0,-46
//Break Periods
//Storyboard Layer 0 (Background)
//Storyboard Layer 1 (Fail)
//Storyboard Layer 2 (Pass)
//Storyboard Layer 3 (Foreground)
//Storyboard Layer 4 (Overlay)
//Storyboard Sound Samples

[TimingPoints]
4,260.869565217391,4,1,0,85,1,0
4,-125,4,1,0,85,0,0
16699,-111.111111111111,4,1,0,85,0,0
33395,-100,4,1,0,85,0,1
50090,-125,4,1,0,85,0,0
66786,-111.111111111111,4,1,0,85,0,0
83482,-100,4,1,0,85,0,1
100177,-125,4,1,0,85,0,0
128612,-133.333333333333,4,1,0,85,0,0
128873,-142.857142857143,4,1,0,85,0,0
129395,-166.666666666667,4,1,0,85,0,1
133047,-166.666666666667,4,1,0,85,0,0
133569,-166.666666666667,4,1,0,85,0,1
145047,-166.666666666667,4,1,0,85,0,0
146090,-125,4,1,0,85,0,1
162786,-166.666666666667,4,1,0,85,0,1
163830,-166.666666666667,4,1,0,85,0,1
179221,-166.666666666667,4,1,0,85,0,0
179482,-100,4,1,0,85,0,1
195786,-100,4,1,0,85,0,0

[HitObjects]
178,188,4,5,8,0:0:0:0:
170,194,525,1,8,0:0:0:0:
166,196,1047,1,8,0:0:0:0:
171,187,1960,1,4,0:0:0:0:
168,160,2612,1,8,0:0:0:0:
168,160,3656,1,0,0:0:0:0:
168,160,4177,1,8,0:0:0:0:
168,160,4699,1,8,0:0:0:0:
168,160,5221,1,8,0:0:0:0:
168,160,6134,1,4,0:0:0:0:
168,160,6786,1,8,0:0:0:0:
168,160,7569,1,0,0:0:0:0:
168,160,8351,1,8,0:0:0:0:
168,160,8873,1,8,0:0:0:0:
168,160,9395,1,8,0:0:0:0:
168,160,10308,1,4,0:0:0:0:
168,160,10960,1,8,0:0:0:0:
223,117,12003,1,0,0:0:0:0:
209,122,12525,1,8,0:0:0:0:
206,123,13047,1,8,0:0:0:0:
209,122,13569,1,8,0:0:0:0:
209,122,14482,1,4,0:0:0:0:
196,102,15134,1,8,0:0:0:0:
196,102,16177,1,8,0:0:0:0:
119,140,16699,1,0,0:0:0:0:
177,126,17221,1,8,0:0:0:0:
155,102,18003,1,0,0:0:0:0:
177,126,18264,1,8,0:0:0:0:
177,126,18786,1,0,0:0:0:0:
177,126,19308,1,8,0:0:0:0:
155,134,19830,1,0,0:0:0:0:
177,162,20612,5,8,0:0:0:0:
155,134,20873,1,0,0:0:0:0:
177,162,21395,1,8,0:0:0:0:
176,162,21917,1,8,0:0:0:0:
177,162,22177,1,8,0:0:0:0:
177,162,22438,1,8,0:0:0:0:
156,127,23482,1,8,0:0:0:0:
156,127,24003,1,8,0:0:0:0:
156,127,24264,1,8,0:0:0:0:
156,127,24525,1,8,0:0:0:0:
156,127,25047,1,0,0:0:0:0:
133,165,25569,1,8,0:0:0:0:
133,165,26351,1,0,0:0:0:0:
133,165,26612,1,8,0:0:0:0:
133,165,27134,1,0,0:0:0:0:
133,165,27656,1,8,0:0:0:0:
133,165,28177,1,0,0:0:0:0:
193,92,28960,1,8,0:0:0:0:
133,165,29221,1,0,0:0:0:0:
133,165,29743,1,8,0:0:0:0:
162,148,30264,1,8,0:0:0:0:
162,148,30525,1,8,0:0:0:0:
162,148,30786,1,8,0:0:0:0:
171,102,31830,1,8,0:0:0:0:
171,102,32351,1,8,0:0:0:0:
171,102,32612,1,8,0:0:0:0:
171,102,32873,1,8,0:0:0:0:
102,201,33395,5,4,0:0:0:0:
98,216,33917,1,8,0:0:0:0:
98,216,34177,1,0,0:0:0:0:
98,216,34438,1,0,0:0:0:0:
113,223,34960,1,8,0:0:0:0:
129,196,35482,1,4,0:0:0:0:
129,199,36003,1,8,0:0:0:0:
129,196,36264,1,0,0:0:0:0:
129,196,36525,1,0,0:0:0:0:
129,196,37047,1,8,0:0:0:0:
129,196,37569,1,4,0:0:0:0:
129,196,38351,1,8,0:0:0:0:
129,196,38873,1,8,0:0:0:0:
129,196,39134,1,8,0:0:0:0:
141,194,39656,1,4,0:0:0:0:
141,194,40438,1,8,0:0:0:0:
141,194,40960,1,8,0:0:0:0:
141,194,41221,1,8,0:0:0:0:
141,194,41743,1,4,0:0:0:0:
141,194,42264,1,8,0:0:0:0:
141,194,42525,1,0,0:0:0:0:
141,194,42786,1,0,0:0:0:0:
141,194,43308,1,8,0:0:0:0:
141,194,43830,1,4,0:0:0:0:
141,194,44351,1,8,0:0:0:0:
141,194,44612,1,0,0:0:0:0:
141,194,44873,1,0,0:0:0:0:
141,194,45395,1,8,0:0:0:0:
141,194,45917,1,4,0:0:0:0:
141,194,46699,1,8,0:0:0:0:
141,194,47221,1,8,0:0:0:0:
141,194,47482,1,8,0:0:0:0:
141,194,48003,1,4,0:0:0:0:
141,194,48786,1,8,0:0:0:0:
141,194,49308,1,8,0:0:0:0:
141,194,49569,1,0,0:0:0:0:
146,241,50090,5,8,0:0:0:0:
146,241,50612,1,8,0:0:0:0:
146,241,51134,1,8,0:0:0:0:
146,241,52047,1,4,0:0:0:0:
156,133,52699,1,8,0:0:0:0:
156,133,53743,1,0,0:0:0:0:
156,133,54264,1,8,0:0:0:0:
156,133,54786,1,8,0:0:0:0:
156,133,55308,1,8,0:0:0:0:
170,93,56221,1,4,0:0:0:0:
170,93,56873,1,8,0:0:0:0:
177,98,57656,1,0,0:0:0:0:
177,98,58438,1,8,0:0:0:0:
177,98,58960,1,8,0:0:0:0:
177,98,59482,1,8,0:0:0:0:
177,98,60395,1,4,0:0:0:0:
177,98,61047,1,8,0:0:0:0:
177,98,62090,1,0,0:0:0:0:
177,98,62612,1,8,0:0:0:0:
177,98,63134,1,8,0:0:0:0:
177,98,63656,1,8,0:0:0:0:
177,98,64569,1,4,0:0:0:0:
177,98,65221,1,8,0:0:0:0:
185,91,66264,1,8,0:0:0:0:
181,175,66786,1,0,0:0:0:0:
181,175,67308,1,8,0:0:0:0:
181,175,68090,1,0,0:0:0:0:
181,175,68351,1,8,0:0:0:0:
181,175,68873,1,0,0:0:0:0:
181,175,69395,1,8,0:0:0:0:
181,175,69917,1,0,0:0:0:0:
181,175,70699,1,8,0:0:0:0:
181,175,70960,1,0,0:0:0:0:
164,246,71482,1,8,0:0:0:0:
164,246,72003,1,8,0:0:0:0:
164,246,72264,1,8,0:0:0:0:
164,246,72525,1,8,0:0:0:0:
167,232,73569,1,8,0:0:0:0:
167,232,74090,1,8,0:0:0:0:
167,232,74351,1,8,0:0:0:0:
167,232,74612,1,8,0:0:0:0:
167,232,75134,1,0,0:0:0:0:
167,232,75656,1,8,0:0:0:0:
167,232,76438,1,0,0:0:0:0:
167,232,76699,1,8,0:0:0:0:
167,232,77221,1,0,0:0:0:0:
167,232,77743,1,8,0:0:0:0:
167,232,78264,1,0,0:0:0:0:
167,232,79047,1,8,0:0:0:0:
167,232,79308,1,0,0:0:0:0:
167,232,79830,1,8,0:0:0:0:
167,232,80351,1,8,0:0:0:0:
167,232,80612,1,8,0:0:0:0:
167,232,80873,1,8,0:0:0:0:
167,232,81917,1,8,0:0:0:0:
167,232,82438,1,8,0:0:0:0:
167,232,82699,1,8,0:0:0:0:
167,232,82960,1,8,0:0:0:0:
185,153,83482,5,4,0:0:0:0:
178,86,84003,1,8,0:0:0:0:
173,101,84264,1,0,0:0:0:0:
205,74,84525,1,0,0:0:0:0:
171,107,85047,1,8,0:0:0:0:
171,106,85569,1,4,0:0:0:0:
171,107,86090,1,8,0:0:0:0:
171,106,86351,1,0,0:0:0:0:
171,107,86612,1,0,0:0:0:0:
171,107,87134,1,8,0:0:0:0:
171,107,87656,1,4,0:0:0:0:
178,77,88438,1,8,0:0:0:0:
178,77,88960,1,8,0:0:0:0:
178,77,89221,1,8,0:0:0:0:
178,92,89743,1,4,0:0:0:0:
178,92,90525,1,8,0:0:0:0:
176,93,91047,1,8,0:0:0:0:
176,93,91308,1,8,0:0:0:0:
176,93,91830,1,4,0:0:0:0:
161,94,92351,1,8,0:0:0:0:
161,94,92612,1,0,0:0:0:0:
161,94,92873,1,0,0:0:0:0:
161,94,93395,1,8,0:0:0:0:
161,94,93917,1,4,0:0:0:0:
161,94,94438,1,8,0:0:0:0:
161,94,94699,1,0,0:0:0:0:
161,94,94960,1,0,0:0:0:0:
161,94,95482,1,8,0:0:0:0:
161,94,96003,1,4,0:0:0:0:
161,94,96786,1,8,0:0:0:0:
161,94,97308,1,8,0:0:0:0:
161,94,97569,1,8,0:0:0:0:
161,94,98090,1,4,0:0:0:0:
161,94,98873,1,8,0:0:0:0:
161,94,99395,1,8,0:0:0:0:
161,94,99656,1,8,0:0:0:0:
222,213,100177,5,4,0:0:0:0:
222,213,100699,1,8,0:0:0:0:
202,209,101743,1,8,0:0:0:0:
202,209,102264,1,0,0:0:0:0:
202,209,102786,1,8,0:0:0:0:
202,209,103047,1,0,0:0:0:0:
171,127,103569,1,0,0:0:0:0:
202,209,103830,1,8,0:0:0:0:
202,209,104351,1,0,0:0:0:0:
180,141,104873,1,8,0:0:0:0:
180,141,105917,1,8,0:0:0:0:
145,153,106438,1,0,0:0:0:0:
145,153,106960,1,8,0:0:0:0:
145,153,107221,1,8,0:0:0:0:
145,153,107482,1,0,0:0:0:0:
145,153,108003,1,8,0:0:0:0:
145,153,108525,1,0,0:0:0:0:
145,153,109047,1,8,0:0:0:0:
145,153,110090,1,8,0:0:0:0:
145,153,110612,1,0,0:0:0:0:
145,153,111134,1,8,0:0:0:0:
145,153,111395,1,0,0:0:0:0:
145,153,111917,1,8,0:0:0:0:
145,153,112177,1,8,0:0:0:0:
145,153,112699,1,0,0:0:0:0:
131,157,113221,1,8,0:0:0:0:
131,157,114264,1,8,0:0:0:0:
131,157,114786,1,0,0:0:0:0:
131,157,115308,1,8,0:0:0:0:
131,157,115569,1,0,0:0:0:0:
131,157,115830,1,0,0:0:0:0:
131,157,116351,1,8,0:0:0:0:
222,213,116873,1,0,0:0:0:0:
222,213,117395,1,8,0:0:0:0:
202,209,118438,1,8,0:0:0:0:
202,209,118960,1,0,0:0:0:0:
202,209,119482,1,8,0:0:0:0:
202,209,119743,1,0,0:0:0:0:
171,127,120264,1,0,0:0:0:0:
202,209,120525,1,8,0:0:0:0:
202,209,121047,1,0,0:0:0:0:
180,141,121569,1,8,0:0:0:0:
180,141,122612,1,8,0:0:0:0:
145,153,123134,1,0,0:0:0:0:
145,153,123656,1,8,0:0:0:0:
145,153,123917,1,8,0:0:0:0:
145,153,124177,1,0,0:0:0:0:
145,153,124699,1,8,0:0:0:0:
145,153,125221,1,0,0:0:0:0:
145,153,125743,1,8,0:0:0:0:
145,153,126786,1,8,0:0:0:0:
145,153,127308,1,0,0:0:0:0:
145,153,127830,1,8,0:0:0:0:
145,153,128351,1,8,0:0:0:0:
145,153,128612,1,8,0:0:0:0:
145,153,128873,1,8,0:0:0:0:
145,153,129395,5,0,0:0:0:0:
131,157,129917,1,8,0:0:0:0:
195,157,130177,1,0,0:0:0:0:
192,160,130438,1,8,0:0:0:0:
131,157,130960,1,8,0:0:0:0:
171,216,131221,1,8,0:0:0:0:
131,157,131482,1,0,0:0:0:0:
131,157,132003,1,8,0:0:0:0:
131,157,132264,1,8,0:0:0:0:
188,110,132786,1,8,0:0:0:0:
185,117,133569,1,0,0:0:0:0:
141,135,134090,1,8,0:0:0:0:
141,135,134351,1,0,0:0:0:0:
141,135,134612,1,8,0:0:0:0:
140,161,135134,1,8,0:0:0:0:
177,130,135395,1,0,0:0:0:0:
140,161,135656,1,8,0:0:0:0:
140,161,135917,1,0,0:0:0:0:
140,161,136699,1,8,0:0:0:0:
140,161,136960,1,8,0:0:0:0:
140,161,137743,1,0,0:0:0:0:
156,116,138786,1,8,0:0:0:0:
156,116,139308,1,0,0:0:0:0:
156,116,139830,1,8,0:0:0:0:
171,81,140351,1,8,0:0:0:0:
156,116,140612,1,8,0:0:0:0:
156,116,140873,1,8,0:0:0:0:
156,116,141395,1,0,0:0:0:0:
188,77,141917,1,0,0:0:0:0:
155,117,142960,1,8,0:0:0:0:
155,117,143482,1,0,0:0:0:0:
155,117,144003,1,8,0:0:0:0:
155,117,144525,1,8,0:0:0:0:
155,117,144786,1,8,0:0:0:0:
155,117,145047,1,8,0:0:0:0:
172,107,145569,1,8,0:0:0:0:
155,117,146090,1,4,0:0:0:0:
184,127,146612,1,12,0:0:0:0:
184,127,147134,1,12,0:0:0:0:
184,127,147656,1,4,0:0:0:0:
184,127,148177,1,12,0:0:0:0:
184,127,148699,1,12,0:0:0:0:
184,127,149221,1,12,0:0:0:0:
184,127,149743,1,4,0:0:0:0:
184,127,150264,1,4,0:0:0:0:
184,127,150786,1,12,0:0:0:0:
184,127,151308,1,12,0:0:0:0:
184,127,151830,1,4,0:0:0:0:
184,127,152351,1,12,0:0:0:0:
184,127,152873,1,12,0:0:0:0:
184,127,153395,1,12,0:0:0:0:
184,127,153917,1,4,0:0:0:0:
184,127,154438,1,4,0:0:0:0:
184,127,154960,1,12,0:0:0:0:
184,127,155482,1,12,0:0:0:0:
184,127,156003,1,4,0:0:0:0:
184,127,156525,1,12,0:0:0:0:
184,127,157047,1,12,0:0:0:0:
184,127,157569,1,12,0:0:0:0:
184,127,158090,1,4,0:0:0:0:
184,127,158612,1,4,0:0:0:0:
184,127,159134,1,12,0:0:0:0:
184,127,159656,1,12,0:0:0:0:
184,127,160177,1,4,0:0:0:0:
184,127,160699,1,12,0:0:0:0:
184,127,161221,1,12,0:0:0:0:
184,127,161743,1,12,0:0:0:0:
184,127,162264,1,4,0:0:0:0:
183,71,163830,1,8,0:0:0:0:
164,75,164090,1,8,0:0:0:0:
174,111,164351,1,0,0:0:0:0:
174,111,164873,1,8,0:0:0:0:
154,122,165917,1,8,0:0:0:0:
154,122,166177,1,8,0:0:0:0:
154,122,166438,1,0,0:0:0:0:
154,122,166699,1,8,0:0:0:0:
154,122,166960,1,0,0:0:0:0:
154,122,167221,1,8,0:0:0:0:
173,129,168003,1,8,0:0:0:0:
173,129,169047,1,0,0:0:0:0:
173,129,169569,1,0,0:0:0:0:
170,137,170090,1,8,0:0:0:0:
200,116,170612,1,8,0:0:0:0:
170,137,171134,1,0,0:0:0:0:
169,138,172177,1,8,0:0:0:0:
210,123,172699,1,0,0:0:0:0:
158,162,173221,1,0,0:0:0:0:
158,162,173743,1,0,0:0:0:0:
158,162,174264,1,8,0:0:0:0:
158,162,174525,1,8,0:0:0:0:
158,162,174786,1,0,0:0:0:0:
158,162,175047,1,8,0:0:0:0:
158,162,175308,1,0,0:0:0:0:
158,162,175569,1,8,0:0:0:0:
161,62,176351,1,8,0:0:0:0:
161,62,176873,1,0,0:0:0:0:
161,62,177395,1,8,0:0:0:0:
127,117,177917,1,8,0:0:0:0:
127,117,178438,1,8,0:0:0:0:
138,116,179482,1,0,0:0:0:0:
176,168,179743,1,8,0:0:0:0:
176,168,180264,1,8,0:0:0:0:
160,117,180786,1,8,0:0:0:0:
188,148,181308,1,8,0:0:0:0:
171,131,181569,1,0,0:0:0:0:
171,131,181830,1,8,0:0:0:0:
171,131,182351,1,8,0:0:0:0:
171,131,182873,1,8,0:0:0:0:
176,95,183395,1,8,0:0:0:0:
171,131,183656,1,0,0:0:0:0:
171,131,184438,1,8,0:0:0:0:
171,131,184960,1,8,0:0:0:0:
171,131,185221,1,8,0:0:0:0:
171,131,185743,1,0,0:0:0:0:
171,131,186525,1,8,0:0:0:0:
171,131,187047,1,8,0:0:0:0:
171,131,187308,1,8,0:0:0:0:
171,131,187569,1,8,0:0:0:0:
171,131,187830,1,0,0:0:0:0:
171,131,188090,1,8,0:0:0:0:
171,131,188612,1,8,0:0:0:0:
171,131,189134,1,8,0:0:0:0:
194,114,189656,1,8,0:0:0:0:
193,115,189917,1,0,0:0:0:0:
194,114,190177,1,8,0:0:0:0:
194,114,190699,1,8,0:0:0:0:
194,114,191221,1,8,0:0:0:0:
194,114,191743,1,8,0:0:0:0:
194,114,192003,1,0,0:0:0:0:
194,114,192786,1,8,0:0:0:0:
194,114,193308,1,8,0:0:0:0:
194,114,193569,1,8,0:0:0:0:
194,114,194090,1,0,0:0:0:0:
194,114,194873,1,8,0:0:0:0:
194,114,195395,1,8,0:0:0:0:
194,114,195656,1,8,0:0:0:0:
