osu file format v14

[General]
AudioFilename: audio.mp3
AudioLeadIn: 0
PreviewTime: 162786
Countdown: 0
SampleSet: Normal
StackLeniency: 0.7
Mode: 1
LetterboxInBreaks: 0
WidescreenStoryboard: 1

[Editor]
Bookmarks: 4,16699,33395,50090,66786,83482,100177,129395,146090,162786,179482,196177
DistanceSpacing: 2.8
BeatDivisor: 2
GridSize: 32
TimelineZoom: 2

[Metadata]
Title:Rat Race
TitleUnicode:Rat Race
Artist:Enter Shikari
ArtistUnicode:Enter Shikari
Creator:Ulqui
Version:Futsuu
Source:
Tags:electronicore post-hardcore alternative english rock hivie genjuro
BeatmapID:2735872
BeatmapSetID:1311567

[Difficulty]
HPDrainRate:6.5
CircleSize:2
OverallDifficulty:4
ApproachRate:10
SliderMultiplier:1.4
SliderTickRate:1

[Events]
//Background and Video events
0,0,"bg.jpg",0,-46
//Break Periods
//Storyboard Layer 0 (Background)
//Storyboard Layer 1 (Fail)
//Storyboard Layer 2 (Pass)
//Storyboard Layer 3 (Foreground)
//Storyboard Layer 4 (Overlay)
//Storyboard Sound Samples

[TimingPoints]
4,260.869565217391,4,1,0,85,1,0
4,-125,4,1,0,85,0,0
16699,-111.111111111111,4,1,0,85,0,0
33395,-100,4,1,0,85,0,1
50090,-125,4,1,0,85,0,0
66786,-111.111111111111,4,1,0,85,0,0
83482,-100,4,1,0,85,0,1
100177,-125,4,1,0,85,0,0
128286,-125,4,1,0,85,0,0
128417,-128.205128205128,4,1,0,85,0,0
128547,-131.578947368421,4,1,0,85,0,0
128677,-135.135135135135,4,1,0,85,0,0
128808,-138.888888888889,4,1,0,85,0,0
129395,-166.666666666667,4,1,0,85,0,1
133047,-166.666666666667,4,1,0,85,0,0
133569,-166.666666666667,4,1,0,85,0,1
145047,-166.666666666667,4,1,0,85,0,0
146090,-111.111111111111,4,1,0,85,0,1
162786,-166.666666666667,4,1,0,85,0,1
179221,-166.666666666667,4,1,0,85,0,0
179482,-100,4,1,0,85,0,1
195786,-100,4,1,0,85,0,0

[HitObjects]
139,181,4,5,8,0:0:0:0:
99,89,264,1,8,0:0:0:0:
99,89,525,1,8,0:0:0:0:
133,138,1047,1,8,0:0:0:0:
133,138,1569,1,8,0:0:0:0:
133,138,1960,1,4,0:0:0:0:
184,110,2612,1,8,0:0:0:0:
189,127,3395,1,0,0:0:0:0:
189,127,3656,1,0,0:0:0:0:
184,110,4177,1,8,0:0:0:0:
184,110,4438,1,8,0:0:0:0:
184,110,4699,1,8,0:0:0:0:
184,110,5221,1,8,0:0:0:0:
184,110,5743,1,8,0:0:0:0:
184,110,6134,1,4,0:0:0:0:
163,133,6786,1,8,0:0:0:0:
187,80,7569,1,0,0:0:0:0:
187,80,7830,1,0,0:0:0:0:
187,80,8351,1,8,0:0:0:0:
187,80,8612,1,8,0:0:0:0:
187,80,8873,1,8,0:0:0:0:
177,78,9395,1,8,0:0:0:0:
177,78,9917,1,8,0:0:0:0:
177,78,10308,1,4,0:0:0:0:
141,106,10960,1,8,0:0:0:0:
146,100,11743,1,0,0:0:0:0:
146,100,12003,1,0,0:0:0:0:
198,93,12525,1,8,0:0:0:0:
198,93,12786,1,8,0:0:0:0:
198,93,13047,1,8,0:0:0:0:
216,84,13569,1,8,0:0:0:0:
215,84,14090,1,8,0:0:0:0:
216,84,14482,1,4,0:0:0:0:
215,84,15134,1,8,0:0:0:0:
193,115,15917,1,8,0:0:0:0:
193,115,16177,1,8,0:0:0:0:
193,115,16699,1,0,0:0:0:0:
91,122,17221,1,8,0:0:0:0:
209,79,17482,1,0,0:0:0:0:
96,115,17743,1,0,0:0:0:0:
215,100,18003,1,8,0:0:0:0:
96,115,18264,1,8,0:0:0:0:
96,115,18786,1,0,0:0:0:0:
195,57,19308,1,8,0:0:0:0:
175,58,19569,1,0,0:0:0:0:
195,57,19830,1,0,0:0:0:0:
226,71,20090,1,0,0:0:0:0:
195,57,20351,1,8,0:0:0:0:
195,57,20873,1,0,0:0:0:0:
194,93,21134,1,8,0:0:0:0:
194,93,21395,1,8,0:0:0:0:
194,93,21656,1,8,0:0:0:0:
194,93,21917,1,8,0:0:0:0:
194,93,22177,1,8,0:0:0:0:
194,93,22308,1,8,0:0:0:0:
201,94,22960,1,0,0:0:0:0:
201,94,23221,1,8,0:0:0:0:
201,94,23482,1,8,0:0:0:0:
201,94,23743,1,8,0:0:0:0:
201,94,24003,1,8,0:0:0:0:
201,94,24264,1,8,0:0:0:0:
201,94,24395,1,8,0:0:0:0:
201,94,25047,1,0,0:0:0:0:
190,89,25308,1,8,0:0:0:0:
165,128,25569,1,8,0:0:0:0:
165,128,25830,1,0,0:0:0:0:
165,128,26090,1,0,0:0:0:0:
165,128,26612,1,8,0:0:0:0:
165,128,27134,1,0,0:0:0:0:
223,69,27395,1,8,0:0:0:0:
165,128,27656,1,8,0:0:0:0:
231,66,27917,1,8,0:0:0:0:
165,128,28177,1,0,0:0:0:0:
165,128,28699,1,8,0:0:0:0:
165,128,29221,1,0,0:0:0:0:
187,89,29482,1,8,0:0:0:0:
187,89,29743,1,8,0:0:0:0:
187,89,30003,1,8,0:0:0:0:
187,89,30264,1,8,0:0:0:0:
187,89,30525,1,8,0:0:0:0:
187,89,30656,1,8,0:0:0:0:
187,89,31308,1,0,0:0:0:0:
187,89,31569,1,8,0:0:0:0:
187,89,31830,1,8,0:0:0:0:
187,89,32090,1,8,0:0:0:0:
187,89,32351,1,8,0:0:0:0:
187,89,32612,1,8,0:0:0:0:
187,89,32743,1,8,0:0:0:0:
187,89,33395,1,4,0:0:0:0:
165,116,33917,1,8,0:0:0:0:
165,116,34177,1,0,0:0:0:0:
156,104,34308,1,0,0:0:0:0:
156,104,34569,1,0,0:0:0:0:
156,104,34960,1,8,0:0:0:0:
217,116,35482,1,4,0:0:0:0:
217,116,36003,1,8,0:0:0:0:
217,116,36264,1,0,0:0:0:0:
217,116,36395,1,0,0:0:0:0:
217,116,36656,1,0,0:0:0:0:
217,116,37047,1,8,0:0:0:0:
194,108,37569,1,4,0:0:0:0:
208,91,38090,1,8,0:0:0:0:
194,108,38351,1,8,0:0:0:0:
186,46,38482,1,8,0:0:0:0:
194,108,38873,1,8,0:0:0:0:
194,108,39134,1,8,0:0:0:0:
194,108,39656,1,4,0:0:0:0:
202,34,40177,1,8,0:0:0:0:
188,112,40438,1,8,0:0:0:0:
202,34,40569,1,8,0:0:0:0:
188,112,40960,1,8,0:0:0:0:
188,112,41221,1,8,0:0:0:0:
188,112,41482,1,8,0:0:0:0:
188,112,41743,1,4,0:0:0:0:
174,131,42264,1,8,0:0:0:0:
174,131,42525,1,0,0:0:0:0:
174,132,42656,1,0,0:0:0:0:
174,131,42917,1,0,0:0:0:0:
174,131,43308,1,8,0:0:0:0:
174,131,43830,1,4,0:0:0:0:
174,131,44351,1,8,0:0:0:0:
174,131,44612,1,0,0:0:0:0:
174,131,44743,1,0,0:0:0:0:
174,131,45003,1,0,0:0:0:0:
174,131,45395,1,8,0:0:0:0:
174,131,45917,1,4,0:0:0:0:
177,91,46438,1,8,0:0:0:0:
177,91,46699,1,8,0:0:0:0:
177,91,46830,1,8,0:0:0:0:
185,91,47221,1,8,0:0:0:0:
185,91,47482,1,8,0:0:0:0:
185,91,48003,1,4,0:0:0:0:
185,91,48525,1,8,0:0:0:0:
185,91,48786,1,8,0:0:0:0:
185,91,48917,1,8,0:0:0:0:
196,77,49308,1,8,0:0:0:0:
185,91,49569,1,0,0:0:0:0:
139,181,50090,5,8,0:0:0:0:
99,89,50351,1,8,0:0:0:0:
99,89,50612,1,8,0:0:0:0:
133,138,51134,1,8,0:0:0:0:
133,138,51656,1,8,0:0:0:0:
133,138,52047,1,4,0:0:0:0:
184,110,52699,1,8,0:0:0:0:
189,127,53482,1,0,0:0:0:0:
189,127,53743,1,0,0:0:0:0:
184,110,54264,1,8,0:0:0:0:
184,110,54525,1,8,0:0:0:0:
184,110,54786,1,8,0:0:0:0:
184,110,55308,1,8,0:0:0:0:
184,110,55830,1,8,0:0:0:0:
184,110,56221,1,4,0:0:0:0:
163,133,56873,1,8,0:0:0:0:
187,80,57656,1,0,0:0:0:0:
187,80,57917,1,0,0:0:0:0:
187,80,58438,1,8,0:0:0:0:
187,80,58699,1,8,0:0:0:0:
187,80,58960,1,8,0:0:0:0:
177,78,59482,1,8,0:0:0:0:
177,78,60003,1,8,0:0:0:0:
177,78,60395,1,4,0:0:0:0:
141,106,61047,1,8,0:0:0:0:
146,100,61830,1,0,0:0:0:0:
146,100,62090,1,0,0:0:0:0:
198,93,62612,1,8,0:0:0:0:
198,93,62873,1,8,0:0:0:0:
198,93,63134,1,8,0:0:0:0:
216,84,63656,1,8,0:0:0:0:
215,84,64177,1,8,0:0:0:0:
216,84,64569,1,4,0:0:0:0:
215,84,65221,1,8,0:0:0:0:
193,115,66003,1,8,0:0:0:0:
193,115,66264,1,8,0:0:0:0:
193,115,66786,1,0,0:0:0:0:
189,196,67308,1,8,0:0:0:0:
189,196,67569,1,0,0:0:0:0:
189,196,67830,1,0,0:0:0:0:
189,196,68090,1,8,0:0:0:0:
189,196,68351,1,8,0:0:0:0:
189,196,68873,1,0,0:0:0:0:
189,196,69395,1,8,0:0:0:0:
189,196,69656,1,0,0:0:0:0:
189,196,69917,1,0,0:0:0:0:
189,196,70177,1,8,0:0:0:0:
189,196,70438,1,8,0:0:0:0:
189,196,70960,1,0,0:0:0:0:
189,196,71221,1,8,0:0:0:0:
189,196,71482,1,8,0:0:0:0:
189,196,71743,1,8,0:0:0:0:
189,196,72003,1,8,0:0:0:0:
189,196,72264,1,8,0:0:0:0:
189,196,72395,1,8,0:0:0:0:
189,196,73047,1,0,0:0:0:0:
189,196,73308,1,8,0:0:0:0:
189,196,73569,1,8,0:0:0:0:
189,196,73830,1,8,0:0:0:0:
189,196,74090,1,8,0:0:0:0:
189,196,74351,1,8,0:0:0:0:
189,196,74482,1,8,0:0:0:0:
189,196,75134,1,0,0:0:0:0:
180,153,75395,1,8,0:0:0:0:
180,153,75656,1,8,0:0:0:0:
180,153,75917,1,0,0:0:0:0:
180,153,76177,1,0,0:0:0:0:
180,153,76699,1,8,0:0:0:0:
180,153,77221,1,0,0:0:0:0:
180,153,77482,1,8,0:0:0:0:
180,153,77743,1,8,0:0:0:0:
180,153,78003,1,8,0:0:0:0:
180,153,78264,1,0,0:0:0:0:
180,153,78786,1,8,0:0:0:0:
180,153,79308,1,0,0:0:0:0:
180,153,79569,1,8,0:0:0:0:
180,153,79830,1,8,0:0:0:0:
180,153,80090,1,8,0:0:0:0:
180,153,80351,1,8,0:0:0:0:
180,153,80612,1,8,0:0:0:0:
180,153,80743,1,8,0:0:0:0:
180,153,81395,1,0,0:0:0:0:
180,153,81656,1,8,0:0:0:0:
180,153,81917,1,8,0:0:0:0:
180,153,82177,1,8,0:0:0:0:
180,153,82438,1,8,0:0:0:0:
180,153,82699,1,8,0:0:0:0:
180,153,82830,1,8,0:0:0:0:
187,89,83482,1,4,0:0:0:0:
165,116,84003,1,8,0:0:0:0:
165,116,84264,1,0,0:0:0:0:
156,104,84395,1,0,0:0:0:0:
156,104,84656,1,0,0:0:0:0:
156,104,85047,1,8,0:0:0:0:
217,116,85569,1,4,0:0:0:0:
217,116,86090,1,8,0:0:0:0:
217,116,86351,1,0,0:0:0:0:
217,116,86482,1,0,0:0:0:0:
217,116,86743,1,0,0:0:0:0:
217,116,87134,1,8,0:0:0:0:
194,108,87656,1,4,0:0:0:0:
208,91,88177,1,8,0:0:0:0:
194,108,88438,1,8,0:0:0:0:
186,46,88569,1,8,0:0:0:0:
194,108,88960,1,8,0:0:0:0:
194,108,89221,1,8,0:0:0:0:
194,108,89743,1,4,0:0:0:0:
202,34,90264,1,8,0:0:0:0:
188,112,90525,1,8,0:0:0:0:
202,34,90656,1,8,0:0:0:0:
188,112,91047,1,8,0:0:0:0:
188,112,91308,1,8,0:0:0:0:
188,112,91569,1,8,0:0:0:0:
188,112,91830,1,4,0:0:0:0:
174,131,92351,1,8,0:0:0:0:
174,131,92612,1,0,0:0:0:0:
174,132,92743,1,0,0:0:0:0:
174,131,93003,1,0,0:0:0:0:
174,131,93395,1,8,0:0:0:0:
174,131,93917,1,4,0:0:0:0:
174,131,94438,1,8,0:0:0:0:
174,131,94699,1,0,0:0:0:0:
174,131,94830,1,0,0:0:0:0:
174,131,95090,1,0,0:0:0:0:
174,131,95482,1,8,0:0:0:0:
174,131,96003,1,4,0:0:0:0:
177,91,96525,1,8,0:0:0:0:
177,91,96786,1,8,0:0:0:0:
177,91,96917,1,8,0:0:0:0:
185,91,97308,1,8,0:0:0:0:
185,91,97569,1,8,0:0:0:0:
185,91,98090,1,4,0:0:0:0:
185,91,98612,1,8,0:0:0:0:
185,91,98873,1,8,0:0:0:0:
185,91,99003,1,8,0:0:0:0:
196,77,99395,1,8,0:0:0:0:
185,91,99656,1,8,0:0:0:0:
193,197,100177,1,4,0:0:0:0:
193,197,100699,1,8,0:0:0:0:
193,197,101090,1,0,0:0:0:0:
193,197,101482,1,0,0:0:0:0:
193,197,101743,1,8,0:0:0:0:
193,197,102264,1,0,0:0:0:0:
193,197,102786,1,8,0:0:0:0:
201,82,103308,1,0,0:0:0:0:
188,129,103569,1,0,0:0:0:0:
188,129,103830,1,8,0:0:0:0:
188,129,104090,1,8,0:0:0:0:
188,129,104351,1,0,0:0:0:0:
188,129,104873,1,8,0:0:0:0:
203,114,105264,1,0,0:0:0:0:
203,114,105656,1,0,0:0:0:0:
203,114,105917,1,8,0:0:0:0:
203,114,106438,1,0,0:0:0:0:
157,167,106699,1,8,0:0:0:0:
157,167,106960,1,8,0:0:0:0:
157,167,107482,1,8,0:0:0:0:
157,167,108003,1,8,0:0:0:0:
165,140,108264,1,8,0:0:0:0:
157,167,108525,1,0,0:0:0:0:
165,140,109047,1,8,0:0:0:0:
165,140,109438,1,0,0:0:0:0:
165,140,109830,1,0,0:0:0:0:
165,140,110090,1,8,0:0:0:0:
195,104,110612,1,0,0:0:0:0:
195,104,111134,1,8,0:0:0:0:
195,104,111395,1,8,0:0:0:0:
195,104,111656,1,0,0:0:0:0:
195,104,111917,1,0,0:0:0:0:
195,104,112177,1,8,0:0:0:0:
195,104,112699,1,0,0:0:0:0:
195,104,113221,1,8,0:0:0:0:
195,104,113612,1,0,0:0:0:0:
195,104,114003,1,0,0:0:0:0:
195,104,114264,1,8,0:0:0:0:
195,104,114786,1,0,0:0:0:0:
185,105,115047,1,8,0:0:0:0:
185,105,115308,1,8,0:0:0:0:
185,105,115830,1,8,0:0:0:0:
185,105,116351,1,8,0:0:0:0:
185,105,116612,1,8,0:0:0:0:
193,197,116873,1,0,0:0:0:0:
193,197,117395,1,8,0:0:0:0:
193,197,117786,1,0,0:0:0:0:
193,197,118177,1,0,0:0:0:0:
193,197,118438,1,8,0:0:0:0:
193,197,118960,1,0,0:0:0:0:
193,197,119482,1,8,0:0:0:0:
201,82,120003,1,0,0:0:0:0:
188,129,120264,1,0,0:0:0:0:
188,129,120525,1,8,0:0:0:0:
188,129,120786,1,8,0:0:0:0:
188,129,121047,1,0,0:0:0:0:
188,129,121569,1,8,0:0:0:0:
203,114,121960,1,0,0:0:0:0:
203,114,122351,1,0,0:0:0:0:
203,114,122612,1,8,0:0:0:0:
203,114,123134,1,0,0:0:0:0:
157,167,123395,1,8,0:0:0:0:
157,167,123656,1,8,0:0:0:0:
157,167,124177,1,8,0:0:0:0:
157,167,124699,1,8,0:0:0:0:
165,140,124960,1,8,0:0:0:0:
157,167,125221,1,0,0:0:0:0:
165,140,125743,1,8,0:0:0:0:
165,140,126134,1,0,0:0:0:0:
165,140,126525,1,0,0:0:0:0:
165,140,126786,1,8,0:0:0:0:
195,104,127308,1,0,0:0:0:0:
152,140,127569,1,8,0:0:0:0:
152,140,127830,1,8,0:0:0:0:
152,140,128090,1,0,0:0:0:0:
152,140,128351,1,8,0:0:0:0:
171,82,128482,1,8,0:0:0:0:
171,82,128612,1,8,0:0:0:0:
171,82,128873,1,8,0:0:0:0:
236,110,129395,1,0,0:0:0:0:
236,110,129917,1,8,0:0:0:0:
236,110,130177,1,8,0:0:0:0:
236,110,130438,1,8,0:0:0:0:
236,110,130699,1,0,0:0:0:0:
236,110,130960,1,8,0:0:0:0:
236,110,131221,1,0,0:0:0:0:
236,110,131482,1,8,0:0:0:0:
236,110,131743,1,8,0:0:0:0:
236,110,132003,1,0,0:0:0:0:
236,110,132264,1,8,0:0:0:0:
236,110,132525,1,8,0:0:0:0:
236,110,132786,1,0,0:0:0:0:
200,123,133569,1,0,0:0:0:0:
200,123,133830,1,8,0:0:0:0:
200,123,134090,1,8,0:0:0:0:
200,123,134351,1,0,0:0:0:0:
200,123,134612,1,8,0:0:0:0:
193,77,135134,1,8,0:0:0:0:
193,77,135395,1,0,0:0:0:0:
193,77,135656,1,8,0:0:0:0:
193,77,135917,1,8,0:0:0:0:
201,42,136177,1,0,0:0:0:0:
193,77,136699,1,8,0:0:0:0:
193,77,136960,1,8,0:0:0:0:
201,42,137221,1,8,0:0:0:0:
193,77,137743,1,0,0:0:0:0:
193,95,138264,1,8,0:0:0:0:
193,95,138525,1,0,0:0:0:0:
194,93,138786,1,8,0:0:0:0:
193,95,139308,1,0,0:0:0:0:
194,93,139830,1,8,0:0:0:0:
193,95,140090,1,0,0:0:0:0:
193,95,140351,1,8,0:0:0:0:
194,93,140612,1,0,0:0:0:0:
194,93,140873,1,8,0:0:0:0:
193,95,141395,1,0,0:0:0:0:
194,93,141917,1,0,0:0:0:0:
194,93,142438,1,8,0:0:0:0:
194,93,142699,1,0,0:0:0:0:
194,93,142960,1,8,0:0:0:0:
194,93,143482,1,0,0:0:0:0:
194,93,144003,1,8,0:0:0:0:
194,93,144264,1,0,0:0:0:0:
194,93,144525,1,8,0:0:0:0:
194,93,144786,1,0,0:0:0:0:
194,93,145047,1,8,0:0:0:0:
194,93,145569,1,8,0:0:0:0:
196,165,146090,1,4,0:0:0:0:
193,184,146612,1,12,0:0:0:0:
193,184,146873,1,12,0:0:0:0:
193,180,147134,1,12,0:0:0:0:
193,180,147656,1,4,0:0:0:0:
193,180,148177,1,12,0:0:0:0:
170,106,148438,1,12,0:0:0:0:
170,106,148699,1,12,0:0:0:0:
196,99,148960,1,12,0:0:0:0:
170,106,149221,1,12,0:0:0:0:
170,106,149743,1,4,0:0:0:0:
192,133,150264,1,4,0:0:0:0:
158,185,150786,1,12,0:0:0:0:
158,185,151047,1,12,0:0:0:0:
158,185,151308,1,12,0:0:0:0:
164,110,151830,1,4,0:0:0:0:
198,76,152351,1,12,0:0:0:0:
198,76,152612,1,12,0:0:0:0:
198,76,152873,1,12,0:0:0:0:
198,76,153134,1,12,0:0:0:0:
198,76,153395,1,12,0:0:0:0:
198,76,153917,1,4,0:0:0:0:
198,76,154438,1,4,0:0:0:0:
198,76,154960,1,12,0:0:0:0:
198,76,155221,1,12,0:0:0:0:
198,76,155482,1,12,0:0:0:0:
198,76,156003,1,4,0:0:0:0:
198,76,156525,1,12,0:0:0:0:
198,76,156786,1,12,0:0:0:0:
198,76,157047,1,12,0:0:0:0:
198,76,157308,1,12,0:0:0:0:
198,76,157569,1,12,0:0:0:0:
198,76,158090,1,4,0:0:0:0:
208,145,158612,1,4,0:0:0:0:
208,145,159134,1,12,0:0:0:0:
208,145,159395,1,12,0:0:0:0:
208,145,159656,1,12,0:0:0:0:
208,145,160177,1,4,0:0:0:0:
208,145,160699,1,12,0:0:0:0:
208,145,160960,1,12,0:0:0:0:
208,145,161221,1,12,0:0:0:0:
208,145,161482,1,12,0:0:0:0:
208,145,161743,1,12,0:0:0:0:
208,145,162264,1,4,0:0:0:0:
162,135,163308,1,0,0:0:0:0:
162,135,163830,1,8,0:0:0:0:
175,127,164090,1,8,0:0:0:0:
175,127,164351,1,0,0:0:0:0:
207,169,164612,1,0,0:0:0:0:
175,127,164873,1,8,0:0:0:0:
166,87,165395,1,0,0:0:0:0:
175,127,165917,1,8,0:0:0:0:
175,127,166177,1,8,0:0:0:0:
175,127,166438,1,0,0:0:0:0:
175,127,166699,1,8,0:0:0:0:
175,127,166960,1,0,0:0:0:0:
175,127,167221,1,8,0:0:0:0:
174,70,168003,1,8,0:0:0:0:
174,70,168264,1,8,0:0:0:0:
174,70,168525,1,0,0:0:0:0:
174,70,168786,1,0,0:0:0:0:
174,70,169047,1,8,0:0:0:0:
174,70,169569,1,0,0:0:0:0:
174,70,170090,1,8,0:0:0:0:
164,79,170612,1,8,0:0:0:0:
164,79,171134,1,0,0:0:0:0:
154,81,171656,1,0,0:0:0:0:
154,82,172177,1,8,0:0:0:0:
155,79,172438,1,8,0:0:0:0:
154,82,172699,1,0,0:0:0:0:
269,46,172960,1,0,0:0:0:0:
154,82,173221,1,8,0:0:0:0:
140,99,173743,1,0,0:0:0:0:
173,108,174264,1,8,0:0:0:0:
173,108,174525,1,8,0:0:0:0:
173,108,174786,1,0,0:0:0:0:
173,108,175047,1,8,0:0:0:0:
173,108,175308,1,0,0:0:0:0:
173,108,175569,1,8,0:0:0:0:
173,108,176351,1,8,0:0:0:0:
173,108,176612,1,8,0:0:0:0:
173,108,176873,1,0,0:0:0:0:
173,108,177134,1,0,0:0:0:0:
173,108,177395,1,8,0:0:0:0:
165,114,177917,1,8,0:0:0:0:
165,114,178438,1,8,0:0:0:0:
180,171,179482,1,0,0:0:0:0:
166,162,179743,1,8,0:0:0:0:
166,167,179873,1,0,0:0:0:0:
166,170,180134,1,8,0:0:0:0:
166,170,180264,1,8,0:0:0:0:
166,173,180395,1,8,0:0:0:0:
187,139,180656,1,0,0:0:0:0:
173,137,181047,1,8,0:0:0:0:
167,132,181177,1,8,0:0:0:0:
166,133,181438,1,8,0:0:0:0:
166,133,181699,1,0,0:0:0:0:
166,133,181960,1,8,0:0:0:0:
167,132,182221,1,0,0:0:0:0:
166,133,182482,1,8,0:0:0:0:
166,133,182743,1,0,0:0:0:0:
166,133,183003,1,8,0:0:0:0:
167,132,183264,1,0,0:0:0:0:
166,133,183525,1,8,0:0:0:0:
166,133,183656,1,0,0:0:0:0:
173,149,184177,1,8,0:0:0:0:
172,145,184438,1,8,0:0:0:0:
173,149,184960,1,8,0:0:0:0:
173,149,185221,1,0,0:0:0:0:
173,149,185743,1,0,0:0:0:0:
173,149,186264,1,8,0:0:0:0:
173,149,186525,1,8,0:0:0:0:
200,82,187047,1,0,0:0:0:0:
200,82,187308,1,8,0:0:0:0:
200,82,187569,1,8,0:0:0:0:
180,171,187830,1,0,0:0:0:0:
166,162,188091,1,8,0:0:0:0:
166,167,188221,1,0,0:0:0:0:
166,170,188482,1,8,0:0:0:0:
166,170,188612,1,8,0:0:0:0:
166,173,188743,1,8,0:0:0:0:
187,139,189004,1,0,0:0:0:0:
173,137,189395,1,8,0:0:0:0:
167,132,189525,1,8,0:0:0:0:
166,133,189786,1,8,0:0:0:0:
166,133,190047,1,0,0:0:0:0:
166,133,190308,1,8,0:0:0:0:
167,132,190569,1,0,0:0:0:0:
166,133,190830,1,8,0:0:0:0:
166,133,191091,1,0,0:0:0:0:
166,133,191351,1,8,0:0:0:0:
167,132,191612,1,0,0:0:0:0:
166,133,191873,1,8,0:0:0:0:
166,133,192003,1,0,0:0:0:0:
173,149,192525,1,8,0:0:0:0:
172,145,192786,1,8,0:0:0:0:
173,149,193308,1,8,0:0:0:0:
173,149,193569,1,0,0:0:0:0:
173,149,194091,1,8,0:0:0:0:
173,149,194612,1,0,0:0:0:0:
173,149,194873,1,8,0:0:0:0:
200,82,195395,1,0,0:0:0:0:
200,82,195656,1,8,0:0:0:0:
200,82,195786,1,8,0:0:0:0:
