osu file format v14

[General]
AudioFilename: audio.mp3
AudioLeadIn: 0
PreviewTime: 162786
Countdown: 0
SampleSet: Normal
StackLeniency: 0.7
Mode: 1
LetterboxInBreaks: 0
WidescreenStoryboard: 0

[Editor]
Bookmarks: 4,16699,33395,50090,66786,83482,100177,129395,146090,162786,179482,196177
DistanceSpacing: 2.8
BeatDivisor: 8
GridSize: 32
TimelineZoom: 1.78

[Metadata]
Title:Rat Race
TitleUnicode:Rat Race
Artist:Enter Shikari
ArtistUnicode:Enter Shikari
Creator:Ulqui
Version:DISQUALIFIED
Source:
Tags:electronicore post-hardcore alternative english rock hivie genjuro
BeatmapID:2718349
BeatmapSetID:1311567

[Difficulty]
HPDrainRate:7
CircleSize:2
OverallDifficulty:7
ApproachRate:10
SliderMultiplier:1.4
SliderTickRate:1

[Events]
//Background and Video events
0,0,"bg.jpg",0,-46
//Break Periods
//Storyboard Layer 0 (Background)
//Storyboard Layer 1 (Fail)
//Storyboard Layer 2 (Pass)
//Storyboard Layer 3 (Foreground)
//Storyboard Layer 4 (Overlay)
//Storyboard Sound Samples

[TimingPoints]
4,260.869565217391,4,1,0,85,1,0
4,-76.9230769230769,4,1,0,85,0,0
101,-77.3584905660377,4,1,0,85,0,0
232,-77.7988614800759,4,1,0,85,0,0
362,-78.2442748091603,4,1,0,85,0,0
493,-78.6948176583493,4,1,0,85,0,0
623,-79.1505791505791,4,1,0,85,0,0
753,-79.6116504854369,4,1,0,85,0,0
884,-80.078125,4,1,0,85,0,0
1014,-80.5500982318271,4,1,0,85,0,0
1145,-81.0276679841897,4,1,0,85,0,0
1275,-81.5109343936382,4,1,0,85,0,0
1406,-82,4,1,0,85,0,0
1536,-82.4949698189135,4,1,0,85,0,0
1666,-82.9959514170041,4,1,0,85,0,0
1927,-25,4,1,0,85,0,0
1993,-84.016393442623,4,1,0,85,0,0
2058,-84.5360824742268,4,1,0,85,0,0
2319,-85.0622406639004,4,1,0,85,0,0
2417,-85.5949895615866,4,1,0,85,0,0
2449,-86.1344537815126,4,1,0,85,0,0
2547,-86.6807610993657,4,1,0,85,0,0
2580,-87.2340425531915,4,1,0,85,0,0
2710,-87.7944325481799,4,1,0,85,0,0
2840,-88.3620689655172,4,1,0,85,0,0
2971,-88.9370932754881,4,1,0,85,0,0
3101,-89.5196506550218,4,1,0,85,0,0
3232,-90.1098901098901,4,1,0,85,0,0
3362,-90.7079646017699,4,1,0,85,0,0
3493,-91.3140311804009,4,1,0,85,0,0
3623,-91.9282511210762,4,1,0,85,0,0
3753,-92.5507900677201,4,1,0,85,0,0
4014,-93.1818181818182,4,1,0,85,0,0
4145,-93.8215102974828,4,1,0,85,0,0
4275,-94.4700460829493,4,1,0,85,0,0
4406,-95.1276102088167,4,1,0,85,0,0
4536,-95.7943925233645,4,1,0,85,0,0
4666,-96.4705882352941,4,1,0,85,0,0
4797,-97.1563981042654,4,1,0,85,0,0
4927,-97.8520286396181,4,1,0,85,0,0
5058,-98.5576923076923,4,1,0,85,0,0
5188,-99.273607748184,4,1,0,85,0,0
5319,-100,4,1,0,85,0,0
5449,-100.737100737101,4,1,0,85,0,0
5580,-101.485148514851,4,1,0,85,0,0
5710,-102.244389027431,4,1,0,85,0,0
5840,-103.015075376884,4,1,0,85,0,0
6101,-25,4,1,0,85,0,0
6167,-104.591836734694,4,1,0,85,0,0
6232,-105.398457583548,4,1,0,85,0,0
6493,-106.217616580311,4,1,0,85,0,0
6623,-107.049608355091,4,1,0,85,0,0
6753,-107.894736842105,4,1,0,85,0,0
6884,-108.753315649867,4,1,0,85,0,0
7014,-109.625668449198,4,1,0,85,0,0
7145,-110.512129380054,4,1,0,85,0,0
7275,-111.413043478261,4,1,0,85,0,0
7406,-112.328767123288,4,1,0,85,0,0
7536,-113.259668508287,4,1,0,85,0,0
7666,-114.206128133705,4,1,0,85,0,0
7797,-115.168539325843,4,1,0,85,0,0
7927,-116.14730878187,4,1,0,85,0,0
8058,-117.142857142857,4,1,0,85,0,0
8319,-118.155619596542,4,1,0,85,0,0
8416,-119.186046511628,4,1,0,85,0,0
8482,-120.234604105572,4,1,0,85,0,0
8580,-121.301775147929,4,1,0,85,0,0
8710,-122.388059701493,4,1,0,85,0,0
8840,-123.493975903614,4,1,0,85,0,0
8971,-124.620060790274,4,1,0,85,0,0
9101,-125.766871165644,4,1,0,85,0,0
9232,-126.934984520124,4,1,0,85,0,0
9362,-128.125,4,1,0,85,0,0
9493,-129.337539432177,4,1,0,85,0,0
9623,-130.573248407643,4,1,0,85,0,0
9753,-131.832797427653,4,1,0,85,0,0
9884,-133.116883116883,4,1,0,85,0,0
10014,-134.426229508197,4,1,0,85,0,0
10275,-25,4,1,0,85,0,0
10341,-137.123745819398,4,1,0,85,0,0
10406,-138.513513513514,4,1,0,85,0,0
10666,-139.931740614334,4,1,0,85,0,0
10797,-141.379310344828,4,1,0,85,0,0
10927,-142.857142857143,4,1,0,85,0,0
11058,-144.366197183099,4,1,0,85,0,0
11188,-145.907473309609,4,1,0,85,0,0
11319,-147.482014388489,4,1,0,85,0,0
11449,-149.090909090909,4,1,0,85,0,0
11580,-150.735294117647,4,1,0,85,0,0
11710,-152.416356877323,4,1,0,85,0,0
11840,-154.135338345865,4,1,0,85,0,0
11971,-155.893536121673,4,1,0,85,0,0
12101,-157.692307692308,4,1,0,85,0,0
12362,-159.533073929961,4,1,0,85,0,0
12493,-161.417322834646,4,1,0,85,0,0
12623,-163.346613545817,4,1,0,85,0,0
12753,-165.322580645161,4,1,0,85,0,0
12884,-167.34693877551,4,1,0,85,0,0
13014,-169.421487603306,4,1,0,85,0,0
13145,-171.548117154812,4,1,0,85,0,0
13275,-173.728813559322,4,1,0,85,0,0
13406,-175.965665236052,4,1,0,85,0,0
13536,-178.260869565217,4,1,0,85,0,0
13666,-180.616740088106,4,1,0,85,0,0
13797,-183.035714285714,4,1,0,85,0,0
13927,-185.52036199095,4,1,0,85,0,0
14058,-188.073394495413,4,1,0,85,0,0
14188,-190.697674418605,4,1,0,85,0,0
14449,-25,4,1,0,85,0,0
14515,-196.172248803828,4,1,0,85,0,0
14580,-199.029126213592,4,1,0,85,0,0
14840,-201.970443349754,4,1,0,85,0,0
14971,-205,4,1,0,85,0,0
15101,-208.121827411168,4,1,0,85,0,0
15232,-211.340206185567,4,1,0,85,0,0
15362,-214.659685863874,4,1,0,85,0,0
15493,-218.085106382979,4,1,0,85,0,0
15623,-221.621621621622,4,1,0,85,0,0
15753,-225.274725274725,4,1,0,85,0,0
15884,-229.050279329609,4,1,0,85,0,0
16014,-232.954545454545,4,1,0,85,0,0
16145,-236.994219653179,4,1,0,85,0,0
16275,-241.176470588235,4,1,0,85,0,0
16406,-245.508982035928,4,1,0,85,0,0
16536,-250,4,1,0,85,0,0
16667,-95.2380952380952,4,1,0,85,0,0
21101,-83.3333333333333,4,1,0,85,0,0
21167,-84.0336134453782,4,1,0,85,0,0
21232,-84.7457627118644,4,1,0,85,0,0
21297,-85.4700854700855,4,1,0,85,0,0
21362,-86.2068965517241,4,1,0,85,0,0
21427,-86.9565217391304,4,1,0,85,0,0
21493,-87.719298245614,4,1,0,85,0,0
21558,-88.495575221239,4,1,0,85,0,0
21623,-89.2857142857143,4,1,0,85,0,0
21688,-90.0900900900901,4,1,0,85,0,0
21753,-90.9090909090909,4,1,0,85,0,0
21819,-91.7431192660551,4,1,0,85,0,0
21884,-92.5925925925926,4,1,0,85,0,0
21949,-93.4579439252336,4,1,0,85,0,0
22014,-94.3396226415094,4,1,0,85,0,0
22080,-95.2380952380952,4,1,0,85,0,0
22145,-96.1538461538461,4,1,0,85,0,0
22210,-97.0873786407767,4,1,0,85,0,0
22275,-98.0392156862745,4,1,0,85,0,0
22340,-99.009900990099,4,1,0,85,0,0
22406,-100,4,1,0,85,0,0
22471,-101.010101010101,4,1,0,85,0,0
22536,-102.040816326531,4,1,0,85,0,0
22601,-103.092783505155,4,1,0,85,0,0
22667,-104.166666666667,4,1,0,85,0,0
22732,-105.263157894737,4,1,0,85,0,0
22797,-106.382978723404,4,1,0,85,0,0
22862,-107.52688172043,4,1,0,85,0,0
22927,-108.695652173913,4,1,0,85,0,0
22993,-109.89010989011,4,1,0,85,0,0
23058,-83.3333333333333,4,1,0,85,0,0
23124,-84.0336134453782,4,1,0,85,0,0
23189,-84.7457627118644,4,1,0,85,0,0
23254,-85.4700854700855,4,1,0,85,0,0
23319,-86.2068965517241,4,1,0,85,0,0
23384,-86.9565217391304,4,1,0,85,0,0
23450,-87.719298245614,4,1,0,85,0,0
23515,-88.495575221239,4,1,0,85,0,0
23580,-89.2857142857143,4,1,0,85,0,0
23645,-90.0900900900901,4,1,0,85,0,0
23710,-90.9090909090909,4,1,0,85,0,0
23776,-91.7431192660551,4,1,0,85,0,0
23841,-92.5925925925926,4,1,0,85,0,0
23906,-93.4579439252336,4,1,0,85,0,0
23971,-94.3396226415094,4,1,0,85,0,0
24037,-95.2380952380952,4,1,0,85,0,0
24102,-96.1538461538461,4,1,0,85,0,0
24167,-97.0873786407767,4,1,0,85,0,0
24232,-98.0392156862745,4,1,0,85,0,0
24297,-99.009900990099,4,1,0,85,0,0
24363,-100,4,1,0,85,0,0
24428,-101.010101010101,4,1,0,85,0,0
24493,-102.040816326531,4,1,0,85,0,0
24558,-103.092783505155,4,1,0,85,0,0
24624,-104.166666666667,4,1,0,85,0,0
24689,-105.263157894737,4,1,0,85,0,0
24754,-106.382978723404,4,1,0,85,0,0
24819,-107.52688172043,4,1,0,85,0,0
24884,-108.695652173913,4,1,0,85,0,0
24950,-109.89010989011,4,1,0,85,0,0
25014,-95.2380952380952,4,1,0,85,0,0
29449,-83.3333333333333,4,1,0,85,0,0
29515,-84.0336134453782,4,1,0,85,0,0
29580,-84.7457627118644,4,1,0,85,0,0
29645,-85.4700854700855,4,1,0,85,0,0
29710,-86.2068965517241,4,1,0,85,0,0
29775,-86.9565217391304,4,1,0,85,0,0
29841,-87.719298245614,4,1,0,85,0,0
29906,-88.495575221239,4,1,0,85,0,0
29971,-89.2857142857143,4,1,0,85,0,0
30036,-90.0900900900901,4,1,0,85,0,0
30101,-90.9090909090909,4,1,0,85,0,0
30167,-91.7431192660551,4,1,0,85,0,0
30232,-92.5925925925926,4,1,0,85,0,0
30297,-93.4579439252336,4,1,0,85,0,0
30362,-94.3396226415094,4,1,0,85,0,0
30428,-95.2380952380952,4,1,0,85,0,0
30493,-96.1538461538461,4,1,0,85,0,0
30558,-97.0873786407767,4,1,0,85,0,0
30623,-98.0392156862745,4,1,0,85,0,0
30688,-99.009900990099,4,1,0,85,0,0
30754,-100,4,1,0,85,0,0
30819,-101.010101010101,4,1,0,85,0,0
30884,-102.040816326531,4,1,0,85,0,0
30949,-103.092783505155,4,1,0,85,0,0
31015,-104.166666666667,4,1,0,85,0,0
31080,-105.263157894737,4,1,0,85,0,0
31145,-106.382978723404,4,1,0,85,0,0
31210,-107.52688172043,4,1,0,85,0,0
31275,-108.695652173913,4,1,0,85,0,0
31341,-109.89010989011,4,1,0,85,0,0
31406,-83.3333333333333,4,1,0,85,0,0
31472,-84.0336134453782,4,1,0,85,0,0
31537,-84.7457627118644,4,1,0,85,0,0
31602,-85.4700854700855,4,1,0,85,0,0
31667,-86.2068965517241,4,1,0,85,0,0
31732,-86.9565217391304,4,1,0,85,0,0
31798,-87.719298245614,4,1,0,85,0,0
31863,-88.495575221239,4,1,0,85,0,0
31928,-89.2857142857143,4,1,0,85,0,0
31993,-90.0900900900901,4,1,0,85,0,0
32058,-90.9090909090909,4,1,0,85,0,0
32124,-91.7431192660551,4,1,0,85,0,0
32189,-92.5925925925926,4,1,0,85,0,0
32254,-93.4579439252336,4,1,0,85,0,0
32319,-94.3396226415094,4,1,0,85,0,0
32385,-95.2380952380952,4,1,0,85,0,0
32450,-96.1538461538461,4,1,0,85,0,0
32515,-97.0873786407767,4,1,0,85,0,0
32580,-98.0392156862745,4,1,0,85,0,0
32645,-99.009900990099,4,1,0,85,0,0
32711,-100,4,1,0,85,0,0
32776,-101.010101010101,4,1,0,85,0,0
32841,-102.040816326531,4,1,0,85,0,0
32906,-103.092783505155,4,1,0,85,0,0
32972,-104.166666666667,4,1,0,85,0,0
33037,-105.263157894737,4,1,0,85,0,0
33102,-106.382978723404,4,1,0,85,0,0
33167,-107.52688172043,4,1,0,85,0,0
33232,-108.695652173913,4,1,0,85,0,0
33298,-109.89010989011,4,1,0,85,0,0
33363,-100,4,1,0,85,0,0
33395,-71.4285714285714,4,1,0,85,0,1
49536,-76.9230769230769,4,1,0,85,0,1
49667,-83.3333333333333,4,1,0,85,0,1
49797,-90.9090909090909,4,1,0,85,0,1
50090,-76.9230769230769,4,1,0,85,0,0
50187,-77.3584905660377,4,1,0,85,0,0
50318,-77.7988614800759,4,1,0,85,0,0
50448,-78.2442748091603,4,1,0,85,0,0
50579,-78.6948176583493,4,1,0,85,0,0
50709,-79.1505791505791,4,1,0,85,0,0
50839,-79.6116504854369,4,1,0,85,0,0
50970,-80.078125,4,1,0,85,0,0
51100,-80.5500982318271,4,1,0,85,0,0
51231,-81.0276679841897,4,1,0,85,0,0
51361,-81.5109343936382,4,1,0,85,0,0
51492,-82,4,1,0,85,0,0
51622,-82.4949698189135,4,1,0,85,0,0
51752,-82.9959514170041,4,1,0,85,0,0
52013,-25,4,1,0,85,0,0
52079,-84.016393442623,4,1,0,85,0,0
52144,-84.5360824742268,4,1,0,85,0,0
52405,-85.0622406639004,4,1,0,85,0,0
52503,-85.5949895615866,4,1,0,85,0,0
52535,-86.1344537815126,4,1,0,85,0,0
52633,-86.6807610993657,4,1,0,85,0,0
52666,-87.2340425531915,4,1,0,85,0,0
52796,-87.7944325481799,4,1,0,85,0,0
52926,-88.3620689655172,4,1,0,85,0,0
53057,-88.9370932754881,4,1,0,85,0,0
53187,-89.5196506550218,4,1,0,85,0,0
53318,-90.1098901098901,4,1,0,85,0,0
53448,-90.7079646017699,4,1,0,85,0,0
53579,-91.3140311804009,4,1,0,85,0,0
53709,-91.9282511210762,4,1,0,85,0,0
53839,-92.5507900677201,4,1,0,85,0,0
54100,-93.1818181818182,4,1,0,85,0,0
54231,-93.8215102974828,4,1,0,85,0,0
54361,-94.4700460829493,4,1,0,85,0,0
54492,-95.1276102088167,4,1,0,85,0,0
54622,-95.7943925233645,4,1,0,85,0,0
54752,-96.4705882352941,4,1,0,85,0,0
54883,-97.1563981042654,4,1,0,85,0,0
55013,-97.8520286396181,4,1,0,85,0,0
55144,-98.5576923076923,4,1,0,85,0,0
55274,-99.273607748184,4,1,0,85,0,0
55405,-100,4,1,0,85,0,0
55535,-100.737100737101,4,1,0,85,0,0
55666,-101.485148514851,4,1,0,85,0,0
55796,-102.244389027431,4,1,0,85,0,0
55926,-103.015075376884,4,1,0,85,0,0
56187,-25,4,1,0,85,0,0
56253,-104.591836734694,4,1,0,85,0,0
56318,-105.398457583548,4,1,0,85,0,0
56579,-106.217616580311,4,1,0,85,0,0
56709,-107.049608355091,4,1,0,85,0,0
56839,-107.894736842105,4,1,0,85,0,0
56970,-108.753315649867,4,1,0,85,0,0
57100,-109.625668449198,4,1,0,85,0,0
57231,-110.512129380054,4,1,0,85,0,0
57361,-111.413043478261,4,1,0,85,0,0
57492,-112.328767123288,4,1,0,85,0,0
57622,-113.259668508287,4,1,0,85,0,0
57752,-114.206128133705,4,1,0,85,0,0
57883,-115.168539325843,4,1,0,85,0,0
58013,-116.14730878187,4,1,0,85,0,0
58144,-117.142857142857,4,1,0,85,0,0
58405,-118.155619596542,4,1,0,85,0,0
58502,-119.186046511628,4,1,0,85,0,0
58568,-120.234604105572,4,1,0,85,0,0
58666,-121.301775147929,4,1,0,85,0,0
58796,-122.388059701493,4,1,0,85,0,0
58926,-123.493975903614,4,1,0,85,0,0
59057,-124.620060790274,4,1,0,85,0,0
59187,-125.766871165644,4,1,0,85,0,0
59318,-126.934984520124,4,1,0,85,0,0
59448,-128.125,4,1,0,85,0,0
59579,-129.337539432177,4,1,0,85,0,0
59709,-130.573248407643,4,1,0,85,0,0
59839,-131.832797427653,4,1,0,85,0,0
59970,-133.116883116883,4,1,0,85,0,0
60100,-134.426229508197,4,1,0,85,0,0
60361,-25,4,1,0,85,0,0
60427,-137.123745819398,4,1,0,85,0,0
60492,-138.513513513514,4,1,0,85,0,0
60752,-139.931740614334,4,1,0,85,0,0
60883,-141.379310344828,4,1,0,85,0,0
61013,-142.857142857143,4,1,0,85,0,0
61144,-144.366197183099,4,1,0,85,0,0
61274,-145.907473309609,4,1,0,85,0,0
61405,-147.482014388489,4,1,0,85,0,0
61535,-149.090909090909,4,1,0,85,0,0
61666,-150.735294117647,4,1,0,85,0,0
61796,-152.416356877323,4,1,0,85,0,0
61926,-154.135338345865,4,1,0,85,0,0
62057,-155.893536121673,4,1,0,85,0,0
62187,-157.692307692308,4,1,0,85,0,0
62448,-159.533073929961,4,1,0,85,0,0
62579,-161.417322834646,4,1,0,85,0,0
62709,-163.346613545817,4,1,0,85,0,0
62839,-165.322580645161,4,1,0,85,0,0
62970,-167.34693877551,4,1,0,85,0,0
63100,-169.421487603306,4,1,0,85,0,0
63231,-171.548117154812,4,1,0,85,0,0
63361,-173.728813559322,4,1,0,85,0,0
63492,-175.965665236052,4,1,0,85,0,0
63622,-178.260869565217,4,1,0,85,0,0
63752,-180.616740088106,4,1,0,85,0,0
63883,-183.035714285714,4,1,0,85,0,0
64013,-185.52036199095,4,1,0,85,0,0
64144,-188.073394495413,4,1,0,85,0,0
64274,-190.697674418605,4,1,0,85,0,0
64535,-25,4,1,0,85,0,0
64601,-196.172248803828,4,1,0,85,0,0
64666,-199.029126213592,4,1,0,85,0,0
64926,-201.970443349754,4,1,0,85,0,0
65057,-205,4,1,0,85,0,0
65187,-208.121827411168,4,1,0,85,0,0
65318,-211.340206185567,4,1,0,85,0,0
65448,-214.659685863874,4,1,0,85,0,0
65579,-218.085106382979,4,1,0,85,0,0
65709,-221.621621621622,4,1,0,85,0,0
65839,-225.274725274725,4,1,0,85,0,0
65970,-229.050279329609,4,1,0,85,0,0
66100,-232.954545454545,4,1,0,85,0,0
66231,-236.994219653179,4,1,0,85,0,0
66361,-241.176470588235,4,1,0,85,0,0
66492,-245.508982035928,4,1,0,85,0,0
66622,-250,4,1,0,85,0,0
66753,-95.2380952380952,4,1,0,85,0,0
71187,-83.3333333333333,4,1,0,85,0,0
71253,-84.0336134453782,4,1,0,85,0,0
71318,-84.7457627118644,4,1,0,85,0,0
71383,-85.4700854700855,4,1,0,85,0,0
71448,-86.2068965517241,4,1,0,85,0,0
71513,-86.9565217391304,4,1,0,85,0,0
71579,-87.719298245614,4,1,0,85,0,0
71644,-88.495575221239,4,1,0,85,0,0
71709,-89.2857142857143,4,1,0,85,0,0
71774,-90.0900900900901,4,1,0,85,0,0
71839,-90.9090909090909,4,1,0,85,0,0
71905,-91.7431192660551,4,1,0,85,0,0
71970,-92.5925925925926,4,1,0,85,0,0
72035,-93.4579439252336,4,1,0,85,0,0
72100,-94.3396226415094,4,1,0,85,0,0
72166,-95.2380952380952,4,1,0,85,0,0
72231,-96.1538461538461,4,1,0,85,0,0
72296,-97.0873786407767,4,1,0,85,0,0
72361,-98.0392156862745,4,1,0,85,0,0
72426,-99.009900990099,4,1,0,85,0,0
72492,-100,4,1,0,85,0,0
72557,-101.010101010101,4,1,0,85,0,0
72622,-102.040816326531,4,1,0,85,0,0
72687,-103.092783505155,4,1,0,85,0,0
72753,-104.166666666667,4,1,0,85,0,0
72818,-105.263157894737,4,1,0,85,0,0
72883,-106.382978723404,4,1,0,85,0,0
72948,-107.52688172043,4,1,0,85,0,0
73013,-108.695652173913,4,1,0,85,0,0
73079,-109.89010989011,4,1,0,85,0,0
73144,-83.3333333333333,4,1,0,85,0,0
73210,-84.0336134453782,4,1,0,85,0,0
73275,-84.7457627118644,4,1,0,85,0,0
73340,-85.4700854700855,4,1,0,85,0,0
73405,-86.2068965517241,4,1,0,85,0,0
73470,-86.9565217391304,4,1,0,85,0,0
73536,-87.719298245614,4,1,0,85,0,0
73601,-88.495575221239,4,1,0,85,0,0
73666,-89.2857142857143,4,1,0,85,0,0
73731,-90.0900900900901,4,1,0,85,0,0
73796,-90.9090909090909,4,1,0,85,0,0
73862,-91.7431192660551,4,1,0,85,0,0
73927,-92.5925925925926,4,1,0,85,0,0
73992,-93.4579439252336,4,1,0,85,0,0
74057,-94.3396226415094,4,1,0,85,0,0
74123,-95.2380952380952,4,1,0,85,0,0
74188,-96.1538461538461,4,1,0,85,0,0
74253,-97.0873786407767,4,1,0,85,0,0
74318,-98.0392156862745,4,1,0,85,0,0
74383,-99.009900990099,4,1,0,85,0,0
74449,-100,4,1,0,85,0,0
74514,-101.010101010101,4,1,0,85,0,0
74579,-102.040816326531,4,1,0,85,0,0
74644,-103.092783505155,4,1,0,85,0,0
74710,-104.166666666667,4,1,0,85,0,0
74775,-105.263157894737,4,1,0,85,0,0
74840,-106.382978723404,4,1,0,85,0,0
74905,-107.52688172043,4,1,0,85,0,0
74970,-108.695652173913,4,1,0,85,0,0
75036,-109.89010989011,4,1,0,85,0,0
75100,-95.2380952380952,4,1,0,85,0,0
79535,-83.3333333333333,4,1,0,85,0,0
79601,-84.0336134453782,4,1,0,85,0,0
79666,-84.7457627118644,4,1,0,85,0,0
79731,-85.4700854700855,4,1,0,85,0,0
79796,-86.2068965517241,4,1,0,85,0,0
79861,-86.9565217391304,4,1,0,85,0,0
79927,-87.719298245614,4,1,0,85,0,0
79992,-88.495575221239,4,1,0,85,0,0
80057,-89.2857142857143,4,1,0,85,0,0
80122,-90.0900900900901,4,1,0,85,0,0
80187,-90.9090909090909,4,1,0,85,0,0
80253,-91.7431192660551,4,1,0,85,0,0
80318,-92.5925925925926,4,1,0,85,0,0
80383,-93.4579439252336,4,1,0,85,0,0
80448,-94.3396226415094,4,1,0,85,0,0
80514,-95.2380952380952,4,1,0,85,0,0
80579,-96.1538461538461,4,1,0,85,0,0
80644,-97.0873786407767,4,1,0,85,0,0
80709,-98.0392156862745,4,1,0,85,0,0
80774,-99.009900990099,4,1,0,85,0,0
80840,-100,4,1,0,85,0,0
80905,-101.010101010101,4,1,0,85,0,0
80970,-102.040816326531,4,1,0,85,0,0
81035,-103.092783505155,4,1,0,85,0,0
81101,-104.166666666667,4,1,0,85,0,0
81166,-105.263157894737,4,1,0,85,0,0
81231,-106.382978723404,4,1,0,85,0,0
81296,-107.52688172043,4,1,0,85,0,0
81361,-108.695652173913,4,1,0,85,0,0
81427,-109.89010989011,4,1,0,85,0,0
81492,-83.3333333333333,4,1,0,85,0,0
81558,-84.0336134453782,4,1,0,85,0,0
81623,-84.7457627118644,4,1,0,85,0,0
81688,-85.4700854700855,4,1,0,85,0,0
81753,-86.2068965517241,4,1,0,85,0,0
81818,-86.9565217391304,4,1,0,85,0,0
81884,-87.719298245614,4,1,0,85,0,0
81949,-88.495575221239,4,1,0,85,0,0
82014,-89.2857142857143,4,1,0,85,0,0
82079,-90.0900900900901,4,1,0,85,0,0
82144,-90.9090909090909,4,1,0,85,0,0
82210,-91.7431192660551,4,1,0,85,0,0
82275,-92.5925925925926,4,1,0,85,0,0
82340,-93.4579439252336,4,1,0,85,0,0
82405,-94.3396226415094,4,1,0,85,0,0
82471,-95.2380952380952,4,1,0,85,0,0
82536,-96.1538461538461,4,1,0,85,0,0
82601,-97.0873786407767,4,1,0,85,0,0
82666,-98.0392156862745,4,1,0,85,0,0
82731,-99.009900990099,4,1,0,85,0,0
82797,-100,4,1,0,85,0,0
82862,-101.010101010101,4,1,0,85,0,0
82927,-102.040816326531,4,1,0,85,0,0
82992,-103.092783505155,4,1,0,85,0,0
83058,-104.166666666667,4,1,0,85,0,0
83123,-105.263157894737,4,1,0,85,0,0
83188,-106.382978723404,4,1,0,85,0,0
83253,-107.52688172043,4,1,0,85,0,0
83318,-108.695652173913,4,1,0,85,0,0
83384,-109.89010989011,4,1,0,85,0,0
83449,-100,4,1,0,85,0,0
83482,-71.4285714285714,4,1,0,85,0,1
99623,-76.9230769230769,4,1,0,85,0,1
99754,-83.3333333333333,4,1,0,85,0,1
100014,-90.9090909090909,4,1,0,85,0,1
100177,-100,4,1,0,85,0,0
100438,-125,4,1,0,85,0,0
128330,-100,4,1,0,85,0,0
128417,-107.142857142857,4,1,0,85,0,0
128503,-115.384615384615,4,1,0,85,0,0
128590,-125,4,1,0,85,0,0
128677,-136.363636363636,4,1,0,85,0,0
128764,-150,4,1,0,85,0,0
128851,-166.666666666667,4,1,0,85,0,0
128982,-187.5,4,1,0,85,0,0
129112,-214.285714285714,4,1,0,85,0,0
129395,-250,4,1,0,85,0,1
130406,-125,4,1,0,85,0,1
130471,-250,4,1,0,85,0,1
132493,-125,4,1,0,85,0,1
132558,-250,4,1,0,85,0,1
133047,-250,4,1,0,85,0,0
133569,-250,4,1,0,85,0,1
134580,-125,4,1,0,85,0,1
134645,-250,4,1,0,85,0,1
136667,-125,4,1,0,85,0,1
136732,-250,4,1,0,85,0,1
137743,-250,4,1,0,85,0,1
138753,-100,4,1,0,85,0,1
138819,-250,4,1,0,85,0,1
140840,-100,4,1,0,85,0,1
140906,-250,4,1,0,85,0,1
142927,-100,4,1,0,85,0,1
142993,-250,4,1,0,85,0,1
145014,-66.6666666666667,4,1,0,85,0,1
145047,-66.6666666666667,4,1,0,85,0,0
145079,-250,4,1,0,85,0,0
145536,-50,4,1,0,85,0,0
145601,-250,4,1,0,85,0,0
146090,-111.111111111111,4,1,0,85,0,1
146123,-108.843537414966,4,1,0,85,0,1
146188,-106.666666666667,4,1,0,85,0,1
146253,-104.575163398693,4,1,0,85,0,1
146319,-102.564102564103,4,1,0,85,0,1
146384,-100.62893081761,4,1,0,85,0,1
146449,-98.7654320987654,4,1,0,85,0,1
146514,-96.969696969697,4,1,0,85,0,1
146580,-95.2380952380952,4,1,0,85,0,1
146645,-93.5672514619883,4,1,0,85,0,1
146710,-91.9540229885058,4,1,0,85,0,1
146775,-90.3954802259887,4,1,0,85,0,1
146840,-88.8888888888889,4,1,0,85,0,1
146906,-87.431693989071,4,1,0,85,0,1
146971,-86.0215053763441,4,1,0,85,0,1
147036,-84.6560846560847,4,1,0,85,0,1
147101,-83.3333333333333,4,1,0,85,0,1
147167,-86.9565217391304,4,1,0,85,0,1
147232,-90.9090909090909,4,1,0,85,0,1
147297,-95.2380952380952,4,1,0,85,0,1
147362,-100,4,1,0,85,0,1
147427,-105.263157894737,4,1,0,85,0,1
147493,-111.111111111111,4,1,0,85,0,1
147558,-117.647058823529,4,1,0,85,0,1
147623,-125,4,1,0,85,0,1
147688,-133.333333333333,4,1,0,85,0,1
147753,-142.857142857143,4,1,0,85,0,1
147819,-153.846153846154,4,1,0,85,0,1
147884,-166.666666666667,4,1,0,85,0,1
147949,-181.818181818182,4,1,0,85,0,1
148014,-200,4,1,0,85,0,1
148080,-222.222222222222,4,1,0,85,0,1
148145,-111.111111111111,4,1,0,85,0,1
148210,-108.843537414966,4,1,0,85,0,1
148275,-106.666666666667,4,1,0,85,0,1
148340,-104.575163398693,4,1,0,85,0,1
148406,-102.564102564103,4,1,0,85,0,1
148471,-100.62893081761,4,1,0,85,0,1
148536,-98.7654320987654,4,1,0,85,0,1
148601,-96.969696969697,4,1,0,85,0,1
148667,-95.2380952380952,4,1,0,85,0,1
148732,-93.5672514619883,4,1,0,85,0,1
148797,-91.9540229885058,4,1,0,85,0,1
148862,-90.3954802259887,4,1,0,85,0,1
148927,-88.8888888888889,4,1,0,85,0,1
148993,-87.431693989071,4,1,0,85,0,1
149058,-86.0215053763441,4,1,0,85,0,1
149123,-84.6560846560847,4,1,0,85,0,1
149188,-83.3333333333333,4,1,0,85,0,1
149254,-86.9565217391304,4,1,0,85,0,1
149319,-90.9090909090909,4,1,0,85,0,1
149384,-95.2380952380952,4,1,0,85,0,1
149449,-100,4,1,0,85,0,1
149514,-105.263157894737,4,1,0,85,0,1
149580,-111.111111111111,4,1,0,85,0,1
149645,-117.647058823529,4,1,0,85,0,1
149710,-125,4,1,0,85,0,1
149775,-133.333333333333,4,1,0,85,0,1
149840,-142.857142857143,4,1,0,85,0,1
149906,-153.846153846154,4,1,0,85,0,1
149971,-166.666666666667,4,1,0,85,0,1
150036,-181.818181818182,4,1,0,85,0,1
150101,-200,4,1,0,85,0,1
150167,-222.222222222222,4,1,0,85,0,1
150232,-111.111111111111,4,1,0,85,0,1
150297,-108.843537414966,4,1,0,85,0,1
150362,-106.666666666667,4,1,0,85,0,1
150427,-104.575163398693,4,1,0,85,0,1
150493,-102.564102564103,4,1,0,85,0,1
150558,-100.62893081761,4,1,0,85,0,1
150623,-98.7654320987654,4,1,0,85,0,1
150688,-96.969696969697,4,1,0,85,0,1
150754,-95.2380952380952,4,1,0,85,0,1
150819,-93.5672514619883,4,1,0,85,0,1
150884,-91.9540229885058,4,1,0,85,0,1
150949,-90.3954802259887,4,1,0,85,0,1
151014,-88.8888888888889,4,1,0,85,0,1
151080,-87.431693989071,4,1,0,85,0,1
151145,-86.0215053763441,4,1,0,85,0,1
151210,-84.6560846560847,4,1,0,85,0,1
151275,-83.3333333333333,4,1,0,85,0,1
151341,-86.9565217391304,4,1,0,85,0,1
151406,-90.9090909090909,4,1,0,85,0,1
151471,-95.2380952380952,4,1,0,85,0,1
151536,-100,4,1,0,85,0,1
151601,-105.263157894737,4,1,0,85,0,1
151667,-111.111111111111,4,1,0,85,0,1
151732,-117.647058823529,4,1,0,85,0,1
151797,-125,4,1,0,85,0,1
151862,-133.333333333333,4,1,0,85,0,1
151927,-142.857142857143,4,1,0,85,0,1
151993,-153.846153846154,4,1,0,85,0,1
152058,-166.666666666667,4,1,0,85,0,1
152123,-181.818181818182,4,1,0,85,0,1
152188,-200,4,1,0,85,0,1
152254,-222.222222222222,4,1,0,85,0,1
152319,-111.111111111111,4,1,0,85,0,1
152384,-108.843537414966,4,1,0,85,0,1
152449,-106.666666666667,4,1,0,85,0,1
152514,-104.575163398693,4,1,0,85,0,1
152580,-102.564102564103,4,1,0,85,0,1
152645,-100.62893081761,4,1,0,85,0,1
152710,-98.7654320987654,4,1,0,85,0,1
152775,-96.969696969697,4,1,0,85,0,1
152841,-95.2380952380952,4,1,0,85,0,1
152906,-93.5672514619883,4,1,0,85,0,1
152971,-91.9540229885058,4,1,0,85,0,1
153036,-90.3954802259887,4,1,0,85,0,1
153101,-88.8888888888889,4,1,0,85,0,1
153167,-87.431693989071,4,1,0,85,0,1
153232,-86.0215053763441,4,1,0,85,0,1
153297,-84.6560846560847,4,1,0,85,0,1
153362,-83.3333333333333,4,1,0,85,0,1
153428,-86.9565217391304,4,1,0,85,0,1
153493,-90.9090909090909,4,1,0,85,0,1
153558,-95.2380952380952,4,1,0,85,0,1
153623,-100,4,1,0,85,0,1
153688,-105.263157894737,4,1,0,85,0,1
153754,-111.111111111111,4,1,0,85,0,1
153819,-117.647058823529,4,1,0,85,0,1
153884,-125,4,1,0,85,0,1
153949,-133.333333333333,4,1,0,85,0,1
154014,-142.857142857143,4,1,0,85,0,1
154080,-153.846153846154,4,1,0,85,0,1
154145,-166.666666666667,4,1,0,85,0,1
154210,-181.818181818182,4,1,0,85,0,1
154275,-200,4,1,0,85,0,1
154341,-222.222222222222,4,1,0,85,0,1
154406,-111.111111111111,4,1,0,85,0,1
154471,-108.843537414966,4,1,0,85,0,1
154536,-106.666666666667,4,1,0,85,0,1
154601,-104.575163398693,4,1,0,85,0,1
154667,-102.564102564103,4,1,0,85,0,1
154732,-100.62893081761,4,1,0,85,0,1
154797,-98.7654320987654,4,1,0,85,0,1
154862,-96.969696969697,4,1,0,85,0,1
154928,-95.2380952380952,4,1,0,85,0,1
154993,-93.5672514619883,4,1,0,85,0,1
155058,-91.9540229885058,4,1,0,85,0,1
155123,-90.3954802259887,4,1,0,85,0,1
155188,-88.8888888888889,4,1,0,85,0,1
155254,-87.431693989071,4,1,0,85,0,1
155319,-86.0215053763441,4,1,0,85,0,1
155384,-84.6560846560847,4,1,0,85,0,1
155449,-83.3333333333333,4,1,0,85,0,1
155515,-86.9565217391304,4,1,0,85,0,1
155580,-90.9090909090909,4,1,0,85,0,1
155645,-95.2380952380952,4,1,0,85,0,1
155710,-100,4,1,0,85,0,1
155775,-105.263157894737,4,1,0,85,0,1
155841,-111.111111111111,4,1,0,85,0,1
155906,-117.647058823529,4,1,0,85,0,1
155971,-125,4,1,0,85,0,1
156036,-133.333333333333,4,1,0,85,0,1
156101,-142.857142857143,4,1,0,85,0,1
156167,-153.846153846154,4,1,0,85,0,1
156232,-166.666666666667,4,1,0,85,0,1
156297,-181.818181818182,4,1,0,85,0,1
156362,-200,4,1,0,85,0,1
156428,-222.222222222222,4,1,0,85,0,1
156493,-111.111111111111,4,1,0,85,0,1
156558,-108.843537414966,4,1,0,85,0,1
156623,-106.666666666667,4,1,0,85,0,1
156688,-104.575163398693,4,1,0,85,0,1
156754,-102.564102564103,4,1,0,85,0,1
156819,-100.62893081761,4,1,0,85,0,1
156884,-98.7654320987654,4,1,0,85,0,1
156949,-96.969696969697,4,1,0,85,0,1
157015,-95.2380952380952,4,1,0,85,0,1
157080,-93.5672514619883,4,1,0,85,0,1
157145,-91.9540229885058,4,1,0,85,0,1
157210,-90.3954802259887,4,1,0,85,0,1
157275,-88.8888888888889,4,1,0,85,0,1
157341,-87.431693989071,4,1,0,85,0,1
157406,-86.0215053763441,4,1,0,85,0,1
157471,-84.6560846560847,4,1,0,85,0,1
157536,-83.3333333333333,4,1,0,85,0,1
157602,-86.9565217391304,4,1,0,85,0,1
157667,-90.9090909090909,4,1,0,85,0,1
157732,-95.2380952380952,4,1,0,85,0,1
157797,-100,4,1,0,85,0,1
157862,-105.263157894737,4,1,0,85,0,1
157928,-111.111111111111,4,1,0,85,0,1
157993,-117.647058823529,4,1,0,85,0,1
158058,-125,4,1,0,85,0,1
158123,-133.333333333333,4,1,0,85,0,1
158188,-142.857142857143,4,1,0,85,0,1
158254,-153.846153846154,4,1,0,85,0,1
158319,-166.666666666667,4,1,0,85,0,1
158384,-181.818181818182,4,1,0,85,0,1
158449,-200,4,1,0,85,0,1
158515,-222.222222222222,4,1,0,85,0,1
158580,-111.111111111111,4,1,0,85,0,1
158645,-108.843537414966,4,1,0,85,0,1
158710,-106.666666666667,4,1,0,85,0,1
158775,-104.575163398693,4,1,0,85,0,1
158841,-102.564102564103,4,1,0,85,0,1
158906,-100.62893081761,4,1,0,85,0,1
158971,-98.7654320987654,4,1,0,85,0,1
159036,-96.969696969697,4,1,0,85,0,1
159102,-95.2380952380952,4,1,0,85,0,1
159167,-93.5672514619883,4,1,0,85,0,1
159232,-91.9540229885058,4,1,0,85,0,1
159297,-90.3954802259887,4,1,0,85,0,1
159362,-88.8888888888889,4,1,0,85,0,1
159428,-87.431693989071,4,1,0,85,0,1
159493,-86.0215053763441,4,1,0,85,0,1
159558,-84.6560846560847,4,1,0,85,0,1
159623,-83.3333333333333,4,1,0,85,0,1
159689,-86.9565217391304,4,1,0,85,0,1
159754,-90.9090909090909,4,1,0,85,0,1
159819,-95.2380952380952,4,1,0,85,0,1
159884,-100,4,1,0,85,0,1
159949,-105.263157894737,4,1,0,85,0,1
160015,-111.111111111111,4,1,0,85,0,1
160080,-117.647058823529,4,1,0,85,0,1
160145,-125,4,1,0,85,0,1
160210,-133.333333333333,4,1,0,85,0,1
160275,-142.857142857143,4,1,0,85,0,1
160341,-153.846153846154,4,1,0,85,0,1
160406,-166.666666666667,4,1,0,85,0,1
160471,-181.818181818182,4,1,0,85,0,1
160536,-200,4,1,0,85,0,1
160602,-222.222222222222,4,1,0,85,0,1
160667,-111.111111111111,4,1,0,85,0,1
160732,-108.843537414966,4,1,0,85,0,1
160797,-106.666666666667,4,1,0,85,0,1
160862,-104.575163398693,4,1,0,85,0,1
160928,-102.564102564103,4,1,0,85,0,1
160993,-100.62893081761,4,1,0,85,0,1
161058,-98.7654320987654,4,1,0,85,0,1
161123,-96.969696969697,4,1,0,85,0,1
161189,-95.2380952380952,4,1,0,85,0,1
161254,-93.5672514619883,4,1,0,85,0,1
161319,-91.9540229885058,4,1,0,85,0,1
161384,-90.3954802259887,4,1,0,85,0,1
161449,-88.8888888888889,4,1,0,85,0,1
161515,-87.431693989071,4,1,0,85,0,1
161580,-86.0215053763441,4,1,0,85,0,1
161645,-84.6560846560847,4,1,0,85,0,1
161710,-83.3333333333333,4,1,0,85,0,1
161776,-86.9565217391304,4,1,0,85,0,1
161841,-90.9090909090909,4,1,0,85,0,1
161906,-95.2380952380952,4,1,0,85,0,1
161971,-100,4,1,0,85,0,1
162036,-105.263157894737,4,1,0,85,0,1
162102,-111.111111111111,4,1,0,85,0,1
162167,-117.647058823529,4,1,0,85,0,1
162232,-125,4,1,0,85,0,1
162297,-133.333333333333,4,1,0,85,0,1
162362,-142.857142857143,4,1,0,85,0,1
162428,-153.846153846154,4,1,0,85,0,1
162493,-166.666666666667,4,1,0,85,0,1
162558,-181.818181818182,4,1,0,85,0,1
162623,-200,4,1,0,85,0,1
162689,-222.222222222222,4,1,0,85,0,1
162786,-250,4,1,0,85,0,1
163014,-251.97628458498,4,1,0,85,0,1
163275,-253.98406374502,4,1,0,85,0,1
163536,-256.024096385542,4,1,0,85,0,1
163797,-50,4,1,0,85,0,1
163862,-250,4,1,0,85,0,1
164058,-258.097165991903,4,1,0,85,0,1
164319,-260.204081632653,4,1,0,85,0,1
164580,-262.345679012346,4,1,0,85,0,1
164840,-264.522821576763,4,1,0,85,0,1
165101,-266.73640167364,4,1,0,85,0,1
165362,-268.987341772152,4,1,0,85,0,1
165623,-271.276595744681,4,1,0,85,0,1
165884,-50,4,1,0,85,0,1
165949,-250,4,1,0,85,0,1
166145,-273.605150214592,4,1,0,85,0,1
166406,-275.974025974026,4,1,0,85,0,1
166667,-278.384279475983,4,1,0,85,0,1
166797,-280.837004405286,4,1,0,85,0,1
166927,-283.333333333333,4,1,0,85,0,1
167188,-285.874439461883,4,1,0,85,0,1
167449,-288.461538461538,4,1,0,85,0,1
167710,-291.095890410959,4,1,0,85,0,1
167971,-50,4,1,0,85,0,1
168036,-250,4,1,0,85,0,1
168232,-293.778801843318,4,1,0,85,0,1
168493,-296.511627906977,4,1,0,85,0,1
168753,-299.295774647887,4,1,0,85,0,1
169014,-302.132701421801,4,1,0,85,0,1
169275,-305.023923444976,4,1,0,85,0,1
169536,-307.971014492754,4,1,0,85,0,1
169797,-310.975609756098,4,1,0,85,0,1
170058,-50,4,1,0,85,0,1
170123,-250,4,1,0,85,0,1
170319,-314.039408866995,4,1,0,85,0,1
170580,-317.164179104478,4,1,0,85,0,1
170840,-320.35175879397,4,1,0,85,0,1
171101,-323.604060913706,4,1,0,85,0,1
171362,-326.923076923077,4,1,0,85,0,1
171623,-330.310880829016,4,1,0,85,0,1
171884,-333.769633507853,4,1,0,85,0,1
172145,-50,4,1,0,85,0,1
172210,-250,4,1,0,85,0,1
172406,-337.301587301587,4,1,0,85,0,1
172667,-340.909090909091,4,1,0,85,0,1
172927,-344.594594594595,4,1,0,85,0,1
173188,-348.360655737705,4,1,0,85,0,1
173449,-352.209944751381,4,1,0,85,0,1
173710,-356.145251396648,4,1,0,85,0,1
173971,-360.169491525424,4,1,0,85,0,1
174232,-50,4,1,0,85,0,1
174297,-250,4,1,0,85,0,1
174493,-364.285714285714,4,1,0,85,0,1
174753,-368.49710982659,4,1,0,85,0,1
175014,-372.80701754386,4,1,0,85,0,1
175145,-377.218934911243,4,1,0,85,0,1
175275,-381.736526946108,4,1,0,85,0,1
175536,-386.363636363636,4,1,0,85,0,1
175797,-391.104294478528,4,1,0,85,0,1
176058,-395.962732919255,4,1,0,85,0,1
176319,-50,4,1,0,85,0,1
176384,-250,4,1,0,85,0,1
176580,-400.943396226415,4,1,0,85,0,1
176840,-406.050955414013,4,1,0,85,0,1
177101,-411.290322580645,4,1,0,85,0,1
177395,-416.666666666667,4,1,0,85,0,1
177590,-335.051546391753,4,1,0,85,0,1
177851,-280.172413793103,4,1,0,85,0,1
178112,-240.740740740741,4,1,0,85,0,1
178373,-211.038961038961,4,1,0,85,0,1
178503,-187.861271676301,4,1,0,85,0,1
178634,-169.270833333333,4,1,0,85,0,1
178764,-154.028436018957,4,1,0,85,0,1
178895,-141.304347826087,4,1,0,85,0,1
179003,-130.522088353414,4,1,0,85,0,1
179074,-121.268656716418,4,1,0,85,0,1
179139,-113.240418118467,4,1,0,85,0,1
179221,-106.209150326797,4,1,0,85,0,0
179351,-100,4,1,0,85,0,0
179482,-94.3396226415094,4,1,0,85,0,1
195786,-94.3396226415094,4,1,0,85,0,0

[HitObjects]
197,112,4,5,8,0:0:0:0:
176,77,264,5,8,0:0:0:0:
176,77,525,1,8,0:0:0:0:
176,77,656,1,8,0:0:0:0:
189,141,917,1,8,0:0:0:0:
189,141,1177,1,8,0:0:0:0:
213,129,1438,1,8,0:0:0:0:
213,129,1569,1,8,0:0:0:0:
213,129,1699,1,8,0:0:0:0:
212,130,1960,1,4,0:0:0:0:
188,124,2351,1,8,0:0:0:0:
156,89,2417,1,8,0:0:0:0:
154,188,2482,1,8,0:0:0:0:
154,188,2547,1,8,0:0:0:0:
154,188,2612,1,8,0:0:0:0:
188,124,2743,1,8,0:0:0:0:
188,124,3003,1,8,0:0:0:0:
188,124,3264,1,8,0:0:0:0:
188,124,3525,1,8,0:0:0:0:
188,124,3786,1,8,0:0:0:0:
188,124,4177,1,8,0:0:0:0:
188,124,4438,1,8,0:0:0:0:
188,124,4699,1,8,0:0:0:0:
188,124,4830,1,8,0:0:0:0:
188,124,5090,1,8,0:0:0:0:
188,124,5351,1,8,0:0:0:0:
188,124,5612,1,8,0:0:0:0:
188,124,5743,1,8,0:0:0:0:
188,124,5873,1,8,0:0:0:0:
188,124,6134,1,4,0:0:0:0:
173,130,6525,1,8,0:0:0:0:
173,130,6786,1,8,0:0:0:0:
173,130,6917,1,8,0:0:0:0:
193,132,7177,1,8,0:0:0:0:
192,130,7308,1,8,0:0:0:0:
193,132,7438,1,8,0:0:0:0:
192,130,7699,1,8,0:0:0:0:
192,130,7960,1,8,0:0:0:0:
193,132,8090,1,8,0:0:0:0:
193,132,8351,1,8,0:0:0:0:
174,91,8438,1,0,0:0:0:0:
174,91,8525,1,0,0:0:0:0:
174,91,8612,1,8,0:0:0:0:
181,97,8873,1,8,0:0:0:0:
181,94,9003,1,8,0:0:0:0:
181,97,9264,1,8,0:0:0:0:
181,97,9525,1,8,0:0:0:0:
181,97,9786,1,8,0:0:0:0:
181,97,9917,1,8,0:0:0:0:
181,94,10047,1,8,0:0:0:0:
181,97,10308,1,4,0:0:0:0:
192,125,10699,1,8,0:0:0:0:
190,125,10960,1,8,0:0:0:0:
189,126,11090,1,8,0:0:0:0:
189,126,11351,1,8,0:0:0:0:
192,125,11482,1,8,0:0:0:0:
192,125,11612,1,8,0:0:0:0:
190,125,11873,1,8,0:0:0:0:
189,126,12134,1,8,0:0:0:0:
192,125,12525,1,8,0:0:0:0:
190,125,12786,1,8,0:0:0:0:
189,126,13047,1,8,0:0:0:0:
189,126,13177,1,8,0:0:0:0:
192,125,13438,1,8,0:0:0:0:
192,125,13569,1,8,0:0:0:0:
190,125,13699,1,8,0:0:0:0:
189,126,13960,1,8,0:0:0:0:
189,126,14221,1,8,0:0:0:0:
192,125,14482,1,4,0:0:0:0:
184,133,14873,1,8,0:0:0:0:
184,133,15134,1,8,0:0:0:0:
184,133,15264,1,8,0:0:0:0:
184,133,15525,1,8,0:0:0:0:
173,79,15656,1,8,0:0:0:0:
184,133,15786,1,8,0:0:0:0:
173,79,16047,1,8,0:0:0:0:
138,191,16177,5,8,0:0:0:0:
138,191,16308,1,8,0:0:0:0:
138,191,16438,1,8,0:0:0:0:
138,191,16569,1,8,0:0:0:0:
146,184,16699,1,0,0:0:0:0:
202,168,16830,1,0,0:0:0:0:
202,168,16960,1,8,0:0:0:0:
194,156,17090,1,0,0:0:0:0:
194,155,17156,1,0,0:0:0:0:
194,156,17221,1,8,0:0:0:0:
192,125,17351,1,0,0:0:0:0:
191,125,17482,1,8,0:0:0:0:
171,76,17547,1,0,0:0:0:0:
171,76,17612,1,0,0:0:0:0:
171,76,17677,1,0,0:0:0:0:
191,125,17743,1,8,0:0:0:0:
169,130,17873,1,0,0:0:0:0:
169,130,18003,1,8,0:0:0:0:
192,90,18134,1,0,0:0:0:0:
192,90,18264,1,8,0:0:0:0:
192,84,18330,1,0,0:0:0:0:
192,91,18395,1,8,0:0:0:0:
192,84,18460,1,8,0:0:0:0:
192,91,18525,1,0,0:0:0:0:
192,91,18656,1,8,0:0:0:0:
192,91,18786,1,0,0:0:0:0:
198,137,18917,1,0,0:0:0:0:
196,109,18982,1,0,0:0:0:0:
198,137,19047,1,8,0:0:0:0:
195,111,19177,1,0,0:0:0:0:
194,111,19308,1,8,0:0:0:0:
191,45,19438,1,0,0:0:0:0:
186,153,19503,1,8,0:0:0:0:
181,155,19569,1,0,0:0:0:0:
165,87,19699,1,0,0:0:0:0:
165,87,19830,1,8,0:0:0:0:
155,130,19895,1,8,0:0:0:0:
155,127,19960,1,0,0:0:0:0:
155,130,20025,1,0,0:0:0:0:
155,127,20090,1,8,0:0:0:0:
168,95,20221,1,0,0:0:0:0:
168,95,20351,1,8,0:0:0:0:
168,95,20417,1,0,0:0:0:0:
168,95,20482,1,8,0:0:0:0:
168,95,20547,1,8,0:0:0:0:
168,95,20612,1,0,0:0:0:0:
160,118,20743,1,8,0:0:0:0:
160,118,20808,1,8,0:0:0:0:
165,110,20873,1,0,0:0:0:0:
173,101,21003,1,0,0:0:0:0:
180,248,21069,1,0,0:0:0:0:
173,101,21134,1,8,0:0:0:0:
151,74,21199,1,0,0:0:0:0:
152,71,21264,1,0,0:0:0:0:
151,74,21330,1,0,0:0:0:0:
151,72,21395,1,8,0:0:0:0:
151,74,21460,1,8,0:0:0:0:
151,75,21525,1,0,0:0:0:0:
151,74,21590,1,0,0:0:0:0:
151,74,21656,1,8,0:0:0:0:
197,54,21786,1,0,0:0:0:0:
197,54,21917,1,8,0:0:0:0:
187,80,21982,1,0,0:0:0:0:
181,50,22047,1,0,0:0:0:0:
181,51,22112,1,0,0:0:0:0:
181,50,22177,1,8,0:0:0:0:
187,82,22308,1,0,0:0:0:0:
177,56,22373,1,0,0:0:0:0:
181,84,22438,1,8,0:0:0:0:
160,85,22569,1,0,0:0:0:0:
160,85,22699,1,8,0:0:0:0:
173,56,22830,1,8,0:0:0:0:
173,56,22960,1,0,0:0:0:0:
182,84,23090,1,0,0:0:0:0:
182,84,23156,1,0,0:0:0:0:
182,84,23221,1,8,0:0:0:0:
161,27,23286,1,0,0:0:0:0:
161,27,23351,1,0,0:0:0:0:
161,27,23417,1,0,0:0:0:0:
161,27,23482,1,8,0:0:0:0:
161,27,23547,1,8,0:0:0:0:
161,27,23612,1,0,0:0:0:0:
161,27,23677,1,0,0:0:0:0:
161,27,23743,1,8,0:0:0:0:
177,87,23873,1,0,0:0:0:0:
176,88,24003,1,8,0:0:0:0:
185,56,24069,1,8,0:0:0:0:
185,56,24134,1,0,0:0:0:0:
187,57,24199,1,0,0:0:0:0:
185,56,24264,1,8,0:0:0:0:
183,39,24395,1,0,0:0:0:0:
183,38,24460,1,0,0:0:0:0:
183,39,24525,1,8,0:0:0:0:
181,37,24590,1,0,0:0:0:0:
182,37,24656,1,8,0:0:0:0:
181,37,24786,1,8,0:0:0:0:
181,37,24851,1,8,0:0:0:0:
176,38,24917,1,8,0:0:0:0:
181,37,24982,1,8,0:0:0:0:
146,184,25047,1,0,0:0:0:0:
202,168,25177,1,0,0:0:0:0:
202,168,25308,1,8,0:0:0:0:
194,70,25373,1,0,0:0:0:0:
197,51,25438,1,8,0:0:0:0:
194,155,25503,1,0,0:0:0:0:
194,156,25569,1,8,0:0:0:0:
192,125,25699,1,0,0:0:0:0:
191,125,25830,1,8,0:0:0:0:
166,82,25895,1,8,0:0:0:0:
171,76,25960,1,0,0:0:0:0:
191,125,26090,1,8,0:0:0:0:
191,96,26156,1,0,0:0:0:0:
169,130,26221,1,8,0:0:0:0:
191,96,26286,1,0,0:0:0:0:
169,130,26351,1,8,0:0:0:0:
181,43,26417,1,0,0:0:0:0:
192,90,26482,1,0,0:0:0:0:
181,43,26547,1,0,0:0:0:0:
192,90,26612,1,8,0:0:0:0:
192,91,26743,1,0,0:0:0:0:
181,43,26808,1,0,0:0:0:0:
192,91,26873,1,8,0:0:0:0:
192,91,27003,1,8,0:0:0:0:
192,91,27134,1,0,0:0:0:0:
227,118,27199,1,0,0:0:0:0:
198,137,27264,1,8,0:0:0:0:
196,109,27330,1,0,0:0:0:0:
198,137,27395,1,8,0:0:0:0:
195,111,27525,1,0,0:0:0:0:
194,111,27656,1,8,0:0:0:0:
190,27,27721,1,8,0:0:0:0:
190,20,27786,1,0,0:0:0:0:
186,153,27851,1,0,0:0:0:0:
181,155,27917,1,8,0:0:0:0:
165,87,28047,1,0,0:0:0:0:
165,87,28177,1,8,0:0:0:0:
200,82,28243,1,8,0:0:0:0:
155,127,28308,1,8,0:0:0:0:
175,78,28373,1,0,0:0:0:0:
155,127,28438,1,8,0:0:0:0:
206,85,28503,1,0,0:0:0:0:
168,95,28569,1,0,0:0:0:0:
195,64,28634,1,0,0:0:0:0:
168,95,28699,1,8,0:0:0:0:
168,95,28830,1,0,0:0:0:0:
254,65,28895,1,0,0:0:0:0:
168,95,28960,1,8,0:0:0:0:
160,118,29090,1,8,0:0:0:0:
165,110,29221,1,0,0:0:0:0:
173,101,29351,1,0,0:0:0:0:
173,101,29482,1,8,0:0:0:0:
151,74,29547,1,0,0:0:0:0:
152,71,29612,1,0,0:0:0:0:
151,74,29677,1,0,0:0:0:0:
151,72,29743,1,8,0:0:0:0:
151,74,29808,1,8,0:0:0:0:
151,75,29873,1,0,0:0:0:0:
151,74,29938,1,0,0:0:0:0:
151,74,30003,1,8,0:0:0:0:
197,54,30134,1,0,0:0:0:0:
197,54,30264,1,8,0:0:0:0:
187,80,30330,1,0,0:0:0:0:
181,50,30395,1,0,0:0:0:0:
181,51,30460,1,0,0:0:0:0:
181,50,30525,1,8,0:0:0:0:
187,82,30656,1,0,0:0:0:0:
177,56,30721,1,0,0:0:0:0:
181,84,30786,1,8,0:0:0:0:
160,85,30917,1,0,0:0:0:0:
160,85,31047,1,8,0:0:0:0:
173,56,31177,1,8,0:0:0:0:
173,56,31308,1,0,0:0:0:0:
182,84,31438,1,0,0:0:0:0:
182,84,31503,1,0,0:0:0:0:
182,84,31569,1,8,0:0:0:0:
161,27,31634,1,0,0:0:0:0:
161,27,31699,1,0,0:0:0:0:
161,27,31764,1,0,0:0:0:0:
161,27,31830,1,8,0:0:0:0:
161,27,31895,1,8,0:0:0:0:
161,27,31960,1,0,0:0:0:0:
161,27,32025,1,0,0:0:0:0:
161,27,32090,1,8,0:0:0:0:
177,87,32221,1,0,0:0:0:0:
176,88,32351,1,8,0:0:0:0:
185,56,32417,1,8,0:0:0:0:
185,56,32482,1,0,0:0:0:0:
187,57,32547,1,0,0:0:0:0:
185,56,32612,1,8,0:0:0:0:
178,96,32743,1,0,0:0:0:0:
178,96,32808,1,0,0:0:0:0:
178,96,32873,1,8,0:0:0:0:
178,96,33003,1,8,0:0:0:0:
178,96,33134,1,8,0:0:0:0:
178,96,33264,1,8,0:0:0:0:
154,206,33395,5,4,0:0:0:0:
154,206,33525,1,4,0:0:0:0:
154,206,33656,1,4,0:0:0:0:
154,206,33786,1,4,0:0:0:0:
154,206,33917,1,8,0:0:0:0:
162,96,34047,1,4,0:0:0:0:
162,96,34177,1,4,0:0:0:0:
162,96,34308,1,4,0:0:0:0:
167,90,34569,1,4,0:0:0:0:
167,90,34960,1,8,0:0:0:0:
167,90,35090,1,8,0:0:0:0:
167,90,35482,1,4,0:0:0:0:
167,90,35612,1,4,0:0:0:0:
167,90,35743,1,4,0:0:0:0:
167,90,35873,1,4,0:0:0:0:
167,90,36003,1,8,0:0:0:0:
167,90,36134,1,4,0:0:0:0:
167,90,36264,1,4,0:0:0:0:
167,90,36395,1,4,0:0:0:0:
202,73,36656,1,4,0:0:0:0:
191,83,37047,1,8,0:0:0:0:
190,85,37177,1,8,0:0:0:0:
154,118,37438,1,8,0:0:0:0:
154,118,37569,1,4,0:0:0:0:
154,118,37699,1,4,0:0:0:0:
154,118,37830,1,4,0:0:0:0:
154,118,38090,1,8,0:0:0:0:
176,114,38351,1,4,0:0:0:0:
176,114,38482,1,4,0:0:0:0:
176,114,38743,1,8,0:0:0:0:
176,114,38873,1,4,0:0:0:0:
176,114,39134,1,8,0:0:0:0:
176,114,39656,1,4,0:0:0:0:
176,114,39786,1,4,0:0:0:0:
176,114,39917,1,4,0:0:0:0:
176,114,40177,1,8,0:0:0:0:
176,114,40438,1,4,0:0:0:0:
176,114,40569,1,4,0:0:0:0:
176,114,40830,1,8,0:0:0:0:
176,114,40960,1,4,0:0:0:0:
176,114,41221,1,8,0:0:0:0:
207,73,41351,1,8,0:0:0:0:
179,80,41612,1,8,0:0:0:0:
128,166,41743,1,4,0:0:0:0:
128,166,41873,1,4,0:0:0:0:
128,166,42003,1,4,0:0:0:0:
128,166,42134,1,4,0:0:0:0:
128,173,42264,1,8,0:0:0:0:
128,173,42395,1,4,0:0:0:0:
128,173,42525,1,4,0:0:0:0:
128,173,42656,1,4,0:0:0:0:
166,99,42917,1,4,0:0:0:0:
164,76,43308,1,8,0:0:0:0:
164,76,43438,1,8,0:0:0:0:
166,99,43830,1,4,0:0:0:0:
166,99,43960,1,4,0:0:0:0:
165,104,44090,1,4,0:0:0:0:
165,104,44221,1,4,0:0:0:0:
165,104,44351,1,8,0:0:0:0:
166,99,44482,1,4,0:0:0:0:
166,99,44612,1,4,0:0:0:0:
165,106,44743,1,4,0:0:0:0:
167,109,45003,1,4,0:0:0:0:
165,104,45395,1,8,0:0:0:0:
166,99,45525,1,8,0:0:0:0:
165,106,45786,1,8,0:0:0:0:
167,109,45917,1,4,0:0:0:0:
167,109,46047,1,4,0:0:0:0:
165,104,46177,1,4,0:0:0:0:
165,109,46438,1,8,0:0:0:0:
164,98,46699,1,4,0:0:0:0:
165,106,46830,1,4,0:0:0:0:
163,100,47090,1,8,0:0:0:0:
163,100,47221,1,4,0:0:0:0:
162,104,47482,1,8,0:0:0:0:
161,130,48003,1,4,0:0:0:0:
161,130,48134,1,4,0:0:0:0:
161,130,48264,1,4,0:0:0:0:
161,141,48525,1,8,0:0:0:0:
161,141,48786,1,4,0:0:0:0:
161,141,48917,1,4,0:0:0:0:
161,142,49177,1,8,0:0:0:0:
161,141,49308,1,4,0:0:0:0:
161,141,49569,1,8,0:0:0:0:
160,101,49699,1,8,0:0:0:0:
152,107,49830,1,0,0:0:0:0:
128,101,50090,5,8,0:0:0:0:
128,101,50351,1,8,0:0:0:0:
202,93,50612,1,8,0:0:0:0:
179,85,50743,1,8,0:0:0:0:
156,123,51003,1,8,0:0:0:0:
156,123,51264,1,8,0:0:0:0:
162,128,51525,1,8,0:0:0:0:
181,117,51656,1,8,0:0:0:0:
192,110,51786,1,8,0:0:0:0:
156,107,52047,1,4,0:0:0:0:
185,99,52438,1,8,0:0:0:0:
131,142,52503,1,0,0:0:0:0:
183,109,52569,1,0,0:0:0:0:
199,125,52634,1,0,0:0:0:0:
178,107,52699,1,8,0:0:0:0:
178,107,52830,1,8,0:0:0:0:
178,110,53090,1,8,0:0:0:0:
179,110,53351,1,8,0:0:0:0:
178,107,53612,1,8,0:0:0:0:
156,78,53743,1,0,0:0:0:0:
178,107,53873,1,8,0:0:0:0:
170,85,54134,1,8,0:0:0:0:
170,86,54264,1,8,0:0:0:0:
151,115,54525,1,8,0:0:0:0:
151,115,54786,1,8,0:0:0:0:
153,104,54917,1,8,0:0:0:0:
153,104,55177,1,8,0:0:0:0:
163,104,55308,1,8,0:0:0:0:
152,105,55438,1,8,0:0:0:0:
164,104,55699,1,8,0:0:0:0:
165,106,55960,1,8,0:0:0:0:
165,107,56221,1,4,0:0:0:0:
165,94,56612,1,8,0:0:0:0:
165,106,56873,1,8,0:0:0:0:
165,107,57003,1,8,0:0:0:0:
159,79,57264,1,8,0:0:0:0:
160,77,57395,1,8,0:0:0:0:
159,79,57525,1,8,0:0:0:0:
159,79,57786,1,8,0:0:0:0:
183,105,58047,1,8,0:0:0:0:
182,106,58177,1,8,0:0:0:0:
201,109,58438,1,8,0:0:0:0:
198,111,58525,1,0,0:0:0:0:
199,110,58612,1,0,0:0:0:0:
198,111,58699,1,8,0:0:0:0:
161,136,58960,1,8,0:0:0:0:
166,136,59090,1,8,0:0:0:0:
172,109,59351,1,8,0:0:0:0:
169,112,59482,1,8,0:0:0:0:
169,112,59612,1,8,0:0:0:0:
150,64,59873,1,8,0:0:0:0:
181,78,60134,1,8,0:0:0:0:
181,78,60395,1,4,0:0:0:0:
154,90,60786,1,8,0:0:0:0:
154,90,61047,1,8,0:0:0:0:
154,90,61177,1,8,0:0:0:0:
154,90,61438,1,8,0:0:0:0:
154,90,61569,1,8,0:0:0:0:
154,90,61699,1,8,0:0:0:0:
110,151,61960,1,8,0:0:0:0:
190,129,62221,1,8,0:0:0:0:
191,88,62482,1,8,0:0:0:0:
191,88,62612,1,8,0:0:0:0:
170,82,62873,1,8,0:0:0:0:
169,83,63134,1,8,0:0:0:0:
154,90,63264,1,8,0:0:0:0:
167,82,63525,1,8,0:0:0:0:
167,83,63656,1,8,0:0:0:0:
170,82,63786,1,8,0:0:0:0:
167,90,64047,1,8,0:0:0:0:
189,125,64308,1,8,0:0:0:0:
189,125,64569,1,4,0:0:0:0:
176,157,64960,1,8,0:0:0:0:
175,93,65221,1,8,0:0:0:0:
175,157,65351,1,8,0:0:0:0:
154,131,65612,1,8,0:0:0:0:
153,132,65743,1,8,0:0:0:0:
153,132,65873,1,8,0:0:0:0:
157,68,66134,1,8,0:0:0:0:
157,68,66264,1,8,0:0:0:0:
173,113,66395,1,8,0:0:0:0:
170,115,66525,1,8,0:0:0:0:
170,115,66656,1,8,0:0:0:0:
135,280,66786,5,0,0:0:0:0:
152,133,66917,1,0,0:0:0:0:
158,135,67047,1,8,0:0:0:0:
160,82,67177,1,0,0:0:0:0:
160,82,67243,1,0,0:0:0:0:
160,82,67308,1,8,0:0:0:0:
171,73,67438,1,0,0:0:0:0:
170,73,67569,1,8,0:0:0:0:
165,55,67699,1,0,0:0:0:0:
165,55,67830,1,8,0:0:0:0:
174,63,67895,1,0,0:0:0:0:
174,63,67960,1,8,0:0:0:0:
174,63,68025,1,0,0:0:0:0:
174,63,68090,1,8,0:0:0:0:
178,50,68221,1,0,0:0:0:0:
176,52,68351,1,8,0:0:0:0:
150,42,68417,1,0,0:0:0:0:
150,42,68482,1,0,0:0:0:0:
150,42,68547,1,0,0:0:0:0:
176,52,68612,1,8,0:0:0:0:
184,53,68743,1,8,0:0:0:0:
184,53,68873,1,0,0:0:0:0:
186,56,69003,1,0,0:0:0:0:
190,35,69069,1,0,0:0:0:0:
186,56,69134,1,8,0:0:0:0:
175,83,69264,1,0,0:0:0:0:
174,84,69395,1,8,0:0:0:0:
193,68,69460,1,8,0:0:0:0:
176,51,69525,1,0,0:0:0:0:
176,51,69656,1,8,0:0:0:0:
193,68,69786,1,0,0:0:0:0:
193,68,69917,1,8,0:0:0:0:
196,141,69982,1,8,0:0:0:0:
196,141,70047,1,8,0:0:0:0:
196,141,70112,1,0,0:0:0:0:
196,141,70177,1,8,0:0:0:0:
189,46,70308,1,0,0:0:0:0:
189,46,70438,1,8,0:0:0:0:
189,47,70503,1,0,0:0:0:0:
189,46,70569,1,8,0:0:0:0:
189,47,70634,1,0,0:0:0:0:
189,46,70699,1,8,0:0:0:0:
181,71,70830,1,8,0:0:0:0:
179,72,70960,1,0,0:0:0:0:
181,64,71090,1,0,0:0:0:0:
177,63,71156,1,0,0:0:0:0:
177,67,71221,1,8,0:0:0:0:
156,42,71286,1,0,0:0:0:0:
156,42,71351,1,0,0:0:0:0:
156,42,71417,1,0,0:0:0:0:
156,42,71482,1,8,0:0:0:0:
156,42,71547,1,8,0:0:0:0:
156,42,71612,1,0,0:0:0:0:
155,42,71677,1,0,0:0:0:0:
156,42,71743,1,8,0:0:0:0:
138,87,71873,1,0,0:0:0:0:
138,87,72003,1,8,0:0:0:0:
154,65,72069,1,8,0:0:0:0:
163,63,72134,1,0,0:0:0:0:
163,63,72199,1,0,0:0:0:0:
163,63,72264,1,8,0:0:0:0:
160,98,72395,1,8,0:0:0:0:
186,32,72460,1,8,0:0:0:0:
159,98,72525,1,0,0:0:0:0:
154,58,72656,1,0,0:0:0:0:
154,60,72786,1,8,0:0:0:0:
152,72,72917,1,8,0:0:0:0:
151,73,73047,1,0,0:0:0:0:
183,45,73177,1,0,0:0:0:0:
156,82,73243,1,0,0:0:0:0:
181,52,73308,1,8,0:0:0:0:
181,52,73373,1,8,0:0:0:0:
183,50,73438,1,0,0:0:0:0:
180,52,73503,1,0,0:0:0:0:
181,51,73569,1,8,0:0:0:0:
180,52,73634,1,0,0:0:0:0:
180,52,73699,1,0,0:0:0:0:
180,52,73764,1,0,0:0:0:0:
180,52,73830,1,8,0:0:0:0:
158,62,73960,1,0,0:0:0:0:
158,62,74090,1,8,0:0:0:0:
172,52,74156,1,0,0:0:0:0:
151,40,74221,1,0,0:0:0:0:
151,39,74286,1,0,0:0:0:0:
151,40,74351,1,8,0:0:0:0:
192,51,74417,1,0,0:0:0:0:
183,50,74482,1,8,0:0:0:0:
181,51,74547,1,8,0:0:0:0:
181,51,74612,1,0,0:0:0:0:
165,23,74677,1,8,0:0:0:0:
163,30,74743,1,0,0:0:0:0:
166,40,74808,1,0,0:0:0:0:
166,40,74873,1,8,0:0:0:0:
160,46,74938,1,8,0:0:0:0:
160,47,75003,1,8,0:0:0:0:
160,47,75069,1,8,0:0:0:0:
135,280,75134,5,0,0:0:0:0:
152,133,75264,1,0,0:0:0:0:
220,58,75330,1,0,0:0:0:0:
187,112,75395,1,8,0:0:0:0:
160,82,75525,1,0,0:0:0:0:
160,82,75590,1,0,0:0:0:0:
160,82,75656,1,8,0:0:0:0:
171,73,75786,1,0,0:0:0:0:
170,73,75917,1,8,0:0:0:0:
165,55,76047,1,0,0:0:0:0:
165,55,76177,1,8,0:0:0:0:
174,63,76243,1,0,0:0:0:0:
174,63,76308,1,8,0:0:0:0:
174,63,76373,1,0,0:0:0:0:
174,63,76438,1,8,0:0:0:0:
178,50,76569,1,0,0:0:0:0:
176,52,76699,1,8,0:0:0:0:
150,42,76764,1,0,0:0:0:0:
150,42,76830,1,0,0:0:0:0:
150,42,76895,1,0,0:0:0:0:
176,52,76960,1,8,0:0:0:0:
165,104,77025,1,0,0:0:0:0:
184,53,77090,1,8,0:0:0:0:
165,104,77156,1,8,0:0:0:0:
184,53,77221,1,0,0:0:0:0:
186,56,77351,1,0,0:0:0:0:
190,35,77417,1,0,0:0:0:0:
186,56,77482,1,8,0:0:0:0:
175,83,77612,1,0,0:0:0:0:
174,84,77743,1,8,0:0:0:0:
193,68,77808,1,8,0:0:0:0:
176,51,77873,1,0,0:0:0:0:
176,51,78003,1,8,0:0:0:0:
193,68,78134,1,0,0:0:0:0:
193,68,78264,1,8,0:0:0:0:
196,141,78330,1,0,0:0:0:0:
196,141,78395,1,8,0:0:0:0:
196,141,78460,1,0,0:0:0:0:
196,141,78525,1,8,0:0:0:0:
189,46,78656,1,0,0:0:0:0:
174,44,78721,1,0,0:0:0:0:
189,46,78786,1,8,0:0:0:0:
189,46,78917,1,8,0:0:0:0:
189,46,79047,1,8,0:0:0:0:
188,55,79177,1,8,0:0:0:0:
192,64,79243,1,8,0:0:0:0:
179,72,79308,1,0,0:0:0:0:
181,64,79438,1,0,0:0:0:0:
177,67,79569,1,8,0:0:0:0:
156,42,79634,1,0,0:0:0:0:
156,42,79699,1,0,0:0:0:0:
156,42,79764,1,0,0:0:0:0:
156,42,79830,1,8,0:0:0:0:
156,42,79895,1,8,0:0:0:0:
156,42,79960,1,0,0:0:0:0:
155,42,80025,1,0,0:0:0:0:
156,42,80090,1,8,0:0:0:0:
138,87,80221,1,0,0:0:0:0:
138,87,80351,1,8,0:0:0:0:
154,65,80417,1,8,0:0:0:0:
163,63,80482,1,0,0:0:0:0:
163,63,80547,1,0,0:0:0:0:
163,63,80612,1,8,0:0:0:0:
160,98,80743,1,8,0:0:0:0:
186,32,80808,1,8,0:0:0:0:
159,98,80873,1,0,0:0:0:0:
154,58,81003,1,0,0:0:0:0:
154,60,81134,1,8,0:0:0:0:
152,72,81264,1,8,0:0:0:0:
151,73,81395,1,0,0:0:0:0:
183,45,81525,1,0,0:0:0:0:
156,82,81590,1,0,0:0:0:0:
181,52,81656,1,8,0:0:0:0:
181,52,81721,1,8,0:0:0:0:
183,50,81786,1,0,0:0:0:0:
180,52,81851,1,0,0:0:0:0:
181,51,81917,1,8,0:0:0:0:
180,52,81982,1,0,0:0:0:0:
180,52,82047,1,0,0:0:0:0:
180,52,82112,1,0,0:0:0:0:
180,52,82177,1,8,0:0:0:0:
158,62,82308,1,0,0:0:0:0:
189,88,82438,1,8,0:0:0:0:
189,88,82503,1,0,0:0:0:0:
189,88,82569,1,0,0:0:0:0:
189,88,82634,1,0,0:0:0:0:
189,85,82699,1,8,0:0:0:0:
192,63,82764,1,0,0:0:0:0:
183,58,82830,1,8,0:0:0:0:
191,64,82895,1,0,0:0:0:0:
181,61,82960,1,8,0:0:0:0:
213,59,83090,1,8,0:0:0:0:
212,59,83221,1,8,0:0:0:0:
217,78,83351,1,8,0:0:0:0:
154,206,83482,5,4,0:0:0:0:
154,206,83612,1,4,0:0:0:0:
154,206,83743,1,4,0:0:0:0:
154,206,83873,1,4,0:0:0:0:
154,206,84003,1,8,0:0:0:0:
162,96,84134,1,4,0:0:0:0:
162,96,84264,1,4,0:0:0:0:
162,96,84395,1,4,0:0:0:0:
167,90,84656,1,4,0:0:0:0:
167,90,85047,1,8,0:0:0:0:
167,90,85177,1,8,0:0:0:0:
167,90,85569,1,4,0:0:0:0:
167,90,85699,1,4,0:0:0:0:
167,90,85830,1,4,0:0:0:0:
167,90,85960,1,4,0:0:0:0:
167,90,86090,1,8,0:0:0:0:
167,90,86221,1,4,0:0:0:0:
167,90,86351,1,4,0:0:0:0:
167,90,86482,1,4,0:0:0:0:
202,73,86743,1,4,0:0:0:0:
191,83,87134,1,8,0:0:0:0:
190,85,87264,1,8,0:0:0:0:
154,118,87525,1,8,0:0:0:0:
154,118,87656,1,4,0:0:0:0:
154,118,87786,1,4,0:0:0:0:
154,118,87917,1,4,0:0:0:0:
154,118,88177,1,8,0:0:0:0:
176,114,88438,1,4,0:0:0:0:
176,114,88569,1,4,0:0:0:0:
176,114,88830,1,8,0:0:0:0:
176,114,88960,1,4,0:0:0:0:
176,114,89221,1,8,0:0:0:0:
176,114,89743,1,4,0:0:0:0:
176,114,89873,1,4,0:0:0:0:
176,114,90003,1,4,0:0:0:0:
176,114,90264,1,8,0:0:0:0:
176,114,90525,1,4,0:0:0:0:
176,114,90656,1,4,0:0:0:0:
176,114,90917,1,8,0:0:0:0:
176,114,91047,1,4,0:0:0:0:
176,114,91308,1,8,0:0:0:0:
207,73,91438,1,8,0:0:0:0:
179,80,91699,1,8,0:0:0:0:
128,166,91830,1,4,0:0:0:0:
128,166,91960,1,4,0:0:0:0:
128,166,92090,1,4,0:0:0:0:
128,166,92221,1,4,0:0:0:0:
128,173,92351,1,8,0:0:0:0:
128,173,92482,1,4,0:0:0:0:
128,173,92612,1,4,0:0:0:0:
128,173,92743,1,4,0:0:0:0:
166,99,93003,1,4,0:0:0:0:
164,76,93395,1,8,0:0:0:0:
164,76,93525,1,8,0:0:0:0:
166,99,93917,1,4,0:0:0:0:
166,99,94047,1,4,0:0:0:0:
165,104,94177,1,4,0:0:0:0:
165,104,94308,1,4,0:0:0:0:
165,104,94438,1,8,0:0:0:0:
166,99,94569,1,4,0:0:0:0:
166,99,94699,1,4,0:0:0:0:
165,106,94830,1,4,0:0:0:0:
167,109,95090,1,4,0:0:0:0:
165,104,95482,1,8,0:0:0:0:
166,99,95612,1,8,0:0:0:0:
165,106,95873,1,8,0:0:0:0:
167,109,96003,1,4,0:0:0:0:
167,109,96134,1,4,0:0:0:0:
165,104,96264,1,4,0:0:0:0:
165,109,96525,1,8,0:0:0:0:
164,98,96786,1,4,0:0:0:0:
165,106,96917,1,4,0:0:0:0:
163,100,97177,1,8,0:0:0:0:
163,100,97308,1,4,0:0:0:0:
162,104,97569,1,8,0:0:0:0:
161,130,98090,1,4,0:0:0:0:
161,130,98221,1,4,0:0:0:0:
161,130,98351,1,4,0:0:0:0:
161,141,98612,1,8,0:0:0:0:
161,141,98873,1,4,0:0:0:0:
161,141,99003,1,4,0:0:0:0:
161,142,99264,1,8,0:0:0:0:
161,141,99395,1,4,0:0:0:0:
161,141,99656,1,8,0:0:0:0:
160,101,99786,1,8,0:0:0:0:
152,107,100047,1,8,0:0:0:0:
176,144,100177,5,4,0:0:0:0:
160,64,100438,1,0,0:0:0:0:
133,141,100699,1,8,0:0:0:0:
160,64,100830,1,0,0:0:0:0:
197,137,101090,1,0,0:0:0:0:
160,64,101156,1,0,0:0:0:0:
197,137,101221,1,0,0:0:0:0:
197,137,101351,1,8,0:0:0:0:
197,137,101482,1,0,0:0:0:0:
197,137,101612,1,0,0:0:0:0:
197,137,101743,1,8,0:0:0:0:
197,81,101873,1,0,0:0:0:0:
192,32,102003,1,8,0:0:0:0:
197,137,102264,1,0,0:0:0:0:
176,151,102525,1,0,0:0:0:0:
192,32,102656,1,0,0:0:0:0:
176,151,102786,1,8,0:0:0:0:
177,152,103047,1,0,0:0:0:0:
178,152,103177,1,8,0:0:0:0:
176,151,103438,1,0,0:0:0:0:
176,151,103569,1,8,0:0:0:0:
191,158,103699,1,0,0:0:0:0:
190,158,103764,1,0,0:0:0:0:
190,158,103830,1,0,0:0:0:0:
190,164,103960,1,8,0:0:0:0:
189,165,104090,1,0,0:0:0:0:
149,72,104351,1,8,0:0:0:0:
231,123,104612,1,0,0:0:0:0:
157,83,104873,1,8,0:0:0:0:
192,32,105003,1,0,0:0:0:0:
164,89,105264,1,8,0:0:0:0:
192,32,105330,1,0,0:0:0:0:
164,92,105395,1,0,0:0:0:0:
163,93,105525,1,8,0:0:0:0:
165,48,105656,1,0,0:0:0:0:
165,48,105786,1,0,0:0:0:0:
164,51,105917,1,8,0:0:0:0:
158,96,106047,1,0,0:0:0:0:
192,64,106308,1,8,0:0:0:0:
156,97,106438,1,0,0:0:0:0:
192,32,106569,1,0,0:0:0:0:
153,105,106699,1,8,0:0:0:0:
152,106,106960,1,8,0:0:0:0:
152,108,107090,1,0,0:0:0:0:
153,109,107351,1,0,0:0:0:0:
192,64,107417,1,0,0:0:0:0:
153,109,107482,1,8,0:0:0:0:
153,105,107612,1,0,0:0:0:0:
192,64,107743,1,0,0:0:0:0:
152,106,107873,1,0,0:0:0:0:
152,108,108003,1,8,0:0:0:0:
175,115,108264,1,8,0:0:0:0:
175,115,108395,1,8,0:0:0:0:
173,117,108525,1,0,0:0:0:0:
209,117,108786,1,0,0:0:0:0:
173,118,109047,1,8,0:0:0:0:
192,64,109177,1,0,0:0:0:0:
175,115,109438,1,0,0:0:0:0:
192,64,109503,1,0,0:0:0:0:
173,117,109569,1,0,0:0:0:0:
173,118,109699,1,8,0:0:0:0:
173,118,109830,1,0,0:0:0:0:
173,118,109960,1,0,0:0:0:0:
173,118,110090,1,8,0:0:0:0:
175,115,110221,1,0,0:0:0:0:
175,115,110351,1,8,0:0:0:0:
175,115,110482,1,0,0:0:0:0:
173,117,110612,1,0,0:0:0:0:
173,118,110743,1,0,0:0:0:0:
171,100,110873,1,8,0:0:0:0:
173,118,111134,1,8,0:0:0:0:
224,64,111264,1,0,0:0:0:0:
175,115,111395,1,0,0:0:0:0:
173,117,111525,1,8,0:0:0:0:
170,108,111656,1,8,0:0:0:0:
226,156,111830,1,0,0:0:0:0:
226,156,111917,1,8,0:0:0:0:
226,156,112003,1,0,0:0:0:0:
174,85,112177,1,8,0:0:0:0:
174,85,112351,1,0,0:0:0:0:
192,72,112438,1,8,0:0:0:0:
192,72,112525,1,0,0:0:0:0:
217,81,112699,1,8,0:0:0:0:
149,100,112960,1,0,0:0:0:0:
213,107,113221,1,8,0:0:0:0:
160,128,113351,1,0,0:0:0:0:
189,98,113612,1,8,0:0:0:0:
192,128,113677,1,0,0:0:0:0:
189,98,113743,1,0,0:0:0:0:
189,98,113873,1,8,0:0:0:0:
189,98,114003,1,0,0:0:0:0:
189,98,114134,1,0,0:0:0:0:
189,98,114264,1,8,0:0:0:0:
207,80,114395,1,0,0:0:0:0:
192,64,114656,1,8,0:0:0:0:
207,83,114786,1,0,0:0:0:0:
192,64,114917,1,0,0:0:0:0:
162,75,115047,1,8,0:0:0:0:
160,77,115308,1,8,0:0:0:0:
162,75,115438,1,0,0:0:0:0:
159,81,115699,1,0,0:0:0:0:
192,64,115764,1,0,0:0:0:0:
157,83,115830,1,8,0:0:0:0:
157,83,115960,1,0,0:0:0:0:
192,64,116090,1,0,0:0:0:0:
157,89,116221,1,0,0:0:0:0:
157,89,116351,1,8,0:0:0:0:
157,90,116612,1,8,0:0:0:0:
157,90,116743,1,8,0:0:0:0:
176,144,116873,1,0,0:0:0:0:
165,117,117134,1,0,0:0:0:0:
133,141,117395,1,8,0:0:0:0:
330,239,117525,1,0,0:0:0:0:
197,137,117786,1,0,0:0:0:0:
197,137,117917,1,0,0:0:0:0:
197,137,118047,1,8,0:0:0:0:
196,112,118177,1,0,0:0:0:0:
197,137,118308,1,0,0:0:0:0:
197,137,118438,1,8,0:0:0:0:
192,32,118569,1,0,0:0:0:0:
165,115,118699,1,8,0:0:0:0:
197,137,118960,1,0,0:0:0:0:
196,111,119090,1,0,0:0:0:0:
176,151,119221,1,0,0:0:0:0:
176,151,119482,1,8,0:0:0:0:
177,152,119743,1,0,0:0:0:0:
178,152,119873,1,8,0:0:0:0:
176,151,120134,1,0,0:0:0:0:
176,151,120264,1,8,0:0:0:0:
191,158,120395,1,0,0:0:0:0:
190,158,120525,1,0,0:0:0:0:
190,164,120656,1,8,0:0:0:0:
189,165,120786,1,0,0:0:0:0:
149,72,121047,1,8,0:0:0:0:
205,172,121308,1,0,0:0:0:0:
157,83,121569,1,8,0:0:0:0:
119,121,121699,1,0,0:0:0:0:
164,89,121960,1,0,0:0:0:0:
164,92,122090,1,0,0:0:0:0:
163,93,122221,1,8,0:0:0:0:
180,82,122351,1,0,0:0:0:0:
165,48,122482,1,0,0:0:0:0:
164,51,122612,1,8,0:0:0:0:
192,32,122743,1,0,0:0:0:0:
119,121,122873,1,8,0:0:0:0:
156,97,123134,1,0,0:0:0:0:
153,105,123395,1,8,0:0:0:0:
152,106,123656,1,8,0:0:0:0:
152,108,123786,1,0,0:0:0:0:
153,109,124047,1,0,0:0:0:0:
153,109,124177,1,8,0:0:0:0:
153,105,124308,1,0,0:0:0:0:
119,121,124438,1,0,0:0:0:0:
152,106,124569,1,0,0:0:0:0:
152,108,124699,1,8,0:0:0:0:
175,115,124960,1,8,0:0:0:0:
175,115,125090,1,8,0:0:0:0:
173,117,125221,1,0,0:0:0:0:
209,117,125482,1,0,0:0:0:0:
173,118,125743,1,8,0:0:0:0:
317,221,125873,1,0,0:0:0:0:
175,115,126134,1,0,0:0:0:0:
173,117,126264,1,0,0:0:0:0:
173,118,126395,1,8,0:0:0:0:
173,118,126656,1,0,0:0:0:0:
173,118,126786,1,8,0:0:0:0:
175,115,126917,1,8,0:0:0:0:
181,55,127047,1,0,0:0:0:0:
173,106,127308,1,8,0:0:0:0:
173,106,127569,1,8,0:0:0:0:
173,106,127830,1,8,0:0:0:0:
173,106,128090,1,0,0:0:0:0:
173,106,128351,1,8,0:0:0:0:
266,126,128438,1,8,0:0:0:0:
248,135,128525,1,8,0:0:0:0:
176,61,128612,1,0,0:0:0:0:
176,61,128699,1,0,0:0:0:0:
176,61,128786,1,0,0:0:0:0:
176,70,128873,1,8,0:0:0:0:
158,129,129003,1,8,0:0:0:0:
158,129,129134,1,0,0:0:0:0:
157,91,129395,5,0,0:0:0:0:
150,109,129656,1,0,0:0:0:0:
150,109,129917,1,8,0:0:0:0:
150,109,130177,1,0,0:0:0:0:
150,109,130438,1,12,0:0:0:0:
151,98,130699,1,0,0:0:0:0:
151,98,130960,1,8,0:0:0:0:
151,98,131221,1,8,0:0:0:0:
151,98,131482,1,8,0:0:0:0:
151,98,131743,1,0,0:0:0:0:
151,98,132003,1,8,0:0:0:0:
151,98,132264,1,0,0:0:0:0:
151,98,132525,1,12,0:0:0:0:
151,98,132786,1,0,0:0:0:0:
151,98,133569,1,0,0:0:0:0:
151,98,133830,1,8,0:0:0:0:
151,98,134090,1,8,0:0:0:0:
151,98,134351,1,0,0:0:0:0:
151,98,134612,1,12,0:0:0:0:
151,98,134873,1,0,0:0:0:0:
151,98,135134,1,8,0:0:0:0:
151,98,135395,1,8,0:0:0:0:
151,98,135656,1,8,0:0:0:0:
151,98,135917,1,8,0:0:0:0:
151,98,136177,1,0,0:0:0:0:
151,98,136438,1,0,0:0:0:0:
151,98,136699,1,12,0:0:0:0:
163,146,136960,1,8,0:0:0:0:
163,146,137221,1,0,0:0:0:0:
163,146,137482,1,0,0:0:0:0:
180,212,137743,5,8,0:0:0:0:
174,149,138003,1,0,0:0:0:0:
174,149,138264,1,8,0:0:0:0:
174,149,138525,1,8,0:0:0:0:
174,149,138786,1,12,0:0:0:0:
174,149,139047,1,0,0:0:0:0:
174,149,139308,1,8,0:0:0:0:
174,149,139569,1,0,0:0:0:0:
174,149,139830,1,8,0:0:0:0:
174,149,140090,1,8,0:0:0:0:
174,149,140351,1,8,0:0:0:0:
174,149,140612,1,0,0:0:0:0:
174,149,140873,1,12,0:0:0:0:
174,149,141134,1,0,0:0:0:0:
174,149,141395,1,8,0:0:0:0:
174,149,141656,1,0,0:0:0:0:
149,152,141786,1,0,0:0:0:0:
174,149,141917,1,0,0:0:0:0:
168,160,142177,1,0,0:0:0:0:
167,161,142438,1,8,0:0:0:0:
167,168,142699,1,8,0:0:0:0:
167,168,142960,1,12,0:0:0:0:
167,168,143221,1,0,0:0:0:0:
167,168,143482,1,8,0:0:0:0:
167,168,143743,1,0,0:0:0:0:
167,168,144003,1,8,0:0:0:0:
167,168,144264,1,8,0:0:0:0:
167,168,144525,1,8,0:0:0:0:
167,168,144786,1,0,0:0:0:0:
167,168,145047,1,12,0:0:0:0:
203,135,145308,1,0,0:0:0:0:
176,77,145569,1,12,0:0:0:0:
203,135,145830,1,0,0:0:0:0:
165,133,146090,1,8,0:0:0:0:
176,77,146156,1,0,0:0:0:0:
176,77,146221,1,0,0:0:0:0:
176,77,146286,1,0,0:0:0:0:
176,77,146351,1,0,0:0:0:0:
176,77,146417,1,0,0:0:0:0:
181,71,146482,1,0,0:0:0:0:
181,72,146547,1,0,0:0:0:0:
184,68,146612,1,8,0:0:0:0:
181,70,146677,1,0,0:0:0:0:
195,34,146743,1,0,0:0:0:0:
194,34,146808,1,0,0:0:0:0:
194,34,146873,1,8,0:0:0:0:
193,35,146938,1,8,0:0:0:0:
195,50,147003,1,0,0:0:0:0:
193,35,147069,1,0,0:0:0:0:
195,52,147134,1,8,0:0:0:0:
193,35,147199,1,8,0:0:0:0:
173,29,147264,1,8,0:0:0:0:
198,59,147330,1,0,0:0:0:0:
186,56,147395,1,0,0:0:0:0:
193,55,147460,1,0,0:0:0:0:
176,93,147525,1,0,0:0:0:0:
176,93,147590,1,0,0:0:0:0:
176,93,147656,1,8,0:0:0:0:
201,103,147721,1,0,0:0:0:0:
206,97,147786,1,0,0:0:0:0:
201,103,147851,1,0,0:0:0:0:
202,98,147917,1,0,0:0:0:0:
201,100,147982,1,0,0:0:0:0:
201,103,148047,1,0,0:0:0:0:
201,103,148112,1,0,0:0:0:0:
201,103,148177,1,8,0:0:0:0:
211,75,148243,1,8,0:0:0:0:
183,66,148308,1,8,0:0:0:0:
211,75,148373,1,0,0:0:0:0:
183,66,148438,1,8,0:0:0:0:
184,56,148503,1,8,0:0:0:0:
184,56,148569,1,8,0:0:0:0:
179,78,148634,1,0,0:0:0:0:
181,66,148699,1,8,0:0:0:0:
179,78,148764,1,8,0:0:0:0:
173,92,148830,1,8,0:0:0:0:
167,105,148895,1,0,0:0:0:0:
179,79,148960,1,8,0:0:0:0:
165,110,149025,1,8,0:0:0:0:
177,80,149090,1,8,0:0:0:0:
176,82,149156,1,0,0:0:0:0:
165,113,149221,1,8,0:0:0:0:
175,114,149286,1,8,0:0:0:0:
175,114,149351,1,8,0:0:0:0:
175,114,149417,1,0,0:0:0:0:
175,114,149482,1,0,0:0:0:0:
175,114,149547,1,0,0:0:0:0:
175,114,149612,1,0,0:0:0:0:
175,114,149677,1,0,0:0:0:0:
175,114,149743,1,8,0:0:0:0:
176,85,149808,1,0,0:0:0:0:
186,72,149873,1,0,0:0:0:0:
187,70,149938,1,0,0:0:0:0:
186,71,150003,1,0,0:0:0:0:
186,72,150069,1,0,0:0:0:0:
186,72,150134,1,0,0:0:0:0:
186,72,150199,1,0,0:0:0:0:
165,133,150264,1,8,0:0:0:0:
176,77,150330,1,0,0:0:0:0:
176,77,150395,1,0,0:0:0:0:
176,77,150460,1,0,0:0:0:0:
176,77,150525,1,0,0:0:0:0:
176,77,150590,1,0,0:0:0:0:
181,71,150656,1,0,0:0:0:0:
181,72,150721,1,0,0:0:0:0:
184,68,150786,1,8,0:0:0:0:
181,70,150851,1,0,0:0:0:0:
195,34,150917,1,0,0:0:0:0:
194,34,150982,1,0,0:0:0:0:
194,34,151047,1,8,0:0:0:0:
193,35,151112,1,8,0:0:0:0:
195,50,151177,1,0,0:0:0:0:
193,35,151243,1,0,0:0:0:0:
195,52,151308,1,8,0:0:0:0:
193,35,151373,1,8,0:0:0:0:
173,29,151438,1,8,0:0:0:0:
198,59,151503,1,0,0:0:0:0:
186,56,151569,1,0,0:0:0:0:
193,55,151634,1,0,0:0:0:0:
176,93,151699,1,0,0:0:0:0:
176,93,151764,1,0,0:0:0:0:
176,93,151830,1,8,0:0:0:0:
201,103,151895,1,0,0:0:0:0:
206,97,151960,1,0,0:0:0:0:
201,103,152025,1,0,0:0:0:0:
202,98,152090,1,0,0:0:0:0:
201,100,152156,1,0,0:0:0:0:
201,103,152221,1,0,0:0:0:0:
201,103,152286,1,0,0:0:0:0:
201,103,152351,1,8,0:0:0:0:
211,75,152417,1,8,0:0:0:0:
183,66,152482,1,8,0:0:0:0:
211,75,152547,1,0,0:0:0:0:
183,66,152612,1,8,0:0:0:0:
184,56,152677,1,8,0:0:0:0:
184,56,152743,1,8,0:0:0:0:
179,78,152808,1,0,0:0:0:0:
181,66,152873,1,8,0:0:0:0:
179,78,152938,1,8,0:0:0:0:
173,92,153003,1,8,0:0:0:0:
167,105,153069,1,0,0:0:0:0:
179,79,153134,1,8,0:0:0:0:
165,110,153199,1,8,0:0:0:0:
177,80,153264,1,8,0:0:0:0:
176,82,153330,1,0,0:0:0:0:
165,113,153395,1,8,0:0:0:0:
175,114,153460,1,8,0:0:0:0:
175,114,153525,1,8,0:0:0:0:
175,114,153590,1,0,0:0:0:0:
175,114,153656,1,0,0:0:0:0:
175,114,153721,1,0,0:0:0:0:
175,114,153786,1,0,0:0:0:0:
175,114,153851,1,0,0:0:0:0:
175,114,153917,1,8,0:0:0:0:
176,85,153982,1,0,0:0:0:0:
186,72,154047,1,0,0:0:0:0:
187,70,154112,1,0,0:0:0:0:
186,71,154177,1,0,0:0:0:0:
186,72,154243,1,0,0:0:0:0:
186,72,154308,1,0,0:0:0:0:
186,72,154373,1,0,0:0:0:0:
165,133,154438,1,8,0:0:0:0:
176,77,154503,1,0,0:0:0:0:
176,77,154569,1,0,0:0:0:0:
176,77,154634,1,0,0:0:0:0:
176,77,154699,1,0,0:0:0:0:
176,77,154764,1,0,0:0:0:0:
181,71,154830,1,0,0:0:0:0:
181,72,154895,1,0,0:0:0:0:
184,68,154960,1,8,0:0:0:0:
181,70,155025,1,0,0:0:0:0:
195,34,155090,1,0,0:0:0:0:
194,34,155156,1,0,0:0:0:0:
194,34,155221,1,8,0:0:0:0:
193,35,155286,1,8,0:0:0:0:
195,50,155351,1,0,0:0:0:0:
193,35,155417,1,0,0:0:0:0:
195,52,155482,1,8,0:0:0:0:
193,35,155547,1,8,0:0:0:0:
173,29,155612,1,8,0:0:0:0:
198,59,155677,1,0,0:0:0:0:
186,56,155743,1,0,0:0:0:0:
193,55,155808,1,0,0:0:0:0:
176,93,155873,1,0,0:0:0:0:
176,93,155938,1,0,0:0:0:0:
176,93,156003,1,8,0:0:0:0:
201,103,156069,1,0,0:0:0:0:
206,97,156134,1,0,0:0:0:0:
201,103,156199,1,0,0:0:0:0:
202,98,156264,1,0,0:0:0:0:
201,100,156330,1,0,0:0:0:0:
201,103,156395,1,0,0:0:0:0:
201,103,156460,1,0,0:0:0:0:
201,103,156525,1,8,0:0:0:0:
211,75,156590,1,8,0:0:0:0:
183,66,156656,1,8,0:0:0:0:
211,75,156721,1,0,0:0:0:0:
183,66,156786,1,8,0:0:0:0:
184,56,156851,1,8,0:0:0:0:
184,56,156917,1,8,0:0:0:0:
179,78,156982,1,0,0:0:0:0:
181,66,157047,1,8,0:0:0:0:
179,78,157112,1,8,0:0:0:0:
173,92,157177,1,8,0:0:0:0:
167,105,157243,1,0,0:0:0:0:
179,79,157308,1,8,0:0:0:0:
165,110,157373,1,8,0:0:0:0:
177,80,157438,1,8,0:0:0:0:
176,82,157503,1,0,0:0:0:0:
165,113,157569,1,8,0:0:0:0:
175,114,157634,1,8,0:0:0:0:
175,114,157699,1,8,0:0:0:0:
175,114,157764,1,0,0:0:0:0:
175,114,157830,1,0,0:0:0:0:
175,114,157895,1,0,0:0:0:0:
175,114,157960,1,0,0:0:0:0:
175,114,158025,1,0,0:0:0:0:
175,114,158090,1,8,0:0:0:0:
176,85,158156,1,0,0:0:0:0:
186,72,158221,1,0,0:0:0:0:
187,70,158286,1,0,0:0:0:0:
186,71,158351,1,0,0:0:0:0:
186,72,158417,1,0,0:0:0:0:
186,72,158482,1,0,0:0:0:0:
186,72,158547,1,0,0:0:0:0:
165,133,158612,1,8,0:0:0:0:
176,77,158677,1,0,0:0:0:0:
176,77,158743,1,0,0:0:0:0:
176,77,158808,1,0,0:0:0:0:
176,77,158873,1,0,0:0:0:0:
176,77,158938,1,0,0:0:0:0:
181,71,159003,1,0,0:0:0:0:
181,72,159069,1,0,0:0:0:0:
184,68,159134,1,8,0:0:0:0:
181,70,159199,1,0,0:0:0:0:
195,34,159264,1,0,0:0:0:0:
194,34,159330,1,0,0:0:0:0:
194,34,159395,1,8,0:0:0:0:
193,35,159460,1,8,0:0:0:0:
195,50,159525,1,0,0:0:0:0:
193,35,159590,1,0,0:0:0:0:
195,52,159656,1,8,0:0:0:0:
193,35,159721,1,8,0:0:0:0:
173,29,159786,1,8,0:0:0:0:
198,59,159851,1,0,0:0:0:0:
186,56,159917,1,0,0:0:0:0:
193,55,159982,1,0,0:0:0:0:
176,93,160047,1,0,0:0:0:0:
176,93,160112,1,0,0:0:0:0:
176,93,160177,1,8,0:0:0:0:
201,103,160243,1,0,0:0:0:0:
206,97,160308,1,0,0:0:0:0:
201,103,160373,1,0,0:0:0:0:
202,98,160438,1,0,0:0:0:0:
201,100,160503,1,0,0:0:0:0:
201,103,160569,1,0,0:0:0:0:
201,103,160634,1,0,0:0:0:0:
201,103,160699,1,8,0:0:0:0:
211,75,160764,1,8,0:0:0:0:
183,66,160830,1,8,0:0:0:0:
211,75,160895,1,0,0:0:0:0:
183,66,160960,1,8,0:0:0:0:
184,56,161025,1,8,0:0:0:0:
184,56,161090,1,8,0:0:0:0:
179,78,161156,1,0,0:0:0:0:
181,66,161221,1,8,0:0:0:0:
179,78,161286,1,8,0:0:0:0:
173,92,161351,1,8,0:0:0:0:
167,105,161417,1,0,0:0:0:0:
179,79,161482,1,8,0:0:0:0:
165,110,161547,1,8,0:0:0:0:
177,80,161612,1,8,0:0:0:0:
176,82,161677,1,0,0:0:0:0:
165,113,161743,1,8,0:0:0:0:
175,114,161808,1,8,0:0:0:0:
175,114,161873,1,8,0:0:0:0:
175,114,161938,1,0,0:0:0:0:
175,114,162003,1,0,0:0:0:0:
175,114,162069,1,0,0:0:0:0:
175,114,162134,1,0,0:0:0:0:
175,114,162199,1,0,0:0:0:0:
175,114,162264,1,8,0:0:0:0:
176,85,162330,1,0,0:0:0:0:
186,72,162395,1,0,0:0:0:0:
187,70,162460,1,0,0:0:0:0:
186,71,162525,1,0,0:0:0:0:
186,72,162590,1,0,0:0:0:0:
186,72,162656,1,0,0:0:0:0:
186,72,162721,1,0,0:0:0:0:
271,68,162786,1,8,0:0:0:0:
130,230,163047,1,0,0:0:0:0:
128,237,163308,1,8,0:0:0:0:
130,240,163569,1,0,0:0:0:0:
130,241,163830,1,12,0:0:0:0:
128,237,164090,1,0,0:0:0:0:
130,240,164351,1,8,0:0:0:0:
130,241,164612,1,0,0:0:0:0:
128,237,164873,1,8,0:0:0:0:
128,237,165134,1,0,0:0:0:0:
130,240,165395,1,8,0:0:0:0:
130,241,165656,1,0,0:0:0:0:
128,237,165917,1,12,0:0:0:0:
128,237,166177,1,0,0:0:0:0:
130,240,166438,1,8,0:0:0:0:
130,241,166699,1,0,0:0:0:0:
141,195,166830,1,0,0:0:0:0:
141,195,166960,1,8,0:0:0:0:
135,204,167221,1,0,0:0:0:0:
135,205,167482,1,8,0:0:0:0:
135,208,167743,1,0,0:0:0:0:
135,216,168003,1,12,0:0:0:0:
135,219,168264,1,0,0:0:0:0:
135,220,168525,1,8,0:0:0:0:
135,216,168786,1,0,0:0:0:0:
135,216,169047,1,8,0:0:0:0:
135,219,169308,1,0,0:0:0:0:
135,220,169569,1,8,0:0:0:0:
135,216,169830,1,0,0:0:0:0:
135,216,170090,1,12,0:0:0:0:
135,219,170351,1,0,0:0:0:0:
135,216,170612,1,8,0:0:0:0:
135,216,170873,1,0,0:0:0:0:
135,219,171134,1,8,0:0:0:0:
171,131,171395,1,0,0:0:0:0:
171,131,171656,1,8,0:0:0:0:
171,131,171917,1,0,0:0:0:0:
171,131,172177,1,12,0:0:0:0:
171,131,172438,1,0,0:0:0:0:
171,131,172699,1,8,0:0:0:0:
171,131,172960,1,0,0:0:0:0:
171,131,173221,1,8,0:0:0:0:
171,131,173482,1,0,0:0:0:0:
171,131,173743,1,8,0:0:0:0:
171,131,174003,1,0,0:0:0:0:
171,131,174264,1,12,0:0:0:0:
171,131,174525,1,0,0:0:0:0:
171,131,174786,1,8,0:0:0:0:
171,131,175047,1,0,0:0:0:0:
228,140,175177,1,0,0:0:0:0:
171,131,175308,1,8,0:0:0:0:
171,131,175569,1,0,0:0:0:0:
171,131,175830,1,8,0:0:0:0:
171,131,176090,1,0,0:0:0:0:
171,131,176351,1,12,0:0:0:0:
171,131,176612,1,0,0:0:0:0:
171,131,176873,1,8,0:0:0:0:
171,131,177134,1,0,0:0:0:0:
171,131,177395,1,8,0:0:0:0:
171,131,177656,1,8,0:0:0:0:
171,131,177917,1,8,0:0:0:0:
153,135,178177,1,8,0:0:0:0:
153,135,178438,1,8,0:0:0:0:
153,135,178569,1,8,0:0:0:0:
153,136,178699,1,8,0:0:0:0:
153,136,178830,1,8,0:0:0:0:
153,135,178960,1,8,0:0:0:0:
304,193,179025,1,8,0:0:0:0:
304,193,179090,1,8,0:0:0:0:
304,193,179156,1,8,0:0:0:0:
304,193,179221,1,8,0:0:0:0:
164,42,179351,1,8,0:0:0:0:
198,168,179482,1,0,0:0:0:0:
159,120,179612,1,0,0:0:0:0:
180,71,179677,1,0,0:0:0:0:
159,120,179743,1,8,0:0:0:0:
175,108,179873,1,8,0:0:0:0:
175,108,180003,1,0,0:0:0:0:
186,55,180134,1,8,0:0:0:0:
189,46,180199,1,0,0:0:0:0:
186,55,180264,1,8,0:0:0:0:
160,72,180395,1,8,0:0:0:0:
159,73,180525,1,0,0:0:0:0:
158,73,180656,1,0,0:0:0:0:
166,73,180721,1,0,0:0:0:0:
169,72,180786,1,8,0:0:0:0:
174,88,180917,1,0,0:0:0:0:
174,88,181047,1,8,0:0:0:0:
166,69,181112,1,0,0:0:0:0:
179,77,181177,1,8,0:0:0:0:
179,77,181308,1,0,0:0:0:0:
233,66,181438,1,8,0:0:0:0:
202,31,181503,1,0,0:0:0:0:
203,40,181569,1,0,0:0:0:0:
197,66,181699,1,8,0:0:0:0:
195,69,181830,1,0,0:0:0:0:
191,48,181960,1,8,0:0:0:0:
182,58,182025,1,8,0:0:0:0:
181,40,182090,1,0,0:0:0:0:
182,57,182221,1,0,0:0:0:0:
182,59,182351,1,8,0:0:0:0:
198,55,182482,1,0,0:0:0:0:
206,80,182547,1,8,0:0:0:0:
198,55,182612,1,0,0:0:0:0:
181,55,182743,1,8,0:0:0:0:
180,55,182873,1,0,0:0:0:0:
180,55,183003,1,0,0:0:0:0:
196,38,183069,1,8,0:0:0:0:
197,40,183134,1,8,0:0:0:0:
194,52,183264,1,0,0:0:0:0:
198,55,183395,1,8,0:0:0:0:
191,36,183525,1,8,0:0:0:0:
189,37,183656,1,0,0:0:0:0:
183,71,183721,1,0,0:0:0:0:
183,71,183786,1,0,0:0:0:0:
185,70,183851,1,0,0:0:0:0:
184,73,183917,1,8,0:0:0:0:
179,76,184047,1,0,0:0:0:0:
179,76,184177,1,8,0:0:0:0:
229,124,184243,1,0,0:0:0:0:
205,70,184308,1,0,0:0:0:0:
199,75,184373,1,0,0:0:0:0:
202,73,184438,1,8,0:0:0:0:
207,82,184569,1,8,0:0:0:0:
205,83,184699,1,0,0:0:0:0:
206,123,184830,1,8,0:0:0:0:
220,52,184895,1,0,0:0:0:0:
206,123,184960,1,8,0:0:0:0:
192,57,185090,1,0,0:0:0:0:
189,60,185221,1,8,0:0:0:0:
205,55,185286,1,0,0:0:0:0:
182,49,185351,1,8,0:0:0:0:
191,59,185417,1,8,0:0:0:0:
178,54,185482,1,0,0:0:0:0:
183,51,185612,1,8,0:0:0:0:
181,56,185743,1,0,0:0:0:0:
188,47,185808,1,0,0:0:0:0:
188,47,185873,1,0,0:0:0:0:
188,47,185938,1,0,0:0:0:0:
188,46,186003,1,8,0:0:0:0:
190,79,186134,1,0,0:0:0:0:
185,81,186264,1,8,0:0:0:0:
181,82,186330,1,0,0:0:0:0:
181,82,186395,1,0,0:0:0:0:
188,61,186460,1,0,0:0:0:0:
179,84,186525,1,8,0:0:0:0:
182,87,186656,1,8,0:0:0:0:
182,87,186786,1,0,0:0:0:0:
172,71,186917,1,8,0:0:0:0:
173,69,186982,1,0,0:0:0:0:
171,72,187047,1,8,0:0:0:0:
168,98,187177,1,0,0:0:0:0:
234,147,187243,1,8,0:0:0:0:
165,99,187308,1,0,0:0:0:0:
197,52,187373,1,0,0:0:0:0:
177,98,187438,1,8,0:0:0:0:
243,81,187503,1,0,0:0:0:0:
170,102,187569,1,8,0:0:0:0:
243,81,187634,1,0,0:0:0:0:
169,104,187699,1,8,0:0:0:0:
236,85,187764,1,8,0:0:0:0:
198,168,187830,1,0,0:0:0:0:
159,120,187960,1,0,0:0:0:0:
180,71,188025,1,0,0:0:0:0:
159,120,188090,1,8,0:0:0:0:
175,108,188221,1,8,0:0:0:0:
175,108,188351,1,0,0:0:0:0:
186,55,188482,1,8,0:0:0:0:
189,46,188547,1,0,0:0:0:0:
186,55,188612,1,8,0:0:0:0:
160,72,188743,1,8,0:0:0:0:
159,73,188873,1,0,0:0:0:0:
158,73,189003,1,0,0:0:0:0:
166,73,189069,1,0,0:0:0:0:
169,72,189134,1,8,0:0:0:0:
174,88,189264,1,0,0:0:0:0:
174,88,189395,1,8,0:0:0:0:
166,69,189460,1,0,0:0:0:0:
179,77,189525,1,8,0:0:0:0:
179,77,189656,1,0,0:0:0:0:
233,66,189786,1,8,0:0:0:0:
202,31,189851,1,0,0:0:0:0:
203,40,189917,1,0,0:0:0:0:
197,66,190047,1,8,0:0:0:0:
195,69,190177,1,0,0:0:0:0:
191,48,190308,1,8,0:0:0:0:
182,58,190373,1,8,0:0:0:0:
181,40,190438,1,0,0:0:0:0:
182,57,190569,1,0,0:0:0:0:
182,59,190699,1,8,0:0:0:0:
198,55,190830,1,0,0:0:0:0:
206,80,190895,1,8,0:0:0:0:
198,55,190960,1,0,0:0:0:0:
181,55,191090,1,8,0:0:0:0:
180,55,191221,1,0,0:0:0:0:
180,55,191351,1,0,0:0:0:0:
196,38,191417,1,8,0:0:0:0:
197,40,191482,1,8,0:0:0:0:
194,52,191612,1,0,0:0:0:0:
198,55,191743,1,8,0:0:0:0:
191,36,191873,1,8,0:0:0:0:
189,37,192003,1,0,0:0:0:0:
183,71,192069,1,0,0:0:0:0:
183,71,192134,1,0,0:0:0:0:
185,70,192199,1,0,0:0:0:0:
184,73,192264,1,8,0:0:0:0:
179,76,192395,1,0,0:0:0:0:
179,76,192525,1,8,0:0:0:0:
229,124,192590,1,0,0:0:0:0:
205,70,192656,1,0,0:0:0:0:
199,75,192721,1,0,0:0:0:0:
202,73,192786,1,8,0:0:0:0:
207,82,192917,1,8,0:0:0:0:
205,83,193047,1,0,0:0:0:0:
206,123,193177,1,8,0:0:0:0:
220,52,193243,1,0,0:0:0:0:
206,123,193308,1,8,0:0:0:0:
192,57,193438,1,0,0:0:0:0:
189,60,193569,1,8,0:0:0:0:
205,55,193634,1,0,0:0:0:0:
182,49,193699,1,8,0:0:0:0:
191,59,193764,1,8,0:0:0:0:
178,54,193830,1,0,0:0:0:0:
183,51,193960,1,8,0:0:0:0:
181,56,194090,1,0,0:0:0:0:
188,47,194156,1,0,0:0:0:0:
188,47,194221,1,0,0:0:0:0:
188,47,194286,1,0,0:0:0:0:
188,46,194351,1,8,0:0:0:0:
190,79,194482,1,0,0:0:0:0:
185,81,194612,1,8,0:0:0:0:
181,82,194677,1,0,0:0:0:0:
181,82,194743,1,0,0:0:0:0:
188,61,194808,1,0,0:0:0:0:
179,84,194873,1,8,0:0:0:0:
182,87,195003,1,8,0:0:0:0:
182,87,195134,1,0,0:0:0:0:
172,71,195264,1,8,0:0:0:0:
173,69,195330,1,0,0:0:0:0:
171,72,195395,1,8,0:0:0:0:
168,98,195525,1,0,0:0:0:0:
182,129,195656,1,12,0:0:0:0:
165,135,195786,1,12,0:0:0:0:
