osu file format v14

[General]
AudioFilename: audio.mp3
AudioLeadIn: 0
PreviewTime: 162782
Countdown: 0
SampleSet: Drum
StackLeniency: 0.5
Mode: 0
LetterboxInBreaks: 0
WidescreenStoryboard: 0

[Editor]
Bookmarks: 3391,33391,50086,83478,100173,104347,108521,112695,116869,121043,125217,129391,146086,162782,179478,183652,187826,197217
DistanceSpacing: 3
BeatDivisor: 4
GridSize: 16
TimelineZoom: 3.1

[Metadata]
Title:Rat Race
TitleUnicode:Rat Race
Artist:Enter Shikari
ArtistUnicode:Enter Shikari
Creator:Hectic
Version:adioni's EXTREME
Source:
Tags:h4d0uk3n1 Ksardas TheMefisto LMT adioni electronicore post-hardcore alternative english rock
BeatmapID:2008553
BeatmapSetID:958005

[Difficulty]
HPDrainRate:6
CircleSize:4
OverallDifficulty:9.4
ApproachRate:9.7
SliderMultiplier:1.8
SliderTickRate:1

[Events]
//Background and Video events
0,0,"rats_rats_we_are_the_rats.jpg",0,0
//Break Periods
//Storyboard Layer 0 (Background)
//Storyboard Layer 1 (Fail)
//Storyboard Layer 2 (Pass)
//Storyboard Layer 3 (Foreground)
//Storyboard Layer 4 (Overlay)
//Storyboard Sound Samples

[TimingPoints]
0,260.869565217391,4,3,3,95,1,0
1043,-100,4,3,1,95,0,0
1304,-100,4,3,3,95,0,0
1956,-100,4,3,2,95,0,0
2217,-100,4,3,3,95,0,0
3652,-100,4,3,1,95,0,0
3913,-100,4,3,3,95,0,0
6130,-100,4,3,2,95,0,0
6391,-100,4,3,3,95,0,0
7499,-100,4,3,3,5,0,0
7565,-100,4,3,1,95,0,0
7826,-100,4,3,3,95,0,0
7956,-100,4,3,1,95,0,0
8282,-100,4,3,1,5,0,0
8347,-100,4,3,3,95,0,0
8869,-100,4,3,1,95,0,0
9130,-100,4,3,3,95,0,0
9913,-100,4,3,1,95,0,0
10304,-100,4,3,2,95,0,0
10565,-100,4,3,3,95,0,0
10956,-100,4,3,1,95,0,0
11217,-100,4,3,3,95,0,0
11999,-100,4,3,1,95,0,0
12130,-100,4,3,3,95,0,0
12260,-100,4,3,1,95,0,0
12391,-100,4,3,3,95,0,0
13043,-100,4,3,1,95,0,0
13304,-100,4,3,3,95,0,0
14086,-100,4,3,1,95,0,0
14478,-100,4,3,2,95,0,0
14739,-100,4,3,3,95,0,0
15130,-100,4,3,2,95,0,0
15391,-100,4,3,3,95,0,0
16043,-100,4,3,3,50,0,0
16108,-100,4,3,3,62,0,0
16173,-100,4,3,3,74,0,0
16304,-100,4,3,3,95,0,0
16695,-80,4,3,2,95,0,1
16826,-80,4,3,3,95,0,0
20021,-80,4,3,3,5,0,0
20086,-80,4,3,3,95,0,0
20869,-80,4,3,2,95,0,0
20999,-80,4,3,3,95,0,0
21065,-80,4,3,3,5,0,0
21130,-80,4,3,3,95,0,0
24391,-80,4,3,1,95,0,0
25043,-80,4,3,3,95,0,0
28891,-80,4,3,3,5,0,0
28956,-80,4,3,3,95,0,0
29217,-80,4,3,2,95,0,0
29347,-80,4,3,3,95,0,0
33391,-80,4,3,2,95,0,1
33521,-80,4,3,3,95,0,0
50086,-100,4,3,3,95,0,0
51130,-100,4,3,1,95,0,0
51391,-100,4,3,3,95,0,0
52043,-100,4,3,2,95,0,0
52304,-100,4,3,3,95,0,0
53739,-100,4,3,1,95,0,0
53999,-100,4,3,3,95,0,0
56217,-100,4,3,2,95,0,0
56478,-100,4,3,3,95,0,0
57652,-100,4,3,1,95,0,0
57913,-100,4,3,3,95,0,0
58043,-100,4,3,1,95,0,0
58434,-100,4,3,3,95,0,0
58956,-100,4,3,1,95,0,0
59217,-100,4,3,3,95,0,0
59999,-100,4,3,1,95,0,0
60391,-100,4,3,2,95,0,0
60652,-100,4,3,3,95,0,0
61043,-100,4,3,1,95,0,0
61304,-100,4,3,3,95,0,0
62086,-100,4,3,1,95,0,0
62217,-100,4,3,3,95,0,0
62347,-100,4,3,1,95,0,0
62478,-100,4,3,3,95,0,0
63130,-100,4,3,1,95,0,0
63391,-100,4,3,3,95,0,0
64173,-100,4,3,1,95,0,0
64565,-100,4,3,2,95,0,0
64826,-100,4,3,3,95,0,0
65217,-100,4,3,1,95,0,0
65478,-100,4,3,3,95,0,0
66130,-100,4,3,3,50,0,0
66195,-100,4,3,3,62,0,0
66260,-100,4,3,3,74,0,0
66391,-100,4,3,3,95,0,0
66782,-80,4,3,2,95,0,1
66913,-80,4,3,3,95,0,0
70956,-80,4,3,2,95,0,0
71086,-80,4,3,3,95,0,0
74478,-80,4,3,1,95,0,0
75130,-80,4,3,3,95,0,0
79304,-80,4,3,2,95,0,0
79434,-80,4,3,3,95,0,0
80282,-80,4,3,3,5,0,0
80347,-80,4,3,3,95,0,0
82369,-80,4,3,3,5,0,0
82434,-80,4,3,3,95,0,0
83478,-80,4,3,2,95,0,1
83608,-80,4,3,3,95,0,0
100173,-133.333333333333,4,3,2,70,0,0
100304,-133.333333333333,4,3,3,70,0,0
103695,-133.333333333333,4,3,2,70,0,0
103956,-133.333333333333,4,3,3,70,0,0
104347,-133.333333333333,4,3,2,70,0,0
104478,-133.333333333333,4,3,3,70,0,0
108521,-133.333333333333,4,3,2,70,0,0
108652,-133.333333333333,4,3,3,70,0,0
110217,-133.333333333333,4,3,2,70,0,0
110608,-133.333333333333,4,3,3,70,0,0
111847,-133.333333333333,4,3,1,70,0,0
112173,-133.333333333333,4,3,3,70,0,0
112369,-133.333333333333,4,3,1,70,0,0
112695,-133.333333333333,4,3,2,70,0,0
112826,-133.333333333333,4,3,3,70,0,0
116869,-117.647058823529,4,3,2,70,0,0
116999,-117.647058823529,4,3,3,70,0,0
117130,-133.333333333333,4,3,3,70,0,0
120391,-133.333333333333,4,3,1,70,0,0
120652,-133.333333333333,4,3,3,70,0,0
121043,-133.333333333333,4,3,2,70,0,0
121173,-133.333333333333,4,3,3,70,0,0
125217,-133.333333333333,4,3,2,70,0,0
125347,-133.333333333333,4,3,3,70,0,0
127826,-153.846153846153,4,3,3,70,0,0
128282,-153.846153846153,4,3,3,5,0,0
128347,-105.263157894737,4,3,3,95,0,1
128695,-105.263157894737,4,3,1,95,0,1
128869,-105.263157894737,4,3,3,95,0,1
128999,-105.263157894737,4,3,1,95,0,1
129130,-500,4,3,1,95,0,1
129260,-500,4,3,3,95,0,0
129326,-500,4,3,3,5,0,0
129391,-62.5,4,3,2,95,0,1
129521,-62.5,4,3,2,95,0,0
129586,-62.5,4,3,2,5,0,0
129652,-62.5,4,3,2,95,0,0
129847,-62.5,4,3,2,5,0,0
129913,-62.5,4,3,2,95,0,0
131478,-62.5,4,3,2,95,0,1
132717,-62.5,4,3,2,5,0,1
132782,-500,4,3,2,95,0,0
133499,-500,4,3,2,5,0,0
133565,-62.5,4,3,2,95,0,1
133695,-62.5,4,3,2,95,0,0
133760,-62.5,4,3,2,5,0,0
133826,-62.5,4,3,2,95,0,0
134021,-62.5,4,3,2,5,0,0
134086,-62.5,4,3,2,95,0,0
137934,-62.5,4,3,2,5,0,0
137999,-62.5,4,3,2,95,0,0
138195,-62.5,4,3,2,5,0,0
138260,-62.5,4,3,2,95,0,0
142108,-62.5,4,3,2,5,0,0
142173,-62.5,4,3,2,95,0,0
142369,-62.5,4,3,2,5,0,0
142434,-62.5,4,3,2,95,0,0
145043,-181.818181818181,4,3,3,95,0,1
145239,-181.818181818181,4,3,3,5,0,1
145304,-50,4,3,3,95,0,0
145499,-50,4,3,3,5,0,0
145565,-181.818181818181,4,3,3,95,0,1
145760,-181.818181818181,4,3,3,5,0,1
145826,-50,4,3,3,95,0,0
146021,-50,4,3,3,5,0,0
146086,-133.333333333333,4,3,5,80,0,1
146152,-133.333333333333,4,3,2,80,0,1
162782,-500,4,3,3,95,0,0
178434,-100,4,3,3,95,0,0
179478,-66.6666666666667,4,3,3,95,0,1
183652,-66.6666666666667,4,3,2,95,0,1
183782,-66.6666666666667,4,3,3,95,0,1
187173,-66.6666666666667,4,3,1,95,0,1
187826,-66.6666666666667,4,3,3,95,0,1
191999,-66.6666666666667,4,3,2,95,0,1
192130,-66.6666666666667,4,3,3,95,0,1
195782,-500,4,3,2,95,0,0

[Colours]
Combo1 : 253,136,19
Combo2 : 253,0,6

[HitObjects]
127,155,0,6,0,P|146:207|151:252,1,90,8|4,0:0|0:0,0:0:0:0:
267,84,260,2,0,P|248:136|243:181,1,90,8|4,0:0|0:0,0:0:0:0:
355,331,521,1,8,0:0:0:0:
275,291,652,1,8,0:0:0:0:
438,299,782,1,4,0:0:0:0:
479,218,913,1,4,0:0:0:0:
470,128,1043,6,0,L|351:97,2,90,8|8|0,0:3|0:0|0:0,0:0:0:0:
470,128,1434,1,4,0:0:0:0:
375,211,1565,2,0,L|315:195,1,45,8|0,0:0|0:0,0:0:0:0:
250,128,1695,2,0,L|309:112,1,45,8|0,0:0|0:0,0:0:0:0:
387,60,1826,2,0,L|327:44,1,45,0|0,0:0|0:0,0:0:0:0:
202,23,1956,6,0,B|211:92|211:92|201:118|201:118|220:243,1,180,12|4,0:1|0:0,0:0:0:0:
99,343,2347,1,8,0:0:0:0:
101,320,2412,1,8,0:0:0:0:
104,298,2477,1,8,0:0:0:0:
107,276,2542,1,8,0:0:0:0:
110,253,2607,1,8,0:0:0:0:
213,229,2739,2,0,L|233:336,1,90,4|0,0:0|0:0,0:0:0:0:
51,171,2999,1,8,0:0:0:0:
51,171,3130,6,0,L|67:82,1,90,8|4,0:0|0:0,0:0:0:0:
229,243,3391,2,0,L|245:331,1,90,8|4,0:0|0:0,0:0:0:0:
358,135,3652,1,8,0:0:0:0:
267,120,3782,1,8,0:0:0:0:
176,110,3913,1,4,0:0:0:0:
327,49,4043,1,8,0:0:0:0:
327,49,4173,6,0,P|384:33|424:13,1,90,8|4,0:0|0:0,0:0:0:0:
246,229,4434,2,0,P|289:240|330:258,1,90,8|4,0:0|0:0,0:0:0:0:
123,252,4695,1,8,0:0:0:0:
123,252,4826,1,8,0:0:0:0:
71,139,4956,1,4,0:0:0:0:
71,139,5086,1,8,0:0:0:0:
129,271,5217,6,0,L|118:368,1,90,8|4,0:0|0:0,0:0:0:0:
59,124,5478,2,0,L|48:34,1,90,8|4,0:0|0:0,0:0:0:0:
173,177,5739,2,0,L|236:183,1,45,8|0,0:0|0:0,0:0:0:0:
44,236,5869,2,0,L|-19:242,1,45,8|0,0:0|0:0,0:0:0:0:
217,279,5999,2,0,L|280:285,1,45,0|0,0:0|0:0,0:0:0:0:
118,384,6130,6,0,L|142:165,1,180,12|4,0:1|0:0,0:0:0:0:
256,23,6521,2,0,L|265:112,1,90,8|4,0:0|0:0,0:0:0:0:
347,313,6782,2,0,L|356:223,1,90,8|8,0:0|0:0,0:0:0:0:
376,78,7043,1,4,0:0:0:0:
446,160,7173,1,8,0:0:0:0:
247,237,7304,6,0,P|179:202|97:227,1,135,8|0,0:0|0:0,0:0:0:0:
102,234,7565,2,0,P|98:286|83:335,1,90,10|10,0:0|0:0,0:0:0:0:
23,93,7826,1,4,0:0:0:0:
122,122,7956,1,6,0:0:0:0:
211,80,8086,2,0,P|216:159|240:235,1,135,6|0,0:0|0:0,0:0:0:0:
247,237,8347,6,0,P|246:270|231:320,2,60,4|4|4,0:0|0:0|0:0,0:0:0:0:
401,219,8608,1,8,0:0:0:0:
479,305,8739,1,4,0:0:0:0:
485,172,8869,1,8,0:0:0:0:
401,232,8999,1,8,0:0:0:0:
322,164,9130,1,4,0:0:0:0:
242,240,9260,1,8,0:0:0:0:
242,240,9391,6,0,L|227:345,1,90,8|4,0:0|0:0,0:0:0:0:
151,153,9652,2,0,L|163:63,1,90,8|4,0:0|0:0,0:0:0:0:
0,178,9913,2,0,L|6:222,1,45,8|0,0:0|0:0,0:0:0:0:
86,262,10043,2,0,L|80:306,1,45,8|0,0:0|0:0,0:0:0:0:
158,163,10173,2,0,L|164:207,1,45,0|0,0:0|0:0,0:0:0:0:
228,345,10304,6,0,P|293:358|353:249,1,180,12|4,0:1|0:0,0:0:0:0:
298,148,10695,2,0,P|277:91|270:42,1,90,8|4,0:0|0:0,0:0:0:0:
432,176,10956,2,0,P|453:119|460:70,2,90,8|8|4,0:0|0:0|0:0,0:0:0:0:
274,269,11347,5,8,0:0:0:0:
456,343,11478,1,8,0:0:0:0:
353,224,11608,1,4,0:0:0:0:
375,314,11739,1,8,0:0:0:0:
432,176,11869,1,4,0:0:0:0:
268,157,12000,5,8,0:0:0:0:
181,121,12130,1,4,0:0:0:0:
276,160,12260,1,8,0:0:0:0:
172,117,12390,1,4,0:0:0:0:
327,78,12521,6,0,P|374:74|439:64,1,90,8|4,0:0|0:0,0:0:0:0:
210,236,12782,2,0,P|165:229|120:226,1,90,8|4,0:0|0:0,0:0:0:0:
15,184,13043,1,8,0:0:0:0:
40,274,13173,1,8,0:0:0:0:
10,172,13304,1,4,0:0:0:0:
65,364,13434,1,8,0:0:0:0:
65,364,13565,6,0,P|116:353|178:347,1,90,8|4,0:0|0:0,0:0:0:0:
225,225,13826,2,0,P|276:236|338:242,1,90,8|4,0:0|0:0,0:0:0:0:
435,262,14086,2,0,P|427:234|423:204,1,45,8|0,0:0|0:0,0:0:0:0:
499,95,14217,2,0,P|478:115|454:134,1,45,8|0,0:0|0:0,0:0:0:0:
323,124,14347,2,0,P|350:131|379:142,1,45,0|0,0:0|0:0,0:0:0:0:
508,321,14478,6,0,P|448:294|349:357,1,180,12|4,0:1|0:0,0:0:0:0:
198,384,14869,2,0,P|151:365|102:353,1,90,8|4,0:0|0:0,0:0:0:0:
19,267,15130,1,8,0:0:0:0:
113,272,15260,1,8,0:0:0:0:
190,218,15391,1,4,0:0:0:0:
205,125,15521,1,8,0:0:0:0:
205,125,15652,6,0,P|188:68|164:27,1,90,8|4,0:0|0:0,0:0:0:0:
273,250,15913,2,0,P|233:229|189:217,1,90,8|8,0:0|0:0,0:0:0:0:
159,255,16108,2,0,L|171:322,2,45,8|8|0,0:0|0:0|0:0,0:0:0:0:
296,355,16304,2,0,P|321:346|337:333,1,45,8|0,0:0|0:0,0:0:0:0:
396,201,16434,2,0,L|392:260,1,45,8|0,0:0|0:0,0:0:0:0:
463,380,16565,2,0,L|459:335,1,45,8|0,0:0|0:0,0:0:0:0:
500,132,16695,6,0,L|490:274,1,112.5,12|4,0:1|0:0,0:0:0:0:
304,156,16956,2,0,L|297:44,1,112.5,8|0,0:0|0:0,0:0:0:0:
127,148,17217,2,0,L|117:290,1,112.5,0|4,0:0|0:0,0:0:0:0:
209,337,17478,1,8,0:0:0:0:
209,337,17608,1,0,0:0:0:0:
346,263,17739,6,0,L|217:243,1,112.5,4|4,0:0|0:0,0:0:0:0:
0,369,17999,2,0,L|129:349,1,112.5,8|0,0:0|0:0,0:0:0:0:
302,371,18260,1,0,0:0:0:0:
396,342,18391,1,4,0:0:0:0:
489,383,18521,2,0,P|485:314|516:157,1,225,8|4,0:0|0:0,0:0:0:0:
461,77,18913,5,4,0:0:0:0:
363,162,19043,2,0,P|346:94|322:43,1,112.5,8|0,0:0|0:0,0:0:0:0:
172,113,19304,2,0,P|188:39|212:-16,2,112.5,0|4|8,0:0|0:0|0:0,0:0:0:0:
222,216,19695,1,0,0:0:0:0:
449,236,19826,6,0,P|389:187|311:226,1,168.75,4|0,0:0|0:0,0:0:0:0:
307,261,20086,2,0,P|298:324|282:373,1,112.5,8|0,0:0|0:0,0:0:0:0:
102,183,20347,2,0,P|111:246|127:295,1,112.5,0|4,0:0|0:0,0:0:0:0:
190,378,20608,1,8,0:0:0:0:
39,324,20739,1,0,0:0:0:0:
222,216,20869,2,0,P|216:160|182:36,1,168.75,12|0,0:1|0:0,0:0:0:0:
245,122,21130,6,0,L|374:130,1,112.5,8|0,0:0|0:0,0:0:0:0:
512,384,21391,2,0,P|506:328|493:273,1,112.5,0|4,0:0|0:0,0:0:0:0:
306,260,21652,1,8,0:0:0:0:
406,318,21782,1,0,0:0:0:0:
461,173,21913,2,0,L|446:40,1,112.5,0|4,0:0|0:0,0:0:0:0:
302,273,22173,1,8,0:0:0:0:
184,142,22304,2,0,L|199:9,1,112.5,0|0,0:0|0:0,0:0:0:0:
106,198,22565,5,4,0:0:0:0:
278,143,22695,1,8,0:0:0:0:
96,85,22826,1,0,0:0:0:0:
209,244,22956,1,4,0:0:0:0:
209,244,23086,1,4,0:0:0:0:
386,207,23217,6,0,P|326:236|299:278,1,112.5,8|0,0:0|0:0,0:0:0:0:
104,297,23478,2,0,P|44:268|17:226,1,112.5,0|4,0:0|0:0,0:0:0:0:
0,102,23739,1,8,0:0:0:0:
159,169,23869,1,0,0:0:0:0:
94,1,23999,2,0,P|93:62|84:146,1,112.5,0|4,0:0|0:0,0:0:0:0:
19,231,24260,1,8,0:0:0:0:
229,71,24391,5,8,0:0:0:0:
228,87,24456,1,8,0:0:0:0:
229,104,24521,1,8,0:0:0:0:
279,219,24652,1,8,0:0:0:0:
327,118,24782,1,4,0:0:0:0:
274,230,24913,1,4,0:0:0:0:
332,105,25043,2,0,L|465:96,1,112.5,4|4,0:0|0:0,0:0:0:0:
510,197,25304,1,8,0:0:0:0:
397,277,25434,1,0,0:0:0:0:
512,384,25565,6,0,P|454:377|379:375,1,112.5,0|4,0:0|0:0,0:0:0:0:
151,252,25826,2,0,P|208:249|264:242,1,112.5,8|0,0:0|0:0,0:0:0:0:
65,368,26086,2,0,P|56:308|40:230,2,112.5,4|4|8,0:0|0:0|0:0,0:0:0:0:
282,132,26478,1,0,0:0:0:0:
282,132,26608,2,0,P|271:187|263:242,1,112.5,0|4,0:0|0:0,0:0:0:0:
123,158,26869,1,8,0:0:0:0:
95,64,26999,1,0,0:0:0:0:
151,252,27130,5,4,0:0:0:0:
151,252,27260,1,4,0:0:0:0:
195,91,27391,1,8,0:0:0:0:
195,91,27521,1,0,0:0:0:0:
306,277,27652,2,0,P|422:298|491:397,1,225,0|8,0:0|0:0,0:0:0:0:
420,249,28043,1,0,0:0:0:0:
266,346,28173,6,0,P|280:270|282:195,2,112.5,4|4|8,0:0|0:0|0:0,0:0:0:0:
180,190,28565,1,0,0:0:0:0:
260,123,28695,2,0,L|459:92,1,168.75,0|0,0:0|0:0,0:0:0:0:
447,117,28956,2,0,P|451:172|463:228,1,112.5,8|0,0:0|0:0,0:0:0:0:
490,31,29217,5,12,0:1:0:0:
490,31,29347,1,4,0:0:0:0:
260,123,29478,2,0,P|231:42|224:-2,1,112.5,8|0,0:0|0:0,0:0:0:0:
319,307,29739,2,0,P|331:252|352:200,1,112.5,0|4,0:0|0:0,0:0:0:0:
164,372,29999,2,0,P|151:317|130:265,1,112.5,8|0,0:0|0:0,0:0:0:0:
55,134,30260,2,0,L|192:148,1,112.5,0|4,0:0|0:0,0:0:0:0:
307,297,30521,1,8,0:0:0:0:
18,276,30652,2,0,L|129:264,1,112.5,0|0,0:0|0:0,0:0:0:0:
343,183,30913,5,4,0:0:0:0:
295,287,31043,1,8,0:0:0:0:
228,193,31173,1,0,0:0:0:0:
410,277,31304,1,4,0:0:0:0:
410,277,31434,1,4,0:0:0:0:
215,179,31565,6,0,L|240:43,1,112.5,8|0,0:0|0:0,0:0:0:0:
24,295,31826,2,0,L|3:184,1,112.5,0|4,0:0|0:0,0:0:0:0:
195,343,32086,2,0,P|246:300|303:274,1,112.5,8|0,0:0|0:0,0:0:0:0:
505,219,32347,2,0,L|365:194,1,112.5,0|4,0:0|0:0,0:0:0:0:
202,165,32608,1,8,0:0:0:0:
375,297,32739,5,4,0:0:0:0:
381,312,32804,1,4,0:0:0:0:
385,328,32869,1,8,0:0:0:0:
415,191,32999,1,8,0:0:0:0:
249,289,33130,1,8,0:0:0:0:
425,185,33260,1,8,0:0:0:0:
188,160,33391,6,0,P|170:213|154:295,1,112.5,12|4,0:1|0:0,0:0:0:0:
153,384,33652,1,4,0:0:0:0:
153,384,33782,1,4,0:0:0:0:
49,222,33913,2,0,P|55:277|75:358,2,112.5,8|4|4,0:0|0:0|0:0,0:0:0:0:
86,87,34304,1,4,0:0:0:0:
157,268,34434,1,0,0:0:0:0:
219,52,34565,1,4,0:0:0:0:
205,67,34956,6,0,L|346:55,2,112.5,8|4|0,0:0|0:0|0:0,0:0:0:0:
67,93,35347,1,0,0:0:0:0:
324,160,35478,2,0,P|342:213|358:295,1,112.5,4|4,0:0|0:0,0:0:0:0:
359,384,35739,1,4,0:0:0:0:
359,384,35869,1,4,0:0:0:0:
463,222,36000,2,0,P|456:277|436:358,2,112.5,8|4|4,0:0|0:0|0:0,0:0:0:0:
426,87,36391,1,4,0:0:0:0:
355,268,36521,1,0,0:0:0:0:
293,52,36652,1,4,0:0:0:0:
281,36,37043,6,0,L|260:159,1,112.5,8|4,0:0|0:0,0:0:0:0:
244,251,37304,1,0,0:0:0:0:
244,251,37434,1,0,0:0:0:0:
161,171,37565,6,0,P|63:169|14:280,1,225,4|0,0:1|0:0,0:0:0:0:
69,362,37956,1,0,0:0:0:0:
172,283,38086,2,0,P|243:301|284:349,1,112.5,8|0,0:0|0:0,0:0:0:0:
349,242,38347,2,0,P|386:304|381:367,1,112.5,4|4,0:0|0:0,0:0:0:0:
481,213,38608,2,0,L|231:197,1,225,0|0,0:0|0:0,0:0:0:0:
256,198,38999,1,0,0:0:0:0:
321,14,39130,2,0,P|418:16|421:143,1,225,8|0,0:0|0:0,0:0:0:0:
349,242,39521,1,0,0:0:0:0:
164,155,39652,6,0,B|57:157|115:298|-16:288,1,225,4|0,0:0|0:0,0:0:0:0:
0,197,40043,1,0,0:0:0:0:
178,244,40173,2,0,P|201:300|205:358,1,112.5,8|0,0:0|0:0,0:0:0:0:
285,167,40434,2,0,P|290:111|312:59,1,112.5,4|4,0:0|0:0,0:0:0:0:
365,262,40695,2,0,P|445:291|460:173,1,225,0|0,0:0|0:0,0:0:0:0:
419,54,41086,1,0,0:0:0:0:
419,54,41217,2,0,B|358:92|358:92|176:57,1,225,8|0,0:0|0:0,0:0:0:0:
84,41,41608,1,0,0:0:0:0:
153,134,41739,6,0,P|170:194|178:254,1,112.5,4|4,0:0|0:0,0:0:0:0:
189,353,41999,1,4,0:0:0:0:
276,264,42130,1,4,0:0:0:0:
99,304,42260,2,0,L|-24:291,2,112.5,8|4|4,0:0|0:0|0:0,0:0:0:0:
292,253,42652,1,4,0:0:0:0:
169,224,42782,1,0,0:0:0:0:
406,285,42913,1,4,0:0:0:0:
426,291,43304,6,0,L|416:162,2,112.5,8|4|0,0:0|0:0|0:0,0:0:0:0:
338,365,43695,1,0,0:0:0:0:
239,284,43826,2,0,P|197:248|55:303,1,225,4|4,0:0|0:0,0:0:0:0:
151,344,44217,1,4,0:0:0:0:
197,207,44347,2,0,P|212:117|213:85,1,112.5,8|4,0:0|0:0,0:0:0:0:
59,13,44608,2,0,P|63:69|74:124,1,112.5,4|4,0:0|0:0,0:0:0:0:
98,224,44869,1,0,0:0:0:0:
304,188,44999,1,4,0:0:0:0:
325,184,45391,6,0,L|306:321,2,112.5,8|4|0,0:0|0:0|0:0,0:0:0:0:
428,130,45782,1,0,0:0:0:0:
390,339,45913,6,0,P|324:384|215:300,1,225,4|0,0:1|0:0,0:0:0:0:
196,193,46304,1,0,0:0:0:0:
117,283,46434,2,0,P|53:320|6:312,1,112.5,8|0,0:0|0:0,0:0:0:0:
295,226,46695,2,0,P|231:189|184:197,1,112.5,4|4,0:0|0:0,0:0:0:0:
398,349,46956,2,0,B|451:312|451:312|441:116,1,225,0|0,0:0|0:0,0:0:0:0:
442,151,47347,1,0,0:0:0:0:
294,225,47478,2,0,B|286:65|286:65|339:28,1,225,8|0,0:0|0:0,0:0:0:0:
442,48,47869,1,0,0:0:0:0:
263,143,47999,6,0,B|176:125|176:125|121:143|121:143|15:123,1,225,4|0,0:0|0:0,0:0:0:0:
6,26,48391,1,0,0:0:0:0:
117,164,48521,2,0,L|127:281,1,112.5,8|0,0:0|0:0,0:0:0:0:
294,366,48782,2,0,L|303:253,1,112.5,4|4,0:0|0:0,0:0:0:0:
442,48,49043,2,0,L|461:276,1,225,0|0,0:0|0:0,0:0:0:0:
461,272,49434,1,0,0:0:0:0:
322,196,49565,5,8,0:0:0:0:
322,196,49695,1,4,0:0:0:0:
186,331,49826,1,8,0:0:0:0:
186,331,49956,1,4,0:0:0:0:
82,221,50086,6,0,L|206:210,1,90,8|4,0:0|0:0,0:0:0:0:
345,84,50347,2,0,L|255:91,1,90,8|4,0:0|0:0,0:0:0:0:
121,28,50608,1,8,0:0:0:0:
121,28,50739,1,8,0:0:0:0:
255,91,50869,5,4,0:0:0:0:
247,172,50999,1,4,0:0:0:0:
240,254,51130,2,0,L|229:376,2,90,8|8|4,0:0|0:0|0:0,0:0:0:0:
342,210,51521,1,4,0:0:0:0:
165,133,51652,2,0,L|108:111,1,45,8|0,0:0|0:0,0:0:0:0:
339,112,51782,2,0,L|380:95,1,45,8|0,0:0|0:0,0:0:0:0:
152,226,51913,2,0,L|110:242,1,45,0|0,0:0|0:0,0:0:0:0:
355,220,52043,6,0,P|406:257|333:343,1,180,12|4,0:1|0:0,0:0:0:0:
176,363,52434,1,8,0:0:0:0:
158,336,52499,1,8,0:0:0:0:
132,320,52564,1,8,0:0:0:0:
101,316,52629,1,8,0:0:0:0:
71,325,52695,2,0,P|39:303|37:222,2,90,8|4|0,0:0|0:0|0:0,0:0:0:0:
250,290,53086,1,8,0:0:0:0:
250,290,53217,6,0,L|266:179,1,90,8|4,0:0|0:0,0:0:0:0:
406,98,53478,2,0,L|418:187,1,90,8|4,0:0|0:0,0:0:0:0:
198,89,53739,2,0,P|230:54|306:37,2,90,8|8|4,0:0|0:0|0:0,0:0:0:0:
130,266,54130,1,8,0:0:0:0:
130,266,54260,6,0,P|70:284|27:280,1,90,8|4,0:0|0:0,0:0:0:0:
250,290,54521,2,0,P|220:345|187:372,1,90,8|4,0:0|0:0,0:0:0:0:
351,222,54782,1,8,0:0:0:0:
351,222,54913,1,8,0:0:0:0:
233,186,55043,1,4,0:0:0:0:
233,186,55173,1,8,0:0:0:0:
421,150,55304,6,0,P|446:190|439:264,1,90,8|4,0:0|0:0,0:0:0:0:
313,116,55565,2,0,P|317:71|341:34,1,90,8|4,0:0|0:0,0:0:0:0:
227,197,55826,2,0,L|166:209,1,45,8|0,0:0|0:0,0:0:0:0:
87,313,55956,2,0,L|107:254,1,45,8|0,0:0|0:0,0:0:0:0:
56,133,56086,2,0,L|96:179,1,45,0|0,0:0|0:0,0:0:0:0:
194,302,56217,6,0,L|403:260,1,180,12|4,0:1|0:0,0:0:0:0:
493,370,56608,2,0,P|468:315|463:257,1,90,8|4,0:0|0:0,0:0:0:0:
405,160,56869,1,8,0:0:0:0:
405,160,56999,1,8,0:0:0:0:
316,309,57130,1,4,0:0:0:0:
316,309,57260,1,8,0:0:0:0:
227,197,57391,6,0,L|331:176,1,90,8|4,0:0|0:0,0:0:0:0:
138,293,57652,2,0,L|33:272,2,90,10|10|4,0:0|0:0|0:0,0:0:0:0:
324,349,58043,1,6,0:0:0:0:
324,349,58173,2,0,L|428:328,1,90,6|0,0:0|0:0,0:0:0:0:
454,224,58434,6,0,P|477:217|516:217,2,60,4|4|4,0:0|0:0|0:0,0:0:0:0:
367,136,58695,2,0,P|346:88|340:46,1,90,8|4,0:0|0:0,0:0:0:0:
227,197,58956,2,0,P|245:156|253:112,2,90,8|8|4,0:0|0:0|0:0,0:0:0:0:
118,298,59347,1,8,0:0:0:0:
118,298,59478,6,0,P|66:268|18:258,1,90,8|4,0:0|0:0,0:0:0:0:
109,88,59739,2,0,L|130:188,1,90,8|4,0:0|0:0,0:0:0:0:
216,305,59999,2,0,L|205:355,1,45,8|0,0:0|0:0,0:0:0:0:
302,291,60130,2,0,L|292:335,1,45,8|0,0:0|0:0,0:0:0:0:
388,277,60260,2,0,L|378:321,1,45,0|0,0:0|0:0,0:0:0:0:
503,375,60391,6,0,L|463:185,1,180,12|4,0:1|0:0,0:0:0:0:
339,105,60782,2,0,L|351:-2,1,90,8|4,0:0|0:0,0:0:0:0:
256,262,61043,2,0,L|245:351,2,90,8|8|4,0:0|0:0|0:0,0:0:0:0:
179,189,61434,1,8,0:0:0:0:
354,225,61565,5,8,0:0:0:0:
354,225,61695,1,4,0:0:0:0:
452,176,61826,1,8,0:0:0:0:
452,176,61956,1,4,0:0:0:0:
258,128,62087,5,8,0:0:0:0:
171,92,62217,1,4,0:0:0:0:
266,131,62347,1,8,0:0:0:0:
162,88,62477,1,4,0:0:0:0:
317,49,62608,6,0,P|364:45|429:35,1,90,8|4,0:0|0:0,0:0:0:0:
200,207,62869,2,0,P|155:200|110:197,1,90,8|4,0:0|0:0,0:0:0:0:
5,155,63130,1,8,0:0:0:0:
30,245,63260,1,8,0:0:0:0:
0,143,63391,1,4,0:0:0:0:
55,335,63521,1,8,0:0:0:0:
55,335,63652,6,0,B|103:343|103:343|168:318,1,90,8|4,0:0|0:0,0:0:0:0:
200,207,63913,2,0,B|248:199|248:199|313:224,1,90,8|4,0:0|0:0,0:0:0:0:
425,233,64173,2,0,P|417:205|413:175,1,45,8|0,0:0|0:0,0:0:0:0:
339,132,64304,2,0,P|342:109|347:87,1,45,8|0,0:0|0:0,0:0:0:0:
506,160,64434,2,0,P|502:137|497:115,1,45,0|0,0:0|0:0,0:0:0:0:
414,19,64565,6,0,P|354:-8|255:55,1,180,12|4,0:1|0:0,0:0:0:0:
211,196,64956,1,8,0:0:0:0:
143,92,65086,1,4,0:0:0:0:
78,209,65217,2,0,L|73:309,2,90,8|8|4,0:0|0:0|0:0,0:0:0:0:
3,82,65608,1,8,0:0:0:0:
154,108,65739,6,0,P|199:101|257:82,1,90,8|4,0:0|0:0,0:0:0:0:
414,294,65999,2,0,P|370:281|326:274,1,90,8|8,0:0|0:0,0:0:0:0:
155,346,66260,1,8,0:0:0:0:
155,346,66326,1,0,0:0:0:0:
155,346,66391,2,0,L|162:301,1,45,8|0,0:0|0:0,0:0:0:0:
239,176,66521,2,0,L|246:220,1,45,8|0,0:0|0:0,0:0:0:0:
282,360,66652,1,8,0:0:0:0:
84,218,66782,5,12,0:1:0:0:
84,218,66913,2,0,P|208:199|341:184,1,225,4|0,0:0|0:0,0:0:0:0:
326,74,67304,2,0,P|390:99|442:108,1,112.5,0|4,0:0|0:0,0:0:0:0:
239,176,67565,2,0,P|212:98|207:53,1,112.5,8|0,0:0|0:0,0:0:0:0:
103,100,67826,1,4,0:0:0:0:
216,32,67956,1,4,0:0:0:0:
13,44,68086,2,0,P|-3:84|15:159,1,112.5,8|0,0:0|0:0,0:0:0:0:
126,331,68347,2,0,P|142:291|124:216,2,112.5,0|4|8,0:0|0:0|0:0,0:0:0:0:
42,279,68739,1,0,0:0:0:0:
222,384,68869,5,4,0:0:0:0:
222,384,68999,2,0,P|232:266|259:150,1,225,4|0,0:0|0:0,0:0:0:0:
383,199,69391,2,0,P|439:221|504:202,1,112.5,0|4,0:0|0:0,0:0:0:0:
297,75,69652,2,0,P|242:65|191:87,1,112.5,8|0,0:0|0:0,0:0:0:0:
394,100,69913,5,4,0:0:0:0:
479,34,70043,1,4,0:0:0:0:
369,212,70173,2,0,L|384:332,1,112.5,8|0,0:0|0:0,0:0:0:0:
191,240,70434,2,0,P|143:212|89:201,2,112.5,0|4|8,0:0|0:0|0:0,0:0:0:0:
251,346,70826,1,0,0:0:0:0:
279,184,70956,1,12,0:1:0:0:
279,184,71086,1,4,0:0:0:0:
395,231,71217,6,0,L|410:351,1,112.5,8|0,0:0|0:0,0:0:0:0:
292,72,71478,2,0,L|277:192,1,112.5,0|4,0:0|0:0,0:0:0:0:
87,5,71739,1,8,0:0:0:0:
124,134,71869,1,0,0:0:0:0:
208,112,71999,1,0,0:0:0:0:
171,241,72129,1,4,0:0:0:0:
78,224,72260,1,8,0:0:0:0:
115,353,72390,1,0,0:0:0:0:
362,295,72521,6,0,B|358:255|301:234|301:234|239:262|167:239,1,225,0|8,0:0|0:0,0:0:0:0:
237,369,72913,1,0,0:0:0:0:
313,200,73043,1,4,0:0:0:0:
313,200,73173,1,4,0:0:0:0:
373,311,73304,6,0,P|435:331|497:339,1,112.5,8|0,0:0|0:0,0:0:0:0:
204,227,73565,2,0,P|266:207|328:199,1,112.5,0|4,0:0|0:0,0:0:0:0:
9,313,73826,1,8,0:0:0:0:
139,380,73956,1,0,0:0:0:0:
115,184,74086,1,0,0:0:0:0:
124,286,74217,1,4,0:0:0:0:
31,109,74347,1,8,0:0:0:0:
22,211,74478,5,8,0:0:0:0:
22,211,74543,1,8,0:0:0:0:
22,211,74608,1,8,0:0:0:0:
141,73,74739,1,8,0:0:0:0:
141,73,74869,2,0,P|208:101|258:101,1,112.5,4|4,0:0|0:0,0:0:0:0:
411,30,75130,6,0,B|377:47|375:84|375:84|423:151|411:257,1,225,4|8,0:0|0:0,0:0:0:0:
238,323,75521,1,0,0:0:0:0:
315,247,75652,2,0,P|316:192|275:117,1,112.5,0|4,0:0|0:0,0:0:0:0:
135,255,75913,2,0,P|113:306|114:362,1,112.5,8|0,0:0|0:0,0:0:0:0:
251,333,76173,5,4,0:0:0:0:
221,211,76304,1,4,0:0:0:0:
388,312,76434,5,8,0:0:0:0:
418,190,76565,1,0,0:0:0:0:
326,239,76695,2,0,P|316:163|338:116,1,112.5,0|4,0:0|0:0,0:0:0:0:
426,51,76956,1,8,0:0:0:0:
235,97,77086,6,0,B|117:93|162:175|32:192,1,225,0|4,0:0|0:0,0:0:0:0:
42,75,77478,1,8,0:0:0:0:
42,75,77608,1,0,0:0:0:0:
221,211,77739,1,0,0:0:0:0:
221,211,77869,1,4,0:0:0:0:
313,134,77999,1,8,0:0:0:0:
357,273,78130,1,0,0:0:0:0:
436,102,78260,6,0,P|411:181|400:339,1,225,4|8,0:0|0:0,0:0:0:0:
443,202,78652,1,0,0:0:0:0:
271,344,78782,2,0,P|214:339|157:338,1,112.5,0|4,0:0|0:0,0:0:0:0:
8,226,79043,2,0,P|64:224|120:219,1,112.5,8|0,0:0|0:0,0:0:0:0:
271,95,79304,1,12,0:1:0:0:
271,95,79434,1,4,0:0:0:0:
361,236,79565,6,0,P|379:166|396:122,1,112.5,8|0,0:0|0:0,0:0:0:0:
249,336,79826,2,0,P|231:266|214:222,1,112.5,0|4,0:0|0:0,0:0:0:0:
23,89,80086,2,0,P|92:125|189:49,1,168.75,8|0,0:0|0:0,0:0:0:0:
231,16,80347,2,0,P|300:8|347:45,1,112.5,0|4,0:0|0:0,0:0:0:0:
416,220,80608,1,8,0:0:0:0:
416,220,80739,6,0,P|430:142|503:10,1,225,0|4,0:0|0:0,0:0:0:0:
341,122,81130,1,8,0:0:0:0:
504,248,81260,1,0,0:0:0:0:
315,342,81391,1,4,0:0:0:0:
315,342,81521,1,4,0:0:0:0:
224,162,81652,6,0,P|234:225|247:278,1,112.5,8|0,0:0|0:0,0:0:0:0:
53,378,81913,2,0,P|65:323|74:267,1,112.5,0|4,0:0|0:0,0:0:0:0:
248,145,82173,2,0,P|118:122|54:116,1,168.75,8|0,0:0|0:0,0:0:0:0:
24,37,82434,2,0,P|91:26|145:15,1,112.5,0|4,0:0|0:0,0:0:0:0:
308,65,82695,1,8,0:0:0:0:
187,234,82826,5,4,0:0:0:0:
187,234,82891,1,4,0:0:0:0:
187,234,82956,1,8,0:0:0:0:
81,118,83086,1,8,0:0:0:0:
318,170,83217,1,8,0:0:0:0:
68,115,83347,1,8,0:0:0:0:
330,172,83478,6,0,L|342:301,1,112.5,12|4,0:1|0:0,0:0:0:0:
358,384,83739,1,4,0:0:0:0:
358,384,83869,1,4,0:0:0:0:
176,224,83999,2,0,L|165:336,2,112.5,8|4|4,0:0|0:0|0:0,0:0:0:0:
193,108,84391,1,4,0:0:0:0:
58,211,84521,1,0,0:0:0:0:
307,168,84652,1,4,0:0:0:0:
321,177,85043,6,0,P|383:199|440:178,2,112.5,8|4|0,0:0|0:0|0:0,0:0:0:0:
190,92,85434,1,0,0:0:0:0:
463,108,85565,2,0,P|505:154|502:232,1,112.5,4|4,0:0|0:0,0:0:0:0:
477,303,85826,1,4,0:0:0:0:
477,303,85956,1,4,0:0:0:0:
317,346,86086,2,0,P|243:322|187:318,2,112.5,8|4|4,0:0|0:0|0:0,0:0:0:0:
413,384,86478,1,4,0:0:0:0:
185,354,86608,1,0,0:0:0:0:
402,244,86739,1,4,0:0:0:0:
420,249,87130,6,0,L|291:263,1,112.5,8|4,0:0|0:0,0:0:0:0:
190,206,87391,1,0,0:0:0:0:
70,286,87521,1,0,0:0:0:0:
70,286,87586,1,0,0:0:0:0:
70,286,87652,6,0,B|32:224|54:170|54:170|88:123|74:61,1,225,4|0,0:1|0:0,0:0:0:0:
11,6,88043,1,0,0:0:0:0:
183,73,88173,2,0,P|240:93|305:51,1,112.5,8|0,0:0|0:0,0:0:0:0:
445,25,88434,1,4,0:0:0:0:
445,25,88565,2,0,P|429:142|418:263,1,225,4|0,0:0|0:0,0:0:0:0:
294,210,88956,2,0,P|309:280|319:345,1,112.5,0|0,0:0|0:0,0:0:0:0:
33,171,89217,2,0,P|84:108|206:158,1,225,8|0,0:0|0:0,0:0:0:0:
419,248,89608,1,0,0:0:0:0:
419,248,89673,1,0,0:0:0:0:
419,248,89739,6,0,P|342:221|193:292,1,225,4|0,0:0|0:0,0:0:0:0:
159,351,90130,1,0,0:0:0:0:
59,264,90260,2,0,P|75:189|80:138,1,112.5,8|0,0:0|0:0,0:0:0:0:
176,27,90521,1,4,0:0:0:0:
176,27,90652,2,0,B|220:64|220:64|404:45,1,225,4|0,0:0|0:0,0:0:0:0:
501,164,91043,2,0,L|379:151,1,112.5,0|0,0:0|0:0,0:0:0:0:
184,273,91304,1,8,0:0:0:0:
184,273,91434,2,0,B|228:236|228:236|412:255,1,225,4|0,0:0|0:0,0:0:0:0:
506,384,91826,6,0,P|481:315|487:263,1,112.5,4|4,0:0|0:0,0:0:0:0:
505,150,92086,1,4,0:0:0:0:
505,150,92217,1,4,0:0:0:0:
360,110,92347,2,0,P|320:149|300:201,2,112.5,8|4|4,0:0|0:0|0:0,0:0:0:0:
461,45,92739,1,4,0:0:0:0:
246,59,92869,1,0,0:0:0:0:
481,43,92999,1,4,0:0:0:0:
501,41,93391,6,0,L|366:19,2,112.5,8|4|0,0:0|0:0|0:0,0:0:0:0:
512,168,93782,1,0,0:0:0:0:
451,288,93913,6,0,L|339:306,1,112.5,4|4,0:0|0:0,0:0:0:0:
242,331,94173,1,4,0:0:0:0:
242,331,94304,1,4,0:0:0:0:
172,232,94434,2,0,P|184:177|193:118,2,112.5,8|4|4,0:0|0:0|0:0,0:0:0:0:
127,353,94826,1,4,0:0:0:0:
339,306,94956,1,0,0:0:0:0:
114,358,95086,1,4,0:0:0:0:
101,363,95478,6,0,P|92:307|80:252,1,112.5,8|4,0:0|0:0,0:0:0:0:
24,143,95739,1,0,0:0:0:0:
24,143,95869,1,0,0:0:0:0:
172,232,95999,6,0,P|264:251|339:137,1,225,4|0,0:1|0:0,0:0:0:0:
324,54,96391,1,0,0:0:0:0:
455,127,96521,2,0,P|436:195|437:237,1,112.5,8|0,0:0|0:0,0:0:0:0:
469,374,96782,1,4,0:0:0:0:
469,374,96913,2,0,P|386:339|223:331,1,225,4|0,0:0|0:0,0:0:0:0:
37,244,97304,2,0,P|65:307|74:358,1,112.5,0|0,0:0|0:0,0:0:0:0:
199,85,97565,1,8,0:0:0:0:
199,85,97695,2,0,P|177:170|162:309,1,225,4|0,0:0|0:0,0:0:0:0:
343,305,98086,6,0,B|368:294|411:290|411:290|377:241|360:116,1,225,4|0,0:0|0:0,0:0:0:0:
410,45,98478,1,0,0:0:0:0:
182,99,98608,2,0,L|43:83,1,112.5,8|0,0:0|0:0,0:0:0:0:
18,244,98869,1,4,0:0:0:0:
18,244,98999,2,0,P|101:228|278:224,1,225,4|0,0:0|0:0,0:0:0:0:
286,370,99391,2,0,P|340:323|394:305,1,112.5,0|0,0:0|0:0,0:0:0:0:
476,224,99652,1,8,0:0:0:0:
476,224,99782,2,0,P|490:101|514:-3,1,225,4|0,0:0|0:0,0:0:0:0:
395,87,100173,6,0,P|338:142|215:98,1,202.500007724762,12|0,0:1|0:0,0:0:0:0:
168,41,100695,2,0,P|128:23|97:29,2,67.5000025749208,8|0|0,0:0|0:0|0:0,0:0:0:0:
227,114,101086,1,4,0:0:0:0:
166,194,101217,6,0,P|146:231|140:280,1,67.5000025749208,4|8,0:0|0:0,0:0:0:0:
204,339,101478,1,4,0:0:0:0:
273,282,101609,1,4,0:0:0:0:
345,342,101739,1,8,0:0:0:0:
414,263,101869,1,4,0:0:0:0:
414,263,101999,2,0,P|405:230|388:201,1,67.5000025749208,0|0,0:0|0:0,0:0:0:0:
461,163,102260,6,0,P|470:95|508:16,1,135.000005149842,4|4,0:0|0:0,0:0:0:0:
383,75,102652,1,0,0:0:0:0:
383,75,102782,2,0,P|315:107|249:73,1,135.000005149842,8|4,0:0|0:0,0:0:0:0:
152,42,103173,2,0,L|165:120,1,67.5000025749208,8|0,0:0|0:0,0:0:0:0:
46,172,103434,1,4,0:0:0:0:
60,82,103565,1,8,0:0:0:0:
136,188,103695,2,0,P|133:208|82:260,2,67.5000025749208,8|8|8,0:0|0:0|0:0,0:0:0:0:
262,87,104086,2,0,L|249:165,1,67.5000025749208,4|0,0:0|0:0,0:0:0:0:
297,306,104347,6,0,P|348:310|377:231,2,135.000005149842,12|0|8,0:1|0:0|0:0,0:0:0:0:
0,301,105260,5,4,0:0:0:0:
56,229,105391,1,4,0:0:0:0:
56,229,105521,2,0,P|94:239|126:264,1,67.5000025749208,8|4,0:0|0:0,0:0:0:0:
199,349,105782,1,4,0:0:0:0:
199,349,105913,2,0,P|210:308|210:273,1,67.5000025749208,8|4,0:0|0:0,0:0:0:0:
352,325,106173,1,0,0:0:0:0:
312,242,106304,1,0,0:0:0:0:
312,242,106434,6,0,P|301:201|297:147,1,67.5000025749208,4|0,0:0|0:0,0:0:0:0:
377,59,106695,2,0,L|471:70,1,67.5000025749208,8|0,0:0|0:0,0:0:0:0:
196,128,106956,2,0,L|102:139,1,67.5000025749208,8|4,0:0|0:0,0:0:0:0:
26,73,107217,1,0,0:0:0:0:
87,218,107347,1,4,0:0:0:0:
87,218,107478,2,0,P|90:284|51:345,2,135.000005149842,0|0|8,0:0|0:0|0:0,0:0:0:0:
12,63,108260,5,8,0:0:0:0:
116,131,108391,1,8,0:0:0:0:
1,57,108521,2,0,L|144:42,2,135.000005149842,12|0|8,0:1|0:0|0:0,0:0:0:0:
266,5,109434,5,4,0:0:0:0:
360,42,109565,1,4,0:0:0:0:
360,42,109695,2,0,L|347:120,1,67.5000025749208,8|4,0:0|0:0,0:0:0:0:
466,172,109956,1,4,0:0:0:0:
376,188,110086,2,0,P|379:208|430:260,2,67.5000025749208,8|8|8,0:0|0:0|0:0,0:0:0:0:
250,87,110478,1,8,0:0:0:0:
250,87,110608,6,0,L|263:165,1,67.5000025749208,4|4,0:0|0:0,0:0:0:0:
175,289,110869,2,0,L|186:222,1,67.5000025749208,8|0,0:0|0:0,0:0:0:0:
32,156,111130,2,0,L|175:139,1,135.000005149842,8|0,0:0|0:0,0:0:0:0:
276,241,111521,1,4,0:0:0:0:
165,304,111652,2,0,P|124:284|52:278,2,101.250003862381,8|8|8,0:0|0:0|0:0,0:0:0:0:
371,213,112173,2,0,P|330:233|258:239,2,101.250003862381,8|8|8,0:0|0:0|0:0,0:0:0:0:
467,342,112695,6,0,P|467:268|505:191,2,135.000005149842,12|0|8,0:1|0:0|0:0,0:0:0:0:
341,55,113608,5,4,0:0:0:0:
384,149,113739,1,4,0:0:0:0:
384,149,113869,2,0,L|365:232,2,67.5000025749208,8|4|4,0:0|0:0|0:0,0:0:0:0:
333,41,114260,2,0,P|299:20|211:57,2,135.000005149842,8|0|4,0:0|0:0|0:0,0:0:0:0:
343,247,115043,6,0,P|297:270|260:271,1,67.5000025749208,8|0,0:0|0:0,0:0:0:0:
82,192,115304,2,0,P|114:199|143:217,1,67.5000025749208,8|4,0:0|0:0,0:0:0:0:
192,311,115565,1,0,0:0:0:0:
240,175,115695,1,4,0:0:0:0:
373,332,115826,6,0,P|412:303|417:204,1,135.000005149842,0|0,0:0|0:0,0:0:0:0:
336,134,116217,1,4,0:0:0:0:
371,37,116347,2,0,L|445:22,1,67.5000025749208,8|0,0:0|0:0,0:0:0:0:
256,83,116608,1,8,0:0:0:0:
421,184,116739,1,8,0:0:0:0:
324,243,116869,6,0,B|243:252|276:306|184:312,1,153.000002918243,12|0,0:1|0:0,0:0:0:0:
83,263,117260,1,0,0:0:0:0:
83,263,117391,2,0,P|78:188|66:117,1,135.000005149842,8|0,0:0|0:0,0:0:0:0:
19,45,117782,1,4,0:0:0:0:
156,23,117913,1,4,0:0:0:0:
156,23,118043,2,0,L|142:103,1,67.5000025749208,8|4,0:0|0:0,0:0:0:0:
200,182,118304,1,4,0:0:0:0:
200,182,118434,2,0,P|236:182|271:162,1,67.5000025749208,8|4,0:0|0:0,0:0:0:0:
349,57,118695,2,0,L|363:137,1,67.5000025749208,0|0,0:0|0:0,0:0:0:0:
415,295,118956,6,0,P|421:237|464:167,1,135.000005149842,4|4,0:0|0:0,0:0:0:0:
459,171,119347,1,0,0:0:0:0:
462,369,119478,2,0,P|399:384|343:343,1,135.000005149842,8|4,0:0|0:0,0:0:0:0:
287,256,119869,1,8,0:0:0:0:
196,300,119999,2,0,P|183:333|177:379,1,67.5000025749208,0|4,0:0|0:0,0:0:0:0:
74,224,120260,2,0,P|87:257|93:303,1,67.5000025749208,8|8,0:0|0:0,0:0:0:0:
127,140,120521,1,8,0:0:0:0:
127,140,120652,2,0,P|94:125|55:125,2,67.5000025749208,8|0|0,0:0|0:0|0:0,0:0:0:0:
295,272,121043,6,0,P|313:212|351:137,1,135.000005149842,12|0,0:1|0:0,0:0:0:0:
183,15,121565,2,0,P|212:75|232:139,1,135.000005149842,8|0,0:0|0:0,0:0:0:0:
475,86,121956,1,4,0:0:0:0:
386,64,122086,1,4,0:0:0:0:
386,64,122217,2,0,L|298:47,1,67.5000025749208,8|4,0:0|0:0,0:0:0:0:
232,139,122478,1,4,0:0:0:0:
232,139,122608,2,0,L|144:122,1,67.5000025749208,8|4,0:0|0:0,0:0:0:0:
36,223,122869,1,0,0:0:0:0:
56,125,122999,1,0,0:0:0:0:
122,292,123130,6,0,L|210:275,1,67.5000025749208,4|0,0:0|0:0,0:0:0:0:
297,348,123391,2,0,P|317:299|338:265,1,67.5000025749208,8|0,0:0|0:0,0:0:0:0:
436,228,123652,2,0,P|420:197|408:166,1,67.5000025749208,8|4,0:0|0:0,0:0:0:0:
384,37,123913,1,0,0:0:0:0:
477,100,124043,1,4,0:0:0:0:
318,187,124173,6,0,B|278:162|278:162|175:172,1,135.000005149842,0|0,0:0|0:0,0:0:0:0:
92,285,124565,1,4,0:0:0:0:
92,285,124695,2,0,P|91:325|82:365,1,67.5000025749208,8|0,0:0|0:0,0:0:0:0:
41,208,124956,1,8,0:0:0:0:
181,309,125086,1,8,0:0:0:0:
28,196,125217,6,0,L|163:179,2,135.000005149842,12|0|8,0:1|0:0|0:0,0:0:0:0:
269,3,126130,5,4,0:0:0:0:
360,42,126261,1,4,0:0:0:0:
360,42,126391,2,0,L|347:120,1,67.5000025749208,8|4,0:0|0:0,0:0:0:0:
466,172,126652,1,4,0:0:0:0:
452,82,126783,1,8,0:0:0:0:
376,188,126913,2,0,P|379:208|430:260,2,67.5000025749208,4|0|0,0:0|0:0|0:0,0:0:0:0:
250,87,127304,6,0,L|263:165,1,67.5000025749208,4|0,0:0|0:0,0:0:0:0:
175,289,127565,2,0,L|186:222,1,67.5000025749208,8|0,0:0|0:0,0:0:0:0:
128,72,127826,2,0,P|145:127|77:74,1,204.749990627289,8|0,0:0|0:0,0:0:0:0:
47,53,128347,6,0,P|39:17|11:-11,2,56.9999984779358,8|8|8,0:0|0:0|0:0,0:0:0:0:
163,160,128608,2,0,P|186:175|214:179,2,56.9999984779358,8|8|8,0:0|0:0|0:0,0:0:0:0:
4,230,128869,1,8,0:0:0:0:
69,157,128999,1,8,0:0:0:0:
109,298,129130,2,0,P|107:283|105:270,1,27,4|0,0:0|0:0,0:0:0:0:
117,369,129391,6,0,P|131:263|162:159,1,216,12|0,0:1|0:0,0:0:0:0:
190,138,129652,2,0,P|159:241|144:348,1,216,8|0,0:1|0:0,0:0:0:0:
236,317,129913,6,0,P|308:288|392:288,1,144,12|0,0:1|0:0,0:0:0:0:
512,217,130173,2,0,P|440:212|374:185,1,144,8|0,0:1|0:0,0:0:0:0:
274,37,130434,2,0,L|283:202,1,144,6|0,0:1|0:0,0:0:0:0:
84,313,130695,2,0,L|91:169,1,144,8|0,0:1|0:0,0:0:0:0:
291,11,130956,2,0,L|302:207,1,144,12|0,0:1|0:0,0:0:0:0:
66,338,131217,2,0,L|75:168,1,144,8|0,0:1|0:0,0:0:0:0:
466,157,131478,6,0,P|387:144|284:135,1,144,12|0,0:1|0:0,0:0:0:0:
197,349,131739,2,0,P|117:356|15:374,1,144,8|0,0:1|0:0,0:0:0:0:
491,325,131999,2,0,P|415:298|315:271,1,144,12|0,0:1|0:0,0:0:0:0:
116,257,132260,1,8,0:1:0:0:
356,182,132391,1,0,0:0:0:0:
212,56,132521,2,0,P|210:126|227:53,1,216,6|0,0:1|0:0,0:0:0:0:
228,55,132782,6,0,P|224:103|224:157,1,99,8|0,0:1|0:0,0:0:0:0:
251,250,133565,6,0,P|247:170|257:17,1,216,12|0,0:1|0:0,0:0:0:0:
283,9,133826,2,0,P|275:116|279:224,1,216,8|0,0:1|0:0,0:0:0:0:
363,347,134086,2,0,L|537:369,1,144,12|0,0:1|0:0,0:0:0:0:
108,268,134347,2,0,L|250:249,1,144,8|0,0:1|0:0,0:0:0:0:
493,22,134608,6,0,B|330:57|406:150|227:150,1,288,6|8,0:1|0:1,0:0:0:0:
79,71,134999,1,0,0:0:0:0:
224,143,135130,2,0,P|251:223|263:316,1,144,12|0,0:1|0:0,0:0:0:0:
508,47,135391,2,0,P|484:114|471:185,1,144,8|0,0:1|0:0,0:0:0:0:
335,0,135652,2,0,L|353:175,1,144,12|0,0:1|0:0,0:0:0:0:
82,369,135913,2,0,L|96:225,1,144,8|0,0:1|0:0,0:0:0:0:
224,143,136173,5,12,0:1:0:0:
4,192,136304,1,0,0:0:0:0:
255,166,136434,1,8,0:1:0:0:
82,79,136565,1,0,0:0:0:0:
120,286,136695,6,0,P|129:207|149:130,1,144,6|0,0:1|0:0,0:0:0:0:
329,320,136956,2,0,P|303:244|289:166,1,144,8|0,0:1|0:0,0:0:0:0:
395,38,137217,2,0,P|386:117|366:194,1,144,12|0,0:1|0:0,0:0:0:0:
186,4,137478,2,0,P|211:79|225:157,1,144,8|0,0:1|0:0,0:0:0:0:
425,380,137739,6,0,P|343:336|213:367,1,216,12|0,0:1|0:0,0:0:0:0:
198,382,137999,2,0,P|119:341|167:247,1,216,8|0,0:1|0:0,0:0:0:0:
195,248,138260,2,0,P|210:178|205:107,1,144,12|0,0:1|0:0,0:0:0:0:
143,33,138521,1,8,0:1:0:0:
461,126,138652,1,0,0:0:0:0:
389,189,138782,6,0,P|384:260|399:330,1,144,6|0,0:1|0:0,0:0:0:0:
298,160,139043,1,8,0:1:0:0:
480,227,139173,1,0,0:0:0:0:
284,143,139304,2,0,P|193:145|103:170,1,144,12|0,0:1|0:0,0:0:0:0:
399,330,139565,2,0,P|327:330|256:316,1,144,8|0,0:1|0:0,0:0:0:0:
61,364,139826,6,0,P|96:285|100:215,1,144,12|0,0:1|0:0,0:0:0:0:
276,20,140086,2,0,P|299:88|298:160,1,144,8|0,0:1|0:0,0:0:0:0:
237,286,140347,1,12,0:1:0:0:
121,152,140478,1,0,0:0:0:0:
298,159,140608,1,8,0:1:0:0:
95,172,140739,1,0,0:0:0:0:
324,139,140869,6,0,L|343:309,1,144,6|0,0:1|0:0,0:0:0:0:
90,139,141130,2,0,L|71:309,1,144,8|0,0:1|0:0,0:0:0:0:
356,113,141391,2,0,L|375:283,1,144,12|0,0:1|0:0,0:0:0:0:
58,113,141652,1,8,0:1:0:0:
242,140,141782,1,8,0:1:0:0:
26,87,141913,6,0,P|138:67|231:110,1,216,12|0,0:1|0:0,0:0:0:0:
242,140,142173,2,0,P|214:225|311:193,1,216,8|0,0:1|0:0,0:0:0:0:
324,209,142434,2,0,P|340:139|391:84,1,144,12|0,0:1|0:0,0:0:0:0:
229,266,142695,1,8,0:1:0:0:
150,178,142826,1,0,0:0:0:0:
150,178,142956,6,0,P|133:101|92:33,1,144,6|0,0:1|0:0,0:0:0:0:
68,228,143217,1,8,0:1:0:0:
247,130,143347,1,0,0:0:0:0:
39,238,143478,2,0,P|20:344|-3:388,1,144,12|0,0:1|0:0,0:0:0:0:
115,40,143739,2,0,P|134:146|157:190,1,144,8|0,0:1|0:0,0:0:0:0:
329,340,143999,6,0,L|141:322,1,144,12|0,0:1|0:0,0:0:0:0:
390,116,144260,2,0,L|246:129,1,144,8|0,0:1|0:0,0:0:0:0:
426,266,144521,1,12,0:1:0:0:
230,237,144652,1,0,0:0:0:0:
444,251,144782,1,8,0:1:0:0:
244,257,144913,1,0,0:0:0:0:
350,192,145043,6,0,P|346:232|343:284,1,74.2500022659302,10|0,0:0|0:0,0:0:0:0:
329,340,145304,2,0,P|324:209|309:64,1,270,4|0,0:0|0:0,0:0:0:0:
114,150,145565,6,0,P|118:190|120:242,1,74.2500022659302,10|0,0:0|0:0,0:0:0:0:
135,298,145826,2,0,P|140:167|155:22,1,270,4|0,0:0|0:0,0:0:0:0:
167,52,146086,5,14,1:1:0:0:
171,66,146152,1,0,0:0:0:0:
183,77,146217,1,0,0:0:0:0:
197,83,146282,1,0,0:0:0:0:
212,81,146346,1,0,0:0:0:0:
226,73,146413,1,0,0:0:0:0:
235,60,146478,1,0,0:0:0:0:
237,45,146543,1,0,0:0:0:0:
223,30,146608,5,12,0:1:0:0:
204,53,146673,1,0,0:0:0:0:
197,83,146739,1,0,0:0:0:0:
204,112,146804,1,0,0:0:0:0:
223,136,146869,5,0,0:0:0:0:
241,162,146934,1,0,0:0:0:0:
249,193,146999,1,0,0:0:0:0:
241,225,147065,1,0,0:0:0:0:
222,258,147130,5,12,0:1:0:0:
241,225,147195,1,0,0:0:0:0:
287,198,147260,1,0,0:0:0:0:
339,209,147326,1,0,0:0:0:0:
362,240,147391,5,0,0:0:0:0:
389,256,147456,1,0,0:0:0:0:
421,249,147521,1,0,0:0:0:0:
440,223,147586,1,0,0:0:0:0:
445,200,147652,2,0,P|443:173|438:146,7,33.7500012874604,12|0|0|0|0|0|0|0,0:1|0:0|0:0|0:0|0:0|0:0|0:0|0:0,0:0:0:0:
441,105,148173,5,12,0:1:0:0:
436,119,148239,1,0,0:0:0:0:
425,130,148304,1,0,0:0:0:0:
410,136,148369,1,0,0:0:0:0:
396,134,148434,1,0,0:0:0:0:
382,126,148499,1,0,0:0:0:0:
373,113,148565,1,0,0:0:0:0:
370,98,148630,1,0,0:0:0:0:
405,79,148695,5,12,0:1:0:0:
398,105,148760,1,0,0:0:0:0:
382,126,148826,1,0,0:0:0:0:
357,139,148891,1,0,0:0:0:0:
329,138,148956,5,0,0:0:0:0:
294,138,149021,1,0,0:0:0:0:
265,152,149086,1,0,0:0:0:0:
244,178,149152,1,0,0:0:0:0:
237,218,149217,5,12,0:1:0:0:
227,168,149282,1,0,0:0:0:0:
192,134,149347,1,0,0:0:0:0:
143,126,149413,1,0,0:0:0:0:
99,148,149478,5,0,0:0:0:0:
77,159,149543,1,0,0:0:0:0:
51,154,149608,1,0,0:0:0:0:
34,137,149673,1,0,0:0:0:0:
28,113,149739,2,0,P|36:71|38:64,7,33.7500012874604,12|0|0|0|0|0|0|0,0:1|0:0|0:0|0:0|0:0|0:0|0:0|0:0,0:0:0:0:
106,28,150260,5,12,0:1:0:0:
126,32,150326,1,0,0:0:0:0:
143,44,150391,1,0,0:0:0:0:
153,61,150456,1,0,0:0:0:0:
155,82,150521,5,0,0:0:0:0:
149,93,150586,1,0,0:0:0:0:
144,104,150652,1,0,0:0:0:0:
143,117,150717,1,0,0:0:0:0:
142,133,150782,5,12,0:1:0:0:
170,155,150847,1,0,0:0:0:0:
206,160,150913,1,0,0:0:0:0:
238,143,150978,1,0,0:0:0:0:
256,112,151043,5,0,0:0:0:0:
288,85,151108,1,0,0:0:0:0:
329,80,151173,1,0,0:0:0:0:
365,99,151239,1,0,0:0:0:0:
386,134,151304,5,12,0:1:0:0:
343,103,151369,1,0,0:0:0:0:
291,114,151434,1,0,0:0:0:0:
264,160,151499,1,0,0:0:0:0:
281,210,151565,5,0,0:0:0:0:
294,248,151630,1,0,0:0:0:0:
274,284,151695,1,0,0:0:0:0:
237,292,151760,1,0,0:0:0:0:
211,272,151826,2,0,P|207:245|206:221,7,33.7500012874604,12|0|0|0|0|0|0|0,0:1|0:0|0:0|0:0|0:0|0:0|0:0|0:0,0:0:0:0:
140,193,152347,5,12,0:1:0:0:
130,211,152413,1,0,0:0:0:0:
124,232,152478,1,0,0:0:0:0:
123,253,152543,1,0,0:0:0:0:
127,273,152608,5,0,0:0:0:0:
134,287,152673,1,0,0:0:0:0:
138,304,152739,1,0,0:0:0:0:
139,321,152804,1,0,0:0:0:0:
136,337,152869,5,12,0:1:0:0:
105,356,152934,1,0,0:0:0:0:
69,354,152999,1,0,0:0:0:0:
40,330,153065,1,0,0:0:0:0:
32,295,153130,1,0,0:0:0:0:
47,262,153195,1,0,0:0:0:0:
78,244,153260,1,0,0:0:0:0:
115,248,153326,1,0,0:0:0:0:
141,274,153391,5,12,0:1:0:0:
184,304,153456,1,0,0:0:0:0:
237,299,153521,1,0,0:0:0:0:
276,263,153586,1,0,0:0:0:0:
282,210,153652,5,0,0:0:0:0:
287,171,153717,1,0,0:0:0:0:
314,145,153782,1,0,0:0:0:0:
348,141,153847,1,0,0:0:0:0:
376,159,153913,2,0,P|379:181|379:206,7,33.7500012874604,12|0|0|0|0|0|0|0,0:1|0:0|0:0|0:0|0:0|0:0|0:0|0:0,0:0:0:0:
416,259,154434,5,12,0:1:0:0:
411,245,154499,1,0,0:0:0:0:
400,234,154565,1,0,0:0:0:0:
385,229,154630,1,0,0:0:0:0:
370,231,154695,1,0,0:0:0:0:
356,238,154760,1,0,0:0:0:0:
348,251,154826,1,0,0:0:0:0:
345,267,154891,1,0,0:0:0:0:
360,282,154956,5,12,0:1:0:0:
379,259,155021,1,0,0:0:0:0:
385,229,155086,1,0,0:0:0:0:
379,200,155152,1,0,0:0:0:0:
360,176,155217,5,0,0:0:0:0:
342,150,155282,1,0,0:0:0:0:
334,118,155347,1,0,0:0:0:0:
342,86,155413,1,0,0:0:0:0:
361,54,155478,5,12,0:1:0:0:
342,86,155543,1,0,0:0:0:0:
296,113,155608,1,0,0:0:0:0:
244,102,155673,1,0,0:0:0:0:
221,72,155739,5,0,0:0:0:0:
194,56,155804,1,0,0:0:0:0:
162,62,155869,1,0,0:0:0:0:
143,88,155934,1,0,0:0:0:0:
138,112,155999,2,0,P|140:139|144:166,7,33.7500012874604,12|0|0|0|0|0|0|0,0:1|0:0|0:0|0:0|0:0|0:0|0:0|0:0,0:0:0:0:
183,225,156521,5,12,0:1:0:0:
193,233,156586,1,0,0:0:0:0:
209,237,156652,1,0,0:0:0:0:
224,234,156717,1,0,0:0:0:0:
236,224,156782,1,0,0:0:0:0:
243,210,156847,1,0,0:0:0:0:
244,195,156913,1,0,0:0:0:0:
236,179,156978,1,0,0:0:0:0:
204,191,157043,5,12,0:1:0:0:
236,215,157108,1,0,0:0:0:0:
276,209,157173,1,0,0:0:0:0:
303,179,157239,1,0,0:0:0:0:
300,138,157304,5,0,0:0:0:0:
297,105,157369,1,0,0:0:0:0:
317,82,157434,1,0,0:0:0:0:
348,77,157499,1,0,0:0:0:0:
385,97,157565,5,12,0:1:0:0:
348,129,157630,1,0,0:0:0:0:
300,138,157695,1,0,0:0:0:0:
254,117,157760,1,0,0:0:0:0:
228,75,157826,5,0,0:0:0:0:
201,52,157891,1,0,0:0:0:0:
168,46,157956,1,0,0:0:0:0:
142,60,158021,1,0,0:0:0:0:
130,85,158086,2,0,P|128:115|128:134,7,33.7500012874604,12|0|0|0|0|0|0|0,0:1|0:0|0:0|0:0|0:0|0:0|0:0|0:0,0:0:0:0:
66,165,158608,5,12,0:1:0:0:
76,156,158673,1,0,0:0:0:0:
91,152,158739,1,0,0:0:0:0:
107,155,158804,1,0,0:0:0:0:
119,166,158869,1,0,0:0:0:0:
126,179,158934,1,0,0:0:0:0:
127,194,158999,1,0,0:0:0:0:
119,210,159065,1,0,0:0:0:0:
88,206,159130,5,12,0:1:0:0:
127,194,159195,1,0,0:0:0:0:
165,209,159260,1,0,0:0:0:0:
185,245,159326,1,0,0:0:0:0:
180,285,159391,5,0,0:0:0:0:
174,315,159456,1,0,0:0:0:0:
190,342,159521,1,0,0:0:0:0:
219,354,159586,1,0,0:0:0:0:
250,345,159652,5,12,0:1:0:0:
256,295,159717,1,0,0:0:0:0:
263,245,159782,1,0,0:0:0:0:
269,195,159847,1,0,0:0:0:0:
276,145,159913,5,0,0:0:0:0:
280,178,159978,1,0,0:0:0:0:
284,209,160043,1,0,0:0:0:0:
289,242,160108,1,0,0:0:0:0:
293,274,160173,2,0,L|300:330,7,33.7500012874604,12|0|0|0|0|0|0|0,0:1|0:0|0:0|0:0|0:0|0:0|0:0|0:0,0:0:0:0:
329,356,160695,5,12,0:1:0:0:
322,345,160760,1,0,0:0:0:0:
321,329,160826,1,0,0:0:0:0:
327,313,160891,1,0,0:0:0:0:
338,303,160956,1,0,0:0:0:0:
353,299,161021,1,0,0:0:0:0:
368,300,161086,1,0,0:0:0:0:
382,311,161152,1,0,0:0:0:0:
368,333,161217,5,12,0:1:0:0:
338,303,161282,1,0,0:0:0:0:
325,264,161347,1,0,0:0:0:0:
332,223,161413,1,0,0:0:0:0:
356,190,161478,5,0,0:0:0:0:
380,166,161543,1,0,0:0:0:0:
390,135,161608,1,0,0:0:0:0:
384,102,161673,1,0,0:0:0:0:
361,57,161739,5,12,0:1:0:0:
313,33,161804,1,0,0:0:0:0:
261,44,161869,1,0,0:0:0:0:
226,85,161934,1,0,0:0:0:0:
224,139,161999,1,0,0:0:0:0:
223,177,162065,1,0,0:0:0:0:
197,206,162130,1,0,0:0:0:0:
160,214,162195,1,0,0:0:0:0:
126,197,162260,2,0,P|120:158|123:143,7,33.7500012874604,12|0|0|0|0|0|0|0,0:1|0:0|0:0|0:0|0:0|0:0|0:0|0:0,0:0:0:0:
138,121,162782,5,4,0:0:0:0:
109,281,163043,1,4,0:0:0:0:
43,41,163304,5,4,0:0:0:0:
72,201,163565,1,4,0:0:0:0:
365,120,163826,5,8,0:0:0:0:
336,280,164087,1,4,0:0:0:0:
270,200,164347,5,4,0:0:0:0:
299,360,164608,1,4,0:0:0:0:
504,95,164869,5,4,0:0:0:0:
344,124,165130,1,4,0:0:0:0:
414,243,165390,5,4,0:0:0:0:
254,214,165651,1,4,0:0:0:0:
367,353,165913,5,8,0:0:0:0:
122,333,166173,1,4,0:0:0:0:
142,88,166434,1,4,0:0:0:0:
385,108,166694,1,4,0:0:0:0:
385,108,166826,1,4,0:0:0:0:
385,108,166956,2,0,L|389:150,1,36,4|4,0:0|0:0,0:0:0:0:
122,333,167478,2,0,L|125:297,1,36,4|4,0:0|0:0,0:0:0:0:
397,252,167999,6,0,L|355:256,2,36,8|4|4,0:0|0:0|0:0,0:0:0:0:
248,271,168782,1,4,0:0:0:0:
451,353,169043,5,4,0:0:0:0:
395,158,169304,1,4,0:0:0:0:
351,330,169565,5,4,0:0:0:0:
407,135,169826,1,4,0:0:0:0:
467,334,170086,5,8,0:0:0:0:
266,246,170347,1,4,0:0:0:0:
500,223,170608,5,4,0:0:0:0:
247,231,170869,1,4,0:0:0:0:
451,353,171130,6,0,L|445:314,1,36,4|4,0:0|0:0,0:0:0:0:
227,210,171652,2,0,L|233:171,1,36,4|4,0:0|0:0,0:0:0:0:
426,26,172173,2,0,L|431:61,2,36,8|4|4,0:0|0:0|0:0,0:0:0:0:
451,162,172956,1,4,0:0:0:0:
101,90,173217,5,4,0:0:0:0:
261,119,173478,1,4,0:0:0:0:
191,238,173738,5,4,0:0:0:0:
351,209,173999,1,4,0:0:0:0:
238,348,174261,5,8,0:0:0:0:
483,328,174521,1,4,0:0:0:0:
463,83,174782,1,4,0:0:0:0:
220,103,175042,1,4,0:0:0:0:
220,103,175174,1,4,0:0:0:0:
220,103,175304,2,0,L|216:145,1,36,4|4,0:0|0:0,0:0:0:0:
483,328,175826,2,0,L|479:292,1,36,4|4,0:0|0:0,0:0:0:0:
245,237,176347,6,0,L|281:233,2,36,8|4|4,0:0|0:0|0:0,0:0:0:0:
142,250,177130,1,4,0:0:0:0:
290,111,177391,5,8,0:0:0:0:
299,138,177652,1,8,0:0:0:0:
308,165,177913,1,8,0:0:0:0:
317,192,178173,1,8,0:0:0:0:
326,219,178434,6,0,P|331:171|345:121,1,90,8|8,0:0|0:0,0:0:0:0:
452,0,178695,2,0,P|463:43|467:88,1,90,8|8,0:0|0:0,0:0:0:0:
330,317,178956,1,4,0:0:0:0:
330,317,179021,1,8,0:0:0:0:
330,317,179086,2,0,P|359:314|393:299,2,60,8|8|8,0:0|0:0|0:0,0:0:0:0:
230,323,179347,1,8,0:0:0:0:
168,248,179478,6,0,P|178:175|180:101,1,135.000005149842,4|4,0:1|0:0,0:0:0:0:
1,10,179739,2,0,P|11:82|13:156,1,135.000005149842,8|0,0:0|0:0,0:0:0:0:
5,273,179999,1,0,0:0:0:0:
5,273,180130,1,4,0:0:0:0:
101,58,180260,1,8,0:0:0:0:
101,58,180391,1,0,0:0:0:0:
222,182,180521,6,0,B|289:194|289:194|372:157,2,135.000005149842,4|4|8,0:0|0:0|0:0,0:0:0:0:
85,70,180913,1,0,0:0:0:0:
242,191,181043,2,0,P|253:259|217:341,1,135.000005149842,0|4,0:0|0:0,0:0:0:0:
123,210,181304,1,8,0:0:0:0:
291,73,181434,1,0,0:0:0:0:
291,73,181499,1,0,0:0:0:0:
291,73,181565,6,0,P|366:88|448:92,1,135.000005149842,4|4,0:0|0:0,0:0:0:0:
108,210,181826,2,0,P|183:195|265:191,1,135.000005149842,8|0,0:0|0:0,0:0:0:0:
153,72,182086,1,0,0:0:0:0:
246,281,182217,1,4,0:0:0:0:
295,56,182347,1,8,0:0:0:0:
123,210,182478,1,0,0:0:0:0:
352,186,182608,1,4,0:0:0:0:
140,64,182739,1,4,0:0:0:0:
366,194,182869,1,8,0:0:0:0:
110,220,182999,1,0,0:0:0:0:
383,207,183130,2,0,P|403:129|423:71,2,135.000005149842,0|4|8,0:0|0:0|0:0,0:0:0:0:
493,280,183521,1,0,0:0:0:0:
493,280,183586,1,0,0:0:0:0:
493,280,183652,6,0,B|349:267|380:379|240:372,1,270.000010299683,12|8,0:1|0:0,0:0:0:0:
133,285,184043,1,0,0:0:0:0:
242,131,184173,2,0,P|252:196|273:273,1,135.000005149842,0|4,0:0|0:0,0:0:0:0:
269,262,184434,1,8,0:0:0:0:
195,41,184565,1,0,0:0:0:0:
100,74,184695,2,0,P|82:139|72:205,1,135.000005149842,4|4,0:0|0:0,0:0:0:0:
350,6,184956,2,0,P|367:71|377:137,1,135.000005149842,8|0,0:0|0:0,0:0:0:0:
299,337,185217,2,0,P|219:329|256:179,1,270.000010299683,0|8,0:0|0:0,0:0:0:0:
473,163,185608,1,0,0:0:0:0:
473,163,185673,1,0,0:0:0:0:
473,163,185739,6,0,B|329:176|360:64|220:71,1,270.000010299683,4|8,0:0|0:0,0:0:0:0:
60,196,186130,1,0,0:0:0:0:
101,31,186260,2,0,B|142:71|142:71|151:158,1,135.000005149842,0|4,0:0|0:0,0:0:0:0:
149,148,186521,1,8,0:0:0:0:
473,163,186652,1,0,0:0:0:0:
377,156,186782,2,0,B|336:196|336:196|327:283,1,135.000005149842,4|4,0:0|0:0,0:0:0:0:
314,79,187043,1,8,0:0:0:0:
423,253,187173,5,8,0:0:0:0:
423,253,187239,1,0,0:0:0:0:
423,253,187304,1,8,0:0:0:0:
501,57,187434,1,8,0:0:0:0:
418,273,187565,1,4,0:0:0:0:
377,156,187695,1,4,0:0:0:0:
461,383,187826,6,0,P|394:369|328:359,1,135.000005149842,4|4,0:1|0:0,0:0:0:0:
65,273,188086,2,0,P|130:266|198:252,1,135.000005149842,8|0,0:0|0:0,0:0:0:0:
390,151,188347,1,0,0:0:0:0:
390,151,188478,1,4,0:0:0:0:
201,66,188608,1,8,0:0:0:0:
201,66,188739,1,0,0:0:0:0:
261,321,188869,6,0,P|292:263|275:200,2,135.000005149842,4|4|8,0:0|0:0|0:0,0:0:0:0:
156,363,189260,1,0,0:0:0:0:
327,250,189391,2,0,P|392:256|460:270,1,135.000005149842,0|4,0:0|0:0,0:0:0:0:
198,252,189652,1,8,0:0:0:0:
232,94,189782,1,0,0:0:0:0:
232,94,189847,1,0,0:0:0:0:
232,94,189913,6,0,P|297:87|365:73,1,135.000005149842,4|4,0:0|0:0,0:0:0:0:
64,231,190173,2,0,P|129:237|197:251,1,135.000005149842,8|0,0:0|0:0,0:0:0:0:
10,63,190434,1,0,0:0:0:0:
67,246,190565,1,4,0:0:0:0:
89,29,190695,1,8,0:0:0:0:
71,266,190826,1,0,0:0:0:0:
327,90,190956,5,4,0:0:0:0:
270,273,191087,1,4,0:0:0:0:
248,56,191217,1,8,0:0:0:0:
266,293,191348,1,0,0:0:0:0:
163,88,191478,2,0,L|325:74,2,135.000005149842,0|4|8,0:0|0:0|0:0,0:0:0:0:
76,289,191869,1,0,0:0:0:0:
76,289,191934,1,0,0:0:0:0:
78,289,191999,6,0,B|120:299|156:276|156:276|191:306|198:353|198:353|242:393|288:378,1,270.000010299683,12|8,0:1|0:0,0:0:0:0:
439,299,192391,1,0,0:0:0:0:
365,204,192521,2,0,P|346:128|346:67,1,135.000005149842,0|4,0:0|0:0,0:0:0:0:
345,71,192782,1,8,0:0:0:0:
473,192,192913,1,0,0:0:0:0:
230,123,193043,2,0,P|162:124|97:142,1,135.000005149842,4|4,0:0|0:0,0:0:0:0:
344,314,193304,2,0,P|278:296|211:294,1,135.000005149842,8|0,0:0|0:0,0:0:0:0:
0,315,193565,2,0,P|68:361|56:225,1,270.000010299683,0|8,0:0|0:0,0:0:0:0:
137,24,193956,1,0,0:0:0:0:
137,24,194021,1,0,0:0:0:0:
137,24,194086,6,0,B|146:65|123:101|123:101|153:136|200:143|200:143|240:187|226:234,1,270.000010299683,4|8,0:0|0:0,0:0:0:0:
205,380,194478,1,0,0:0:0:0:
318,231,194608,2,0,P|318:172|276:89,1,135.000005149842,0|4,0:0|0:0,0:0:0:0:
447,0,194869,2,0,L|410:149,1,135.000005149842,8|0,0:0|0:0,0:0:0:0:
463,335,195130,2,0,P|463:276|505:193,1,135.000005149842,4|4,0:0|0:0,0:0:0:0:
372,330,195391,2,0,P|309:342|220:286,1,135.000005149842,8|0,0:0|0:0,0:0:0:0:
132,215,195652,1,4,0:0:0:0:
132,215,195782,1,6,0:1:0:0:
