osu file format v14

[General]
AudioFilename: audio.mp3
AudioLeadIn: 0
PreviewTime: 162782
Countdown: 0
SampleSet: Drum
StackLeniency: 0.5
Mode: 0
LetterboxInBreaks: 0
WidescreenStoryboard: 0

[Editor]
Bookmarks: 33391,50086,83478,100173,104347,108521,112695,116869,121043,125217,129391,146086,162782,179478,197217
DistanceSpacing: 0.9
BeatDivisor: 2
GridSize: 32
TimelineZoom: 1.800001

[Metadata]
Title:Rat Race
TitleUnicode:Rat Race
Artist:Enter Shikari
ArtistUnicode:Enter Shikari
Creator:Hectic
Version:NORMAL
Source:
Tags:h4d0uk3n1 Ksardas TheMefisto LMT adioni electronicore post-hardcore alternative english rock
BeatmapID:2008554
BeatmapSetID:958005

[Difficulty]
HPDrainRate:3
CircleSize:4
OverallDifficulty:4
ApproachRate:6
SliderMultiplier:0.799999999999999
SliderTickRate:1

[Events]
//Background and Video events
0,0,"rats_rats_we_are_the_rats.jpg",0,0
//Break Periods
//Storyboard Layer 0 (Background)
//Storyboard Layer 1 (Fail)
//Storyboard Layer 2 (Pass)
//Storyboard Layer 3 (Foreground)
//Storyboard Layer 4 (Overlay)
//Storyboard Sound Samples

[TimingPoints]
0,260.869565217391,4,3,3,95,1,0
1043,-100,4,3,1,95,0,0
1304,-100,4,3,3,95,0,0
1956,-100,4,3,2,95,0,0
2217,-100,4,3,3,95,0,0
3652,-100,4,3,1,95,0,0
3913,-100,4,3,3,95,0,0
6130,-100,4,3,2,95,0,0
6391,-100,4,3,3,95,0,0
7565,-100,4,3,1,95,0,0
7826,-100,4,3,3,95,0,0
7956,-100,4,3,1,95,0,0
8347,-100,4,3,3,95,0,0
8869,-100,4,3,1,95,0,0
9130,-100,4,3,3,95,0,0
9913,-100,4,3,1,95,0,0
10304,-100,4,3,2,95,0,0
10565,-100,4,3,3,95,0,0
10956,-100,4,3,1,95,0,0
11217,-100,4,3,3,95,0,0
11999,-100,4,3,1,95,0,0
12130,-100,4,3,3,95,0,0
12260,-100,4,3,1,95,0,0
12391,-100,4,3,3,95,0,0
13043,-100,4,3,1,95,0,0
13304,-100,4,3,3,95,0,0
14086,-100,4,3,1,95,0,0
14478,-100,4,3,2,95,0,0
14739,-100,4,3,3,95,0,0
15130,-100,4,3,2,95,0,0
15391,-100,4,3,3,95,0,0
16043,-100,4,3,3,50,0,0
16108,-100,4,3,3,62,0,0
16173,-100,4,3,3,74,0,0
16304,-100,4,3,3,95,0,0
16695,-100,4,3,2,95,0,1
16826,-100,4,3,3,95,0,0
20869,-100,4,3,2,95,0,0
20999,-100,4,3,3,95,0,0
24391,-100,4,3,1,95,0,0
25043,-100,4,3,3,95,0,0
29217,-100,4,3,2,95,0,0
29347,-100,4,3,3,95,0,0
33391,-100,4,3,2,95,0,1
33521,-100,4,3,3,95,0,0
50086,-100,4,3,3,95,0,0
51130,-100,4,3,1,95,0,0
51391,-100,4,3,3,95,0,0
52043,-100,4,3,2,95,0,0
52304,-100,4,3,3,95,0,0
53739,-100,4,3,1,95,0,0
53999,-100,4,3,3,95,0,0
56217,-100,4,3,2,95,0,0
56478,-100,4,3,3,95,0,0
57652,-100,4,3,1,95,0,0
57913,-100,4,3,3,95,0,0
58043,-100,4,3,1,95,0,0
58434,-100,4,3,3,95,0,0
58956,-100,4,3,1,95,0,0
59217,-100,4,3,3,95,0,0
59999,-100,4,3,1,95,0,0
60391,-100,4,3,2,95,0,0
60652,-100,4,3,3,95,0,0
61043,-100,4,3,1,95,0,0
61304,-100,4,3,3,95,0,0
62086,-100,4,3,1,95,0,0
62217,-100,4,3,3,95,0,0
62347,-100,4,3,1,95,0,0
62478,-100,4,3,3,95,0,0
63130,-100,4,3,1,95,0,0
63391,-100,4,3,3,95,0,0
64173,-100,4,3,1,95,0,0
64565,-100,4,3,2,95,0,0
64826,-100,4,3,3,95,0,0
65217,-100,4,3,1,95,0,0
65478,-100,4,3,3,95,0,0
66130,-100,4,3,3,50,0,0
66195,-100,4,3,3,62,0,0
66260,-100,4,3,3,74,0,0
66391,-100,4,3,3,95,0,0
66782,-100,4,3,2,95,0,1
66913,-100,4,3,3,95,0,0
70956,-100,4,3,2,95,0,0
71086,-100,4,3,3,95,0,0
74478,-100,4,3,1,95,0,0
75130,-100,4,3,3,95,0,0
79304,-100,4,3,2,95,0,0
79434,-100,4,3,3,95,0,0
83478,-100,4,3,2,95,0,1
83608,-100,4,3,3,95,0,0
100173,-100,4,3,2,70,0,0
100304,-100,4,3,3,70,0,0
103695,-100,4,3,2,70,0,0
103956,-100,4,3,3,70,0,0
104347,-100,4,3,2,70,0,0
104478,-100,4,3,3,70,0,0
108521,-100,4,3,2,70,0,0
108652,-100,4,3,3,70,0,0
110217,-100,4,3,2,70,0,0
110608,-100,4,3,3,70,0,0
111847,-100,4,3,1,70,0,0
112173,-100,4,3,3,70,0,0
112369,-100,4,3,1,70,0,0
112695,-100,4,3,2,70,0,0
112826,-100,4,3,3,70,0,0
116869,-100,4,3,2,70,0,0
116999,-100,4,3,3,70,0,0
120391,-100,4,3,1,70,0,0
120652,-100,4,3,3,70,0,0
121043,-100,4,3,2,70,0,0
121173,-100,4,3,3,70,0,0
125217,-100,4,3,2,70,0,0
125347,-100,4,3,3,70,0,0
128347,-100,4,3,3,95,0,1
128695,-100,4,3,1,95,0,1
128869,-100,4,3,3,95,0,1
128999,-100,4,3,1,95,0,1
129130,-100,4,3,1,95,0,1
129260,-100,4,3,3,95,0,0
129391,-100,4,3,2,95,0,1
129521,-100,4,3,2,95,0,0
131478,-100,4,3,2,95,0,1
132782,-100,4,3,2,95,0,0
133565,-100,4,3,2,95,0,1
133695,-100,4,3,2,95,0,0
145043,-100,4,3,3,95,0,1
145304,-100,4,3,3,95,0,0
145565,-100,4,3,3,95,0,1
145826,-100,4,3,3,95,0,0
146086,-100,4,3,5,80,0,1
146152,-100,4,3,2,80,0,1
162782,-100,4,3,3,95,0,0
178434,-100,4,3,3,95,0,0
179478,-100,4,3,3,95,0,1
183652,-100,4,3,2,95,0,1
183782,-100,4,3,3,95,0,1
187173,-100,4,3,1,95,0,1
187826,-100,4,3,3,95,0,1
191999,-100,4,3,2,95,0,1
192130,-100,4,3,3,95,0,1
195782,-100,4,3,2,95,0,0

[Colours]
Combo1 : 253,136,19
Combo2 : 253,0,6

[HitObjects]
320,263,0,6,0,P|297:308|299:352,2,79.9999999999999,8|8|8,0:0|0:0|0:0,0:0:0:0:
353,250,652,1,8,0:0:0:0:
457,222,1043,2,0,P|480:175|486:125,1,79.9999999999999,8|0,0:3|0:0,0:0:0:0:
416,126,1565,2,0,P|391:81|349:47,1,79.9999999999999,8|0,0:0|0:0,0:0:0:0:
368,25,1956,6,0,P|338:62|258:50,1,120,12|8,0:1|0:0,0:0:0:0:
220,7,2608,1,8,0:0:0:0:
113,21,2999,1,8,0:0:0:0:
113,21,3130,2,0,L|15:32,1,79.9999999999999,8|8,0:0|0:0,0:0:0:0:
0,97,3652,1,8,0:0:0:0:
17,203,4043,1,8,0:0:0:0:
17,203,4173,6,0,L|4:306,2,79.9999999999999,8|8|8,0:0|0:0|0:0,0:0:0:0:
22,166,4826,1,8,0:0:0:0:
96,178,5086,1,8,0:0:0:0:
96,178,5217,2,0,L|204:190,1,79.9999999999999,8|8,0:0|0:0,0:0:0:0:
232,231,5739,2,0,L|325:226,1,79.9999999999999,8|0,0:0|0:0,0:0:0:0:
333,255,6130,6,0,L|463:265,1,120,12|8,0:1|0:0,0:0:0:0:
490,203,6782,2,0,L|448:191,1,40,8|8,0:0|0:0,0:0:0:0:
402,139,7173,2,0,L|351:144,1,40,8|8,0:0|0:0,0:0:0:0:
305,98,7565,2,0,P|298:63|303:39,1,40,10|10,0:0|0:0,0:0:0:0:
237,20,7956,2,0,P|227:41|222:65,1,40,6|6,0:0|0:0,0:0:0:0:
151,48,8347,6,0,L|49:39,2,79.9999999999999,4|8|8,0:0|0:0|0:0,0:0:0:0:
195,150,9260,1,8,0:0:0:0:
195,150,9391,2,0,L|298:145,1,79.9999999999999,8|8,0:0|0:0,0:0:0:0:
336,184,9913,2,0,P|385:193|424:230,1,79.9999999999999,8|0,0:0|0:0,0:0:0:0:
442,198,10304,6,0,P|434:246|448:353,1,120,12|8,0:1|0:0,0:0:0:0:
475,378,10956,1,8,0:0:0:0:
367,374,11347,1,8,0:0:0:0:
367,374,11478,2,0,P|313:376|258:387,1,79.9999999999999,8|8,0:0|0:0,0:0:0:0:
250,318,11999,2,0,P|194:304|161:276,1,79.9999999999999,8|8,0:0|0:0,0:0:0:0:
183,219,12521,6,0,L|194:118,2,79.9999999999999,8|8|8,0:0|0:0|0:0,0:0:0:0:
94,280,13434,1,8,0:0:0:0:
94,280,13565,2,0,L|101:393,1,79.9999999999999,8|8,0:0|0:0,0:0:0:0:
170,356,14086,2,0,L|282:363,1,79.9999999999999,8|0,0:0|0:0,0:0:0:0:
269,330,14478,6,0,L|408:320,1,120,12|8,0:1|0:0,0:0:0:0:
460,315,15130,1,8,0:0:0:0:
511,219,15521,1,8,0:0:0:0:
511,219,15652,2,0,P|493:175|493:125,1,79.9999999999999,8|8,0:0|0:0,0:0:0:0:
419,149,16173,2,0,L|371:144,2,40,8|8|8,0:0|0:0|0:0,0:0:0:0:
412,221,16695,5,12,0:1:0:0:
418,292,16956,1,8,0:0:0:0:
389,359,17217,2,0,L|302:376,1,79.9999999999999,0|8,0:0|0:0,0:0:0:0:
255,326,17739,2,0,L|167:320,1,79.9999999999999,4|8,0:0|0:0,0:0:0:0:
174,248,18260,2,0,L|170:148,1,79.9999999999999,0|8,0:0|0:0,0:0:0:0:
167,95,18782,5,4,0:0:0:0:
233,68,19043,1,8,0:0:0:0:
296,101,19304,2,0,L|289:197,1,79.9999999999999,0|8,0:0|0:0,0:0:0:0:
355,212,19826,2,0,L|362:303,1,79.9999999999999,4|8,0:0|0:0,0:0:0:0:
366,363,20347,2,0,L|250:358,1,79.9999999999999,0|8,0:0|0:0,0:0:0:0:
214,351,20869,5,12,0:1:0:0:
159,303,21130,2,0,L|62:310,2,79.9999999999999,8|0|8,0:0|0:0|0:0,0:0:0:0:
192,238,21913,2,0,L|293:241,1,79.9999999999999,0|8,0:0|0:0,0:0:0:0:
299,264,22304,2,0,L|431:256,1,120,0|8,0:0|0:0,0:0:0:0:
490,251,22956,5,4,0:0:0:0:
500,179,23217,2,0,L|511:97,2,79.9999999999999,8|0|8,0:0|0:0|0:0,0:0:0:0:
428,175,23999,2,0,L|320:164,1,79.9999999999999,0|8,0:0|0:0,0:0:0:0:
329,135,24391,2,0,L|185:140,1,120,8|4,0:0|0:0,0:0:0:0:
137,142,25043,5,4,0:0:0:0:
97,81,25304,1,8,0:0:0:0:
136,20,25565,2,0,P|180:9|235:19,1,79.9999999999999,0|8,0:0|0:0,0:0:0:0:
280,40,26086,2,0,P|322:56|376:47,1,79.9999999999999,4|8,0:0|0:0,0:0:0:0:
427,59,26608,2,0,P|468:70|499:103,1,79.9999999999999,0|8,0:0|0:0,0:0:0:0:
432,132,27130,5,4,0:0:0:0:
427,203,27391,1,8,0:0:0:0:
374,252,27652,2,0,P|334:259|289:251,1,79.9999999999999,0|8,0:0|0:0,0:0:0:0:
229,223,28173,2,0,P|171:213|119:223,1,79.9999999999999,4|8,0:0|0:0,0:0:0:0:
81,237,28695,1,0,0:0:0:0:
53,303,28956,1,8,0:0:0:0:
75,371,29217,5,12,0:1:0:0:
146,377,29478,2,0,L|237:383,2,79.9999999999999,8|0|8,0:0|0:0|0:0,0:0:0:0:
155,305,30260,2,0,L|165:221,1,79.9999999999999,0|8,0:0|0:0,0:0:0:0:
195,207,30652,2,0,L|192:60,1,120,0|8,0:0|0:0,0:0:0:0:
190,15,31304,5,4,0:0:0:0:
254,47,31565,2,0,P|298:49|347:41,2,79.9999999999999,8|0|8,0:0|0:0|0:0,0:0:0:0:
192,87,32347,2,0,P|153:96|96:130,1,79.9999999999999,0|8,0:0|0:0,0:0:0:0:
85,95,32739,2,0,P|56:130|21:210,1,120,4|8,0:0|0:0,0:0:0:0:
23,269,33391,6,0,P|81:278|196:333,2,160,12|8|0,0:1|0:0|0:0,0:0:0:0:
4,126,34956,2,0,P|4:105|9:77,1,40,8|4,0:0|0:0,0:0:0:0:
111,115,35478,6,0,P|158:120|279:100,2,160,4|8|0,0:0|0:0|0:0,0:0:0:0:
128,258,37043,2,0,P|127:287|122:307,1,40,8|4,0:0|0:0,0:0:0:0:
221,345,37565,6,0,P|248:284|271:185,1,160,4|8,0:1|0:0,0:0:0:0:
338,173,38347,2,0,P|346:226|348:353,1,160,4|0,0:0|0:0,0:0:0:0:
411,369,39130,2,0,P|440:352|512:343,1,79.9999999999999,8|0,0:0|0:0,0:0:0:0:
501,271,39652,6,0,P|433:201|429:135,1,160,4|8,0:0|0:0,0:0:0:0:
448,73,40434,2,0,P|407:114|285:110,1,160,4|0,0:0|0:0,0:0:0:0:
245,87,41217,2,0,P|214:78|150:80,1,79.9999999999999,8|0,0:0|0:0,0:0:0:0:
102,109,41739,5,4,0:0:0:0:
87,251,42260,1,8,0:0:0:0:
219,195,42782,1,0,0:0:0:0:
235,53,43304,2,0,L|242:1,1,40,8|4,0:0|0:0,0:0:0:0:
348,11,43826,5,4,0:0:0:0:
364,153,44347,1,8,0:0:0:0:
480,67,44869,1,0,0:0:0:0:
496,209,45391,2,0,L|503:261,1,40,8|4,0:0|0:0,0:0:0:0:
442,339,45913,6,0,P|393:304|266:294,1,160,4|8,0:1|0:0,0:0:0:0:
270,220,46695,2,0,P|206:234|103:310,1,160,4|0,0:0|0:0,0:0:0:0:
93,348,47478,2,0,P|91:278|80:241,1,79.9999999999999,8|0,0:0|0:0,0:0:0:0:
60,202,47999,6,0,P|55:139|72:21,1,160,4|8,0:0|0:0,0:0:0:0:
137,55,48782,2,0,P|140:102|231:71,1,160,4|0,0:0|0:0,0:0:0:0:
225,19,49565,1,8,0:0:0:0:
296,7,49826,1,8,0:0:0:0:
362,33,50086,6,0,P|420:34|475:21,2,79.9999999999999,8|8|8,0:0|0:0|0:0,0:0:0:0:
342,64,50739,1,8,0:0:0:0:
434,120,51130,2,0,P|451:164|455:225,1,79.9999999999999,8|4,0:0|0:0,0:0:0:0:
388,222,51652,2,0,P|371:283|343:324,1,79.9999999999999,8|0,0:0|0:0,0:0:0:0:
375,331,52043,6,0,L|243:322,1,120,12|8,0:1|0:0,0:0:0:0:
198,366,52695,1,8,0:0:0:0:
92,375,53086,1,8,0:0:0:0:
92,375,53217,2,0,L|87:289,1,79.9999999999999,8|8,0:0|0:0,0:0:0:0:
83,222,53739,1,8,0:0:0:0:
186,192,54130,1,8,0:0:0:0:
186,192,54260,6,0,L|195:94,2,79.9999999999999,8|8|8,0:0|0:0|0:0,0:0:0:0:
183,228,54913,1,8,0:0:0:0:
252,261,55173,1,8,0:0:0:0:
252,261,55304,2,0,L|257:356,1,79.9999999999999,8|8,0:0|0:0,0:0:0:0:
327,329,55826,2,0,L|419:343,1,79.9999999999999,8|0,0:0|0:0,0:0:0:0:
432,365,56217,6,0,P|425:315|494:258,1,120,12|8,0:1|0:0,0:0:0:0:
503,202,56869,2,0,L|501:153,1,40,8|8,0:0|0:0,0:0:0:0:
443,119,57260,2,0,L|448:59,1,40,8|8,0:0|0:0,0:0:0:0:
381,46,57652,2,0,P|360:52|334:49,1,40,10|10,0:0|0:0,0:0:0:0:
299,109,58043,2,0,P|269:114|236:135,1,40,6|6,0:0|0:0,0:0:0:0:
298,181,58434,6,0,L|306:296,2,79.9999999999999,4|8|8,0:0|0:0|0:0,0:0:0:0:
407,163,59347,1,8,0:0:0:0:
407,163,59478,2,0,L|415:73,1,79.9999999999999,8|8,0:0|0:0,0:0:0:0:
353,44,59999,2,0,P|321:67|275:60,1,79.9999999999999,8|0,0:0|0:0,0:0:0:0:
257,37,60391,6,0,L|133:32,1,120,12|8,0:1|0:0,0:0:0:0:
65,30,61043,1,8,0:0:0:0:
25,130,61434,1,8,0:0:0:0:
25,130,61565,2,0,P|18:181|22:229,1,79.9999999999999,8|8,0:0|0:0,0:0:0:0:
45,276,62086,1,8,0:0:0:0:
28,346,62347,1,8,0:0:0:0:
90,382,62608,6,0,P|136:372|193:374,1,79.9999999999999,8|8,0:0|0:0,0:0:0:0:
240,383,63130,1,8,0:0:0:0:
272,282,63521,1,8,0:0:0:0:
272,282,63652,2,0,P|262:236|243:208,1,79.9999999999999,8|8,0:0|0:0,0:0:0:0:
178,181,64173,2,0,P|200:135|249:95,1,79.9999999999999,8|0,0:0|0:0,0:0:0:0:
192,89,64565,6,0,L|346:101,1,120,12|8,0:1|0:0,0:0:0:0:
383,105,65217,1,8,0:0:0:0:
461,184,65608,1,8,0:0:0:0:
461,184,65739,2,0,L|454:278,1,79.9999999999999,8|8,0:0|0:0,0:0:0:0:
393,301,66260,2,0,L|386:389,1,79.9999999999999,8|8,0:0|0:0,0:0:0:0:
315,384,66782,6,0,P|269:358|223:350,1,79.9999999999999,12|8,0:1|0:0,0:0:0:0:
170,355,67304,1,0,0:0:0:0:
203,291,67565,2,0,P|160:258|122:246,1,79.9999999999999,8|4,0:0|0:0,0:0:0:0:
64,247,68086,1,8,0:0:0:0:
31,182,68347,2,0,P|70:159|140:147,1,79.9999999999999,0|8,0:0|0:0,0:0:0:0:
145,90,68869,6,0,P|198:106|244:102,1,79.9999999999999,4|8,0:0|0:0,0:0:0:0:
290,82,69391,1,0,0:0:0:0:
318,148,69652,2,0,P|366:154|402:171,1,79.9999999999999,8|4,0:0|0:0,0:0:0:0:
447,216,70173,1,8,0:0:0:0:
507,254,70434,2,0,P|492:294|488:336,1,79.9999999999999,0|8,0:0|0:0,0:0:0:0:
418,349,70956,5,12,0:1:0:0:
346,359,71217,2,0,L|265:372,2,79.9999999999999,8|0|8,0:0|0:0|0:0,0:0:0:0:
375,293,71999,2,0,L|379:185,1,79.9999999999999,0|8,0:0|0:0,0:0:0:0:
351,188,72391,2,0,L|346:41,1,120,0|8,0:0|0:0,0:0:0:0:
368,0,73043,5,4,0:0:0:0:
416,52,73304,2,0,P|462:63|523:59,2,79.9999999999999,8|0|8,0:0|0:0|0:0,0:0:0:0:
346,68,74086,2,0,P|296:72|245:91,1,79.9999999999999,0|8,0:0|0:0,0:0:0:0:
265,116,74478,2,0,P|228:149|192:220,1,120,8|4,0:0|0:0,0:0:0:0:
188,282,75130,5,4,0:0:0:0:
233,337,75391,1,8,0:0:0:0:
302,317,75652,2,0,P|345:328|384:356,1,79.9999999999999,0|8,0:0|0:0,0:0:0:0:
443,326,76173,2,0,P|437:285|420:239,1,79.9999999999999,4|8,0:0|0:0,0:0:0:0:
472,194,76695,2,0,P|477:141|498:95,1,79.9999999999999,0|8,0:0|0:0,0:0:0:0:
461,48,77217,5,4,0:0:0:0:
401,87,77478,2,0,P|356:91|306:82,1,79.9999999999999,8|0,0:0|0:0,0:0:0:0:
253,62,77999,1,8,0:0:0:0:
212,121,78260,2,0,P|158:112|122:114,1,79.9999999999999,4|8,0:0|0:0,0:0:0:0:
63,134,78782,1,0,0:0:0:0:
41,202,79043,1,8,0:0:0:0:
110,221,79304,5,12,0:1:0:0:
111,293,79565,2,0,P|67:313|33:339,2,79.9999999999999,8|0|8,0:0|0:0|0:0,0:0:0:0:
156,349,80347,2,0,P|213:349|265:361,1,79.9999999999999,0|8,0:0|0:0,0:0:0:0:
255,322,80739,2,0,P|305:323|387:300,1,120,0|8,0:0|0:0,0:0:0:0:
426,258,81391,5,4,0:0:0:0:
476,309,81652,2,0,P|488:350|487:392,2,79.9999999999999,8|0|8,0:0|0:0|0:0,0:0:0:0:
495,239,82434,2,0,P|504:190|525:146,1,79.9999999999999,0|8,0:0|0:0,0:0:0:0:
492,133,82826,2,0,L|343:139,1,120,4|8,0:0|0:0,0:0:0:0:
325,82,83478,6,0,P|209:72|165:46,2,160,12|8|0,0:1|0:0|0:0,0:0:0:0:
381,214,85043,2,0,P|359:224|340:238,1,40,8|4,0:0|0:0,0:0:0:0:
327,338,85565,6,0,P|314:260|280:188,2,160,4|8|0,0:0|0:0|0:0,0:0:0:0:
468,366,87130,2,0,P|476:336|480:303,1,40,8|4,0:0|0:0,0:0:0:0:
461,220,87652,6,0,P|446:162|440:36,1,160,4|8,0:1|0:0,0:0:0:0:
495,18,88434,2,0,P|445:35|319:41,1,160,4|0,0:0|0:0,0:0:0:0:
338,115,89217,2,0,P|346:167|366:224,1,79.9999999999999,8|0,0:0|0:0,0:0:0:0:
414,232,89739,6,0,P|321:244|237:280,1,160,4|8,0:0|0:0,0:0:0:0:
218,326,90521,2,0,P|216:255|189:140,1,160,4|0,0:0|0:0,0:0:0:0:
125,175,91304,2,0,P|94:152|55:146,1,79.9999999999999,8|0,0:0|0:0,0:0:0:0:
67,218,91826,5,4,0:0:0:0:
210,232,92347,1,8,0:0:0:0:
255,368,92869,1,0,0:0:0:0:
398,353,93391,2,0,L|448:348,1,40,8|4,0:0|0:0,0:0:0:0:
431,240,93913,5,4,0:0:0:0:
288,260,94434,1,8,0:0:0:0:
253,120,94956,1,0,0:0:0:0:
110,102,95478,2,0,L|58:96,1,40,8|4,0:0|0:0,0:0:0:0:
21,193,95999,6,0,P|41:243|46:354,1,160,4|8,0:1|0:0,0:0:0:0:
116,369,96782,2,0,P|167:356|280:385,1,160,4|0,0:0|0:0,0:0:0:0:
305,315,97565,2,0,P|351:312|391:290,1,79.9999999999999,8|0,0:0|0:0,0:0:0:0:
445,330,98086,6,0,P|414:280|407:150,1,160,4|8,0:0|0:0,0:0:0:0:
424,113,98869,2,0,P|394:54|331:116,1,160,4|0,0:0|0:0,0:0:0:0:
329,165,99652,2,0,P|309:194|246:193,1,79.9999999999999,8|0,0:0|0:0,0:0:0:0:
199,224,100173,6,0,P|62:240|117:366,1,320,12|4,0:1|0:0,0:0:0:0:
189,356,101478,1,4,0:0:0:0:
257,332,101739,2,0,P|314:341|353:358,1,79.9999999999999,8|0,0:0|0:0,0:0:0:0:
398,315,102260,6,0,P|417:267|426:204,1,79.9999999999999,4|4,0:0|0:0,0:0:0:0:
372,188,102782,2,0,P|362:136|340:83,1,79.9999999999999,8|4,0:0|0:0,0:0:0:0:
281,120,103304,2,0,P|224:90|178:76,1,79.9999999999999,0|8,0:0|0:0,0:0:0:0:
137,78,103826,1,8,0:0:0:0:
78,119,104086,1,4,0:0:0:0:
94,189,104347,6,0,B|205:238|313:155|416:204,1,320,12|4,0:1|0:0,0:0:0:0:
441,341,105913,1,8,0:0:0:0:
371,358,106173,1,0,0:0:0:0:
329,298,106434,6,0,P|267:314|162:372,1,160,4|8,0:0|0:0,0:0:0:0:
110,344,107217,1,0,0:0:0:0:
147,282,107478,2,0,P|150:222|137:169,1,79.9999999999999,0|0,0:0|0:0,0:0:0:0:
116,137,107999,1,8,0:0:0:0:
52,102,108260,1,8,0:0:0:0:
94,43,108521,6,0,B|173:25|277:49|409:126,1,320,12|4,0:1|0:0,0:0:0:0:
466,246,110086,1,8,0:0:0:0:
430,308,110347,1,8,0:0:0:0:
365,276,110608,6,0,P|299:279|253:300,1,79.9999999999999,4|8,0:0|0:0,0:0:0:0:
243,224,111130,2,0,P|293:198|351:190,1,79.9999999999999,8|0,0:0|0:0,0:0:0:0:
387,198,111652,2,0,P|343:188|304:147,1,79.9999999999999,8|0,0:0|0:0,0:0:0:0:
306,95,112173,1,8,0:0:0:0:
348,36,112434,1,0,0:0:0:0:
282,5,112695,6,0,B|335:39|353:127|336:321,1,320,12|4,0:1|0:0,0:0:0:0:
196,339,114260,1,8,0:0:0:0:
137,299,114521,1,0,0:0:0:0:
179,240,114782,6,0,P|187:176|178:54,1,160,4|8,0:0|0:0,0:0:0:0:
312,16,115826,2,0,P|340:74|365:197,1,160,0|8,0:0|0:0,0:0:0:0:
341,235,116608,1,8,0:0:0:0:
403,270,116869,6,0,P|345:268|60:315,1,320,12|4,0:1|0:0,0:0:0:0:
24,268,118173,1,4,0:0:0:0:
70,212,118434,2,0,P|71:164|58:106,1,79.9999999999999,8|0,0:0|0:0,0:0:0:0:
122,87,118956,6,0,P|140:42|184:4,1,79.9999999999999,4|4,0:0|0:0,0:0:0:0:
216,65,119478,2,0,P|266:65|312:77,1,79.9999999999999,8|4,0:0|0:0,0:0:0:0:
275,140,119999,2,0,P|303:179|315:224,1,79.9999999999999,0|8,0:0|0:0,0:0:0:0:
298,280,120521,1,8,0:0:0:0:
229,301,120782,1,0,0:0:0:0:
214,370,121043,6,0,P|150:232|-7:159,1,320,12|4,0:1|0:0,0:0:0:0:
92,45,122608,2,0,P|134:49|189:45,1,79.9999999999999,8|0,0:0|0:0,0:0:0:0:
179,119,123130,6,0,P|240:136|349:194,1,160,4|8,0:0|0:0,0:0:0:0:
381,224,123913,1,0,0:0:0:0:
313,249,124173,2,0,P|283:290|271:351,1,79.9999999999999,0|0,0:0|0:0,0:0:0:0:
319,373,124695,1,8,0:0:0:0:
390,378,124956,1,8,0:0:0:0:
441,328,125217,6,0,B|382:359|298:359|126:301,1,320,12|4,0:1|0:0,0:0:0:0:
126,158,126782,2,0,P|174:168|212:169,1,79.9999999999999,8|0,0:0|0:0,0:0:0:0:
265,130,127304,2,0,L|370:137,1,79.9999999999999,4|8,0:0|0:0,0:0:0:0:
415,149,127826,2,0,L|322:159,1,79.9999999999999,8|0,0:0|0:0,0:0:0:0:
313,226,128347,6,0,B|253:224|253:224|243:230|243:230|197:242|197:242|190:236|190:236|140:244|140:244|123:251|123:251|101:254|101:254|63:236,1,240,8|4,0:0|0:0,0:0:0:0:
79,173,129391,5,12,0:1:0:0:
93,102,129652,1,8,0:1:0:0:
126,38,129913,2,0,B|156:63|156:63|170:117,1,79.9999999999999,12|8,0:1|0:1,0:0:0:0:
235,121,130434,2,0,B|224:166|224:166|196:200,1,79.9999999999999,6|8,0:1|0:1,0:0:0:0:
181,261,130956,2,0,B|222:261|222:261|271:233,1,79.9999999999999,12|8,0:1|0:1,0:0:0:0:
299,183,131478,5,12,0:1:0:0:
365,155,131739,1,8,0:1:0:0:
403,215,131999,1,12,0:1:0:0:
474,217,132260,1,8,0:1:0:0:
504,282,132521,1,6,0:1:0:0:
456,336,132782,1,8,0:1:0:0:
456,336,133565,5,12,0:1:0:0:
391,304,133826,1,8,0:1:0:0:
320,318,134086,2,0,B|260:324|260:324|223:301,1,79.9999999999999,12|8,0:1|0:1,0:0:0:0:
182,274,134608,2,0,B|120:270|120:270|93:288,1,79.9999999999999,6|8,0:1|0:1,0:0:0:0:
50,326,135130,1,12,0:1:0:0:
9,266,135391,1,8,0:1:0:0:
55,210,135652,6,0,B|71:165|71:165|65:125,2,79.9999999999999,12|8|12,0:1|0:1|0:1,0:0:0:0:
123,233,136434,1,8,0:1:0:0:
191,256,136695,2,0,B|197:314|197:314|219:348,2,79.9999999999999,6|8|12,0:1|0:1|0:1,0:0:0:0:
261,239,137478,1,8,0:1:0:0:
317,283,137739,2,0,B|366:270|366:270|425:292,1,79.9999999999999,12|8,0:1|0:1,0:0:0:0:
407,350,138260,6,0,L|412:241,1,79.9999999999999,12|8,0:1|0:1,0:0:0:0:
471,231,138782,2,0,L|459:35,1,160,6|12,0:1|0:1,0:0:0:0:
454,0,139565,1,8,0:1:0:0:
394,40,139826,2,0,L|283:33,1,79.9999999999999,12|8,0:1|0:1,0:0:0:0:
242,31,140347,5,12,0:1:0:0:
199,89,140608,1,8,0:1:0:0:
217,158,140869,2,0,B|233:262|233:262|213:319,1,160,6|12,0:1|0:1,0:0:0:0:
145,294,141652,2,0,B|168:242|168:242|302:216,1,160,8|8,0:1|0:1,0:0:0:0:
339,236,142434,6,0,P|386:247|431:274,1,79.9999999999999,12|8,0:1|0:1,0:0:0:0:
458,318,142956,2,0,P|447:271|471:136,1,160,6|12,0:1|0:1,0:0:0:0:
497,99,143739,1,8,0:1:0:0:
425,98,143999,1,12,0:1:0:0:
380,41,144260,5,8,0:1:0:0:
308,37,144521,2,0,B|249:34|249:34|207:61,1,79.9999999999999,12|8,0:1|0:1,0:0:0:0:
159,36,145043,6,0,B|155:62|149:78|149:78|153:89|153:89|151:107|151:107|155:136,1,79.9999999999999,10|4,0:0|0:0,0:0:0:0:
178,181,145565,2,0,B|171:168|165:149|165:149|160:140|160:140|166:118|166:118|162:107|167:93,1,79.9999999999999,10|4,0:0|0:0,0:0:0:0:
233,84,146086,6,0,P|297:60|346:338,1,479.999999999999,14|12,1:1|0:1,0:0:0:0:
226,283,148173,2,0,P|161:278|62:306,3,160,12|12|12|12,0:1|0:1|0:1|0:1,0:0:0:0:
24,165,150260,6,0,P|127:158|481:298,1,479.999999999999,12|12,0:1|0:1,0:0:0:0:
354,374,152347,5,12,0:1:0:0:
210,381,152869,1,12,0:1:0:0:
155,247,153391,1,12,0:1:0:0:
14,214,153913,1,12,0:1:0:0:
26,70,154434,6,0,B|218:54|218:54|266:50|276:93|276:93|273:138|224:141|224:141|94:153,1,479.999999999999,12|12,0:1|0:1,0:0:0:0:
13,272,156521,2,0,L|189:286,1,160,12|12,0:1|0:1,0:0:0:0:
316,296,157565,2,0,L|475:308,1,160,12|12,0:1|0:1,0:0:0:0:
476,160,158608,6,0,B|332:47|184:271|23:129,1,479.999999999999,12|12,0:1|0:1,0:0:0:0:
125,27,160695,5,12,0:1:0:0:
258,80,161217,1,12,0:1:0:0:
293,219,161739,1,12,0:1:0:0:
220,343,162260,1,12,0:1:0:0:
65,329,162782,6,0,P|94:286|107:176,2,160,4|4|8,0:0|0:0|0:0,0:0:0:0:
115,380,164086,1,4,0:0:0:0:
181,351,164347,2,0,P|227:348|271:358,1,79.9999999999999,4|4,0:0|0:0,0:0:0:0:
310,302,164869,6,0,P|409:273|458:235,1,160,4|4,0:0|0:0,0:0:0:0:
463,95,165913,1,8,0:0:0:0:
396,120,166173,1,4,0:0:0:0:
339,74,166434,1,4,0:0:0:0:
271,99,166695,2,0,P|223:97|187:70,1,79.9999999999999,4|4,0:0|0:0,0:0:0:0:
249,30,167217,2,0,P|223:148|224:194,1,160,4|4,0:0|0:0,0:0:0:0:
295,184,167999,6,0,P|369:173|462:207,1,160,8|4,0:0|0:0,0:0:0:0:
355,307,169043,2,0,P|296:330|211:390,1,160,4|4,0:0|0:0,0:0:0:0:
80,337,170086,2,0,P|112:281|35:278,1,160,8|4,0:0|0:0,0:0:0:0:
19,125,171130,6,0,P|64:113|178:116,1,160,4|4,0:0|0:0,0:0:0:0:
296,196,172173,2,0,P|356:201|462:170,1,160,8|4,0:0|0:0,0:0:0:0:
508,42,173217,2,0,P|495:97|482:215,1,160,4|4,0:0|0:0,0:0:0:0:
464,342,174260,5,8,0:0:0:0:
396,316,174521,1,4,0:0:0:0:
397,243,174782,1,4,0:0:0:0:
335,205,175043,2,0,P|297:193|252:191,1,79.9999999999999,4|4,0:0|0:0,0:0:0:0:
207,138,175565,2,0,P|219:183|218:300,1,160,4|4,0:0|0:0,0:0:0:0:
147,285,176347,6,0,P|123:233|50:150,1,160,8|4,0:0|0:0,0:0:0:0:
139,37,177391,2,0,L|229:30,1,79.9999999999999,8|8,0:0|0:0,0:0:0:0:
268,82,177913,2,0,L|357:91,1,79.9999999999999,8|8,0:0|0:0,0:0:0:0:
418,101,178434,1,8,0:0:0:0:
433,171,178695,1,8,0:0:0:0:
376,215,178956,2,0,P|366:242|364:264,2,40,4|8|0,0:0|0:0|0:0,0:0:0:0:
438,251,179478,5,4,0:1:0:0:
463,318,179739,2,0,P|420:324|378:350,1,79.9999999999999,8|0,0:0|0:0,0:0:0:0:
329,382,180260,1,8,0:0:0:0:
282,327,180521,1,4,0:0:0:0:
211,343,180782,1,8,0:0:0:0:
140,356,181043,6,0,L|97:352,1,40,0|4,0:0|0:0,0:0:0:0:
72,285,181434,2,0,L|69:194,1,79.9999999999999,0|4,0:0|0:0,0:0:0:0:
64,132,181956,1,0,0:0:0:0:
135,122,182217,1,4,0:0:0:0:
176,180,182478,1,0,0:0:0:0:
247,187,182739,1,4,0:0:0:0:
292,242,182999,2,0,L|376:236,1,79.9999999999999,0|4,0:0|0:0,0:0:0:0:
461,174,183652,6,0,P|426:208|414:327,1,160,12|0,0:1|0:0,0:0:0:0:
445,376,184434,2,0,P|372:325|298:311,1,160,8|8,0:0|0:0,0:0:0:0:
268,249,185217,2,0,P|230:259|191:251,1,79.9999999999999,0|8,0:0|0:0,0:0:0:0:
138,201,185739,6,0,P|156:251|135:364,1,160,4|0,0:0|0:0,0:0:0:0:
76,322,186521,2,0,P|81:252|3:195,1,160,8|8,0:0|0:0,0:0:0:0:
0,126,187304,2,0,P|37:128|83:146,1,79.9999999999999,8|4,0:0|0:0,0:0:0:0:
122,87,187826,5,4,0:1:0:0:
193,79,188086,2,0,L|277:71,1,79.9999999999999,8|0,0:0|0:0,0:0:0:0:
328,118,188608,1,8,0:0:0:0:
399,123,188869,1,4,0:0:0:0:
412,193,189130,1,8,0:0:0:0:
353,235,189391,6,0,P|349:263|351:281,1,40,0|4,0:0|0:0,0:0:0:0:
369,344,189782,2,0,P|331:354|272:361,1,79.9999999999999,0|4,0:0|0:0,0:0:0:0:
226,327,190304,1,0,0:0:0:0:
155,340,190565,1,4,0:0:0:0:
143,268,190826,1,0,0:0:0:0:
134,196,191086,1,4,0:0:0:0:
195,157,191347,2,0,L|201:71,1,79.9999999999999,0|4,0:0|0:0,0:0:0:0:
300,35,191999,6,0,L|304:210,1,160,12|0,0:1|0:0,0:0:0:0:
372,215,192782,2,0,L|365:388,1,160,8|8,0:0|0:0,0:0:0:0:
293,368,193565,2,0,L|210:373,1,79.9999999999999,0|8,0:0|0:0,0:0:0:0:
176,310,194086,6,0,L|180:140,1,160,4|0,0:0|0:0,0:0:0:0:
107,141,194869,2,0,L|271:131,1,160,8|8,0:0|0:0,0:0:0:0:
328,93,195652,2,0,L|376:99,1,40,4|6,0:0|0:1,0:0:0:0:
