osu file format v14

[General]
AudioFilename: audio.mp3
AudioLeadIn: 0
PreviewTime: 162782
Countdown: 0
SampleSet: Drum
StackLeniency: 0.5
Mode: 0
LetterboxInBreaks: 0
WidescreenStoryboard: 1

[Editor]
Bookmarks: 16695,33391,50086,66782,83478,100173,129391,146086,162782
DistanceSpacing: 3
BeatDivisor: 4
GridSize: 32
TimelineZoom: 4.899998

[Metadata]
Title:Rat Race
TitleUnicode:Rat Race
Artist:Enter Shikari
ArtistUnicode:Enter Shikari
Creator:Hectic
Version:DISQUALIFIED
Source:
Tags:h4d0uk3n1 Ksardas TheMefisto LMT adioni electronicore post-hardcore alternative english rock
BeatmapID:2005910
BeatmapSetID:958005

[Difficulty]
HPDrainRate:6
CircleSize:4
OverallDifficulty:9.6
ApproachRate:10
SliderMultiplier:1.8
SliderTickRate:1

[Events]
//Background and Video events
0,0,"rats_rats_we_are_the_rats.jpg",0,0
//Break Periods
//Storyboard Layer 0 (Background)
//Storyboard Layer 1 (Fail)
//Storyboard Layer 2 (Pass)
//Storyboard Layer 3 (Foreground)
//Storyboard Layer 4 (Overlay)
//Storyboard Sound Samples

[TimingPoints]
0,260.869565217391,4,3,3,95,1,0
1043,-100,4,3,1,95,0,0
1304,-100,4,3,3,95,0,0
1956,-100,4,3,2,95,0,0
2217,-100,4,3,3,95,0,0
3652,-100,4,3,1,95,0,0
3913,-100,4,3,3,95,0,0
6130,-100,4,3,2,95,0,0
6391,-100,4,3,3,95,0,0
7565,-100,4,3,1,95,0,0
7826,-100,4,3,3,95,0,0
7956,-100,4,3,1,95,0,0
8347,-100,4,3,3,95,0,0
8869,-100,4,3,1,95,0,0
9130,-100,4,3,3,95,0,0
9913,-100,4,3,1,95,0,0
10304,-100,4,3,2,95,0,0
10565,-100,4,3,3,95,0,0
10956,-100,4,3,1,95,0,0
11217,-100,4,3,3,95,0,0
11999,-100,4,3,1,95,0,0
12130,-100,4,3,3,95,0,0
12260,-100,4,3,1,95,0,0
12391,-100,4,3,3,95,0,0
13043,-100,4,3,1,95,0,0
13304,-100,4,3,3,95,0,0
14086,-100,4,3,1,95,0,0
14478,-100,4,3,2,95,0,0
14739,-100,4,3,3,95,0,0
15130,-100,4,3,2,95,0,0
15391,-100,4,3,3,95,0,0
16043,-100,4,3,3,50,0,0
16108,-100,4,3,3,62,0,0
16173,-100,4,3,3,74,0,0
16304,-100,4,3,3,95,0,0
16695,-80,4,3,2,95,0,1
16826,-80,4,3,3,95,0,0
18195,-80,4,3,3,5,0,0
18260,-80,4,3,3,95,0,0
20282,-80,4,3,3,5,0,0
20347,-80,4,3,3,95,0,0
20869,-80,4,3,2,95,0,0
20999,-80,4,3,3,95,0,0
24391,-80,4,3,1,95,0,0
25043,-80,4,3,3,95,0,0
28108,-80,4,3,3,5,0,0
28173,-80,4,3,3,95,0,0
28891,-80,4,3,3,5,0,0
28956,-80,4,3,3,95,0,0
29217,-80,4,3,2,95,0,0
29347,-80,4,3,3,95,0,0
33391,-80,4,3,2,95,0,1
33521,-80,4,3,3,95,0,0
39586,-80,4,3,3,5,0,0
39652,-80,4,3,3,95,0,0
41673,-80,4,3,3,5,0,0
41739,-80,4,3,3,95,0,0
47934,-80,4,3,3,5,0,0
47999,-80,4,3,3,95,0,0
50086,-100,4,3,3,95,0,0
51130,-100,4,3,1,95,0,0
51391,-100,4,3,3,95,0,0
52043,-100,4,3,2,95,0,0
52304,-100,4,3,3,95,0,0
53739,-100,4,3,1,95,0,0
53999,-100,4,3,3,95,0,0
56217,-100,4,3,2,95,0,0
56478,-100,4,3,3,95,0,0
57652,-100,4,3,1,95,0,0
57913,-100,4,3,3,95,0,0
58043,-100,4,3,1,95,0,0
58434,-100,4,3,3,95,0,0
58956,-100,4,3,1,95,0,0
59217,-100,4,3,3,95,0,0
59999,-100,4,3,1,95,0,0
60391,-100,4,3,2,95,0,0
60652,-100,4,3,3,95,0,0
61043,-100,4,3,1,95,0,0
61304,-100,4,3,3,95,0,0
62086,-100,4,3,1,95,0,0
62217,-100,4,3,3,95,0,0
62347,-100,4,3,1,95,0,0
62478,-100,4,3,3,95,0,0
63130,-100,4,3,1,95,0,0
63391,-100,4,3,3,95,0,0
64173,-100,4,3,1,95,0,0
64565,-100,4,3,2,95,0,0
64826,-100,4,3,3,95,0,0
65217,-100,4,3,1,95,0,0
65478,-100,4,3,3,95,0,0
66130,-100,4,3,3,50,0,0
66195,-100,4,3,3,62,0,0
66260,-100,4,3,3,74,0,0
66391,-100,4,3,3,95,0,0
66782,-80,4,3,2,95,0,1
66913,-80,4,3,3,95,0,0
70956,-80,4,3,2,95,0,0
71086,-80,4,3,3,95,0,0
74478,-80,4,3,1,95,0,0
75130,-80,4,3,3,95,0,0
79239,-80,4,3,3,5,0,0
79304,-80,4,3,2,95,0,0
79434,-80,4,3,3,95,0,0
83478,-80,4,3,2,95,0,1
83608,-80,4,3,3,95,0,0
89673,-80,4,3,3,5,0,0
89739,-80,4,3,3,95,0,0
91760,-80,4,3,3,5,0,0
91826,-80,4,3,3,95,0,0
98021,-80,4,3,3,5,0,0
98086,-80,4,3,3,95,0,0
100108,-80,4,3,3,5,0,0
100173,-133.333333333333,4,3,2,70,0,0
100304,-133.333333333333,4,3,3,70,0,0
103695,-133.333333333333,4,3,2,70,0,0
103956,-133.333333333333,4,3,3,70,0,0
104347,-133.333333333333,4,3,2,70,0,0
104478,-133.333333333333,4,3,3,70,0,0
108521,-133.333333333333,4,3,2,70,0,0
108652,-133.333333333333,4,3,3,70,0,0
110217,-133.333333333333,4,3,2,70,0,0
110608,-133.333333333333,4,3,3,70,0,0
111847,-133.333333333333,4,3,1,70,0,0
112173,-133.333333333333,4,3,3,70,0,0
112369,-133.333333333333,4,3,1,70,0,0
112695,-133.333333333333,4,3,2,70,0,0
112826,-133.333333333333,4,3,3,70,0,0
116869,-133.333333333333,4,3,2,70,0,0
116999,-133.333333333333,4,3,3,70,0,0
120391,-133.333333333333,4,3,1,70,0,0
120652,-133.333333333333,4,3,3,70,0,0
121043,-133.333333333333,4,3,2,70,0,0
121173,-133.333333333333,4,3,3,70,0,0
125217,-133.333333333333,4,3,2,70,0,0
125347,-133.333333333333,4,3,3,70,0,0
127239,-133.333333333333,4,3,3,5,0,0
127304,-133.333333333333,4,3,3,70,0,0
128282,-133.333333333333,4,3,3,5,0,0
128347,-133.333333333333,4,3,3,95,0,1
128695,-133.333333333333,4,3,1,95,0,1
128869,-133.333333333333,4,3,3,95,0,1
128999,-133.333333333333,4,3,1,95,0,1
129130,-500,4,3,1,95,0,1
129260,-500,4,3,3,95,0,0
129326,-500,4,3,3,5,0,0
129391,-50,4,3,2,95,0,1
129521,-50,4,3,2,95,0,0
129586,-50,4,3,2,5,0,0
129652,-50,4,3,2,95,0,0
131478,-50,4,3,2,95,0,1
132782,-500,4,3,2,95,0,0
132790,-500,4,2,2,15,0,0
132847,-500,4,3,2,22,0,0
132913,-500,4,2,2,30,0,0
132978,-500,4,3,2,40,0,0
133043,-500,4,2,2,50,0,0
133108,-500,4,3,2,60,0,0
133173,-500,4,2,2,70,0,0
133239,-500,4,3,2,80,0,0
133304,-500,4,2,2,90,0,0
133369,-500,4,3,2,100,0,0
133499,-500,4,3,2,5,0,0
133565,-50,4,3,2,95,0,1
133695,-50,4,3,2,95,0,0
133760,-50,4,3,2,5,0,0
133826,-50,4,3,2,95,0,0
134804,-50,4,3,2,5,0,0
134869,-50,4,3,2,95,0,0
135065,-50,4,3,2,5,0,0
135130,-50,4,3,2,95,0,0
136369,-50,4,3,2,5,0,0
136434,-50,4,3,2,95,0,0
137413,-50,4,3,2,5,0,0
137478,-50,4,3,2,95,0,0
137934,-50,4,3,2,5,0,0
137999,-50,4,3,2,95,0,0
138195,-50,4,3,2,5,0,0
138260,-50,4,3,2,95,0,0
138978,-50,4,3,2,5,0,0
139043,-50,4,3,2,95,0,0
139499,-50,4,3,2,5,0,0
139565,-50,4,3,2,95,0,0
141065,-50,4,3,2,5,0,0
141130,-50,4,3,2,95,0,0
141586,-50,4,3,2,5,0,0
141652,-50,4,3,2,95,0,0
142108,-50,4,3,2,5,0,0
142173,-50,4,3,2,95,0,0
142369,-50,4,3,2,5,0,0
142434,-50,4,3,2,95,0,0
143152,-50,4,3,2,5,0,0
143217,-50,4,3,2,95,0,0
143673,-50,4,3,2,5,0,0
143739,-50,4,3,2,95,0,0
144195,-50,4,3,2,5,0,0
144260,-50,4,3,2,95,0,0
145043,-28.5714285714286,4,3,3,95,0,1
145304,-28.5714285714286,4,3,3,95,0,0
145565,-28.5714285714286,4,3,3,95,0,1
145826,-28.5714285714286,4,3,3,95,0,0
146086,-133.333333333333,4,3,5,80,0,1
146152,-133.333333333333,4,3,2,80,0,1
162782,-333.333333333333,4,3,3,95,0,0
171065,-333.333333333333,4,3,3,5,0,0
171130,-333.333333333333,4,3,3,95,0,0
178434,-100,4,3,3,95,0,0
179478,-66.6666666666667,4,3,3,95,0,1
179608,-66.6666666666667,4,3,3,95,0,1
183652,-66.6666666666667,4,3,2,95,0,1
183782,-66.6666666666667,4,3,3,95,0,1
184630,-66.6666666666667,4,3,3,5,0,1
184695,-66.6666666666667,4,3,3,95,0,1
185673,-66.6666666666667,4,3,3,5,0,1
185739,-66.6666666666667,4,3,3,95,0,1
186717,-66.6666666666667,4,3,3,5,0,1
186782,-66.6666666666667,4,3,3,95,0,1
187108,-66.6666666666667,4,3,3,5,0,1
187173,-66.6666666666667,4,3,1,95,0,1
187826,-66.6666666666667,4,3,3,95,0,1
191999,-66.6666666666667,4,3,2,95,0,1
192130,-66.6666666666667,4,3,3,95,0,1
194021,-66.6666666666667,4,3,3,5,0,1
194086,-66.6666666666667,4,3,3,95,0,1
195782,-500,4,3,2,95,0,0

[Colours]
Combo1 : 253,136,19
Combo2 : 253,0,6

[HitObjects]
280,345,0,6,0,L|287:255,1,90,8|4,0:0|0:0,0:0:0:0:
336,107,260,2,0,L|343:197,1,90,8|4,0:0|0:0,0:0:0:0:
354,374,521,1,8,0:0:0:0:
194,296,652,2,0,P|143:301|104:325,2,90,8|4|4,0:0|0:0|0:0,0:0:0:0:
255,242,1043,5,8,0:3:0:0:
255,242,1173,2,0,P|305:250|349:237,1,90,8|0,0:0|0:0,0:0:0:0:
408,193,1434,1,4,0:0:0:0:
194,296,1565,6,0,L|190:340,1,45,8|0,0:0|0:0,0:0:0:0:
115,72,1695,2,0,L|106:117,1,45,8|0,0:0|0:0,0:0:0:0:
151,186,1826,2,0,L|147:222,1,22.5,0|0,0:0|0:0,0:0:0:0:
278,18,1956,6,0,B|240:43|240:43|231:178,1,180,12|4,0:1|0:0,0:0:0:0:
379,343,2347,5,8,0:0:0:0:
378,316,2412,1,8,0:0:0:0:
377,289,2477,1,8,0:0:0:0:
376,262,2542,1,8,0:0:0:0:
375,235,2607,1,8,0:0:0:0:
318,175,2739,2,0,L|321:86,1,90,4|0,0:0|0:0,0:0:0:0:
234,213,2999,1,8,0:0:0:0:
261,30,3130,6,0,P|217:21|176:38,1,90,8|4,0:0|0:0,0:0:0:0:
199,286,3391,2,0,P|242:294|283:277,1,90,8|4,0:0|0:0,0:0:0:0:
315,203,3652,1,8,0:0:0:0:
315,203,3782,1,8,0:0:0:0:
396,193,3913,1,4,0:0:0:0:
234,213,4043,1,8,0:0:0:0:
297,62,4173,6,0,P|298:18|275:-20,1,90,8|4,0:0|0:0,0:0:0:0:
156,190,4434,2,0,P|155:234|178:272,1,90,8|4,0:0|0:0,0:0:0:0:
364,290,4695,1,8,0:0:0:0:
127,335,4826,2,0,P|97:305|74:258,1,90,8|4,0:0|0:0,0:0:0:0:
84,80,5086,1,8,0:0:0:0:
178,272,5217,6,0,P|232:294|273:300,1,90,8|4,0:0|0:0,0:0:0:0:
406,378,5478,2,0,P|363:363|319:357,1,90,8|4,0:0|0:0,0:0:0:0:
108,385,5739,6,0,P|128:374|149:366,1,45,8|0,0:0|0:0,0:0:0:0:
44,191,5869,2,0,P|63:202|80:217,1,45,8|0,0:0|0:0,0:0:0:0:
51,296,5999,2,0,P|73:296|87:297,1,22.5,0|0,0:0|0:0,0:0:0:0:
72,11,6130,6,0,P|102:95|149:173,1,180,12|4,0:1|0:0,0:0:0:0:
0,122,6521,6,0,P|41:108|83:120,1,90,8|4,0:0|0:0,0:0:0:0:
0,269,6782,1,8,0:0:0:0:
148,171,6913,2,0,P|165:131|159:87,1,90,8|4,0:0|0:0,0:0:0:0:
268,252,7173,1,8,0:0:0:0:
83,120,7304,6,0,P|65:160|71:204,1,90,8|4,0:0|0:0,0:0:0:0:
268,252,7565,1,10,0:0:0:0:
95,282,7695,2,0,L|6:297,1,90,10|4,0:0|0:0,0:0:0:0:
210,308,7955,1,6,0:0:0:0:
83,201,8086,2,0,B|41:186|41:186|-7:193,1,90,6|0,0:0|0:0,0:0:0:0:
13,267,8347,6,0,L|6:345,2,60,4|4|4,0:0|0:0|0:0,0:0:0:0:
84,371,8608,2,0,L|92:281,1,90,8|4,0:0|0:0,0:0:0:0:
83,201,8869,1,8,0:0:0:0:
83,201,8999,1,8,0:0:0:0:
164,206,9130,1,4,0:0:0:0:
14,254,9260,1,8,0:0:0:0:
129,132,9391,6,0,P|132:87|111:23,1,90,8|4,0:0|0:0,0:0:0:0:
164,206,9652,2,0,P|171:260|197:307,1,90,8|4,0:0|0:0,0:0:0:0:
185,373,9913,6,0,L|255:364,1,45,8|0,0:0|0:0,0:0:0:0:
309,355,10043,2,0,L|353:349,1,45,8|0,0:0|0:0,0:0:0:0:
433,337,10173,2,0,L|469:331,1,22.5,0|0,0:0|0:0,0:0:0:0:
186,291,10304,6,0,B|157:289|134:309|134:309|63:299|25:255,1,180,12|4,0:1|0:0,0:0:0:0:
225,152,10695,6,0,P|186:173|165:211,1,90,8|4,0:0|0:0,0:0:0:0:
246,235,10956,1,8,0:0:0:0:
246,235,11086,1,8,0:0:0:0:
302,176,11217,1,4,0:0:0:0:
168,92,11347,1,8,0:0:0:0:
246,235,11478,6,0,P|249:298|232:357,1,90,8|4,0:0|0:0,0:0:0:0:
302,176,11739,2,0,P|319:121|348:81,1,90,8|4,0:0|0:0,0:0:0:0:
410,60,11999,1,8,0:0:0:0:
410,60,12130,1,4,0:0:0:0:
489,73,12260,1,8,0:0:0:0:
489,73,12391,1,4,0:0:0:0:
499,242,12521,6,0,L|494:153,1,90,8|4,0:0|0:0,0:0:0:0:
437,295,12782,2,0,L|433:384,1,90,8|4,0:0|0:0,0:0:0:0:
353,369,13043,1,8,0:0:0:0:
353,369,13173,1,8,0:0:0:0:
273,384,13304,1,4,0:0:0:0:
283,190,13434,1,8,0:0:0:0:
219,45,13565,6,0,L|224:135,1,90,8|4,0:0|0:0,0:0:0:0:
337,334,13826,2,0,L|342:245,1,90,8|4,0:0|0:0,0:0:0:0:
411,203,14086,6,0,P|393:182|364:166,1,45,8|0,0:0|0:0,0:0:0:0:
400,93,14217,2,0,P|372:90|340:100,1,45,8|0,0:0|0:0,0:0:0:0:
314,22,14347,2,0,P|293:40|287:50,1,22.5,0|0,0:0|0:0,0:0:0:0:
207,210,14478,6,0,P|192:122|203:33,1,180,12|4,0:1|0:0,0:0:0:0:
136,248,14869,6,0,P|122:291|89:320,1,90,8|4,0:0|0:0,0:0:0:0:
52,245,15130,1,8,0:0:0:0:
52,245,15260,1,8,0:0:0:0:
9,314,15391,1,4,0:0:0:0:
148,384,15521,1,8,0:0:0:0:
140,229,15652,6,0,P|153:178|188:126,1,90,8|4,0:0|0:0,0:0:0:0:
50,10,15913,2,0,P|77:45|93:87,1,90,8|8,0:0|0:0,0:0:0:0:
97,97,16108,1,8,0:0:0:0:
100,107,16173,1,8,0:0:0:0:
43,241,16304,1,8,0:0:0:0:
194,177,16435,1,8,0:0:0:0:
17,97,16565,1,8,0:0:0:0:
34,324,16695,5,12,0:1:0:0:
34,324,16826,1,4,0:0:0:0:
263,281,16956,2,0,B|314:303|314:303|338:358,1,112.5,8|0,0:0|0:0,0:0:0:0:
252,362,17217,2,0,P|243:320|256:238,1,112.5,0|4,0:0|0:0,0:0:0:0:
314,75,17478,1,8,0:0:0:0:
395,95,17608,1,0,0:0:0:0:
461,42,17739,6,0,P|419:93|403:169,1,112.5,4|4,0:0|0:0,0:0:0:0:
492,331,17999,2,0,P|448:260|378:216,1,168.75,8|0,0:0|0:0,0:0:0:0:
361,228,18260,2,0,P|285:222|222:228,1,112.5,0|4,0:0|0:0,0:0:0:0:
32,286,18521,1,8,0:0:0:0:
112,312,18652,1,0,0:0:0:0:
167,248,18782,5,4,0:0:0:0:
167,248,18913,1,4,0:0:0:0:
238,47,19043,2,0,L|244:160,1,112.5,8|0,0:0|0:0,0:0:0:0:
251,244,19304,2,0,L|256:356,1,112.5,0|4,0:0|0:0,0:0:0:0:
319,194,19565,1,8,0:0:0:0:
164,118,19695,1,0,0:0:0:0:
81,137,19826,6,0,B|137:130|137:130|188:152,1,112.5,4|4,0:0|0:0,0:0:0:0:
0,65,20086,2,0,L|185:41,1,168.75,8|0,0:0|0:0,0:0:0:0:
200,36,20347,2,0,P|211:101|196:170,1,112.5,0|4,0:0|0:0,0:0:0:0:
100,249,20608,1,8,0:0:0:0:
182,228,20739,1,0,0:0:0:0:
340,327,20869,5,12,0:1:0:0:
156,307,20999,1,4,0:0:0:0:
28,331,21130,2,0,L|165:320,1,112.5,8|0,0:0|0:0,0:0:0:0:
342,306,21391,2,0,L|454:296,1,112.5,0|4,0:0|0:0,0:0:0:0:
178,232,21652,2,0,L|291:238,1,112.5,8|0,0:0|0:0,0:0:0:0:
58,213,21913,2,0,L|170:218,1,112.5,0|4,0:0|0:0,0:0:0:0:
382,228,22173,1,8,0:0:0:0:
406,12,22304,2,0,L|388:276,1,225,0|4,0:0|0:0,0:0:0:0:
317,20,22695,2,0,L|309:133,1,112.5,8|0,0:0|0:0,0:0:0:0:
290,367,22956,5,4,0:0:0:0:
275,206,23086,1,4,0:0:0:0:
461,254,23217,2,0,L|349:246,1,112.5,8|0,0:0|0:0,0:0:0:0:
197,233,23478,2,0,L|84:224,1,112.5,0|4,0:0|0:0,0:0:0:0:
0,147,23739,2,0,L|112:138,1,112.5,8|0,0:0|0:0,0:0:0:0:
264,125,24000,2,0,L|376:116,1,112.5,0|4,0:0|0:0,0:0:0:0:
451,221,24260,1,8,0:0:0:0:
397,342,24391,5,8,0:0:0:0:
376,340,24456,1,8,0:0:0:0:
356,338,24521,1,8,0:0:0:0:
273,329,24652,1,8,0:0:0:0:
323,261,24782,1,4,0:0:0:0:
294,181,24913,1,4,0:0:0:0:
208,184,25043,5,4,0:0:0:0:
208,184,25173,1,4,0:0:0:0:
380,178,25304,1,8,0:0:0:0:
414,101,25434,1,0,0:0:0:0:
367,30,25565,2,0,L|254:24,1,112.5,0|4,0:0|0:0,0:0:0:0:
57,14,25826,2,0,L|170:20,1,112.5,8|0,0:0|0:0,0:0:0:0:
255,24,26086,5,4,0:0:0:0:
254,109,26217,1,4,0:0:0:0:
183,224,26347,1,8,0:0:0:0:
175,140,26478,1,0,0:0:0:0:
172,223,26608,2,0,B|165:335,1,112.5,0|4,0:0|0:0,0:0:0:0:
322,344,26869,1,8,0:0:0:0:
242,370,26999,1,0,0:0:0:0:
405,358,27130,5,4,0:0:0:0:
488,349,27260,1,4,0:0:0:0:
290,269,27391,1,8,0:0:0:0:
374,278,27521,1,0,0:0:0:0:
289,286,27652,2,0,L|168:298,1,112.5,0|4,0:0|0:0,0:0:0:0:
0,198,27913,2,0,L|168:212,1,168.75,8|0,0:0|0:0,0:0:0:0:
179,194,28173,6,0,P|222:196|306:155,1,112.5,4|4,0:0|0:0,0:0:0:0:
325,38,28434,1,8,0:0:0:0:
352,118,28565,1,0,0:0:0:0:
430,148,28695,2,0,P|392:213|387:320,1,168.75
389,325,28956,2,0,L|276:314,1,112.5,8|0,0:0|0:0,0:0:0:0:
40,293,29217,5,12,0:1:0:0:
206,361,29347,1,4,0:0:0:0:
123,138,29478,2,0,L|113:250,1,112.5,8|0,0:0|0:0,0:0:0:0:
105,17,29739,2,0,L|113:144,1,112.5,0|4,0:0|0:0,0:0:0:0:
121,268,29999,2,0,L|128:380,1,112.5,8|0,0:0|0:0,0:0:0:0:
223,61,30260,2,0,L|215:173,1,112.5,0|4,0:0|0:0,0:0:0:0:
204,322,30521,1,8,0:0:0:0:
512,293,30652,2,0,L|288:314,1,225,0|4,0:0|0:0,0:0:0:0:
29,261,31043,2,0,L|141:270,1,112.5,8|0,0:0|0:0,0:0:0:0:
355,288,31304,5,4,0:0:0:0:
165,350,31434,1,4,0:0:0:0:
294,228,31565,2,0,P|301:162|275:96,1,112.5,8|0,0:0|0:0,0:0:0:0:
366,274,31826,2,0,P|389:213|393:152,1,112.5,0|4,0:0|0:0,0:0:0:0:
215,198,32086,2,0,P|190:142|145:113,1,112.5,8|0,0:0|0:0,0:0:0:0:
418,344,32347,2,0,P|467:283|490:221,1,112.5,0|4,0:0|0:0,0:0:0:0:
445,24,32608,1,8,0:0:0:0:
429,161,32739,5,4,0:0:0:0:
429,161,32804,1,4,0:0:0:0:
429,161,32869,5,8,0:0:0:0:
503,370,32999,1,8,0:0:0:0:
424,166,33130,5,8,0:0:0:0:
498,375,33260,1,8,0:0:0:0:
280,334,33391,5,12,0:1:0:0:
314,257,33521,1,4,0:0:0:0:
235,225,33652,1,4,0:0:0:0:
156,195,33782,1,4,0:0:0:0:
161,20,33913,5,8,0:0:0:0:
154,103,34043,1,4,0:0:0:0:
147,186,34173,1,4,0:0:0:0:
92,251,34304,2,0,P|63:203|71:148,1,112.5,4|0,0:0|0:0,0:0:0:0:
27,76,34565,2,0,P|82:52|150:65,1,112.5,4|0,0:0|0:0,0:0:0:0:
132,57,34956,5,8,0:0:0:0:
113,344,35086,1,4,0:0:0:0:
113,344,35478,5,4,0:0:0:0:
189,310,35608,1,4,0:0:0:0:
181,225,35739,1,4,0:0:0:0:
173,141,35869,1,4,0:0:0:0:
259,5,35999,5,8,0:0:0:0:
254,89,36130,1,4,0:0:0:0:
250,173,36260,1,4,0:0:0:0:
290,247,36391,2,0,P|291:179|327:137,1,112.5,4|0,0:0|0:0,0:0:0:0:
393,110,36652,2,0,P|460:125|502:170,1,112.5,4|0,0:0|0:0,0:0:0:0:
491,153,37043,5,8,0:0:0:0:
181,120,37173,1,4,0:0:0:0:
181,120,37565,5,4,0:1:0:0:
54,32,37695,2,0,B|208:39|208:39|231:51|231:51|388:58,1,337.5,4|8,0:0|0:0,0:0:0:0:
388,58,38347,5,4,0:0:0:0:
500,138,38478,2,0,P|352:192|249:71,1,337.5,4|0,0:0|0:0,0:0:0:0:
249,71,39130,5,8,0:0:0:0:
39,17,39260,2,0,P|162:91|153:215,1,281.25,4|0,0:0|0:0,0:0:0:0:
146,229,39652,5,4,0:0:0:0:
45,146,39782,2,0,B|195:154|195:154|223:170|223:170|429:177,1,337.5,4|8,0:0|0:0,0:0:0:0:
377,175,40434,5,4,0:0:0:0:
467,103,40565,2,0,P|359:146|347:346,1,337.5,4|0,0:0|0:0,0:0:0:0:
346,344,41217,5,8,0:0:0:0:
179,290,41347,2,0,P|372:310|470:356,1,281.25,4|0,0:0|0:0,0:0:0:0:
465,352,41739,5,4,0:0:0:0:
499,275,41869,1,4,0:0:0:0:
439,215,41999,1,4,0:0:0:0:
433,130,42130,1,4,0:0:0:0:
322,4,42260,5,8,0:0:0:0:
388,58,42391,1,4,0:0:0:0:
334,122,42521,1,4,0:0:0:0:
268,68,42652,2,0,P|198:62|143:89,1,112.5,4|0,0:0|0:0,0:0:0:0:
95,21,42913,2,0,P|140:64|155:127,1,112.5,4|0,0:0|0:0,0:0:0:0:
154,110,43304,5,8,0:0:0:0:
108,365,43434,1,4,0:0:0:0:
108,365,43826,5,4,0:0:0:0:
117,281,43956,1,4,0:0:0:0:
127,197,44086,1,4,0:0:0:0:
137,112,44217,1,4,0:0:0:0:
92,9,44347,5,8,0:0:0:0:
33,70,44478,1,4,0:0:0:0:
32,154,44608,1,4,0:0:0:0:
91,214,44739,2,0,P|150:224|200:205,1,112.5,4|0,0:0|0:0,0:0:0:0:
247,137,44999,2,0,P|247:82|219:34,1,112.5,4|0,0:0|0:0,0:0:0:0:
219,34,45391,5,8,0:0:0:0:
235,321,45521,1,4,0:0:0:0:
235,321,45913,5,4,0:1:0:0:
373,354,46043,2,0,B|319:309|319:309|354:25,1,337.5,4|8,0:0|0:0,0:0:0:0:
351,43,46695,5,4,0:0:0:0:
483,74,46826,2,0,P|360:71|376:258,1,337.5,4|0,0:0|0:0,0:0:0:0:
356,246,47478,5,8,0:0:0:0:
419,160,47608,2,0,B|301:170|301:170|288:181|288:181|135:195,1,281.25,4|0,0:0|0:0,0:0:0:0:
129,197,47999,5,4,0:0:0:0:
205,24,48130,2,0,L|232:396,1,337.5,0|8,0:0|0:0,0:0:0:0:
229,360,48782,5,4,0:0:0:0:
353,308,48913,2,0,P|271:235|94:355,1,337.5,4|0,0:0|0:0,0:0:0:0:
97,333,49565,5,8,0:0:0:0:
25,289,49695,1,4,0:0:0:0:
47,123,49826,1,8,0:0:0:0:
36,206,49956,1,4,0:0:0:0:
221,254,50086,6,0,L|228:344,1,90,8|4,0:0|0:0,0:0:0:0:
411,361,50347,2,0,L|412:271,1,90,8|4,0:0|0:0,0:0:0:0:
416,74,50608,1,8,0:0:0:0:
243,170,50739,2,0,P|191:169|130:148,2,90,8|4|4,0:0|0:0|0:0,0:0:0:0:
233,89,51130,5,8,0:0:0:0:
233,89,51260,2,0,P|274:46|298:-8,2,90,8|4|4,0:0|0:0|0:0,0:0:0:0:
35,61,51652,6,0,L|22:104,1,45,8|0,0:0|0:0,0:0:0:0:
175,146,51783,2,0,L|177:190,1,45,8|0,0:0|0:0,0:0:0:0:
101,109,51913,2,0,L|98:145,1,22.5,0|0,0:0|0:0,0:0:0:0:
117,7,52043,6,0,L|94:214,1,180,12|4,0:1|0:0,0:0:0:0:
159,346,52434,5,8,0:0:0:0:
158,319,52499,1,8,0:0:0:0:
158,292,52564,1,8,0:0:0:0:
157,265,52629,1,8,0:0:0:0:
157,238,52695,1,8,0:0:0:0:
227,198,52826,2,0,P|271:203|305:231,1,90,4|0,0:0|0:0,0:0:0:0:
486,194,53086,1,8,0:0:0:0:
240,278,53217,6,0,P|212:334|199:388,1,90,8|4,0:0|0:0,0:0:0:0:
305,231,53478,2,0,P|293:174|297:109,1,90,8|4,0:0|0:0,0:0:0:0:
311,63,53739,1,8,0:0:0:0:
311,63,53869,1,8,0:0:0:0:
381,102,53999,1,4,0:0:0:0:
219,109,54130,1,8,0:0:0:0:
222,278,54260,6,0,L|220:189,1,90,8|4,0:0|0:0,0:0:0:0:
53,64,54521,2,0,L|141:87,1,90,8|4,0:0|0:0,0:0:0:0:
336,137,54782,1,8,0:0:0:0:
140,277,54913,2,0,L|134:366,1,90,8|4,0:0|0:0,0:0:0:0:
144,196,55173,1,8,0:0:0:0:
109,42,55304,6,0,P|95:85|95:130,1,90,8|4,0:0|0:0,0:0:0:0:
238,323,55565,2,0,P|232:279|215:238,1,90,8|4,0:0|0:0,0:0:0:0:
229,21,55826,6,0,L|223:89,1,45,8|0,0:0|0:0,0:0:0:0:
355,209,55956,2,0,L|367:252,1,45,8|0,0:0|0:0,0:0:0:0:
284,121,56086,2,0,L|287:159,1,22.5,0|0,0:0|0:0,0:0:0:0:
171,367,56217,6,0,B|205:329|205:329|215:200,1,180,12|4,0:1|0:0,0:0:0:0:
374,355,56608,2,0,L|288:333,1,90,8|4,0:0|0:0,0:0:0:0:
123,290,56869,1,8,0:0:0:0:
117,119,56999,2,0,L|120:209,1,90,8|4,0:0|0:0,0:0:0:0:
126,371,57260,1,8,0:0:0:0:
247,260,57391,6,0,L|349:270,1,90,8|4,0:0|0:0,0:0:0:0:
422,380,57652,1,10,0:0:0:0:
337,269,57782,2,0,P|331:224|346:183,1,90,10|4,0:0|0:0,0:0:0:0:
457,98,58043,1,6,0:0:0:0:
346,183,58173,2,0,B|301:188|301:188|260:173,1,90,6|0,0:0|0:0,0:0:0:0:
311,103,58434,6,0,L|318:28,2,60,4|4|4,0:0|0:0|0:0,0:0:0:0:
258,172,58695,2,0,L|263:261,1,90,8|4,0:0|0:0,0:0:0:0:
274,346,58956,1,8,0:0:0:0:
274,346,59086,1,8,0:0:0:0:
355,352,59217,1,4,0:0:0:0:
193,340,59347,1,8,0:0:0:0:
39,303,59478,6,0,P|81:289|125:290,1,90,8|4,0:0|0:0,0:0:0:0:
300,225,59739,2,0,P|291:268|267:307,1,90,8|4,0:0|0:0,0:0:0:0:
176,222,59999,6,0,P|191:237|202:258,1,45,8|0,0:0|0:0,0:0:0:0:
145,146,60130,2,0,P|166:140|189:142,1,45,8|0,0:0|0:0,0:0:0:0:
63,135,60261,2,0,P|69:113|78:94,1,30,0|0,0:0|0:0,0:0:0:0:
15,362,60391,6,0,P|17:272|0:185,1,180,12|4,0:1|0:0,0:0:0:0:
101,297,60782,2,0,P|138:311|207:322,1,90,8|4,0:0|0:0,0:0:0:0:
267,306,61043,1,8,0:0:0:0:
267,306,61173,1,8,0:0:0:0:
252,226,61304,1,4,0:0:0:0:
239,382,61434,1,8,0:0:0:0:
409,370,61565,6,0,L|499:364,1,90,8|4,0:0|0:0,0:0:0:0:
267,306,61826,2,0,L|356:307,1,90,8|4,0:0|0:0,0:0:0:0:
385,231,62086,1,8,0:0:0:0:
385,231,62217,1,4,0:0:0:0:
355,155,62347,1,8,0:0:0:0:
355,155,62478,1,4,0:0:0:0:
454,36,62608,6,0,P|448:81|428:121,1,90,8|4,0:0|0:0,0:0:0:0:
274,139,62869,2,0,P|225:155|195:178,1,90,8|4,0:0|0:0,0:0:0:0:
171,257,63130,1,8,0:0:0:0:
171,257,63260,1,8,0:0:0:0:
91,276,63391,1,4,0:0:0:0:
225,317,63521,1,8,0:0:0:0:
194,180,63652,6,0,P|196:157|201:135,3,45,8|0|4|0,0:0|0:0|0:0|0:0,0:0:0:0:
271,191,63913,2,0,P|274:168|282:147,3,45,8|0|4|0,0:0|0:0|0:0|0:0,0:0:0:0:
346,204,64173,6,0,P|356:183|370:167,1,45,8|0,0:0|0:0,0:0:0:0:
469,232,64304,2,0,P|446:233|424:229,1,45,8|0,0:0|0:0,0:0:0:0:
432,112,64434,2,0,P|444:131|451:150,1,30,0|0,0:0|0:0,0:0:0:0:
372,344,64565,6,0,P|384:255|371:167,1,180,12|4,0:1|0:0,0:0:0:0:
323,16,64956,2,0,P|310:58|318:102,1,90,8|4,0:0|0:0,0:0:0:0:
393,66,65217,1,8,0:0:0:0:
393,66,65347,1,8,0:0:0:0:
473,77,65478,1,4,0:0:0:0:
318,102,65608,1,8,0:0:0:0:
146,96,65739,2,0,L|236:97,1,90,8|4,0:0|0:0,0:0:0:0:
34,132,65999,5,8,0:0:0:0:
37,132,66064,1,0,0:0:0:0:
40,133,66129,1,8,0:0:0:0:
43,133,66194,1,8,0:0:0:0:
46,134,66259,1,8,0:0:0:0:
49,134,66325,1,0,0:0:0:0:
53,135,66390,1,8,0:0:0:0:
56,135,66455,1,0,0:0:0:0:
59,136,66520,1,8,0:0:0:0:
62,136,66585,1,0,0:0:0:0:
65,137,66651,1,8,0:0:0:0:
68,137,66716,1,0,0:0:0:0:
72,138,66782,6,0,B|114:100|114:100|107:40,1,112.5,12|4,0:1|0:0,0:0:0:0:
269,21,67043,1,8,0:0:0:0:
196,63,67173,1,0,0:0:0:0:
209,146,67304,2,0,L|228:257,1,112.5,0|4,0:0|0:0,0:0:0:0:
77,140,67565,6,0,B|119:102|119:102|112:42,1,112.5,8|0,0:0|0:0,0:0:0:0:
274,23,67826,1,4,0:0:0:0:
201,65,67956,1,4,0:0:0:0:
214,148,68087,2,0,L|233:259,1,112.5,8|0,0:0|0:0,0:0:0:0:
301,307,68347,5,0,0:0:0:0:
313,223,68478,1,4,0:0:0:0:
361,49,68608,2,0,L|371:162,1,112.5,8|0,0:0|0:0,0:0:0:0:
461,0,68869,6,0,L|452:112,1,112.5,4|4,0:0|0:0,0:0:0:0:
436,312,69130,1,8,0:0:0:0:
505,264,69260,1,0,0:0:0:0:
437,213,69391,2,0,B|399:173|399:173|426:93,1,112.5,0|4,0:0|0:0,0:0:0:0:
466,5,69652,6,0,L|457:117,1,112.5,8|0,0:0|0:0,0:0:0:0:
441,317,69913,1,4,0:0:0:0:
510,269,70043,1,4,0:0:0:0:
442,218,70174,2,0,B|404:178|404:178|431:98,1,112.5,8|0,0:0|0:0,0:0:0:0:
509,69,70434,5,0,0:0:0:0:
500,154,70565,1,4,0:0:0:0:
361,258,70695,2,0,L|226:267,1,112.5,8|0,0:0|0:0,0:0:0:0:
64,159,70956,5,12,0:1:0:0:
214,187,71086,1,4,0:0:0:0:
278,14,71217,2,0,P|282:70|272:126,1,112.5,8|0,0:0|0:0,0:0:0:0:
143,236,71478,2,0,P|127:289|132:345,1,112.5,0|4,0:0|0:0,0:0:0:0:
304,346,71739,2,0,P|257:316|224:271,1,112.5,8|0,0:0|0:0,0:0:0:0:
191,108,71999,2,0,P|170:48|127:0,1,112.5,0|4,0:0|0:0,0:0:0:0:
28,135,72260,1,8,0:0:0:0:
3,52,72391,2,0,P|100:90|88:194,1,225,0|4,0:0|0:0,0:0:0:0:
224,322,72782,2,0,P|176:295|155:245,1,112.5,8|0,0:0|0:0,0:0:0:0:
231,88,73042,5,4,0:0:0:0:
238,238,73173,1,4,0:0:0:0:
147,105,73303,2,0,P|154:50|193:10,1,112.5,8|0,0:0|0:0,0:0:0:0:
314,71,73564,2,0,P|306:125|267:165,1,112.5,0|4,0:0|0:0,0:0:0:0:
91,169,73825,2,0,P|48:102|48:34,1,112.5,8|0,0:0|0:0,0:0:0:0:
370,7,74086,2,0,P|413:74|413:142,1,112.5,0|4,0:0|0:0,0:0:0:0:
235,185,74347,1,8,0:0:0:0:
311,240,74478,5,8,0:0:0:0:
311,240,74543,1,8,0:0:0:0:
311,240,74608,2,0,B|329:188|329:188|304:129,1,112.5,8|8,0:0|0:0,0:0:0:0:
160,135,74869,2,0,B|142:187|142:187|167:246,1,112.5,4|4,0:0|0:0,0:0:0:0:
235,185,75130,5,4,0:0:0:0:
235,185,75260,1,4,0:0:0:0:
220,380,75391,1,8,0:0:0:0:
302,370,75521,1,0,0:0:0:0:
309,286,75652,2,0,L|319:174,1,112.5,0|4,0:0|0:0,0:0:0:0:
374,4,75913,2,0,L|380:117,1,112.5,8|0,0:0|0:0,0:0:0:0:
458,142,76173,5,4,0:0:0:0:
508,74,76304,1,4,0:0:0:0:
468,224,76434,1,8,0:0:0:0:
478,306,76565,1,0,0:0:0:0:
427,374,76695,2,0,P|373:378|327:347,2,112.5,0|4|8,0:0|0:0|0:0,0:0:0:0:
336,174,77086,6,0,B|406:125|465:207|393:247|393:247|388:268|393:295,1,225,0|4,0:0|0:0,0:0:0:0:
394,77,77478,6,0,P|338:82|287:105,1,112.5,8|0,0:0|0:0,0:0:0:0:
212,66,77739,2,0,P|155:67|101:55,1,112.5,0|4,0:0|0:0,0:0:0:0:
280,20,77999,1,8,0:0:0:0:
287,104,78130,1,0,0:0:0:0:
237,170,78260,6,0,L|232:288,1,112.5,4|4,0:0|0:0,0:0:0:0:
462,360,78521,2,0,L|458:248,1,112.5,8|0,0:0|0:0,0:0:0:0:
454,164,78782,1,0,0:0:0:0:
495,91,78913,1,4,0:0:0:0:
235,38,79043,2,0,L|404:49,1,168.75,8|0,0:0|0:0,0:0:0:0:
420,51,79304,5,12,0:1:0:0:
181,102,79434,1,4,0:0:0:0:
98,84,79565,2,0,P|151:98|196:132,1,112.5,8|0,0:0|0:0,0:0:0:0:
190,313,79826,2,0,P|219:266|228:211,1,112.5,0|4,0:0|0:0,0:0:0:0:
31,189,80086,2,0,L|144:198,1,112.5,8|0,0:0|0:0,0:0:0:0:
428,220,80347,2,0,L|316:212,1,112.5,0|4,0:0|0:0,0:0:0:0:
485,282,80608,1,8,0:0:0:0:
316,342,80739,2,0,B|278:307|278:307|294:120,1,225,0|4,0:0|0:0,0:0:0:0:
380,0,81130,2,0,L|374:111,1,112.5,8|0,0:0|0:0,0:0:0:0:
365,274,81391,5,4,0:0:0:0:
200,343,81521,1,4,0:0:0:0:
112,224,81652,2,0,P|167:233|217:260,1,112.5,8|0,0:0|0:0,0:0:0:0:
370,149,81913,2,0,P|327:185|297:232,1,112.5,0|4,0:0|0:0,0:0:0:0:
152,73,82173,2,0,P|204:134|228:184,1,112.5,8|0,0:0|0:0,0:0:0:0:
252,36,82434,2,0,P|228:117|221:179,1,112.5,0|4,0:0|0:0,0:0:0:0:
263,354,82695,1,8,0:0:0:0:
237,234,82826,1,4,0:0:0:0:
237,234,82891,1,4,0:0:0:0:
237,234,82956,5,8,0:0:0:0:
435,268,83086,1,8,0:0:0:0:
240,241,83217,5,8,0:0:0:0:
438,275,83347,1,8,0:0:0:0:
348,48,83478,5,12,0:1:0:0:
342,131,83608,1,4,0:0:0:0:
337,215,83739,1,4,0:0:0:0:
332,298,83869,1,4,0:0:0:0:
432,119,83999,5,8,0:0:0:0:
349,125,84129,1,4,0:0:0:0:
265,130,84260,1,4,0:0:0:0:
182,135,84391,2,0,B|154:104|154:104|172:35,1,112.5,4|0,0:0|0:0,0:0:0:0:
90,164,84652,2,0,B|118:194|118:194|127:288,1,112.5,4|0,0:0|0:0,0:0:0:0:
124,265,85043,5,8,0:0:0:0:
395,278,85173,1,4,0:0:0:0:
395,278,85565,5,4,0:0:0:0:
311,267,85695,1,4,0:0:0:0:
322,182,85826,1,4,0:0:0:0:
406,193,85956,1,4,0:0:0:0:
512,41,86086,5,8,0:0:0:0:
427,48,86217,1,4,0:0:0:0:
374,113,86347,1,4,0:0:0:0:
290,101,86478,2,0,P|256:58|274:-12,1,112.5,4|0,0:0|0:0,0:0:0:0:
171,60,86739,2,0,P|160:115|168:171,1,112.5,4|0,0:0|0:0,0:0:0:0:
167,170,87130,5,8,0:0:0:0:
442,144,87260,1,4,0:0:0:0:
442,144,87652,5,4,0:1:0:0:
412,14,87782,2,0,L|428:368,1,337.5,4|8,0:0|0:0,0:0:0:0:
427,351,88434,5,4,0:0:0:0:
512,211,88565,2,0,B|489:276|489:276|204:250,1,337.5,4|0,0:0|0:0,0:0:0:0:
221,251,89217,5,8,0:0:0:0:
308,111,89347,2,0,P|382:225|345:357,1,281.25,4|0,0:0|0:0,0:0:0:0:
331,371,89739,5,4,0:0:0:0:
512,306,89869,2,0,B|377:299|377:299|329:281|329:281|164:273,1,337.5,4|8,0:0|0:0,0:0:0:0:
178,273,90521,5,4,0:0:0:0:
42,99,90652,2,0,B|115:114|115:114|76:388,1,337.5,4|0,0:0|0:0,0:0:0:0:
77,374,91304,5,8,0:0:0:0:
218,284,91434,2,0,P|233:143|141:29,1,281.25,4|0,0:0|0:0,0:0:0:0:
144,27,91826,5,4,0:0:0:0:
220,60,91956,1,4,0:0:0:0:
301,82,92086,1,4,0:0:0:0:
385,91,92217,1,4,0:0:0:0:
276,1,92347,5,8,0:0:0:0:
213,56,92478,1,4,0:0:0:0:
164,124,92608,1,4,0:0:0:0:
132,202,92739,2,0,P|123:264|122:317,1,112.5,4|0,0:0|0:0,0:0:0:0:
30,262,92999,2,0,P|38:334|57:393,1,112.5,4|0,0:0|0:0,0:0:0:0:
48,372,93391,5,8,0:0:0:0:
340,331,93521,1,4,0:0:0:0:
340,331,93913,5,4,0:0:0:0:
423,318,94043,1,4,0:0:0:0:
494,273,94173,1,4,0:0:0:0:
409,268,94304,1,4,0:0:0:0:
219,190,94434,5,8,0:0:0:0:
302,205,94565,1,4,0:0:0:0:
384,186,94695,1,4,0:0:0:0:
309,226,94826,2,0,P|271:280|251:344,1,112.5,4|0,0:0|0:0,0:0:0:0:
182,366,95086,2,0,P|168:300|171:247,1,112.5,4|0,0:0|0:0,0:0:0:0:
169,255,95478,5,8,0:0:0:0:
233,11,95608,1,4,0:0:0:0:
233,11,95999,5,4,0:1:0:0:
250,228,96130,2,0,P|225:124|-21:74,1,337.5,4|8,0:0|0:0,0:0:0:0:
25,50,96782,5,4,0:0:0:0:
67,190,96913,2,0,B|77:121|77:121|350:102,1,337.5,4|0,0:0|0:0,0:0:0:0:
344,102,97565,5,8,0:0:0:0:
281,0,97695,2,0,P|264:83|291:293,1,281.25,4|0,0:0|0:0,0:0:0:0:
295,292,98086,5,4,0:0:0:0:
122,163,98217,2,0,L|472:195,1,337.5,4|8,0:0|0:0,0:0:0:0:
458,193,98869,5,4,0:0:0:0:
391,340,98999,2,0,B|367:288|367:288|391:68|391:68|429:23,1,337.5,4|0,0:0|0:0,0:0:0:0:
429,23,99652,5,8,0:0:0:0:
301,117,99782,2,0,P|162:109|35:166,1,281.25,4|0,0:0|0:0,0:0:0:0:
17,192,100173,6,0,P|66:217|155:338,1,202.500007724762,12|0,0:1|0:0,0:0:0:0:
136,170,100695,2,0,P|141:137|152:105,2,67.5000025749208,8|0|0,0:0|0:0|0:0,0:0:0:0:
209,200,101086,1,4,0:0:0:0:
209,200,101217,5,4,0:0:0:0:
193,354,101347,1,8,0:0:0:0:
269,375,101478,1,4,0:0:0:0:
269,375,101608,1,4,0:0:0:0:
117,384,101739,1,8,0:0:0:0:
132,312,101869,1,4,0:0:0:0:
132,312,102260,6,0,P|195:316|226:323,1,67.5000025749208,4|0,0:0|0:0,0:0:0:0:
270,339,102521,2,0,P|307:358|338:378,1,67.5000025749208,4|0,0:0|0:0,0:0:0:0:
207,287,102782,6,0,P|199:254|198:221,1,67.5000025749208,8|0,0:0|0:0,0:0:0:0:
263,186,103043,1,4,0:0:0:0:
130,188,103173,6,0,P|137:151|152:115,1,67.5000025749208,8|0,0:0|0:0,0:0:0:0:
222,123,103434,1,4,0:0:0:0:
100,65,103565,5,8,0:0:0:0:
26,75,103695,1,8,0:0:0:0:
26,75,103826,1,8,0:0:0:0:
33,228,103956,2,0,L|36:295,2,67.5000025749208,8|4|0,0:0|0:0|0:0,0:0:0:0:
83,166,104347,6,0,P|124:216|253:197,1,202.500007724762,12|0,0:1|0:0,0:0:0:0:
131,247,104869,2,0,P|103:274|89:313,2,67.5000025749208,8|0|0,0:0|0:0|0:0,0:0:0:0:
169,317,105260,1,4,0:0:0:0:
169,317,105391,5,4,0:0:0:0:
323,298,105521,1,8,0:0:0:0:
335,375,105652,1,4,0:0:0:0:
335,375,105782,1,4,0:0:0:0:
261,238,105913,1,8,0:0:0:0:
333,216,106043,1,4,0:0:0:0:
333,216,106434,6,0,L|337:283,1,67.5000025749208,4|0,0:0|0:0,0:0:0:0:
460,197,106695,2,0,P|430:184|397:178,1,67.5000025749208,8|0,0:0|0:0,0:0:0:0:
258,213,106956,1,8,0:0:0:0:
264,134,107086,2,0,L|268:57,1,67.5000025749208,4|0,0:0|0:0,0:0:0:0:
214,14,107347,1,4,0:0:0:0:
152,55,107478,6,0,P|86:48|50:15,2,101.250003862381,0|4|4,0:0|0:0|0:0,0:0:0:0:
192,184,107999,2,0,P|224:195|248:219,1,67.5000025749208,8|0,0:0|0:0,0:0:0:0:
266,351,108260,1,8,0:0:0:0:
186,260,108391,1,8,0:0:0:0:
248,218,108521,6,0,P|279:123|287:22,1,202.500007724762,12|0,0:1|0:0,0:0:0:0:
301,167,109043,2,0,P|328:204|368:233,2,67.5000025749208,8|0|0,0:0|0:0|0:0,0:0:0:0:
296,92,109434,1,4,0:0:0:0:
296,92,109565,5,4,0:0:0:0:
137,108,109695,1,8,0:0:0:0:
151,34,109826,1,4,0:0:0:0:
151,34,109956,1,4,0:0:0:0:
164,178,110086,1,8,0:0:0:0:
112,231,110217,2,0,L|108:325,2,67.5000025749208,8|8|8,0:0|0:0|0:0,0:0:0:0:
92,159,110608,5,4,0:0:0:0:
92,159,110739,1,4,0:0:0:0:
225,116,110869,2,0,P|236:83|237:50,1,67.5000025749208,8|0,0:0|0:0,0:0:0:0:
263,180,111130,2,0,P|269:221|290:268,2,67.5000025749208,8|0|0,0:0|0:0|0:0,0:0:0:0:
303,117,111521,1,4,0:0:0:0:
411,167,111652,6,0,L|517:171,2,101.250003862381,8|8|8,0:0|0:0|0:0,0:0:0:0:
369,283,112173,2,0,L|255:294,2,101.250003862381,8|8|8,0:0|0:0|0:0,0:0:0:0:
436,249,112695,6,0,B|410:202|356:206|356:206|250:216,1,202.500007724762,12|0,0:1|0:0,0:0:0:0:
398,183,113217,2,0,P|407:151|410:118,2,67.5000025749208,8|0|0,0:0|0:0|0:0,0:0:0:0:
336,226,113608,1,4,0:0:0:0:
336,226,113739,5,4,0:0:0:0:
325,368,113869,1,8,0:0:0:0:
251,356,113999,1,4,0:0:0:0:
251,356,114130,1,4,0:0:0:0:
262,214,114260,1,8,0:0:0:0:
336,226,114390,1,4,0:0:0:0:
336,226,114782,6,0,L|422:221,1,67.5000025749208,4|0,0:0|0:0,0:0:0:0:
427,92,115043,2,0,L|441:158,1,67.5000025749208,8|0,0:0|0:0,0:0:0:0:
465,268,115304,1,8,0:0:0:0:
403,308,115434,2,0,P|395:340|404:380,1,67.5000025749208,4|0,0:0|0:0,0:0:0:0:
469,342,115695,1,4,0:0:0:0:
401,373,115826,6,0,L|299:377,2,101.250003862381,0|4|4,0:0|0:0|0:0,0:0:0:0:
235,340,116347,2,0,L|167:338,1,67.5000025749208,8|0,0:0|0:0,0:0:0:0:
289,288,116608,1,8,0:0:0:0:
118,282,116739,1,8,0:0:0:0:
222,254,116869,6,0,L|424:247,1,202.500007724762,12|0,0:1|0:0,0:0:0:0:
289,288,117391,2,0,L|285:378,2,67.5000025749208,8|0|0,0:0|0:0|0:0,0:0:0:0:
330,226,117782,1,4,0:0:0:0:
330,226,117913,5,4,0:0:0:0:
319,77,118043,1,8,0:0:0:0:
245,73,118173,1,4,0:0:0:0:
245,73,118304,1,4,0:0:0:0:
390,54,118434,1,8,0:0:0:0:
395,128,118565,1,4,0:0:0:0:
395,128,118956,6,0,P|393:174|406:216,1,67.5000025749208,4|0,0:0|0:0,0:0:0:0:
444,252,119217,2,0,P|474:265|508:267,1,67.5000025749208,4|0,0:0|0:0,0:0:0:0:
381,211,119478,6,0,P|331:196|300:195,1,67.5000025749208,8|0,0:0|0:0,0:0:0:0:
243,212,119739,1,4,0:0:0:0:
312,92,119869,6,0,P|274:127|257:154,1,67.5000025749208,8|0,0:0|0:0,0:0:0:0:
243,212,120130,1,4,0:0:0:0:
174,93,120260,5,8,0:0:0:0:
185,171,120391,1,8,0:0:0:0:
185,171,120521,1,8,0:0:0:0:
316,197,120652,2,0,P|314:230|299:260,2,67.5000025749208,8|0|0,0:0|0:0|0:0,0:0:0:0:
243,212,121043,6,0,L|40:218,1,202.500007724762,12|0,0:1|0:0,0:0:0:0:
180,252,121565,2,0,L|180:319,2,67.5000025749208,8|0|0,0:0|0:0|0:0,0:0:0:0:
183,181,121956,1,4,0:0:0:0:
183,181,122086,5,4,0:0:0:0:
34,168,122217,1,8,0:0:0:0:
40,94,122347,1,4,0:0:0:0:
40,94,122477,1,4,0:0:0:0:
108,174,122608,1,8,0:0:0:0:
102,248,122739,1,4,0:0:0:0:
102,248,123130,6,0,P|106:290|137:331,1,67.5000025749208,4|0,0:0|0:0,0:0:0:0:
222,246,123391,2,0,P|226:212|245:182,1,67.5000025749208,8|0,0:0|0:0,0:0:0:0:
369,230,123652,1,8,0:0:0:0:
295,238,123782,2,0,P|307:270|331:293,1,67.5000025749208,4|0,0:0|0:0,0:0:0:0:
406,293,124043,1,4,0:0:0:0:
422,365,124173,6,0,P|472:365|520:379,2,101.250003862381,0|4|4,0:0|0:0|0:0,0:0:0:0:
299,384,124695,2,0,P|328:366|351:342,1,67.5000025749208,8|0,0:0|0:0,0:0:0:0:
369,228,124956,1,8,0:0:0:0:
422,365,125086,1,8,0:0:0:0:
406,293,125217,6,0,P|333:251|201:240,1,202.500007724762,12|0,0:1|0:0,0:0:0:0:
369,228,125739,2,0,P|407:204|434:164,2,67.5000025749208,8|0|0,0:0|0:0|0:0,0:0:0:0:
294,229,126130,1,4,0:0:0:0:
294,229,126260,5,4,0:0:0:0:
284,372,126391,1,8,0:0:0:0:
325,310,126521,1,4,0:0:0:0:
325,310,126652,1,4,0:0:0:0:
176,296,126782,1,8,0:0:0:0:
170,221,126913,6,0,B|170:154|170:154|195:122|195:122|210:34,1,168.750006437302,4|0,0:0|0:0,0:0:0:0:
217,50,127304,2,0,L|208:116,1,67.5000025749208,4|0,0:0|0:0,0:0:0:0:
188,300,127565,1,8,0:0:0:0:
188,300,127695,1,0,0:0:0:0:
320,378,127826,1,8,0:0:0:0:
320,378,127956,1,0,0:0:0:0:
391,336,128086,2,0,P|415:279|462:252,1,101.250003862381
466,225,128347,6,0,L|510:227,2,45.0000017166138,8|8|8,0:0|0:0|0:0,0:0:0:0:
444,146,128608,2,0,L|500:127,2,45.0000017166138,8|8|8,0:0|0:0|0:0,0:0:0:0:
370,169,128869,5,8,0:0:0:0:
192,199,128999,1,8,0:0:0:0:
44,118,129130,2,0,L|42:84,1,27,4|0,0:0|0:0,0:0:0:0:
46,9,129391,6,0,B|60:301,1,270,12|0,0:1|0:0,0:0:0:0:
45,359,129652,2,0,B|20:267|20:267|112:201,1,180,8|0,0:1|0:0,0:0:0:0:
336,323,129913,5,12,0:1:0:0:
112,302,130043,1,0,0:0:0:0:
378,211,130173,5,8,0:1:0:0:
77,224,130304,1,0,0:0:0:0:
32,42,130434,6,0,P|138:88|191:155,1,180,6|0,0:1|0:0,0:0:0:0:
479,120,130695,2,0,P|379:182|331:297,1,180,8|0,0:1|0:0,0:0:0:0:
212,384,130956,2,0,B|276:355|276:355|264:245,1,180,12|0,0:1|0:0,0:0:0:0:
9,282,131217,2,0,L|206:302,1,180,8|0,0:1|0:0,0:0:0:0:
438,322,131478,5,12,0:1:0:0:
357,34,131608,1,0,0:0:0:0:
327,315,131739,5,8,0:1:0:0:
312,112,131869,1,0,0:0:0:0:
247,358,131999,5,12,0:1:0:0:
245,19,132130,1,0,0:0:0:0:
175,298,132260,5,8,0:1:0:0:
196,90,132391,1,0,0:0:0:0:
40,158,132521,5,6,0:1:0:0:
393,122,132652,1,0,0:0:0:0:
511,205,132782,6,2,L|405:200,1,99,8|0,0:1|0:0,0:1:0:0:
405,214,133565,6,0,B|65:237,1,270,12|0,0:1|0:0,0:0:0:0:
63,193,133826,2,0,P|120:153|217:218,1,180,8|0,0:1|0:0,0:0:0:0:
328,356,134086,2,0,P|290:253|317:159,1,180,12|0,0:1|0:0,0:0:0:0:
324,5,134347,2,0,B|383:16|383:16|366:135,1,180,8|0,0:1|0:0,0:0:0:0:
192,92,134608,6,0,B|499:75,1,270,6|0,0:1|0:0,0:0:0:0:
508,144,134869,2,0,P|425:212|491:360,1,270,8|0,0:1|0:0,0:0:0:0:
503,274,135130,5,12,0:1:0:0:
248,315,135260,1,0,0:0:0:0:
457,207,135390,5,8,0:1:0:0:
209,197,135521,1,0,0:0:0:0:
400,0,135652,6,0,L|380:191,1,180,12|0,0:1|0:0,0:0:0:0:
365,366,135913,2,0,L|372:161,1,180,8|0,0:1|0:0,0:0:0:0:
468,76,136173,6,0,B|339:81|339:81|316:71|316:71|152:77,1,270,12|0,0:1|0:0,0:0:0:0:
139,20,136434,2,0,P|89:103|145:210,1,180,8|0,0:1|0:0,0:0:0:0:
339,231,136695,5,6,0:1:0:0:
40,255,136826,1,0,0:0:0:0:
325,340,136956,5,8,0:1:0:0:
84,331,137086,1,0,0:0:0:0:
260,198,137217,6,0,P|273:112|125:35,1,270,12|0,0:1|0:0,0:0:0:0:
126,114,137478,2,0,P|208:109|365:131,1,180,8|0,0:1|0:0,0:0:0:0:
486,333,137739,6,0,P|372:237|226:196,1,270,12|0,0:1|0:0,0:0:0:0:
244,278,137999,2,0,B|313:294|313:294|426:65,1,270,8|0,0:1|0:0,0:0:0:0:
444,45,138260,6,0,P|426:139|354:142,1,180,12|0,0:1|0:0,0:0:0:0:
129,54,138521,2,0,P|217:45|299:82,1,180,8|0,0:1|0:0,0:0:0:0:
46,354,138782,6,0,P|164:327|203:160,1,270,6|0,0:1|0:0,0:0:0:0:
174,126,139043,2,0,P|223:151|251:308,1,180,8|0,0:1|0:0,0:0:0:0:
461,15,139304,6,0,P|357:71|424:263,1,270,12|0,0:1|0:0,0:0:0:0:
425,252,139565,2,0,P|357:174|388:98,1,180,8|0,0:1|0:0,0:0:0:0:
473,346,139826,6,0,P|371:340|286:301,1,180,12|0,0:1|0:0,0:0:0:0:
74,294,140086,2,0,P|163:282|247:249,1,180,8|0,0:1|0:0,0:0:0:0:
241,51,140347,5,12,0:1:0:0:
228,348,140478,1,0,0:0:0:0:
158,12,140608,5,8,0:1:0:0:
155,298,140739,1,0,0:0:0:0:
60,144,140869,6,0,B|186:156|186:156|210:170|210:170|369:184,1,270,6|0,0:1|0:0,0:0:0:0:
406,186,141130,2,0,P|430:258|350:331,1,180,8|0,0:1|0:0,0:0:0:0:
320,0,141391,6,0,P|219:108|275:233,1,270,12|0,0:1|0:0,0:0:0:0:
324,249,141652,5,8,0:1:0:0:
311,95,141782,1,8,0:1:0:0:
155,42,141913,6,0,P|140:163|230:303,1,270,12|0,0:1|0:0,0:0:0:0:
157,349,142173,2,0,P|119:230|267:151,1,270,8|0,0:1|0:0,0:0:0:0:
294,173,142434,2,0,B|382:152|382:152|409:53,1,180,12|0,0:1|0:0,0:0:0:0:
415,364,142695,2,0,L|207:352,1,180,8|0,0:1|0:0,0:0:0:0:
144,0,142956,6,0,L|154:290,1,270,6|0,0:1|0:0,0:0:0:0:
157,349,143217,2,0,B|129:262|129:262|199:198,1,180,8|0,0:1|0:0,0:0:0:0:
478,110,143478,6,0,B|462:175|462:175|230:138,1,270,12|0,0:1|0:0,0:0:0:0:
226,69,143739,2,0,P|295:91|269:200,1,180,8|0,0:1|0:0,0:0:0:0:
410,338,143999,6,0,L|392:32,1,270,12|0,0:1|0:0,0:0:0:0:
453,11,144260,5,8,0:1:0:0:
218,80,144391,1,0,0:0:0:0:
8,72,144521,2,0,B|33:13|33:13|146:42,1,180,12|0,0:1|0:0,0:0:0:0:
59,279,144782,2,0,P|90:195|82:107,1,180,8|0,0:1|0:0,0:0:0:0:
211,328,145043,6,0,B|331:24|331:24|497:98|497:98|437:124|425:191|425:191,1,630.000006008148,10|4,0:0|0:0,0:0:0:0:
301,328,145565,6,0,B|180:24|180:24|14:98|14:98|74:124|86:191|86:191,1,630.000006008148,10|4,0:0|0:0,0:0:0:0:
239,380,146086,5,14,1:1:0:0:
240,369,146152,1,0,0:0:0:0:
241,359,146217,1,0,0:0:0:0:
242,349,146282,1,0,0:0:0:0:
243,339,146347,1,0,0:0:0:0:
244,328,146413,1,0,0:0:0:0:
245,318,146478,1,0,0:0:0:0:
246,308,146543,1,0,0:0:0:0:
247,298,146608,5,12,0:1:0:0:
271,309,146673,1,0,0:0:0:0:
301,313,146739,1,0,0:0:0:0:
333,306,146804,1,0,0:0:0:0:
362,278,146869,1,0,0:0:0:0:
372,232,146934,1,0,0:0:0:0:
350,182,146999,1,0,0:0:0:0:
334,122,147065,1,0,0:0:0:0:
337,48,147130,5,12,0:1:0:0:
370,98,147195,1,0,0:0:0:0:
373,151,147260,1,0,0:0:0:0:
355,195,147326,1,0,0:0:0:0:
322,218,147391,1,0,0:0:0:0:
298,242,147456,1,0,0:0:0:0:
284,269,147521,1,0,0:0:0:0:
278,295,147586,1,0,0:0:0:0:
277,318,147652,6,0,P|280:344|283:361,7,33.7500012874604,12|0|0|0|0|0|0|0,0:1|0:0|0:0|0:0|0:0|0:0|0:0|0:0,0:0:0:0:
285,373,148173,5,12,0:1:0:0:
275,372,148238,1,0,0:0:0:0:
265,371,148303,1,0,0:0:0:0:
254,370,148369,1,0,0:0:0:0:
244,369,148434,1,0,0:0:0:0:
234,368,148499,1,0,0:0:0:0:
224,367,148564,1,0,0:0:0:0:
213,366,148630,1,0,0:0:0:0:
202,365,148695,5,12,0:1:0:0:
193,339,148760,1,0,0:0:0:0:
189,308,148826,1,0,0:0:0:0:
192,274,148891,1,0,0:0:0:0:
206,236,148956,1,0,0:0:0:0:
219,190,149021,1,0,0:0:0:0:
224,136,149086,1,0,0:0:0:0:
217,74,149152,1,0,0:0:0:0:
187,6,149217,5,12,0:1:0:0:
228,50,149282,1,0,0:0:0:0:
230,103,149347,1,0,0:0:0:0:
212,147,149413,1,0,0:0:0:0:
177,167,149478,1,0,0:0:0:0:
153,190,149543,1,0,0:0:0:0:
141,217,149608,1,0,0:0:0:0:
139,243,149673,1,0,0:0:0:0:
145,266,149739,6,0,P|148:292|146:317,7,33.7500012874604,12|0|0|0|0|0|0|0,0:1|0:0|0:0|0:0|0:0|0:0|0:0|0:0,0:0:0:0:
145,322,150260,5,12,0:1:0:0:
156,323,150325,1,0,0:0:0:0:
167,324,150391,1,0,0:0:0:0:
177,325,150456,1,0,0:0:0:0:
187,326,150521,1,0,0:0:0:0:
197,327,150586,1,0,0:0:0:0:
208,328,150652,1,0,0:0:0:0:
218,329,150717,1,0,0:0:0:0:
228,330,150782,5,12,0:1:0:0:
254,327,150847,1,0,0:0:0:0:
281,314,150913,1,0,0:0:0:0:
298,285,150978,1,0,0:0:0:0:
293,244,151043,1,0,0:0:0:0:
285,197,151108,1,0,0:0:0:0:
290,143,151173,1,0,0:0:0:0:
311,85,151239,1,0,0:0:0:0:
366,35,151304,5,12,0:1:0:0:
340,89,151369,1,0,0:0:0:0:
350,141,151434,1,0,0:0:0:0:
388,168,151499,1,0,0:0:0:0:
428,168,151565,1,0,0:0:0:0:
460,176,151630,1,0,0:0:0:0:
484,193,151695,1,0,0:0:0:0:
498,215,151760,1,0,0:0:0:0:
504,238,151826,6,0,P|503:257|499:276,7,33.7500012874604,12|0|0|0|0|0|0|0,0:1|0:0|0:0|0:0|0:0|0:0|0:0|0:0,0:0:0:0:
494,292,152347,5,12,0:1:0:0:
483,293,152412,1,0,0:0:0:0:
472,294,152478,1,0,0:0:0:0:
462,295,152543,1,0,0:0:0:0:
452,296,152608,1,0,0:0:0:0:
442,297,152673,1,0,0:0:0:0:
431,298,152739,1,0,0:0:0:0:
421,299,152804,1,0,0:0:0:0:
411,300,152869,5,12,0:1:0:0:
390,282,152934,1,0,0:0:0:0:
376,254,152999,1,0,0:0:0:0:
375,219,153065,1,0,0:0:0:0:
388,181,153130,1,0,0:0:0:0:
393,134,153195,1,0,0:0:0:0:
379,81,153260,1,0,0:0:0:0:
331,42,153326,1,0,0:0:0:0:
256,42,153391,5,12,0:1:0:0:
290,90,153456,1,0,0:0:0:0:
334,121,153521,1,0,0:0:0:0:
378,136,153586,1,0,0:0:0:0:
419,134,153652,1,0,0:0:0:0:
446,114,153717,1,0,0:0:0:0:
456,85,153782,1,0,0:0:0:0:
455,58,153847,1,0,0:0:0:0:
445,36,153913,6,0,P|430:21|413:9,7,33.7500012874604,12|0|0|0|0|0|0|0,0:1|0:0|0:0|0:0|0:0|0:0|0:0|0:0,0:0:0:0:
388,4,154434,5,12,0:1:0:0:
387,14,154499,1,0,0:0:0:0:
386,24,154564,1,0,0:0:0:0:
385,35,154630,1,0,0:0:0:0:
384,45,154695,1,0,0:0:0:0:
383,55,154760,1,0,0:0:0:0:
382,65,154825,1,0,0:0:0:0:
381,76,154891,1,0,0:0:0:0:
380,87,154956,5,12,0:1:0:0:
354,79,155021,1,0,0:0:0:0:
323,80,155086,1,0,0:0:0:0:
294,98,155152,1,0,0:0:0:0:
278,135,155217,1,0,0:0:0:0:
288,180,155282,1,0,0:0:0:0:
330,212,155347,1,0,0:0:0:0:
379,247,155413,1,0,0:0:0:0:
414,312,155478,5,12,0:1:0:0:
363,278,155543,1,0,0:0:0:0:
310,268,155608,1,0,0:0:0:0:
263,276,155673,1,0,0:0:0:0:
226,294,155739,1,0,0:0:0:0:
192,300,155804,1,0,0:0:0:0:
162,295,155869,1,0,0:0:0:0:
138,283,155934,1,0,0:0:0:0:
123,264,155999,6,0,P|115:240|115:215,7,33.7500012874604,12|0|0|0|0|0|0|0,0:1|0:0|0:0|0:0|0:0|0:0|0:0|0:0,0:0:0:0:
115,211,156521,5,12,0:1:0:0:
116,200,156586,1,0,0:0:0:0:
117,189,156652,1,0,0:0:0:0:
118,179,156717,1,0,0:0:0:0:
119,169,156782,1,0,0:0:0:0:
120,159,156847,1,0,0:0:0:0:
121,148,156913,1,0,0:0:0:0:
122,138,156978,1,0,0:0:0:0:
123,128,157043,5,12,0:1:0:0:
138,106,157108,1,0,0:0:0:0:
167,97,157173,1,0,0:0:0:0:
200,103,157239,1,0,0:0:0:0:
226,133,157304,1,0,0:0:0:0:
267,155,157369,1,0,0:0:0:0:
319,150,157434,1,0,0:0:0:0:
364,109,157499,1,0,0:0:0:0:
364,33,157565,5,12,0:1:0:0:
324,78,157630,1,0,0:0:0:0:
307,129,157695,1,0,0:0:0:0:
305,176,157760,1,0,0:0:0:0:
316,215,157826,1,0,0:0:0:0:
337,240,157891,1,0,0:0:0:0:
364,253,157956,1,0,0:0:0:0:
390,256,158021,1,0,0:0:0:0:
412,249,158086,6,0,P|427:239|439:224,7,33.7500012874604,12|0|0|0|0|0|0|0,0:1|0:0|0:0|0:0|0:0|0:0|0:0|0:0,0:0:0:0:
445,200,158608,5,12,0:1:0:0:
446,211,158673,1,0,0:0:0:0:
447,222,158739,1,0,0:0:0:0:
448,232,158804,1,0,0:0:0:0:
449,242,158869,1,0,0:0:0:0:
450,252,158934,1,0,0:0:0:0:
451,263,159000,1,0,0:0:0:0:
452,273,159065,1,0,0:0:0:0:
453,283,159130,5,12,0:1:0:0:
428,293,159195,1,0,0:0:0:0:
398,297,159260,1,0,0:0:0:0:
364,288,159326,1,0,0:0:0:0:
335,259,159391,1,0,0:0:0:0:
328,212,159456,1,0,0:0:0:0:
342,160,159521,1,0,0:0:0:0:
342,99,159586,1,0,0:0:0:0:
305,33,159652,5,12,0:1:0:0:
358,61,159717,1,0,0:0:0:0:
369,113,159782,1,0,0:0:0:0:
344,153,159847,1,0,0:0:0:0:
307,171,159913,1,0,0:0:0:0:
273,166,159978,1,0,0:0:0:0:
247,150,160043,1,0,0:0:0:0:
232,127,160108,1,0,0:0:0:0:
230,103,160173,6,0,P|237:66|250:48,7,33.7500012874604,12|0|0|0|0|0|0|0,0:1|0:0|0:0|0:0|0:0|0:0|0:0|0:0,0:0:0:0:
246,48,160695,5,12,0:1:0:0:
235,49,160760,1,0,0:0:0:0:
224,50,160826,1,0,0:0:0:0:
214,51,160891,1,0,0:0:0:0:
204,52,160956,1,0,0:0:0:0:
194,53,161021,1,0,0:0:0:0:
183,54,161087,1,0,0:0:0:0:
173,55,161152,1,0,0:0:0:0:
163,56,161217,5,12,0:1:0:0:
174,80,161282,1,0,0:0:0:0:
174,110,161347,1,0,0:0:0:0:
160,141,161413,1,0,0:0:0:0:
128,165,161478,1,0,0:0:0:0:
93,196,161543,1,0,0:0:0:0:
65,242,161608,1,0,0:0:0:0:
56,302,161673,1,0,0:0:0:0:
74,374,161739,5,12,0:1:0:0:
85,314,161804,1,0,0:0:0:0:
119,272,161869,1,0,0:0:0:0:
164,259,161934,1,0,0:0:0:0:
203,265,161999,1,0,0:0:0:0:
230,285,162065,1,0,0:0:0:0:
256,299,162130,1,0,0:0:0:0:
281,306,162195,1,0,0:0:0:0:
304,307,162260,6,0,P|324:298|346:286,7,33.7500012874604,12|0|0|0|0|0|0|0,0:1|0:0|0:0|0:0|0:0|0:0|0:0|0:0,0:0:0:0:
350,277,162782,6,0,L|352:244,1,26.9999991760254,4|0,0:0|0:0,0:0:0:0:
360,174,163043,2,0,L|362:141,1,26.9999991760254,4|0,0:0|0:0,0:0:0:0:
384,48,163304,6,0,L|382:74,1,26.9999991760254,4|0,0:0|0:0,0:0:0:0:
374,151,163565,2,0,L|372:177,1,26.9999991760254,4|0,0:0|0:0,0:0:0:0:
185,341,163826,2,0,L|188:377,1,26.9999991760254,8|0,0:0|0:0,0:0:0:0:
261,377,164086,6,0,L|317:370,2,53.9999983520508,4|4|4,0:0|0:0|0:0,0:0:0:0:
496,329,164869,2,0,L|434:323,1,53.9999983520508,4|4,0:0|0:0,0:0:0:0:
442,323,165391,2,0,L|380:317,1,53.9999983520508,4|4,0:0|0:0,0:0:0:0:
505,72,165913,6,0,L|473:76,1,26.9999991760254,8|0,0:0|0:0,0:0:0:0:
403,86,166173,2,0,L|367:79,1,26.9999991760254,4|0,0:0|0:0,0:0:0:0:
302,63,166434,2,0,L|276:39,1,26.9999991760254,4|0,0:0|0:0,0:0:0:0:
484,0,166695,5,4,0:0:0:0:
399,77,166826,5,4,0:0:0:0:
388,190,166956,6,0,L|424:199,1,26.9999991760254,4|0,0:0|0:0,0:0:0:0:
460,257,167217,2,2,B|462:254|462:254|466:256|466:256|469:253|469:253|473:255|473:255|477:252|477:252|481:254|481:254|484:251|484:251|487:253|487:253|489:250|489:250|493:252|493:252|496:250|496:250|498:252|498:252|500:249|500:249|503:251|503:251|505:249|505:249|508:251|508:251|510:248|510:248|513:250|513:250|517:247|517:247|521:249|521:249|523:246|523:246|526:248|526:248|528:245|528:245|530:247|530:247|533:244|533:244|536:247|536:247|538:244|538:244|541:247|541:247|543:244|543:244,1,107.999996704102,4|4,0:0|0:0,0:0:0:0:
116,260,167999,6,0,L|56:250,1,53.9999983520508,8|4,0:0|0:0,0:0:0:0:
62,251,168521,2,0,L|74:190,1,53.9999983520508,4|4,0:0|0:0,0:0:0:0:
157,31,169043,6,0,L|158:68,1,26.9999991760254,4|0,0:0|0:0,0:0:0:0:
159,133,169304,2,0,L|160:170,1,26.9999991760254,4|0,0:0|0:0,0:0:0:0:
206,220,169565,6,0,L|207:257,1,26.9999991760254,4|0,0:0|0:0,0:0:0:0:
208,322,169826,2,0,L|209:359,1,26.9999991760254,4|0,0:0|0:0,0:0:0:0:
355,31,170086,6,0,L|354:68,1,26.9999991760254,8|0,0:0|0:0,0:0:0:0:
353,133,170347,2,0,L|352:170,1,26.9999991760254,4|0,0:0|0:0,0:0:0:0:
306,220,170608,6,0,L|303:321,1,94.4999971160889,4|0,0:0|0:0,0:0:0:0:
303,328,171130,6,0,L|353:368,1,53.9999983520508,4|4,0:0|0:0,0:0:0:0:
345,361,171652,2,0,L|404:343,1,53.9999983520508,4|4,0:0|0:0,0:0:0:0:
485,90,172173,6,0,L|446:87,1,26.9999991760254,8|0,0:0|0:0,0:0:0:0:
382,78,172434,2,0,L|343:75,1,26.9999991760254,4|0,0:0|0:0,0:0:0:0:
261,42,172695,6,0,L|288:40,1,26.9999991760254,4|0,0:0|0:0,0:0:0:0:
364,30,172956,2,0,L|403:27,1,26.9999991760254,4|0,0:0|0:0,0:0:0:0:
462,54,173217,6,0,L|453:118,1,53.9999983520508,4|4,0:0|0:0,0:0:0:0:
454,107,173739,2,0,L|445:171,1,53.9999983520508,4|4,0:0|0:0,0:0:0:0:
126,371,174260,6,0,L|123:339,1,26.9999991760254,8|0,0:0|0:0,0:0:0:0:
89,276,174521,2,0,L|95:239,1,26.9999991760254,4|0,0:0|0:0,0:0:0:0:
83,173,174782,2,0,L|100:139,1,26.9999991760254,4|0,0:0|0:0,0:0:0:0:
149,38,175043,5,4,0:0:0:0:
169,162,175173,5,4,0:0:0:0:
104,271,175304,6,0,L|76:277,1,26.9999991760254,4|0,0:0|0:0,0:0:0:0:
51,347,175565,2,2,B|49:344|49:344|45:346|45:346|42:343|42:343|38:345|38:345|34:342|34:342|30:344|30:344|27:341|27:341|24:343|24:343|22:340|22:340|18:342|18:342|15:340|15:340|13:342|13:342|11:339|11:339|8:341|8:341|6:339|6:339|3:341|3:341|1:338|1:338|-2:340|-2:340|-6:337|-6:337|-10:339|-10:339|-12:336|-12:336|-15:338|-15:338|-17:335|-17:335|-19:337|-19:337|-22:334|-22:334|-25:337|-25:337|-27:334|-27:334|-30:337|-30:337|-32:334|-32:334,1,107.999996704102,4|4,0:0|0:0,0:0:0:0:
278,363,176347,6,0,L|275:326,1,26.9999991760254,8|0,0:0|0:0,0:0:0:0:
269,260,176608,2,0,L|266:223,1,26.9999991760254,4|0,0:0|0:0,0:0:0:0:
249,27,176869,6,0,L|251:53,1,26.9999991760254,4|0,0:0|0:0,0:0:0:0:
258,130,177130,2,0,L|260:156,1,26.9999991760254,4|0,0:0|0:0,0:0:0:0:
13,170,177391,5,8,0:0:0:0:
13,170,177652,1,8,0:0:0:0:
13,170,177913,1,8,0:0:0:0:
13,170,178173,1,8,0:0:0:0:
13,170,178434,5,8,0:0:0:0:
225,201,178565,1,8,0:0:0:0:
145,43,178695,5,8,0:0:0:0:
163,270,178826,1,8,0:0:0:0:
389,236,178956,1,4,0:0:0:0:
389,236,179021,1,8,0:0:0:0:
389,236,179086,2,0,L|385:316,3,60,8|8|8|8,0:0|0:0|0:0|0:0,0:0:0:0:
449,78,179478,5,4,0:1:0:0:
468,291,179608,1,4,0:0:0:0:
249,265,179739,2,0,B|183:257|183:257|95:321,1,135.000005149842,8|0,0:0|0:0,0:0:0:0:
0,183,179999,5,0,0:0:0:0:
162,181,180130,1,4,0:0:0:0:
315,124,180260,1,8,0:0:0:0:
295,44,180391,2,0,L|308:208,1,135.000005149842,0|4,0:0|0:0,0:0:0:0:
357,355,180652,5,4,0:0:0:0:
377,216,180782,1,8,0:0:0:0:
400,78,180913,1,0,0:0:0:0:
404,291,181043,5,0,0:0:0:0:
485,302,181173,2,0,P|434:304|336:345,1,135.000005149842,4|8,0:0|0:0,0:0:0:0:
98,329,181434,5,0,0:0:0:0:
290,380,181565,1,4,0:0:0:0:
73,251,181695,5,4,0:0:0:0:
298,273,181826,1,8,0:0:0:0:
459,166,181956,5,0,0:0:0:0:
259,201,182086,1,0,0:0:0:0:
430,58,182217,5,4,0:0:0:0:
218,131,182347,1,8,0:0:0:0:
41,54,182478,5,0,0:0:0:0:
121,64,182608,1,4,0:0:0:0:
107,144,182739,1,4,0:0:0:0:
26,132,182869,1,8,0:0:0:0:
146,226,182999,5,0,0:0:0:0:
67,238,183130,1,0,0:0:0:0:
84,318,183260,1,4,0:0:0:0:
164,303,183391,2,0,P|239:319|285:365,1,135.000005149842,8|0,0:0|0:0,0:0:0:0:
441,349,183652,6,0,L|447:214,1,135.000005149842,12|0,0:1|0:0,0:0:0:0:
458,15,183913,2,0,B|394:36|394:36|432:235,1,270.000010299683,8|0,0:0|0:0,0:0:0:0:
490,89,184304,1,4,0:0:0:0:
331,137,184434,2,0,P|285:205|263:345,1,202.500007724762,8|0,0:0|0:0,0:0:0:0:
264,344,184695,5,4,0:0:0:0:
344,330,184826,1,4,0:0:0:0:
181,255,184956,2,0,L|39:267,1,135.000005149842,8|0,0:0|0:0,0:0:0:0:
0,189,185217,2,0,L|155:176,1,135.000005149842,0|4,0:0|0:0,0:0:0:0:
318,36,185478,2,0,B|292:85|292:85|145:97,1,202.500007724762,8|0,0:0|0:0,0:0:0:0:
104,99,185739,6,0,P|89:136|105:241,1,135.000005149842,4|0,0:0|0:0,0:0:0:0:
19,367,185999,2,0,P|106:312|293:306,1,270.000010299683,8|0,0:0|0:0,0:0:0:0:
339,342,186391,1,4,0:0:0:0:
486,267,186521,2,0,B|521:234|521:234|486:35,1,202.500007724762,8|0,0:0|0:0,0:0:0:0:
489,52,186782,5,4,0:0:0:0:
298,81,186913,1,4,0:0:0:0:
262,8,187043,2,0,L|256:171,1,135.000005149842,8|8,0:0|0:0,0:0:0:0:
257,163,187239,1,0,0:0:0:0:
257,183,187304,5,8,0:0:0:0:
180,205,187434,1,8,0:0:0:0:
103,176,187565,1,4,0:0:0:0:
172,217,187695,1,4,0:0:0:0:
169,344,187826,5,4,0:1:0:0:
186,125,187956,1,4,0:0:0:0:
165,0,188086,2,0,L|171:134,1,135.000005149842,8|0,0:0|0:0,0:0:0:0:
180,327,188347,5,0,0:0:0:0:
103,176,188478,1,4,0:0:0:0:
254,99,188608,1,8,0:0:0:0:
331,250,188739,2,0,L|321:384,1,135.000005149842,0|4,0:0|0:0,0:0:0:0:
274,191,188999,5,4,0:0:0:0:
410,262,189130,1,8,0:0:0:0:
280,344,189260,1,0,0:0:0:0:
75,290,189391,5,0,0:0:0:0:
103,375,189521,2,0,B|152:329|152:329|161:236,1,135.000005149842,4|8,0:0|0:0,0:0:0:0:
176,22,189782,5,0,0:0:0:0:
115,192,189913,1,4,0:0:0:0:
221,88,190043,5,4,0:0:0:0:
178,274,190173,1,8,0:0:0:0:
397,259,190304,5,0,0:0:0:0:
169,285,190434,1,0,0:0:0:0:
434,346,190565,5,4,0:0:0:0:
230,342,190695,1,8,0:0:0:0:
286,151,190826,5,0,0:0:0:0:
364,133,190956,1,4,0:0:0:0:
291,167,191086,1,4,0:0:0:0:
237,227,191217,1,8,0:0:0:0:
139,16,191347,5,0,0:0:0:0:
207,60,191478,1,0,0:0:0:0:
251,127,191608,1,4,0:0:0:0:
266,337,191739,2,0,L|278:203,1,135.000005149842,8|0,0:0|0:0,0:0:0:0:
316,13,191999,6,0,P|335:77|334:145,1,135.000005149842,12|0,0:1|0:0,0:0:0:0:
415,35,192260,2,0,P|421:130|354:348,1,270.000010299683,8|0,0:0|0:0,0:0:0:0:
325,359,192652,1,4,0:0:0:0:
172,297,192782,2,0,P|239:301|303:281,1,135.000005149842,8|0,0:0|0:0,0:0:0:0:
362,153,193043,5,4,0:0:0:0:
370,234,193173,1,4,0:0:0:0:
510,42,193304,2,0,B|482:80|482:80|395:78,1,135.000005149842,8|0,0:0|0:0,0:0:0:0:
178,65,193565,2,0,L|313:73,1,135.000005149842,0|4,0:0|0:0,0:0:0:0:
467,162,193826,2,0,L|220:176,1,202.500007724762,8|0,0:0|0:0,0:0:0:0:
244,176,194086,5,4,0:0:0:0:
394,250,194217,1,0,0:0:0:0:
474,260,194347,2,0,L|180:308,1,270.000010299683,8|0,0:0|0:0,0:0:0:0:
126,316,194739,1,4,0:0:0:0:
148,100,194869,2,0,L|134:235,1,135.000005149842,8|0,0:0|0:0,0:0:0:0:
64,163,195130,5,4,0:0:0:0:
217,205,195260,1,4,0:0:0:0:
382,162,195391,2,0,P|322:193|285:249,1,135.000005149842,8|0,0:0|0:0,0:0:0:0:
256,376,195652,5,4,0:0:0:0:
256,0,195782,1,6,0:1:0:0:
