osu file format v14

[General]
AudioFilename: audio.mp3
AudioLeadIn: 0
PreviewTime: 187082
Countdown: 1
SampleSet: None
StackLeniency: 0.5
Mode: 0
LetterboxInBreaks: 0
WidescreenStoryboard: 0

[Editor]
Bookmarks: 4929,14775,24621,29544,49236,64006,68929,78775,88621,98467,128006,137852,146467,147698,167390,187082,206775,226467,236313,246159,265236,268313
DistanceSpacing: 1
BeatDivisor: 4
GridSize: 16
TimelineZoom: 3.799998

[Metadata]
Title:Radiate
TitleUnicode:Radiate
Artist:Enter Shikari
ArtistUnicode:Enter Shikari
Creator:h4d0uk3n1
Version:SPRING CLEANING OF THE MIND
Source:
Tags:Senseabel post-hardcore electronicore alternative metal english rock
BeatmapID:2025135
BeatmapSetID:967719

[Difficulty]
HPDrainRate:5.5
CircleSize:4
OverallDifficulty:9
ApproachRate:9.5
SliderMultiplier:2.1
SliderTickRate:1

[Events]
//Background and Video events
0,0,"ddddddddd.jpg",0,0
//Break Periods
//Storyboard Layer 0 (Background)
//Storyboard Layer 1 (Fail)
//Storyboard Layer 2 (Pass)
//Storyboard Layer 3 (Foreground)
//Storyboard Sound Samples

[TimingPoints]
6,307.692307692308,4,3,3,70,1,0
6,-100,4,3,3,70,0,1
4852,-100,4,3,3,70,0,0
4929,-100,4,3,3,90,0,1
5006,-100,4,3,3,90,0,0
6852,-100,4,3,0,5,0,0
6929,-100,4,3,3,90,0,0
8390,-100,4,3,0,5,0,0
8467,-100,4,3,3,90,0,0
9852,-100,4,3,3,90,0,1
9929,-100,4,3,3,90,0,0
10852,-100,4,3,0,5,0,0
10929,-100,4,3,3,90,0,0
14775,-100,4,3,3,90,0,1
14852,-100,4,3,3,90,0,0
16698,-100,4,3,0,5,0,0
16775,-100,4,3,3,90,0,0
19698,-100,4,3,3,90,0,1
19775,-100,4,3,3,90,0,0
23313,-100,4,3,0,5,0,0
23390,-100,4,3,3,90,0,0
24621,-100,4,3,3,70,0,1
24698,-100,4,3,3,70,0,0
29544,-100,4,3,3,70,0,1
29621,-100,4,3,3,70,0,0
49236,-57.1428571428571,4,3,3,70,0,1
49852,-100,4,3,3,70,0,0
50159,-100,4,3,2,70,0,0
50313,-57.1428571428571,4,3,3,70,0,1
51082,-100,4,3,3,70,0,0
51390,-100,4,3,2,70,0,0
52006,-57.1428571428571,4,3,3,70,0,1
52621,-57.1428571428571,4,3,2,70,0,1
52775,-57.1428571428571,4,3,3,70,0,1
54082,-57.1428571428571,4,3,3,70,0,0
54159,-57.1428571428571,4,3,3,70,0,1
54775,-100,4,3,3,70,0,0
55082,-100,4,3,2,70,0,0
55236,-57.1428571428571,4,3,3,70,0,1
56006,-100,4,3,3,70,0,0
56313,-100,4,3,2,70,0,0
56929,-57.1428571428571,4,3,3,70,0,1
57544,-57.1428571428571,4,3,2,70,0,1
57698,-57.1428571428571,4,3,3,70,0,1
59006,-57.1428571428571,4,3,3,70,0,0
59082,-57.1428571428571,4,3,3,70,0,1
59698,-100,4,3,3,70,0,0
60006,-100,4,3,2,70,0,0
60159,-57.1428571428571,4,3,3,70,0,1
60929,-100,4,3,3,70,0,0
61236,-100,4,3,2,70,0,0
61775,-100,4,3,0,5,0,0
61852,-57.1428571428571,4,3,3,70,0,1
62467,-57.1428571428571,4,3,2,70,0,1
62621,-57.1428571428571,4,3,3,70,0,1
63929,-57.1428571428571,4,3,0,5,0,0
64006,-100,4,3,3,70,0,1
68852,-100,4,3,3,70,0,0
68929,-100,4,3,3,90,0,1
69006,-100,4,3,3,90,0,0
70852,-100,4,3,0,5,0,0
70929,-100,4,3,3,90,0,0
72390,-100,4,3,0,5,0,0
72467,-100,4,3,3,90,0,0
73852,-100,4,3,3,90,0,1
73929,-100,4,3,3,90,0,0
75775,-100,4,3,0,5,0,0
75852,-100,4,3,3,90,0,0
78775,-100,4,3,3,90,0,1
78852,-100,4,3,3,90,0,0
80852,-100,4,3,0,5,0,0
80929,-100,4,3,3,90,0,0
83698,-100,4,3,3,90,0,1
83775,-100,4,3,3,90,0,0
87621,-100,4,3,0,5,0,0
87698,-100,4,3,3,90,0,0
88621,-250,4,3,3,25,0,0
128006,-166.666666666667,4,3,3,60,0,0
137852,-166.666666666667,4,3,3,70,0,0
141698,-166.666666666667,4,3,2,70,0,0
141852,-166.666666666667,4,3,3,70,0,0
142313,-166.666666666667,4,3,2,70,0,0
142467,-166.666666666667,4,3,3,70,0,0
142621,-166.666666666667,4,3,2,70,0,0
142775,-166.666666666667,4,3,3,70,0,0
145698,-166.666666666667,4,3,2,40,0,0
145852,-166.666666666667,4,3,3,70,0,0
146006,-166.666666666667,4,3,2,55,0,0
146159,-166.666666666667,4,3,3,70,0,0
146313,-166.666666666667,4,3,2,70,0,0
146467,-166.666666666667,4,3,3,70,0,1
146544,-166.666666666667,4,3,3,70,0,0
146621,-166.666666666667,4,3,3,70,0,1
146698,-166.666666666667,4,3,3,70,0,0
146775,-166.666666666667,4,3,3,70,0,1
146852,-166.666666666667,4,3,3,70,0,0
146929,-166.666666666667,4,3,3,70,0,1
147006,-166.666666666667,4,3,3,70,0,0
147082,-166.666666666667,4,3,3,70,0,1
147159,-166.666666666667,4,3,3,70,0,0
147236,-166.666666666667,4,3,3,70,0,1
147313,-166.666666666667,4,3,3,70,0,0
147390,-166.666666666667,4,3,3,70,0,1
147467,-166.666666666667,4,3,3,70,0,0
147544,-166.666666666667,4,3,3,70,0,1
147621,-166.666666666667,4,3,3,70,0,0
147698,-100,4,3,3,70,0,1
147775,-100,4,3,3,70,0,0
167390,-100,4,3,3,70,0,1
171929,-100,4,3,0,5,0,1
172006,-100,4,3,3,70,0,1
172544,-100,4,3,0,5,0,1
172621,-100,4,3,3,70,0,1
176852,-100,4,3,0,5,0,1
176929,-100,4,3,3,70,0,1
177467,-100,4,3,0,5,0,1
177544,-100,4,3,3,70,0,1
181775,-100,4,3,0,5,0,1
181852,-100,4,3,3,70,0,1
182390,-100,4,3,0,5,0,1
182467,-100,4,3,3,70,0,1
187006,-100,4,3,3,70,0,0
187082,-57.1428571428571,4,3,3,70,0,1
187698,-100,4,3,3,70,0,0
188006,-100,4,3,2,70,0,0
188159,-57.1428571428571,4,3,3,70,0,1
188929,-100,4,3,3,70,0,0
189236,-100,4,3,2,70,0,0
189852,-57.1428571428571,4,3,3,70,0,1
190467,-57.1428571428571,4,3,2,70,0,1
190621,-57.1428571428571,4,3,3,70,0,1
191929,-57.1428571428571,4,3,3,70,0,0
192006,-57.1428571428571,4,3,3,70,0,1
192621,-100,4,3,3,70,0,0
192929,-100,4,3,2,70,0,0
193082,-57.1428571428571,4,3,3,70,0,1
193852,-100,4,3,3,70,0,0
194159,-100,4,3,2,70,0,0
194775,-57.1428571428571,4,3,3,70,0,1
195390,-57.1428571428571,4,3,2,70,0,1
195544,-57.1428571428571,4,3,3,70,0,1
196852,-57.1428571428571,4,3,0,5,0,0
196929,-57.1428571428571,4,3,3,70,0,1
197544,-100,4,3,3,70,0,0
197852,-100,4,3,2,70,0,0
198006,-57.1428571428571,4,3,3,70,0,1
198775,-100,4,3,3,70,0,0
199082,-100,4,3,2,70,0,0
199698,-57.1428571428571,4,3,3,70,0,1
200313,-57.1428571428571,4,3,2,70,0,1
200467,-57.1428571428571,4,3,3,70,0,1
201775,-100,4,3,0,5,0,0
201852,-57.1428571428571,4,3,3,70,0,1
202467,-100,4,3,3,70,0,0
202775,-100,4,3,2,70,0,0
202929,-57.1428571428571,4,3,3,70,0,1
203698,-100,4,3,3,70,0,0
204006,-100,4,3,2,70,0,0
204621,-57.1428571428571,4,3,3,70,0,1
205236,-57.1428571428571,4,3,2,70,0,1
205390,-57.1428571428571,4,3,3,70,0,1
206698,-57.1428571428571,4,3,0,5,0,0
206775,-44.4444444444445,4,3,3,90,0,1
208082,-44.4444444444445,4,3,0,5,0,1
208159,-44.4444444444445,4,3,3,90,0,1
209467,-44.4444444444445,4,3,0,5,0,1
209544,-44.4444444444445,4,3,3,90,0,1
209929,-44.4444444444445,4,3,0,5,0,1
210006,-44.4444444444445,4,3,3,90,0,1
214390,-44.4444444444445,4,3,0,5,0,1
214467,-44.4444444444445,4,3,3,90,0,1
214852,-44.4444444444445,4,3,0,5,0,1
214929,-44.4444444444445,4,3,3,90,0,1
216852,-44.4444444444445,4,3,0,5,0,1
216929,-44.4444444444445,4,3,3,90,0,1
218390,-44.4444444444445,4,3,0,5,0,1
218467,-44.4444444444445,4,3,3,90,0,1
219313,-44.4444444444445,4,3,0,5,0,1
219390,-44.4444444444445,4,3,3,90,0,1
219775,-44.4444444444445,4,3,0,5,0,1
219852,-44.4444444444445,4,3,3,90,0,1
224236,-44.4444444444445,4,3,0,5,0,1
224313,-44.4444444444445,4,3,3,90,0,1
224698,-44.4444444444445,4,3,0,5,0,1
224775,-44.4444444444445,4,3,3,90,0,1
226390,-44.4444444444445,4,3,0,5,0,1
226467,-250,4,3,3,25,0,0
246159,-1000,4,3,3,25,0,0
256313,-1000,4,3,3,5,0,0
256467,-1000,4,3,3,25,0,0
268313,-1000,4,3,0,5,0,0

[Colours]
Combo1 : 145,189,158
Combo2 : 219,149,151
Combo3 : 186,69,72
Combo4 : 82,152,103

[HitObjects]
215,47,6,5,8,0:0:0:0:
233,335,159,1,8,0:0:0:0:
346,60,313,5,8,0:0:0:0:
327,326,467,1,8,0:0:0:0:
474,97,621,37,8,0:0:0:0:
200,154,775,1,8,0:0:0:0:
496,212,929,5,8,0:0:0:0:
229,243,1082,1,8,0:0:0:0:
471,338,1236,37,8,0:0:0:0:
364,67,1390,1,8,0:0:0:0:
360,345,1544,5,8,0:0:0:0:
464,44,1698,1,8,0:0:0:0:
248,325,1852,37,8,0:0:0:0:
496,287,2006,1,8,0:0:0:0:
191,240,2160,5,8,0:0:0:0:
480,368,2313,1,8,0:0:0:0:
244,163,2467,37,10,0:3:0:0:
367,199,2621,1,8,0:0:0:0:
256,150,2775,1,8,0:0:0:0:
368,215,2929,1,8,0:0:0:0:
110,207,3082,5,10,0:3:0:0:
244,163,3236,1,8,0:0:0:0:
124,217,3390,1,8,0:0:0:0:
247,146,3544,1,8,0:0:0:0:
145,357,3698,37,10,0:3:0:0:
121,224,3852,1,8,0:0:0:0:
192,60,4006,5,10,0:3:0:0:
87,219,4159,1,8,0:0:0:0:
371,345,4313,37,10,0:3:0:0:
53,213,4467,1,8,0:0:0:0:
438,97,4621,5,10,0:3:0:0:
22,208,4775,1,8,0:0:0:0:
373,354,4929,6,0,L|525:362,1,105,4|0,0:0|0:0,0:0:0:0:
508,157,5236,2,0,L|359:150,1,105,0|0,0:0|0:0,0:0:0:0:
220,239,5544,1,8,0:0:0:0:
259,337,5698,2,0,L|376:343,1,105,0|0,0:0|0:0,0:0:0:0:
469,346,6006,1,0,0:0:0:0:
511,38,6160,5,4,0:0:0:0:
468,195,6314,1,0,0:0:0:0:
198,196,6467,1,0,0:0:0:0:
301,212,6621,2,0,L|106:227,1,157.5,0|0,0:0|0:0,0:0:0:0:
111,227,6929,1,4,0:0:0:0:
154,321,7082,1,0,0:0:0:0:
62,373,7236,1,0,0:0:0:0:
163,115,7390,38,0,P|164:63|154:12,1,105,4|0,0:0|0:0,0:0:0:0:
228,199,7698,2,0,P|242:267|279:311,1,105,0|0,0:0|0:0,0:0:0:0:
454,378,8006,1,8,0:0:0:0:
365,322,8159,2,0,P|277:309|188:320,1,157.5,0|0,0:0|0:0,0:0:0:0:
179,325,8467,1,0,0:0:0:0:
132,230,8621,1,4,0:0:0:0:
27,238,8775,1,0,0:0:0:0:
231,32,8929,1,0,0:0:0:0:
128,51,9082,2,0,B|377:63|377:63|453:24,1,315,0|0,0:0|0:0,0:0:0:0:
467,17,9852,6,0,P|444:71|440:134,1,105,4|0,0:0|0:0,0:0:0:0:
506,276,10159,2,0,P|467:240|420:220,1,105,0|0,0:0|0:0,0:0:0:0:
175,331,10467,1,8,0:0:0:0:
265,384,10621,2,0,P|332:343|409:325,1,157.5,0|0,0:0|0:0,0:0:0:0:
432,322,10929,1,0,0:0:0:0:
328,303,11082,38,0,P|293:264|281:213,1,105,4|0,0:0|0:0,0:0:0:0:
338,22,11390,1,0,0:0:0:0:
391,112,11544,2,0,L|387:216,1,105,0|8,0:0|0:0,0:0:0:0:
492,203,11852,2,0,L|495:98,1,105,0|0,0:0|0:0,0:0:0:0:
500,0,12159,1,0,0:0:0:0:
462,216,12313,5,4,0:0:0:0:
489,317,12467,1,0,0:0:0:0:
404,378,12621,1,4,0:0:0:0:
496,327,12775,1,0,0:0:0:0:
216,239,12929,1,8,0:0:0:0:
319,254,13082,2,0,P|227:259|178:272,1,105,0|4,0:0|0:0,0:0:0:0:
121,309,13390,1,0,0:0:0:0:
61,223,13544,37,4,0:0:0:0:
112,314,13698,1,0,0:0:0:0:
223,120,13852,1,4,0:0:0:0:
327,113,14006,1,4,0:0:0:0:
59,97,14159,5,8,0:0:0:0:
422,69,14313,1,4,0:0:0:0:
422,69,14775,37,4,0:0:0:0:
450,314,14929,1,0,0:0:0:0:
500,108,15082,5,0,0:0:0:0:
359,263,15236,1,0,0:0:0:0:
507,218,15390,37,8,0:0:0:0:
289,168,15544,1,0,0:0:0:0:
511,209,15698,5,0,0:0:0:0:
287,159,15852,1,0,0:0:0:0:
211,232,16006,38,0,P|199:283|210:335,1,105,4|0,0:0|0:0,0:0:0:0:
304,382,16313,1,0,0:0:0:0:
195,129,16467,2,0,L|37:120,1,157.5,8|0,0:0|0:0,0:0:0:0:
23,121,16775,5,0,0:0:0:0:
112,175,16929,1,4,0:0:0:0:
166,85,17082,1,0,0:0:0:0:
366,70,17236,37,4,0:0:0:0:
470,62,17390,1,0,0:0:0:0:
332,169,17544,5,0,0:0:0:0:
512,182,17698,1,0,0:0:0:0:
420,268,17852,37,8,0:0:0:0:
359,52,18006,1,0,0:0:0:0:
427,266,18159,5,0,0:0:0:0:
366,50,18313,1,0,0:0:0:0:
402,148,18467,38,0,L|398:264,1,105,4|0,0:0|0:0,0:0:0:0:
395,358,18775,1,0,0:0:0:0:
291,337,18929,1,0,0:0:0:0:
80,375,19082,2,0,L|290:364,1,210,8|0,0:0|0:0,0:0:0:0:
289,364,19698,5,4,0:0:0:0:
240,270,19852,1,0,0:0:0:0:
342,246,20006,1,0,0:0:0:0:
504,99,20159,37,0,0:0:0:0:
399,91,20313,1,8,0:0:0:0:
360,248,20467,5,0,0:0:0:0:
387,83,20621,1,0,0:0:0:0:
308,13,20775,1,0,0:0:0:0:
351,252,20929,38,0,P|347:316|325:372,1,105,4|0,0:0|0:0,0:0:0:0:
230,372,21236,1,0,0:0:0:0:
137,321,21390,1,0,0:0:0:0:
471,294,21544,1,8,0:0:0:0:
489,190,21698,1,0,0:0:0:0:
481,186,21852,1,0,0:0:0:0:
473,182,22006,1,0,0:0:0:0:
371,204,22159,5,4,0:0:0:0:
360,13,22313,1,0,0:0:0:0:
345,213,22467,37,4,0:0:0:0:
307,31,22621,1,0,0:0:0:0:
287,287,22775,5,8,0:0:0:0:
190,329,22929,1,0,0:0:0:0:
203,224,23082,2,0,P|162:143|84:95,1,157.5,4|0,0:0|0:0,0:0:0:0:
96,104,23390,38,0,P|119:54|166:21,1,105,4|0,0:0|0:0,0:0:0:0:
202,120,23698,1,4,0:0:0:0:
306,124,23852,1,4,0:0:0:0:
252,364,24006,5,8,0:0:0:0:
258,30,24159,1,4,0:0:0:0:
258,30,24621,37,12,0:0:0:0:
441,44,24775,1,8,0:0:0:0:
257,47,24929,5,12,0:0:0:0:
440,61,25083,1,8,0:0:0:0:
256,64,25236,37,12,0:0:0:0:
439,78,25390,1,8,0:0:0:0:
255,81,25544,5,12,0:0:0:0:
438,95,25698,1,8,0:0:0:0:
254,98,25852,37,12,0:0:0:0:
437,112,26005,1,8,0:0:0:0:
253,115,26159,5,12,0:0:0:0:
436,129,26313,1,8,0:0:0:0:
252,132,26467,37,12,0:0:0:0:
288,230,26621,1,8,0:0:0:0:
216,307,26775,5,12,0:0:0:0:
295,238,26929,1,8,0:0:0:0:
500,275,27082,37,12,0:0:0:0:
502,283,27390,5,12,0:0:0:0:
504,291,27698,37,12,0:0:0:0:
180,268,27852,1,8,0:0:0:0:
282,293,28006,1,4,0:0:0:0:
6,350,28159,5,8,0:0:0:0:
110,344,28313,1,4,0:0:0:0:
130,54,28467,37,8,0:0:0:0:
26,36,28621,1,4,0:0:0:0:
234,72,28775,5,8,0:0:0:0:
214,338,28929,1,12,0:0:0:0:
216,344,29236,37,12,0:0:0:0:
218,350,29544,6,0,P|270:354|319:371,1,105,12|0,0:0|0:0,0:0:0:0:
31,330,29852,2,0,P|81:316|128:292,1,105,12|0,0:0|0:0,0:0:0:0:
275,139,30159,37,12,0:0:0:0:
485,241,30313,1,8,0:0:0:0:
480,346,30467,1,4,0:0:0:0:
433,149,30621,5,8,0:0:0:0:
446,44,30775,1,4,0:0:0:0:
199,32,30929,1,8,0:0:0:0:
221,133,31082,1,4,0:0:0:0:
14,123,31236,37,8,0:0:0:0:
299,64,31390,1,12,0:0:0:0:
308,67,31544,1,0,0:0:0:0:
221,342,31698,1,12,0:0:0:0:
209,342,31852,1,0,0:0:0:0:
429,273,32006,6,0,P|484:279|534:308,1,105,12|0,0:0|0:0,0:0:0:0:
396,122,32313,2,0,P|379:72|383:20,1,105,12|0,0:0|0:0,0:0:0:0:
150,39,32621,37,12,0:0:0:0:
481,60,32775,1,8,0:0:0:0:
498,163,32929,1,4,0:0:0:0:
345,127,33082,5,8,0:0:0:0:
352,231,33236,1,4,0:0:0:0:
189,101,33390,37,8,0:0:0:0:
181,205,33544,1,4,0:0:0:0:
68,20,33698,5,8,0:0:0:0:
49,333,33852,2,0,L|61:123,1,210,12|12,0:0|0:0,0:0:0:0:
60,123,34467,38,0,P|111:114|152:80,1,105,12|0,0:0|0:0,0:0:0:0:
331,187,34775,2,0,P|384:226|408:281,1,105,12|0,0:0|0:0,0:0:0:0:
414,18,35082,5,12,0:0:0:0:
301,288,35236,1,8,0:0:0:0:
375,361,35390,1,4,0:0:0:0:
466,109,35544,37,8,0:0:0:0:
361,101,35698,1,4,0:0:0:0:
480,347,35852,5,8,0:0:0:0:
375,361,36006,1,4,0:0:0:0:
507,221,36159,37,8,0:0:0:0:
238,126,36313,2,0,B|211:78|211:78|204:-9,1,105,12|0,0:0|0:0,0:0:0:0:
113,234,36621,2,0,B|58:241|58:241|-10:281,1,105,12|0,0:0|0:0,0:0:0:0:
328,118,36929,6,0,B|347:64|347:64|341:-2,1,105,12|0,0:0|0:0,0:0:0:0:
419,280,37236,2,0,B|400:334|400:334|406:400,1,105,12|0,0:0|0:0,0:0:0:0:
173,374,37544,37,12,0:0:0:0:
503,343,37698,1,8,0:0:0:0:
512,237,37852,1,4,0:0:0:0:
321,17,38006,5,8,0:0:0:0:
331,120,38159,1,4,0:0:0:0:
351,326,38313,37,8,0:0:0:0:
341,223,38467,1,4,0:0:0:0:
124,298,38621,5,8,0:0:0:0:
435,265,38775,2,0,B|448:145|448:145|420:26,1,210,12|12,0:0|0:0,0:0:0:0:
427,58,39390,38,0,L|322:62,1,105,12|0,0:0|0:0,0:0:0:0:
19,167,39698,2,0,L|123:173,1,105,12|0,0:0|0:0,0:0:0:0:
432,190,40006,5,12,0:0:0:0:
216,66,40159,1,8,0:0:0:0:
111,71,40313,1,4,0:0:0:0:
313,165,40467,37,8,0:0:0:0:
321,61,40621,1,4,0:0:0:0:
387,239,40775,5,8,0:0:0:0:
395,343,40929,1,4,0:0:0:0:
421,62,41082,37,8,0:0:0:0:
254,251,41236,1,12,0:0:0:0:
252,262,41390,1,0,0:0:0:0:
39,123,41544,1,12,0:0:0:0:
38,114,41698,1,0,0:0:0:0:
11,384,41852,6,0,L|18:280,1,105,12|0,0:0|0:0,0:0:0:0:
36,2,42159,2,0,L|29:106,1,105,12|0,0:0|0:0,0:0:0:0:
11,384,42467,37,12,0:0:0:0:
249,255,42621,1,8,0:0:0:0:
238,150,42775,1,4,0:0:0:0:
439,181,42929,5,8,0:0:0:0:
334,192,43082,1,4,0:0:0:0:
408,382,43237,37,8,0:0:0:0:
397,277,43390,1,4,0:0:0:0:
432,79,43544,5,8,0:0:0:0:
140,14,43698,2,0,B|185:66|185:66|327:73,1,210,12|12,0:0|0:0,0:0:0:0:
327,73,44313,38,0,P|309:122|300:221,1,105,12|0,0:0|0:0,0:0:0:0:
323,379,44621,2,0,P|330:327|329:275,1,105,12|0,0:0|0:0,0:0:0:0:
238,14,44929,5,12,0:0:0:0:
496,132,45082,1,8,0:0:0:0:
391,145,45236,1,4,0:0:0:0:
458,374,45390,37,8,0:0:0:0:
353,361,45544,1,4,0:0:0:0:
419,46,45698,5,8,0:0:0:0:
317,71,45852,1,4,0:0:0:0:
353,361,46006,37,8,0:0:0:0:
412,172,46159,2,0,P|421:121|418:21,1,105,12|0,0:0|0:0,0:0:0:0:
182,0,46467,2,0,P|197:67|192:140,1,105,12|0,0:0|0:0,0:0:0:0:
5,356,46775,6,0,P|42:314|92:284,1,105,12|0,0:0|0:0,0:0:0:0:
9,20,47082,2,0,P|76:37|118:62,1,105,12|0,0:0|0:0,0:0:0:0:
312,242,47390,37,12,0:0:0:0:
344,15,47544,1,8,0:0:0:0:
448,0,47698,1,4,0:0:0:0:
326,137,47852,5,8,0:0:0:0:
221,127,48006,1,4,0:0:0:0:
502,154,48159,37,8,0:0:0:0:
408,202,48313,1,4,0:0:0:0:
133,182,48467,1,8,0:0:0:0:
274,355,48621,5,12,0:0:0:0:
282,346,48775,1,0,0:0:0:0:
246,9,48929,1,12,0:0:0:0:
240,21,49082,1,0,0:0:0:0:
0,334,49236,22,0,B|247:342,1,183.750001752377,4|0,0:0|0:0,0:0:0:0:
512,275,49544,2,0,L|328:283,1,183.750001752377,4|4,0:0|0:0,0:0:0:0:
305,284,49775,1,4,0:0:0:0:
282,285,49852,5,8,0:0:0:0:
442,154,50006,1,4,0:0:0:0:
455,384,50159,1,4,0:0:0:0:
497,24,50313,38,0,B|446:48|446:48|319:52,1,183.750001752377,4|0,0:0|0:0,0:0:0:0:
28,76,50621,2,0,B|63:54|63:54|206:52,1,183.750001752377,4|0,0:0|0:0,0:0:0:0:
491,172,50929,1,4,0:0:0:0:
465,175,51006,1,4,0:0:0:0:
439,178,51082,5,8,0:0:0:0:
471,376,51236,1,8,0:0:0:0:
331,188,51390,1,8,0:0:0:0:
487,271,51544,1,8,0:0:0:0:
264,272,51698,2,0,P|251:327|251:405,1,105,4|4,0:0|0:0,0:0:0:0:
42,322,52006,38,0,L|50:130,1,183.750001752377,4|0,0:0|0:0,0:0:0:0:
346,199,52313,2,0,L|355:382,2,183.750001752377,4|8|4,0:0|0:0|0:0,0:0:0:0:
461,31,52775,38,0,P|455:121|455:215,1,183.750001752377,4|0,0:0|0:0,0:0:0:0:
51,97,53082,2,0,P|54:188|55:307,1,183.750001752377,4|0,0:0|0:0,0:0:0:0:
351,103,53390,1,4,0:0:0:0:
460,114,53544,1,8,0:0:0:0:
488,7,53698,2,0,P|473:169|470:388,1,367.500003504753,4|0,0:0|0:0,0:0:0:0:
460,114,54159,6,0,P|358:134|224:126,1,183.750001752377,4|0,0:0|0:0,0:0:0:0:
52,275,54467,2,0,P|137:243|229:233,1,183.750001752377,4|4,0:0|0:0,0:0:0:0:
249,235,54698,1,4,0:0:0:0:
273,242,54775,5,8,0:0:0:0:
413,355,54929,1,4,0:0:0:0:
227,342,55082,1,4,0:0:0:0:
429,19,55236,38,0,P|433:110|409:199,1,183.750001752377,4|0,0:0|0:0,0:0:0:0:
130,244,55544,2,0,P|220:227|299:181,1,183.750001752377,4|0,0:0|0:0,0:0:0:0:
486,373,55852,1,4,0:0:0:0:
486,373,55929,1,4,0:0:0:0:
486,373,56006,5,8,0:0:0:0:
394,177,56159,1,8,0:0:0:0:
382,362,56313,1,8,0:0:0:0:
338,266,56467,1,8,0:0:0:0:
484,236,56621,2,0,P|496:173|481:103,1,105,4|4,0:0|0:0,0:0:0:0:
497,6,56929,38,0,P|423:25|306:37,1,183.750001752377,4|0,0:0|0:0,0:0:0:0:
48,39,57236,1,4,0:0:0:0:
403,55,57390,1,8,0:0:0:0:
299,282,57544,1,4,0:0:0:0:
325,384,57698,2,0,P|339:196|370:8,2,367.500003504753,4|4|4,0:0|0:0|0:0,0:0:0:0:
512,229,58467,1,8,0:0:0:0:
483,122,58621,2,0,P|281:118|17:138,1,459.375004380941,4|0,0:0|0:0,0:0:0:0:
7,149,59082,38,0,B|123:137|123:137|197:180,1,183.750001752377,4|0,0:0|0:0,0:0:0:0:
489,113,59390,2,0,B|372:105|372:105|319:63,1,183.750001752377,4|4,0:0|0:0,0:0:0:0:
301,48,59621,1,4,0:0:0:0:
284,33,59698,21,8,0:0:0:0:
509,8,59852,1,4,0:0:0:0:
426,221,60006,1,4,0:0:0:0:
179,274,60159,38,0,P|249:216|338:196,1,183.750001752377,4|0,0:0|0:0,0:0:0:0:
151,381,60467,2,0,P|155:259|71:24,1,367.500003504753,4|4,0:0|0:0,0:0:0:0:
69,18,60852,1,4,0:0:0:0:
62,8,60929,5,8,0:0:0:0:
170,128,61082,1,8,0:0:0:0:
0,153,61236,1,8,0:0:0:0:
239,48,61390,1,8,0:0:0:0:
168,233,61544,2,0,P|163:293|172:347,1,105,4|4,0:0|0:0,0:0:0:0:
303,377,61852,22,0,L|518:359,1,183.750001752377,4|0,0:0|0:0,0:0:0:0:
509,254,62159,1,4,0:0:0:0:
339,150,62313,1,8,0:0:0:0:
347,261,62467,1,4,0:0:0:0:
52,283,62621,6,0,L|236:269,1,183.750001752377,4|0,0:0|0:0,0:0:0:0:
389,55,62929,2,0,L|205:42,1,183.750001752377,4|0,0:0|0:0,0:0:0:0:
499,62,63236,1,4,0:0:0:0:
375,305,63390,1,8,0:0:0:0:
483,323,63544,2,0,L|14:351,1,459.375004380941,4|0,0:0|0:0,0:0:0:0:
5,352,64006,37,8,0:0:0:0:
292,372,64159,1,8,0:0:0:0:
4,230,64313,5,8,0:0:0:0:
325,273,64467,1,8,0:0:0:0:
57,107,64621,37,8,0:0:0:0:
154,362,64775,1,8,0:0:0:0:
185,60,64929,5,8,0:0:0:0:
240,302,65083,1,8,0:0:0:0:
315,60,65236,37,8,0:0:0:0:
101,191,65390,1,8,0:0:0:0:
336,163,65544,5,8,0:0:0:0:
57,107,65698,1,8,0:0:0:0:
296,264,65852,37,8,0:0:0:0:
273,4,66006,1,8,0:0:0:0:
197,233,66159,5,8,0:0:0:0:
367,46,66313,1,8,0:0:0:0:
171,131,66467,37,14,0:3:0:0:
275,142,66621,1,8,0:0:0:0:
372,181,66775,1,12,0:0:0:0:
447,253,66929,1,8,0:0:0:0:
444,0,67082,5,14,0:3:0:0:
416,100,67236,1,8,0:0:0:0:
363,190,67390,1,12,0:0:0:0:
280,253,67544,1,8,0:0:0:0:
412,91,67698,37,14,0:3:0:0:
277,81,67852,1,8,0:0:0:0:
439,300,68006,5,14,0:3:0:0:
424,86,68159,1,8,0:0:0:0:
115,354,68313,37,14,0:3:0:0:
453,304,68467,1,8,0:0:0:0:
103,0,68621,5,14,0:3:0:0:
107,351,68775,1,8,0:0:0:0:
512,48,68929,6,0,L|373:43,1,105,4|0,0:0|0:0,0:0:0:0:
255,329,69236,2,0,L|380:335,1,105,0|0,0:0|0:0,0:0:0:0:
477,133,69544,1,8,0:0:0:0:
405,56,69698,2,0,L|300:52,1,105,0|0,0:0|0:0,0:0:0:0:
194,48,70006,1,0,0:0:0:0:
15,128,70159,6,0,L|120:121,1,105,4|0,0:0|0:0,0:0:0:0:
182,206,70467,1,0,0:0:0:0:
468,215,70621,2,0,L|311:210,1,157.5,0|0,0:0|0:0,0:0:0:0:
287,209,70928,37,4,0:0:0:0:
385,244,71082,1,0,0:0:0:0:
437,335,71236,1,0,0:0:0:0:
402,114,71390,6,0,P|413:62|437:16,1,105,4|0,0:0|0:0,0:0:0:0:
296,116,71698,2,0,P|236:118|173:105,1,105,0|0,0:0|0:0,0:0:0:0:
22,10,72006,1,8,0:0:0:0:
85,92,72159,2,0,P|93:152|75:286,1,157.5,0|0,0:0|0:0,0:0:0:0:
76,271,72467,1,0,0:0:0:0:
136,184,72621,38,0,P|193:170|249:174,1,105,4|0,0:0|0:0,0:0:0:0:
504,276,72929,1,0,0:0:0:0:
404,308,73082,2,0,P|323:283|329:56,1,315,0|0,0:0|0:0,0:0:0:0:
298,81,73852,6,0,P|277:128|233:154,1,105,4|0,0:0|0:0,0:0:0:0:
394,1,74159,2,0,P|405:52|401:105,1,105,0|0,0:0|0:0,0:0:0:0:
231,265,74467,1,8,0:0:0:0:
142,207,74621,2,0,P|90:201|38:205,1,105,0|0,0:0|0:0,0:0:0:0:
13,307,74929,1,0,0:0:0:0:
100,90,75082,37,4,0:0:0:0:
13,30,75236,1,0,0:0:0:0:
204,95,75390,1,0,0:0:0:0:
141,179,75544,2,0,P|199:135|291:128,1,157.5,0|0,0:0|0:0,0:0:0:0:
304,131,75852,2,0,P|311:80|290:33,1,105,0|0,0:0|0:0,0:0:0:0:
204,95,76159,1,0,0:0:0:0:
244,297,76313,5,4,0:0:0:0:
348,308,76467,1,0,0:0:0:0:
459,384,76621,1,4,0:0:0:0:
360,293,76775,1,0,0:0:0:0:
408,147,76929,1,8,0:0:0:0:
383,45,77082,2,0,P|384:111|397:177,1,105,0|4,0:0|0:0,0:0:0:0:
445,239,77390,1,0,0:0:0:0:
303,380,77544,37,4,0:0:0:0:
360,293,77698,1,0,0:0:0:0:
377,85,77852,1,4,0:0:0:0:
315,0,78006,1,4,0:0:0:0:
469,34,78159,5,8,0:0:0:0:
182,57,78313,1,4,0:0:0:0:
182,57,78775,37,4,0:0:0:0:
213,241,78929,1,0,0:0:0:0:
246,141,79082,5,0,0:0:0:0:
222,346,79236,1,0,0:0:0:0:
34,370,79390,37,8,0:0:0:0:
224,353,79544,1,0,0:0:0:0:
33,362,79698,5,0,0:0:0:0:
223,345,79852,1,0,0:0:0:0:
321,380,80006,38,0,L|434:379,1,105,4|0,0:0|0:0,0:0:0:0:
490,296,80313,1,0,0:0:0:0:
502,67,80467,2,0,B|427:28|427:28|249:38,1,262.5,8|0,0:0|0:0,0:0:0:0:
228,43,80929,2,0,P|264:79|280:129,1,105,4|0,0:0|0:0,0:0:0:0:
155,317,81236,5,4,0:0:0:0:
176,134,81390,1,0,0:0:0:0:
258,325,81544,37,0,0:0:0:0:
192,131,81698,1,0,0:0:0:0:
103,222,81852,5,8,0:0:0:0:
300,211,82006,1,0,0:0:0:0:
103,229,82159,37,0,0:0:0:0:
300,218,82313,1,0,0:0:0:0:
464,337,82467,6,0,P|419:310|369:296,1,105,4|0,0:0|0:0,0:0:0:0:
265,317,82775,1,0,0:0:0:0:
300,218,82929,1,0,0:0:0:0:
512,240,83082,37,8,0:0:0:0:
185,384,83236,1,4,0:0:0:0:
185,384,83698,5,4,0:0:0:0:
92,334,83852,1,0,0:0:0:0:
85,229,84006,1,0,0:0:0:0:
274,209,84159,37,0,0:0:0:0:
175,176,84313,1,8,0:0:0:0:
359,147,84467,5,0,0:0:0:0:
282,217,84621,1,0,0:0:0:0:
286,321,84775,1,0,0:0:0:0:
193,159,84929,38,0,P|149:121|75:92,1,105,4|0,0:0|0:0,0:0:0:0:
2,96,85236,1,0,0:0:0:0:
59,8,85390,1,0,0:0:0:0:
40,323,85544,1,8,0:0:0:0:
142,346,85698,1,0,0:0:0:0:
151,344,85852,1,0,0:0:0:0:
160,342,86006,1,0,0:0:0:0:
414,300,86159,5,4,0:0:0:0:
262,322,86313,1,0,0:0:0:0:
234,180,86467,37,4,0:0:0:0:
256,332,86621,1,0,0:0:0:0:
286,84,86775,5,8,0:0:0:0:
229,173,86929,1,0,0:0:0:0:
61,185,87082,37,4,0:0:0:0:
224,165,87236,1,0,0:0:0:0:
372,223,87390,6,0,P|425:253|500:350,1,157.5,4|0,0:0|0:0,0:0:0:0:
498,349,87698,1,4,0:0:0:0:
467,248,87852,1,4,0:0:0:0:
194,279,88006,37,8,0:0:0:0:
180,382,88159,1,4,0:0:0:0:
180,382,88621,5,6,0:2:0:0:
151,298,89082,1,0,0:0:0:0:
194,220,89544,1,0,0:0:0:0:
281,206,90006,1,0,0:0:0:0:
345,266,90467,1,0,0:0:0:0:
345,266,91082,37,2,0:2:0:0:
432,278,91544,1,0,0:0:0:0:
481,205,92006,2,0,L|472:119,3,84,0|0|0|0,0:0|0:0|0:0|0:0,0:0:0:0:
472,121,93544,5,2,0:2:0:0:
386,144,94006,1,0,0:0:0:0:
301,118,94467,1,0,0:0:0:0:
237,56,94929,1,0,0:0:0:0:
150,40,95390,1,0,0:0:0:0:
150,40,96006,37,2,0:2:0:0:
112,119,96467,1,0,0:0:0:0:
165,189,96929,2,0,P|169:232|165:281,3,84,0|0|0|0,0:0|0:0|0:0|0:0,0:0:0:0:
166,272,98467,5,2,0:2:0:0:
252,291,98929,2,0,P|288:314|348:380,1,126,0|2,0:0|0:2,0:0:0:0:
428,379,99544,1,2,0:2:0:0:
468,305,99698,38,0,L|471:252,1,42,2|2,0:2|0:2,0:0:0:0:
423,192,100006,1,2,0:2:0:0:
423,192,100313,2,0,L|371:197,1,42,2|2,0:2|0:2,0:0:0:0:
305,158,100621,1,2,0:2:0:0:
305,158,100775,2,0,L|215:154,1,84,2|0,0:2|0:0,0:0:0:0:
221,154,101852,5,2,0:2:0:0:
299,123,102006,2,0,P|305:76|292:37,1,84,2|0,0:2|0:0,0:0:0:0:
371,7,102467,2,0,P|385:46|389:96,2,84,2|2|2,0:2|0:2|0:2,0:0:0:0:
294,41,103236,2,0,P|293:92|204:170,1,168,2|0,0:2|0:0,0:0:0:0:
212,168,104313,37,2,0:2:0:0:
291,196,104467,1,2,0:2:0:0:
288,280,104621,2,0,L|287:334,1,42,2|2,0:2|0:2,0:0:0:0:
371,314,104929,2,0,L|370:221,1,84,2|2,0:2|0:2,0:0:0:0:
438,181,105390,1,2,0:2:0:0:
400,105,105544,1,2,0:2:0:0:
400,105,105698,2,0,L|266:116,1,126,2|0,0:2|0:0,0:0:0:0:
274,115,106775,5,2,0:2:0:0:
280,198,106929,2,0,P|258:232|180:271,1,126,2|2,0:2|0:2,0:0:0:0:
100,262,107544,1,2,0:2:0:0:
133,184,107698,2,0,P|133:154|129:134,1,42,2|0,0:2|0:0,0:0:0:0:
250,24,108159,2,0,P|227:80|217:155,1,126,2|0,0:2|0:0,0:0:0:0:
217,144,109236,37,2,0:2:0:0:
374,202,109544,1,2,0:2:0:0:
374,202,109698,2,0,L|466:192,2,84,2|2|2,0:2|0:2|0:2,0:0:0:0:
224,279,110621,2,0,L|135:274,1,84,2|2,0:2|0:2,0:0:0:0:
140,274,111698,5,2,0:2:0:0:
265,161,112006,2,0,P|268:125|259:70,1,84,2|0,0:2|0:0,0:0:0:0:
184,111,112467,2,0,P|173:78|138:37,1,84,2|2,0:2|0:2,0:0:0:0:
46,178,113082,2,0,P|51:225|33:313,1,126,2|0,0:2|0:0,0:0:0:0:
37,302,114313,37,2,0:0:0:0:
95,362,114467,2,0,L|190:360,1,84,2|2,0:0|0:0,0:0:0:0:
263,357,114929,1,2,0:0:0:0:
263,357,115698,5,2,0:2:0:0:
230,279,115852,2,0,P|230:256|256:188,1,84,2|0,0:2|0:0,0:0:0:0:
248,198,116621,37,2,0:2:0:0:
415,187,116929,2,0,L|511:181,2,84,2|2|2,0:2|0:2|0:2,0:0:0:0:
389,20,117852,2,0,L|379:196,1,168,2|2,0:2|0:2,0:0:0:0:
379,187,119236,5,2,0:2:0:0:
324,250,119390,2,0,P|291:250|240:274,2,84,2|2|2,0:2|0:2|0:2,0:0:0:0:
159,215,120313,2,0,P|188:257|207:383,1,168,2|0,0:2|0:0,0:0:0:0:
208,370,121544,37,2,0:2:0:0:
366,312,121852,2,2,L|465:310,2,84,2|2|2,0:2|0:2|0:2,0:2:0:0:
204,266,122775,2,0,L|199:168,1,84,2|2,0:2|0:2,0:0:0:0:
199,182,124006,5,2,0:2:0:0:
366,196,124313,2,0,P|404:226|426:261,2,84,2|2|2,0:2|0:2|0:2,0:0:0:0:
199,182,125236,2,0,P|194:136|211:86,1,84,2|2,0:2|0:2,0:0:0:0:
203,99,126467,37,2,0:2:0:0:
370,107,126775,2,0,L|453:110,1,84,2|2,0:2|0:2,0:0:0:0:
485,276,127390,2,0,L|391:283,1,84,2|2,0:2|0:2,0:0:0:0:
168,381,128006,6,0,L|104:374,1,62.9999980773926,2|0,0:3|0:0,0:0:0:0:
129,283,128313,2,0,L|62:270,1,62.9999980773926,0|0,0:0|0:0,0:0:0:0:
158,178,128621,2,0,L|95:181,1,62.9999980773926,0|0,0:0|0:0,0:0:0:0:
0,186,128929,1,2,0:2:0:0:
175,84,129082,1,2,0:2:0:0:
225,245,129236,38,0,P|221:287|210:315,1,62.9999980773926,2|2,0:2|0:2,0:0:0:0:
424,376,129544,2,0,P|407:339|402:306,1,62.9999980773926,2|0,0:2|0:0,0:0:0:0:
485,178,129852,1,2,0:2:0:0:
434,257,130006,2,0,P|403:273|361:279,1,62.9999980773926,2|2,0:2|0:2,0:0:0:0:
381,184,130313,6,0,P|367:141|253:32,1,188.999994232178,2|0,0:2|0:0,0:0:0:0:
313,123,130929,1,0,0:0:0:0:
219,131,131082,2,0,P|186:148|161:174,1,62.9999980773926,0|0,0:0|0:0,0:0:0:0:
147,26,131390,1,2,0:2:0:0:
94,104,131544,2,2,P|133:161|146:224,1,125.999996154785,2|2,0:2|0:2,0:2:0:0:
15,372,132006,2,0,P|46:318|60:257,1,125.999996154785,2|2,0:2|0:2,0:0:0:0:
23,169,132467,1,0,0:0:0:0:
65,84,132621,1,2,0:2:0:0:
347,75,132775,38,0,L|159:80,1,188.999994232178,2|0,0:2|0:0,0:0:0:0:
126,168,133390,1,0,0:0:0:0:
219,184,133544,2,0,P|251:206|273:238,1,62.9999980773926,0|0,0:0|0:0,0:0:0:0:
174,366,133852,1,2,0:2:0:0:
183,272,134006,1,2,0:2:0:0:
433,234,134159,6,0,L|427:163,1,62.9999980773926,2|2,0:2|0:2,0:0:0:0:
462,82,134467,2,0,L|327:78,1,125.999996154785,2|2,0:2|0:2,0:0:0:0:
177,73,134929,2,0,L|240:75,1,62.9999980773926,2|2,0:2|0:2,0:0:0:0:
79,179,135236,38,0,L|268:165,1,188.999994232178,2|0,0:2|0:0,0:0:0:0:
348,215,135852,1,0,0:0:0:0:
442,222,136006,2,0,L|511:228,1,62.9999980773926,0|0,0:0|0:0,0:0:0:0:
247,355,136313,5,2,0:2:0:0:
320,296,136467,2,0,P|331:246|323:170,1,125.999996154785,2|0,0:2|0:0,0:0:0:0:
192,161,136929,2,0,P|217:181|235:207,1,62.9999980773926,2|2,0:2|0:2,0:0:0:0:
323,172,137236,2,0,L|396:170,2,62.9999980773926,2|2|0,0:2|0:2|0:0,0:0:0:0:
290,82,137698,1,2,0:2:0:0:
267,280,137852,37,6,0:3:0:0:
267,290,138006,1,0,0:0:0:0:
360,298,138159,1,4,0:0:0:0:
362,307,138313,1,0,0:0:0:0:
431,243,138467,1,6,0:3:0:0:
437,250,138621,1,0,0:0:0:0:
434,70,138775,1,4,0:0:0:0:
466,160,138929,1,0,0:0:0:0:
309,152,139082,6,0,L|246:149,1,62.9999980773926,6|0,0:3|0:0,0:0:0:0:
193,351,139390,2,0,L|255:350,1,62.9999980773926,4|0,0:0|0:0,0:0:0:0:
501,291,139698,2,0,L|438:291,1,62.9999980773926,6|0,0:3|0:0,0:0:0:0:
113,296,140006,1,8,0:0:0:0:
178,229,140159,1,0,0:0:0:0:
265,264,140313,38,0,P|309:262|348:250,1,62.9999980773926,6|0,0:3|0:0,0:0:0:0:
289,170,140621,2,0,P|322:149|342:122,1,62.9999980773926,4|0,0:0|0:0,0:0:0:0:
254,81,140929,2,0,P|264:50|267:19,1,62.9999980773926,6|0,0:3|0:0,0:0:0:0:
175,132,141236,1,4,0:0:0:0:
191,339,141390,1,0,0:0:0:0:
285,347,141544,5,6,0:3:0:0:
371,125,141698,1,8,0:0:0:0:
359,219,141852,1,4,0:0:0:0:
372,312,142006,1,0,0:0:0:0:
191,339,142159,2,0,L|128:347,1,62.9999980773926,6|4,0:3|0:0,0:0:0:0:
128,347,142390,1,4,0:0:0:0:
128,347,142467,1,4,0:0:0:0:
37,372,142621,1,4,0:0:0:0:
59,280,142775,37,6,0:3:0:0:
56,270,142929,1,0,0:0:0:0:
143,236,143082,1,4,0:0:0:0:
142,227,143236,1,0,0:0:0:0:
236,235,143390,1,6,0:3:0:0:
237,227,143544,1,0,0:0:0:0:
112,23,143698,5,8,0:0:0:0:
127,116,143852,1,0,0:0:0:0:
116,293,144006,2,0,L|111:355,1,62.9999980773926,6|0,0:3|0:0,0:0:0:0:
336,374,144313,2,0,L|331:311,1,62.9999980773926,4|0,0:0|0:0,0:0:0:0:
324,216,144621,1,6,0:3:0:0:
408,174,144775,1,0,0:0:0:0:
474,241,144929,1,4,0:0:0:0:
435,326,145082,1,0,0:0:0:0:
313,212,145236,38,0,P|276:209|237:212,2,62.9999980773926,6|0|4,0:3|0:0|0:0,0:0:0:0:
416,40,145698,5,4,0:0:0:0:
416,51,145775,1,4,0:0:0:0:
416,62,145852,1,6,0:3:0:0:
218,79,146006,37,4,0:0:0:0:
220,118,146082,1,4,0:0:0:0:
222,157,146159,1,6,0:3:0:0:
342,221,146313,5,4,0:0:0:0:
340,298,146390,1,4,0:0:0:0:
338,375,146467,21,4,0:0:0:0:
338,375,147698,6,0,P|280:362|222:366,1,105,12|0,0:0|0:0,0:0:0:0:
492,255,148006,2,0,P|438:207|387:183,1,105,12|0,0:0|0:0,0:0:0:0:
132,384,148313,5,12,0:0:0:0:
394,295,148467,1,8,0:0:0:0:
383,190,148621,1,4,0:0:0:0:
435,0,148775,37,8,0:0:0:0:
372,85,148929,1,4,0:0:0:0:
394,295,149082,5,8,0:0:0:0:
498,287,149236,1,4,0:0:0:0:
478,98,149390,37,8,0:0:0:0:
283,154,149544,2,0,P|224:146|144:105,1,105,12|0,0:0|0:0,0:0:0:0:
47,0,149852,2,0,P|64:49|70:109,1,105,12|0,0:0|0:0,0:0:0:0:
2,384,150159,6,0,P|33:328|50:274,1,105,12|0,0:0|0:0,0:0:0:0:
249,355,150467,2,0,P|248:285|237:229,1,105,12|0,0:0|0:0,0:0:0:0:
147,79,150775,37,12,0:0:0:0:
418,109,150929,1,8,0:0:0:0:
428,5,151082,1,4,0:0:0:0:
152,87,151236,5,8,0:0:0:0:
163,191,151390,1,4,0:0:0:0:
409,119,151544,37,8,0:0:0:0:
416,15,151698,1,4,0:0:0:0:
146,82,151852,5,8,0:0:0:0:
395,140,152006,2,0,P|392:245|396:350,1,210,12|12,0:0|0:0,0:0:0:0:
395,350,152621,38,0,P|384:288|383:218,1,105,12|0,0:0|0:0,0:0:0:0:
401,36,152929,2,0,P|400:89|393:141,1,105,12|0,0:0|0:0,0:0:0:0:
299,311,153236,5,12,0:0:0:0:
102,212,153390,1,8,0:0:0:0:
112,107,153544,1,4,0:0:0:0:
187,272,153698,37,8,0:0:0:0:
91,316,153852,1,4,0:0:0:0:
283,229,154006,5,8,0:0:0:0:
197,167,154159,1,4,0:0:0:0:
55,360,154313,37,8,0:0:0:0:
336,244,154467,1,12,0:0:0:0:
337,235,154621,1,0,0:0:0:0:
87,53,154775,1,12,0:0:0:0:
86,44,154929,1,0,0:0:0:0:
340,227,155082,6,0,P|392:222|441:205,1,105,12|0,0:0|0:0,0:0:0:0:
422,3,155390,2,0,P|410:54|410:107,1,105,12|0,0:0|0:0,0:0:0:0:
504,334,155698,37,12,0:0:0:0:
258,249,155852,1,8,0:0:0:0:
263,144,156006,1,4,0:0:0:0:
80,82,156159,5,8,0:0:0:0:
185,91,156313,1,4,0:0:0:0:
407,122,156467,37,8,0:0:0:0:
512,129,156621,1,4,0:0:0:0:
197,108,156775,5,8,0:0:0:0:
302,115,156929,2,0,P|300:225|293:324,1,210,12|12,0:0|0:0,0:0:0:0:
292,324,157544,38,0,P|343:331|393:349,1,105,12|0,0:0|0:0,0:0:0:0:
101,326,157852,2,0,P|145:298|195:281,1,105,12|0,0:0|0:0,0:0:0:0:
158,123,158159,5,12,0:0:0:0:
357,238,158313,1,8,0:0:0:0:
347,342,158467,1,4,0:0:0:0:
69,169,158621,37,8,0:0:0:0:
59,65,158775,1,4,0:0:0:0:
260,255,158929,5,8,0:0:0:0:
165,212,159083,1,4,0:0:0:0:
432,135,159236,37,8,0:0:0:0:
176,316,159390,2,0,L|71:325,1,105,12|0,0:0|0:0,0:0:0:0:
222,116,159698,2,0,L|326:125,1,105,12|0,0:0|0:0,0:0:0:0:
458,290,160006,6,0,L|353:299,1,105,12|0,0:0|0:0,0:0:0:0:
143,296,160313,2,0,L|248:287,1,105,12|0,0:0|0:0,0:0:0:0:
506,383,160621,37,12,0:0:0:0:
356,147,160775,1,8,0:0:0:0:
460,132,160929,1,4,0:0:0:0:
318,354,161082,5,8,0:0:0:0:
213,341,161236,1,4,0:0:0:0:
431,363,161390,37,8,0:0:0:0:
326,350,161544,1,4,0:0:0:0:
40,313,161698,5,8,0:0:0:0:
251,166,161852,2,0,P|356:161|457:186,1,210,12|12,0:0|0:0,0:0:0:0:
458,187,162467,38,0,P|473:124|475:58,1,105,12|0,0:0|0:0,0:0:0:0:
244,155,162775,2,0,P|236:218|240:270,1,105,12|0,0:0|0:0,0:0:0:0:
113,3,163082,5,12,0:0:0:0:
381,116,163236,1,8,0:0:0:0:
367,220,163390,1,4,0:0:0:0:
389,6,163544,37,8,0:0:0:0:
375,110,163698,1,4,0:0:0:0:
453,279,163852,5,8,0:0:0:0:
439,383,164006,1,4,0:0:0:0:
479,75,164159,37,8,0:0:0:0:
214,30,164313,1,12,0:0:0:0:
204,24,164467,1,0,0:0:0:0:
295,284,164621,1,12,0:0:0:0:
290,296,164775,1,0,0:0:0:0:
83,303,164929,6,0,P|132:284|184:274,1,105,12|0,0:0|0:0,0:0:0:0:
6,372,165236,2,0,P|-14:325|-14:273,1,105,12|0,0:0|0:0,0:0:0:0:
74,72,165544,37,12,0:0:0:0:
119,274,165698,1,8,0:0:0:0:
100,377,165852,1,4,0:0:0:0:
302,279,166006,5,8,0:0:0:0:
324,381,166159,1,4,0:0:0:0:
416,127,166313,37,8,0:0:0:0:
484,206,166467,1,4,0:0:0:0:
261,22,166621,5,8,0:0:0:0:
65,115,166775,2,0,P|40:217|29:322,1,210,12|12,0:0|0:0,0:0:0:0:
30,322,167390,21,14,0:0:0:0:
10,218,167544,1,0,0:0:0:0:
115,384,167698,37,14,0:0:0:0:
132,280,167852,1,0,0:0:0:0:
173,28,168006,5,14,0:0:0:0:
130,294,168159,1,10,0:0:0:0:
225,337,168313,1,4,0:0:0:0:
277,24,168467,37,10,0:0:0:0:
382,21,168621,1,4,0:0:0:0:
90,63,168775,5,10,0:0:0:0:
192,85,168929,1,4,0:0:0:0:
4,3,169082,37,10,0:0:0:0:
76,313,169236,1,14,0:0:0:0:
180,324,169390,1,0,0:0:0:0:
34,138,169544,5,14,0:0:0:0:
138,129,169698,1,0,0:0:0:0:
184,330,169852,37,14,0:0:0:0:
288,341,170006,1,0,0:0:0:0:
254,142,170159,5,14,0:0:0:0:
243,246,170313,1,0,0:0:0:0:
468,273,170467,37,14,0:0:0:0:
495,48,170621,1,10,0:0:0:0:
391,37,170775,1,4,0:0:0:0:
150,156,170929,5,10,0:0:0:0:
254,142,171082,1,4,0:0:0:0:
66,219,171236,37,10,0:0:0:0:
52,115,171389,1,4,0:0:0:0:
338,79,171544,1,10,0:0:0:0:
374,365,171698,22,0,P|298:363|214:385,1,157.5,14|0,0:0|0:0,0:0:0:0:
226,356,172006,2,0,P|222:299|206:253,1,105,14|0,0:0|0:0,0:0:0:0:
96,0,172313,6,0,P|95:78|124:152,1,157.5,14|0,0:0|0:0,0:0:0:0:
138,171,172621,2,0,P|186:149|238:153,1,105,14|0,0:0|0:0,0:0:0:0:
471,322,172929,5,14,0:0:0:0:
206,254,173082,1,10,0:0:0:0:
308,232,173236,1,4,0:0:0:0:
2,298,173390,5,10,0:0:0:0:
104,276,173544,1,4,0:0:0:0:
167,45,173698,37,10,0:0:0:0:
269,67,173852,1,4,0:0:0:0:
464,19,174006,5,10,0:0:0:0:
198,144,174159,1,14,0:0:0:0:
187,248,174313,1,0,0:0:0:0:
463,363,174467,37,14,0:0:0:0:
452,259,174621,1,0,0:0:0:0:
424,3,174775,5,14,0:0:0:0:
435,107,174929,1,0,0:0:0:0:
205,254,175082,37,14,0:0:0:0:
190,358,175236,1,0,0:0:0:0:
399,337,175390,5,14,0:0:0:0:
107,293,175544,1,10,0:0:0:0:
95,188,175698,1,4,0:0:0:0:
168,20,175852,37,10,0:0:0:0:
180,125,176006,1,4,0:0:0:0:
382,156,176159,5,10,0:0:0:0:
277,168,176313,1,4,0:0:0:0:
481,198,176467,1,10,0:0:0:0:
192,230,176621,6,0,B|67:244|67:244|40:226,1,157.5,14|0,0:0|0:0,0:0:0:0:
22,215,176929,2,0,P|22:286|42:345,1,105,14|0,0:0|0:0,0:0:0:0:
296,214,177236,6,0,B|421:200|421:200|468:230,1,157.5,14|0,0:0|0:0,0:0:0:0:
466,229,177544,2,0,P|466:158|446:99,1,105,14|0,0:0|0:0,0:0:0:0:
397,352,177852,5,14,0:0:0:0:
377,56,178006,1,10,0:0:0:0:
476,24,178159,1,4,0:0:0:0:
270,82,178314,5,10,0:0:0:0:
369,50,178467,1,4,0:0:0:0:
163,108,178622,37,10,0:0:0:0:
262,76,178775,1,4,0:0:0:0:
56,134,178929,5,10,0:0:0:0:
363,41,179082,1,14,0:0:0:0:
384,143,179236,1,0,0:0:0:0:
239,278,179390,37,14,0:0:0:0:
234,382,179544,1,0,0:0:0:0:
42,318,179698,5,14,0:0:0:0:
146,323,179852,1,0,0:0:0:0:
332,233,180006,37,14,0:0:0:0:
436,238,180159,1,0,0:0:0:0:
151,219,180313,5,14,0:0:0:0:
327,337,180467,1,10,0:0:0:0:
431,342,180621,1,4,0:0:0:0:
485,74,180775,37,10,0:0:0:0:
381,89,180929,1,4,0:0:0:0:
327,337,181082,5,10,0:0:0:0:
223,332,181236,1,4,0:0:0:0:
215,53,181390,1,10,0:0:0:0:
485,13,181544,6,0,B|444:47|444:47|340:50,1,157.5,14|0,0:0|0:0,0:0:0:0:
320,50,181852,2,0,P|312:112|311:168,1,105,14|0,0:0|0:0,0:0:0:0:
410,369,182159,6,0,B|369:336|369:336|265:333,1,157.5,14|0,0:0|0:0,0:0:0:0:
244,332,182467,2,0,P|237:280|235:228,1,105,14|0,0:0|0:0,0:0:0:0:
284,2,182775,5,14,0:0:0:0:
24,36,182929,1,10,0:0:0:0:
16,140,183082,1,4,0:0:0:0:
73,326,183236,5,10,0:0:0:0:
80,222,183390,1,4,0:0:0:0:
319,258,183544,37,10,0:0:0:0:
327,362,183697,1,4,0:0:0:0:
512,251,183851,5,10,0:0:0:0:
491,0,184005,1,14,0:0:0:0:
386,11,184159,1,0,0:0:0:0:
119,82,184313,37,14,0:0:0:0:
224,93,184467,1,0,0:0:0:0:
286,334,184621,5,14,0:0:0:0:
181,342,184775,1,0,0:0:0:0:
391,326,184929,37,14,0:0:0:0:
496,318,185082,1,0,0:0:0:0:
318,58,185236,5,14,0:0:0:0:
181,342,185390,1,10,0:0:0:0:
76,350,185544,1,4,0:0:0:0:
254,188,185698,37,10,0:0:0:0:
358,196,185852,1,4,0:0:0:0:
142,186,186006,5,10,0:0:0:0:
246,194,186160,1,4,0:0:0:0:
30,184,186313,37,10,0:0:0:0:
356,213,186467,1,14,0:0:0:0:
369,317,186621,1,0,0:0:0:0:
457,106,186775,5,14,0:0:0:0:
467,1,186929,1,0,0:0:0:0:
232,14,187082,38,0,B|96:21|96:21|47:60,1,183.750001752377,4|0,0:0|0:0,0:0:0:0:
145,341,187390,2,0,B|280:333|280:333|330:295,1,183.750001752377,4|4,0:0|0:0,0:0:0:0:
336,287,187621,1,4,0:0:0:0:
353,269,187698,21,8,0:0:0:0:
254,98,187852,1,4,0:0:0:0:
239,365,188006,1,4,0:0:0:0:
442,332,188159,38,0,P|481:249|491:158,1,183.750001752377,4|0,0:0|0:0,0:0:0:0:
210,2,188467,2,0,P|359:93|353:269,1,367.500003504753,4|4,0:0|0:0,0:0:0:0:
336,287,188852,1,4,0:0:0:0:
318,303,188929,5,8,0:0:0:0:
418,168,189082,1,8,0:0:0:0:
219,265,189236,1,8,0:0:0:0:
493,285,189390,1,8,0:0:0:0:
275,159,189544,2,0,P|268:127|276:44,1,105,4|4,0:0|0:0,0:0:0:0:
89,187,189852,38,0,B|83:240|83:240|118:383,1,183.750001752377,4|0,0:0|0:0,0:0:0:0:
369,289,190159,2,0,B|458:300|458:300|544:362,2,183.750001752377,4|8|4,0:0|0:0|0:0,0:0:0:0:
210,321,190621,38,0,B|184:232|184:232|203:63,1,183.750001752377,4|0,0:0|0:0,0:0:0:0:
346,52,190929,2,0,B|304:121|304:121|300:224,1,183.750001752377,4|0,0:0|0:0,0:0:0:0:
362,315,191236,1,4,0:0:0:0:
500,63,191390,1,8,0:0:0:0:
424,143,191544,2,0,P|275:157|39:321,1,367.500003504753,4|0,0:0|0:0,0:0:0:0:
440,134,192006,6,0,P|336:117|253:88,1,183.750001752377,4|0,0:0|0:0,0:0:0:0:
102,0,192313,2,0,P|148:78|158:210,1,183.750001752377,4|4,0:0|0:0,0:0:0:0:
160,197,192544,1,4,0:0:0:0:
153,224,192621,5,8,0:0:0:0:
262,237,192775,1,4,0:0:0:0:
58,280,192929,1,4,0:0:0:0:
317,331,193082,38,0,B|448:339|448:339|519:294,1,183.750001752377,4|0,0:0|0:0,0:0:0:0:
492,56,193390,2,0,B|470:179|470:179|427:220,1,183.750001752377,4|0,0:0|0:0,0:0:0:0:
316,19,193698,1,4,0:0:0:0:
316,19,193775,1,4,0:0:0:0:
316,19,193852,5,8,0:0:0:0:
352,123,194006,1,8,0:0:0:0:
223,278,194159,1,8,0:0:0:0:
322,228,194313,1,8,0:0:0:0:
184,120,194467,2,0,P|163:74|153:18,1,105,4|4,0:0|0:0,0:0:0:0:
15,166,194775,38,0,B|18:375,1,183.750001752377,4|0,0:0|0:0,0:0:0:0:
123,382,195082,1,4,0:0:0:0:
160,90,195236,1,8,0:0:0:0:
254,32,195390,1,4,0:0:0:0:
357,70,195544,2,0,P|119:52|-50:-3,2,367.500003504753,4|4|4,0:0|0:0|0:0,0:0:0:0:
395,329,196313,1,8,0:0:0:0:
501,301,196467,2,0,P|267:303|28:338,1,459.375004380941,4|0,0:0|0:0,0:0:0:0:
15,323,196929,38,0,P|141:279|202:226,1,183.750001752377,4|0,0:0|0:0,0:0:0:0:
114,0,197236,2,0,P|115:90|91:179,1,183.750001752377,4|4,0:0|0:0,0:0:0:0:
85,193,197467,1,4,0:0:0:0:
78,204,197544,21,8,0:0:0:0:
249,182,197698,1,4,0:0:0:0:
182,341,197852,1,4,0:0:0:0:
475,350,198006,38,0,L|292:344,1,183.750001752377,4|0,0:0|0:0,0:0:0:0:
71,328,198313,2,0,L|439:340,1,367.500003504753,4|4,0:0|0:0,0:0:0:0:
438,328,198698,1,4,0:0:0:0:
438,316,198775,5,8,0:0:0:0:
442,205,198929,1,8,0:0:0:0:
351,143,199082,1,8,0:0:0:0:
377,32,199236,1,8,0:0:0:0:
212,62,199390,2,0,P|187:115|172:197,1,105,4|4,0:0|0:0,0:0:0:0:
183,311,199698,38,0,P|174:220|124:144,1,183.750001752377,4|0,0:0|0:0,0:0:0:0:
22,100,200006,1,4,0:0:0:0:
96,379,200159,1,8,0:0:0:0:
4,317,200313,1,4,0:0:0:0:
232,151,200467,38,0,P|323:150|412:171,1,183.750001752377,4|0,0:0|0:0,0:0:0:0:
59,224,200775,2,0,P|133:170|221:144,1,183.750001752377,4|0,0:0|0:0,0:0:0:0:
434,174,201082,1,4,0:0:0:0:
411,339,201236,1,8,0:0:0:0:
512,384,201390,2,0,P|398:283|524:43,1,459.375004380941,4|0,0:0|0:0,0:0:0:0:
502,36,201852,6,0,L|318:48,1,183.750001752377,4|0,0:0|0:0,0:0:0:0:
0,71,202159,2,0,L|183:58,1,183.750001752377,4|4,0:0|0:0,0:0:0:0:
196,57,202390,1,4,0:0:0:0:
208,56,202467,5,8,0:0:0:0:
106,29,202621,1,4,0:0:0:0:
79,223,202775,1,4,0:0:0:0:
313,345,202929,38,0,P|267:266|189:220,1,183.750001752377,4|0,0:0|0:0,0:0:0:0:
417,380,203236,2,0,P|421:230|390:119,1,183.750001752377,4|0,0:0|0:0,0:0:0:0:
333,12,203544,1,4,0:0:0:0:
333,12,203621,1,4,0:0:0:0:
333,12,203698,5,8,0:0:0:0:
380,105,203852,1,8,0:0:0:0:
217,186,204006,1,8,0:0:0:0:
275,99,204159,1,8,0:0:0:0:
378,97,204313,2,0,P|421:155|431:204,1,105,4|4,0:0|0:0,0:0:0:0:
434,287,204621,38,0,B|308:296|308:296|259:327,1,183.750001752377,4|0,0:0|0:0,0:0:0:0:
213,226,204929,1,4,0:0:0:0:
504,375,205082,1,8,0:0:0:0:
449,279,205236,1,4,0:0:0:0:
503,182,205390,38,0,P|494:90|420:8,1,183.750001752377,4|0,0:0|0:0,0:0:0:0:
205,76,205698,2,0,P|296:71|378:112,1,183.750001752377,4|0,0:0|0:0,0:0:0:0:
293,39,206006,1,4,0:0:0:0:
344,384,206159,1,8,0:0:0:0:
234,374,206313,2,0,P|395:148|238:87,1,459.375004380941,4|0,0:0|0:0,0:0:0:0:
322,107,206775,6,0,B|136:124|136:124|31:95,1,236.250009012223,6|0,0:0|0:0,0:0:0:0:
121,9,207082,2,0,B|207:32|207:32|224:232,1,236.250009012223,6|0,0:0|0:0,0:0:0:0:
442,353,207390,1,10,0:0:0:0:
339,384,207544,2,0,L|322:149,1,236.250009012223,6|0,0:0|0:0,0:0:0:0:
318,0,207852,38,0,L|347:374,1,354.375013518334,6|0,0:0|0:0,0:0:0:0:
348,371,208159,1,6,0:0:0:0:
298,238,208313,1,0,0:0:0:0:
370,110,208467,1,6,0:0:0:0:
46,76,208621,6,0,P|159:46|277:56,1,236.250009012223,10|8,0:0|0:0,0:0:0:0:
390,260,208929,2,0,P|307:179|194:150,1,236.250009012223,6|0,0:0|0:0,0:0:0:0:
334,14,209236,38,0,P|281:189|147:321,1,354.375013518334,6|0,0:0|0:0,0:0:0:0:
145,320,209544,1,6,0:0:0:0:
245,381,209698,2,0,P|267:256|162:46,1,354.375013518334,0|0,0:0|0:0,0:0:0:0:
155,44,210006,1,6,0:0:0:0:
297,226,210159,1,0,0:0:0:0:
0,168,210313,6,0,B|182:151|182:151|275:101|275:101|509:81,2,472.500018024445,6|6|6,0:0|0:0|0:0,0:0:0:0:
362,364,211082,37,10,0:0:0:0:
82,292,211236,1,8,0:0:0:0:
92,186,211390,1,6,0:0:0:0:
102,80,211544,1,0,0:0:0:0:
363,24,211698,6,0,B|421:81|421:81|434:278,1,236.250009012223,6|0,0:0|0:0,0:0:0:0:
228,169,212006,2,0,B|284:140|284:140|457:131,1,236.250009012223,6|0,0:0|0:0,0:0:0:0:
361,355,212313,1,10,0:0:0:0:
255,362,212467,1,6,0:0:0:0:
150,368,212621,1,0,0:0:0:0:
109,48,212775,38,0,P|167:150|183:267,1,236.250009012223,6|0,0:0|0:0,0:0:0:0:
353,51,213082,1,6,0:0:0:0:
283,132,213237,2,0,P|171:170|54:180,1,236.250009012223,0|6,0:0|0:0,0:0:0:0:
169,336,213544,6,0,B|347:343|347:343|396:379,1,236.250009012223,10|8,0:0|0:0,0:0:0:0:
485,74,213852,2,0,B|423:103|423:103|156:93,1,236.250009012223,6|0,0:0|0:0,0:0:0:0:
4,77,214159,38,0,L|450:95,1,354.375013518334,6|0,0:0|0:0,0:0:0:0:
380,92,214467,1,6,0:0:0:0:
453,268,214621,2,0,L|42:278,1,354.375013518334,0|0,0:0|0:0,0:0:0:0:
77,276,214929,1,6,0:0:0:0:
220,247,215082,1,0,0:0:0:0:
282,376,215236,6,0,P|256:234|498:-4,2,472.500018024445,6|6|6,0:0|0:0|0:0,0:0:0:0:
479,214,216006,38,0,P|368:75|248:22,1,236.250009012223,10|8,0:0|0:0,0:0:0:0:
0,89,216313,2,0,P|100:28|216:15,1,236.250009012223,6|0,0:0|0:0,0:0:0:0:
87,379,216621,6,0,P|39:216|173:114,1,354.375013518334,6|0,0:0|0:0,0:0:0:0:
176,131,216929,2,0,P|279:182|303:293,1,236.250009012223,6|0,0:0|0:0,0:0:0:0:
177,262,217236,2,0,P|86:278|-34:389,1,236.250009012223,10|6,0:0|0:0,0:0:0:0:
11,37,217544,37,0,0:0:0:0:
115,58,217698,1,6,0:0:0:0:
397,58,217852,1,0,0:0:0:0:
501,37,218006,1,6,0:0:0:0:
402,75,218159,2,0,P|347:220|483:370,1,354.375013518334,0|0,0:0|0:0,0:0:0:0:
484,370,218467,6,0,B|443:343|443:343|231:338,1,236.250009012223,10|8,0:0|0:0,0:0:0:0:
17,332,218775,2,0,B|58:359|58:359|245:363,1,236.250009012223,6|0,0:0|0:0,0:0:0:0:
99,264,219082,2,0,L|453:249,1,354.375013518334,6|0,0:0|0:0,0:0:0:0:
472,247,219390,1,6,0:0:0:0:
0,222,219544,2,0,L|357:234,1,354.375013518334,0|0,0:0|0:0,0:0:0:0:
369,235,219852,1,6,0:0:0:0:
354,93,220006,1,0,0:0:0:0:
494,84,220159,38,0,L|-13:28,2,472.500018024445,6|6|6,0:0|0:0|0:0,0:0:0:0:
190,81,220929,5,10,0:0:0:0:
199,186,221082,1,8,0:0:0:0:
117,254,221236,1,6,0:0:0:0:
107,359,221390,1,0,0:0:0:0:
1,374,221544,38,0,L|343:366,1,236.250009012223,6|0,0:0|0:0,0:0:0:0:
512,262,221852,2,0,L|275:267,1,236.250009012223,6|0,0:0|0:0,0:0:0:0:
33,273,222159,1,10,0:0:0:0:
2,170,222313,1,6,0:0:0:0:
185,21,222467,5,0,0:0:0:0:
277,143,222621,1,6,0:0:0:0:
172,126,222775,1,0,0:0:0:0:
290,38,222929,1,6,0:0:0:0:
157,115,223082,2,0,P|115:206|140:412,1,236.250009012223,0|6,0:0|0:0,0:0:0:0:
454,357,223390,38,0,L|219:345,1,236.250009012223,10|8,0:0|0:0,0:0:0:0:
0,247,223698,2,0,L|235:239,1,236.250009012223,6|0,0:0|0:0,0:0:0:0:
489,189,224006,2,0,B|417:226|417:226|140:235,1,354.375013518334,6|0,0:0|0:0,0:0:0:0:
125,237,224313,1,6,0:0:0:0:
423,23,224467,2,0,B|334:86|334:86|305:334,1,354.375013518334,0|0,0:0|0:0,0:0:0:0:
304,348,224775,1,6,0:0:0:0:
409,361,224929,1,0,0:0:0:0:
432,150,225082,6,0,B|75:118|75:118|0:32,2,472.500018024445,6|6|6,0:0|0:0|0:0,0:0:0:0:
199,269,225852,1,10,0:0:0:0:
151,14,226006,1,8,0:0:0:0:
66,75,226159,2,0,P|38:203|191:391,1,354.375013518334,6|0,0:0|0:0,0:0:0:0:
184,384,226467,6,0,L|319:374,2,126,6|0|2,0:2|0:0|0:2,0:0:0:0:
138,313,227544,1,2,0:2:0:0:
219,291,227698,6,0,L|278:277,1,42,2|2,0:2|0:2,0:0:0:0:
293,203,228006,2,0,L|396:208,1,84,2|2,0:2|0:2,0:0:0:0:
452,243,228467,1,2,0:2:0:0:
381,288,228621,1,2,0:2:0:0:
376,207,228775,2,0,P|359:140|329:92,1,126,2|0,0:2|0:0,0:0:0:0:
329,92,229852,37,2,0:2:0:0:
269,151,230006,2,0,P|219:152|178:177,1,84,2|0,0:2|0:0,0:0:0:0:
244,230,230467,2,0,P|232:266|229:322,2,84,2|2|2,0:2|0:2|0:2,0:0:0:0:
327,235,231236,2,0,L|452:242,1,126,2|0,0:2|0:0,0:0:0:0:
452,242,232313,6,0,L|455:195,1,42,2|2,0:2|0:2,0:0:0:0:
401,134,232621,2,0,L|399:86,1,42,2|2,0:2|0:2,0:0:0:0:
471,48,232929,2,0,L|375:53,1,84,2|2,0:2|0:2,0:0:0:0:
303,61,233390,1,2,0:2:0:0:
271,138,233544,1,2,0:2:0:0:
271,138,233698,2,0,P|228:139|144:175,1,126,2|0,0:2|0:0,0:0:0:0:
151,169,234775,37,2,0:2:0:0:
210,228,234929,2,0,P|220:271|207:325,1,84,2|0,0:2|0:0,0:0:0:0:
137,274,235390,2,0,L|96:271,2,42,2|2|2,0:2|0:2|0:2,0:0:0:0:
205,324,235852,2,0,L|337:317,1,126,2|2,0:2|0:2,0:0:0:0:
330,317,236775,5,0,0:0:0:0:
388,250,237236,1,0,0:0:0:0:
368,163,237698,1,0,0:0:0:0:
297,110,238159,1,0,0:0:0:0:
297,110,238775,37,2,0:2:0:0:
218,149,239236,1,0,0:0:0:0:
151,91,239698,2,0,P|139:50|147:3,3,84,0|0|0|0,0:0|0:0|0:0|0:0,0:0:0:0:
144,9,241236,5,2,0:2:0:0:
231,20,241698,1,0,0:0:0:0:
318,32,242159,2,0,L|329:168,2,126,0|0|0,0:0|0:0|0:0,0:0:0:0:
318,32,243698,37,2,0:2:0:0:
309,119,244159,1,0,0:0:0:0:
301,206,244621,2,0,L|293:302,3,84,0|0|0|0,0:0|0:0|0:0|0:0,0:0:0:0:
290,287,246159,6,0,P|359:311|415:359,1,147,2|0,0:2|0:0,0:0:0:0:
415,359,248621,2,0,P|445:292|498:241,1,147,2|0,0:2|0:0,0:0:0:0:
498,242,251082,2,0,P|486:311|543:391,1,168,2|2,0:2|0:2,0:0:0:0:
20,224,256006,38,0,L|19:199,1,21,2|0,0:2|0:0,0:0:0:0:
10,184,256467,2,0,L|7:69,1,115.5,2|0,0:2|0:0,0:0:0:0:
7,69,258467,2,0,L|147:-2,1,147,2|0,0:2|0:0,0:0:0:0:
139,3,260929,2,0,L|-27:-20,1,168,2|2,0:2|0:2,0:0:0:0:
256,192,265236,12,0,268313,0:0:0:0:
