osu file format v14

[General]
AudioFilename: audio.mp3
AudioLeadIn: 0
PreviewTime: 187082
Countdown: 1
SampleSet: None
StackLeniency: 0.2
Mode: 0
LetterboxInBreaks: 0
WidescreenStoryboard: 1

[Editor]
Bookmarks: 4929,14775,24621,29544,34467,49236,64006,68929,78775,88621,98467,128006,137852,146467,147698,167390,187082,206775,226467,236313,246159,265236,268313
DistanceSpacing: 0.1
BeatDivisor: 4
GridSize: 16
TimelineZoom: 2.1

[Metadata]
Title:Radiate
TitleUnicode:Radiate
Artist:Enter Shikari
ArtistUnicode:Enter Shikari
Creator:h4d0uk3n1
Version:INSANE
Source:
Tags:Senseabel post-hardcore electronicore alternative metal english rock
BeatmapID:2027615
BeatmapSetID:967719

[Difficulty]
HPDrainRate:5
CircleSize:4
OverallDifficulty:8
ApproachRate:9
SliderMultiplier:1.8
SliderTickRate:1

[Events]
//Background and Video events
0,0,"ddddddddd.jpg",0,0
//Break Periods
//Storyboard Layer 0 (Background)
//Storyboard Layer 1 (Fail)
//Storyboard Layer 2 (Pass)
//Storyboard Layer 3 (Foreground)
//Storyboard Sound Samples

[TimingPoints]
6,307.692307692308,4,3,3,70,1,0
6,-100,4,3,3,70,0,1
4852,-100,4,3,3,70,0,0
4929,-100,4,3,3,90,0,1
5006,-100,4,3,3,90,0,0
6852,-100,4,3,0,5,0,0
6929,-100,4,3,3,90,0,0
9852,-100,4,3,3,90,0,1
9929,-100,4,3,3,90,0,0
10852,-100,4,3,0,5,0,0
10929,-100,4,3,3,90,0,0
14313,-333.333333333333,4,3,3,90,0,0
14698,-333.333333333333,4,3,0,5,0,0
14775,-100,4,3,3,90,0,1
14852,-100,4,3,3,90,0,0
16852,-100,4,3,0,5,0,0
16929,-100,4,3,3,90,0,0
19390,-333.333333333333,4,3,3,90,0,0
19621,-333.333333333333,4,3,0,5,0,0
19698,-100,4,3,3,90,0,1
19775,-100,4,3,3,90,0,0
24621,-100,4,3,3,70,0,1
24698,-100,4,3,3,70,0,0
27313,-100,4,3,0,5,0,0
27390,-100,4,3,3,70,0,0
27775,-100,4,3,0,5,0,0
27852,-100,4,3,3,70,0,0
29544,-100,4,3,3,70,0,1
29621,-100,4,3,3,70,0,0
34082,-100,4,3,0,5,0,0
34159,-100,4,3,3,70,0,0
43929,-100,4,3,0,5,0,0
44006,-100,4,3,3,70,0,0
49236,-66.6666666666667,4,3,3,70,0,1
49852,-100,4,3,3,70,0,0
50159,-100,4,3,2,70,0,0
50313,-66.6666666666667,4,3,3,70,0,1
51082,-100,4,3,3,70,0,0
51390,-100,4,3,2,70,0,0
52006,-66.6666666666667,4,3,3,70,0,1
52621,-66.6666666666667,4,3,2,70,0,1
52775,-66.6666666666667,4,3,3,70,0,1
54082,-66.6666666666667,4,3,3,70,0,0
54159,-66.6666666666667,4,3,3,70,0,1
54775,-100,4,3,3,70,0,0
55082,-100,4,3,2,70,0,0
55236,-66.6666666666667,4,3,3,70,0,1
56006,-100,4,3,3,70,0,0
56313,-100,4,3,2,70,0,0
56929,-66.6666666666667,4,3,3,70,0,1
57544,-66.6666666666667,4,3,2,70,0,1
57698,-66.6666666666667,4,3,3,70,0,1
59006,-66.6666666666667,4,3,3,70,0,0
59082,-66.6666666666667,4,3,3,70,0,1
59698,-100,4,3,3,70,0,0
60006,-100,4,3,2,70,0,0
60159,-66.6666666666667,4,3,3,70,0,1
60929,-100,4,3,3,70,0,0
61236,-100,4,3,2,70,0,0
61852,-57.1428571428571,4,3,3,70,0,1
62467,-57.1428571428571,4,3,2,70,0,1
62621,-57.1428571428571,4,3,3,70,0,1
63929,-57.1428571428571,4,3,3,70,0,0
64006,-100,4,3,3,70,0,1
68852,-100,4,3,3,70,0,0
68929,-100,4,3,3,90,0,1
69006,-100,4,3,3,90,0,0
70852,-100,4,3,0,5,0,0
70929,-100,4,3,3,90,0,0
73852,-100,4,3,3,90,0,1
73929,-100,4,3,3,90,0,0
78775,-100,4,3,3,90,0,1
78852,-100,4,3,3,90,0,0
83698,-100,4,3,3,90,0,1
83775,-100,4,3,3,90,0,0
88621,-200,4,3,3,25,0,0
93467,-200,4,3,0,5,0,0
93544,-200,4,3,3,25,0,0
98390,-200,4,3,0,5,0,0
98467,-200,4,3,3,25,0,0
128006,-166.666666666667,4,3,3,60,0,0
137852,-166.666666666667,4,3,3,70,0,0
141698,-166.666666666667,4,3,2,70,0,0
141852,-166.666666666667,4,3,3,70,0,0
142313,-166.666666666667,4,3,2,70,0,0
142467,-166.666666666667,4,3,3,70,0,0
142621,-166.666666666667,4,3,2,70,0,0
142775,-166.666666666667,4,3,3,70,0,0
145698,-166.666666666667,4,3,2,40,0,0
145852,-166.666666666667,4,3,3,70,0,0
146006,-166.666666666667,4,3,2,55,0,0
146159,-166.666666666667,4,3,3,70,0,0
146313,-166.666666666667,4,3,2,70,0,0
146467,-166.666666666667,4,3,3,70,0,1
146544,-166.666666666667,4,3,3,70,0,0
146621,-166.666666666667,4,3,3,70,0,1
146698,-166.666666666667,4,3,3,70,0,0
146775,-166.666666666667,4,3,3,70,0,1
146852,-166.666666666667,4,3,3,70,0,0
146929,-166.666666666667,4,3,3,70,0,1
147006,-166.666666666667,4,3,3,70,0,0
147082,-166.666666666667,4,3,3,70,0,1
147159,-166.666666666667,4,3,3,70,0,0
147236,-166.666666666667,4,3,3,70,0,1
147313,-166.666666666667,4,3,3,70,0,0
147390,-166.666666666667,4,3,3,70,0,1
147467,-166.666666666667,4,3,3,70,0,0
147544,-166.666666666667,4,3,3,70,0,1
147621,-166.666666666667,4,3,3,70,0,0
147698,-100,4,3,3,70,0,1
147775,-100,4,3,3,70,0,0
152236,-100,4,3,0,5,0,0
152313,-100,4,3,3,70,0,0
162082,-100,4,3,0,5,0,0
162159,-100,4,3,3,70,0,0
167390,-100,4,3,3,70,0,1
171929,-100,4,3,0,5,0,1
172006,-100,4,3,3,70,0,1
172544,-100,4,3,0,5,0,1
172621,-100,4,3,3,70,0,1
176852,-100,4,3,0,5,0,1
176929,-100,4,3,3,70,0,1
177467,-100,4,3,0,5,0,1
177544,-100,4,3,3,70,0,1
181775,-100,4,3,0,5,0,1
181852,-100,4,3,3,70,0,1
182390,-100,4,3,0,5,0,1
182467,-100,4,3,3,70,0,1
187006,-100,4,3,3,70,0,0
187082,-66.6666666666667,4,3,3,70,0,1
187698,-100,4,3,3,70,0,0
188006,-100,4,3,2,70,0,0
188159,-66.6666666666667,4,3,3,70,0,1
188929,-100,4,3,3,70,0,0
189236,-100,4,3,2,70,0,0
189852,-66.6666666666667,4,3,3,70,0,1
190467,-66.6666666666667,4,3,2,70,0,1
190621,-66.6666666666667,4,3,3,70,0,1
191929,-66.6666666666667,4,3,3,70,0,0
192006,-66.6666666666667,4,3,3,70,0,1
192621,-100,4,3,3,70,0,0
192929,-100,4,3,2,70,0,0
193082,-66.6666666666667,4,3,3,70,0,1
193852,-100,4,3,3,70,0,0
194159,-100,4,3,2,70,0,0
194775,-66.6666666666667,4,3,3,70,0,1
195390,-66.6666666666667,4,3,2,70,0,1
195544,-66.6666666666667,4,3,3,70,0,1
196852,-66.6666666666667,4,3,3,70,0,0
196929,-66.6666666666667,4,3,3,70,0,1
197544,-100,4,3,3,70,0,0
197852,-100,4,3,2,70,0,0
198006,-66.6666666666667,4,3,3,70,0,1
198775,-100,4,3,3,70,0,0
199082,-100,4,3,2,70,0,0
199698,-66.6666666666667,4,3,3,70,0,1
200313,-66.6666666666667,4,3,2,70,0,1
200467,-66.6666666666667,4,3,3,70,0,1
201775,-100,4,3,3,70,0,0
201852,-66.6666666666667,4,3,3,70,0,1
202467,-100,4,3,3,70,0,0
202775,-100,4,3,2,70,0,0
202929,-66.6666666666667,4,3,3,70,0,1
203698,-100,4,3,3,70,0,0
204006,-100,4,3,2,70,0,0
204621,-66.6666666666667,4,3,3,70,0,1
205236,-66.6666666666667,4,3,2,70,0,1
205390,-66.6666666666667,4,3,3,70,0,1
206698,-66.6666666666667,4,3,3,70,0,0
206775,-55.5555555555556,4,3,3,90,0,1
226390,-55.5555555555556,4,3,0,5,0,1
226467,-200,4,3,3,25,0,0
241159,-200,4,3,0,5,0,0
241236,-200,4,3,3,25,0,0
246082,-200,4,3,0,5,0,0
246159,-1000,4,3,3,25,0,0
256313,-1000,4,3,3,5,0,0
256467,-1000,4,3,3,25,0,0
268313,-1000,4,3,0,5,0,0

[Colours]
Combo1 : 145,189,158
Combo2 : 219,149,151
Combo3 : 186,69,72
Combo4 : 82,152,103

[HitObjects]
256,192,6,5,8,0:0:0:0:
256,192,159,1,8,0:0:0:0:
256,192,313,1,8,0:0:0:0:
256,192,466,1,8,0:0:0:0:
256,192,621,1,8,0:0:0:0:
256,192,774,1,8,0:0:0:0:
256,192,929,1,8,0:0:0:0:
256,192,1082,1,8,0:0:0:0:
256,192,1236,1,8,0:0:0:0:
256,192,1389,1,8,0:0:0:0:
256,192,1544,1,8,0:0:0:0:
256,192,1697,1,8,0:0:0:0:
256,192,1852,1,8,0:0:0:0:
256,192,2005,1,8,0:0:0:0:
256,192,2159,1,8,0:0:0:0:
256,192,2312,1,8,0:0:0:0:
254,199,2467,5,10,0:3:0:0:
252,206,2621,1,8,0:0:0:0:
250,213,2775,1,8,0:0:0:0:
248,219,2929,1,8,0:0:0:0:
251,229,3082,37,10,0:3:0:0:
254,240,3236,1,8,0:0:0:0:
256,250,3390,1,8,0:0:0:0:
259,260,3544,1,8,0:0:0:0:
248,281,3698,5,10,0:3:0:0:
285,266,3852,1,8,0:0:0:0:
226,273,4006,37,10,0:3:0:0:
306,271,4160,1,8,0:0:0:0:
209,253,4313,5,10,0:3:0:0:
322,292,4467,1,8,0:0:0:0:
203,223,4621,37,10,0:3:0:0:
328,322,4775,1,8,0:0:0:0:
213,187,4929,22,0,P|205:138|214:76,1,90,4|0,0:0|0:0,0:0:0:0:
288,112,5236,2,0,P|306:66|343:25,1,90,0|0,0:0|0:0,0:0:0:0:
480,71,5544,1,8,0:0:0:0:
476,75,5698,2,0,P|431:77|389:92,1,90,0|0,0:0|0:0,0:0:0:0:
427,169,6006,1,0,0:0:0:0:
423,165,6159,2,0,P|394:209|381:254,1,90,4|0,0:0|0:0,0:0:0:0:
462,263,6467,1,0,0:0:0:0:
466,259,6621,2,0,P|483:338|522:384,1,135,0|0,0:0|0:0,0:0:0:0:
488,368,6929,2,0,P|440:369|389:385,2,90,4|0|0,0:0|0:0|0:0,0:0:0:0:
491,286,7390,6,0,L|494:178,1,90,4|0,0:0|0:0,0:0:0:0:
411,192,7698,2,0,L|409:86,1,90,0|0,0:0|0:0,0:0:0:0:
324,13,8006,1,8,0:0:0:0:
320,17,8159,2,0,L|327:107,1,90,0|0,0:0|0:0,0:0:0:0:
249,131,8467,1,0,0:0:0:0:
245,135,8621,2,0,L|257:224,1,90,4|0,0:0|0:0,0:0:0:0:
270,305,8929,1,0,0:0:0:0:
262,305,9082,2,0,B|227:76|227:76|189:32,1,270,0|0,0:0|0:0,0:0:0:0:
66,95,9852,38,0,B|110:91|110:91|152:111,1,90,4|0,0:0|0:0,0:0:0:0:
118,184,10159,2,0,B|151:212|151:212|168:258,1,90,0|0,0:0|0:0,0:0:0:0:
115,359,10467,1,8,0:0:0:0:
111,367,10621,2,0,B|182:354|182:354|227:310,1,135,0|0,0:0|0:0,0:0:0:0:
240,297,10929,2,0,L|260:408,2,90,0|4|0,0:0|0:0|0:0,0:0:0:0:
302,245,11390,1,0,0:0:0:0:
306,241,11544,2,0,L|321:47,2,180,0|0|0,0:0|0:0|0:0,0:0:0:0:
374,282,12313,5,4,0:0:0:0:
378,286,12467,1,0,0:0:0:0:
451,250,12621,1,4,0:0:0:0:
455,254,12775,1,0,0:0:0:0:
430,83,12929,1,8,0:0:0:0:
434,87,13083,1,0,0:0:0:0:
442,167,13236,1,4,0:0:0:0:
361,176,13390,1,0,0:0:0:0:
357,172,13544,38,0,L|349:57,1,90,4|0,0:0|0:0,0:0:0:0:
318,7,13852,1,4,0:0:0:0:
270,72,14006,1,4,0:0:0:0:
282,208,14159,1,8,0:0:0:0:
402,243,14313,6,0,P|418:282|425:313,1,67.4999979400635,4|0,0:0|0:0,0:0:0:0:
425,323,14775,38,0,P|374:332|331:346,1,90,4|0,0:0|0:0,0:0:0:0:
298,272,15082,2,0,P|246:260|203:257,1,90,0|0,0:0|0:0,0:0:0:0:
134,137,15390,2,0,P|177:152|216:175,1,90,8|0,0:0|0:0,0:0:0:0:
53,137,15698,2,0,P|106:139|152:149,1,90,0|0,0:0|0:0,0:0:0:0:
111,221,16006,2,0,P|62:220|8:258,1,90,4|0,0:0|0:0,0:0:0:0:
83,295,16313,1,0,0:0:0:0:
227,298,16467,2,0,L|451:303,1,225,8|0,0:0|0:0,0:0:0:0:
469,305,16929,2,0,P|420:328|377:378,1,90,4|0,0:0|0:0,0:0:0:0:
340,291,17236,6,0,P|329:243|330:192,1,90,4|0,0:0|0:0,0:0:0:0:
248,188,17544,2,0,P|261:139|286:101,1,90,0|0,0:0|0:0,0:0:0:0:
295,10,17852,2,0,P|253:25|218:53,1,90,8|0,0:0|0:0,0:0:0:0:
376,11,18159,2,0,P|315:12|261:25,1,90,0|0,0:0|0:0,0:0:0:0:
310,95,18467,2,0,P|352:93|409:148,1,90,4|0,0:0|0:0,0:0:0:0:
331,171,18775,1,0,0:0:0:0:
327,175,18929,1,0,0:0:0:0:
341,336,19082,1,8,0:0:0:0:
345,340,19236,1,0,0:0:0:0:
264,336,19390,38,0,L|215:333,1,40.4999987640381,0|0,0:0|0:0,0:0:0:0:
216,322,19698,6,0,B|155:319|155:319|119:302,1,90,4|0,0:0|0:0,0:0:0:0:
182,237,20006,1,0,0:0:0:0:
178,241,20159,2,0,B|126:207|126:207|103:175,1,90,0|8,0:0|0:0,0:0:0:0:
185,151,20467,2,0,B|157:96|157:96|153:56,1,90,0|0,0:0|0:0,0:0:0:0:
240,66,20775,1,0,0:0:0:0:
236,70,20929,2,0,B|262:130|262:130|309:146,1,90,4|0,0:0|0:0,0:0:0:0:
323,66,21236,1,0,0:0:0:0:
327,62,21390,1,0,0:0:0:0:
313,215,21544,1,8,0:0:0:0:
393,221,21698,2,0,B|441:227|441:227|473:258,2,90,0|0|0,0:0|0:0|0:0,0:0:0:0:
397,301,22159,38,0,L|297:308,1,90,4|0,0:0|0:0,0:0:0:0:
225,312,22467,2,0,L|135:318,1,90,4|0,0:0|0:0,0:0:0:0:
261,239,22775,2,0,L|171:229,1,90,8|0,0:0|0:0,0:0:0:0:
89,219,23083,2,0,L|0:210,1,90,4|0,0:0|0:0,0:0:0:0:
9,129,23390,6,0,L|113:140,1,90,4|0,0:0|0:0,0:0:0:0:
179,150,23698,1,4,0:0:0:0:
231,87,23852,1,4,0:0:0:0:
377,84,24006,1,8,0:0:0:0:
381,88,24159,1,4,0:0:0:0:
381,88,24621,37,12,0:0:0:0:
381,88,24775,1,8,0:0:0:0:
381,88,24929,1,12,0:0:0:0:
381,88,25082,1,8,0:0:0:0:
381,88,25236,1,12,0:0:0:0:
381,88,25390,1,8,0:0:0:0:
381,88,25544,1,12,0:0:0:0:
381,88,25698,1,8,0:0:0:0:
381,88,25852,1,12,0:0:0:0:
381,88,26006,1,8,0:0:0:0:
381,88,26159,1,12,0:0:0:0:
381,88,26313,1,8,0:0:0:0:
348,162,26467,6,0,P|354:223|372:264,1,90,12|8,0:0|0:0,0:0:0:0:
427,300,26775,2,0,P|365:286|300:292,1,90,12|8,0:0|0:0,0:0:0:0:
275,235,27082,38,0,P|212:255|137:326,1,135,12|0,0:0|0:0,0:0:0:0:
136,331,27390,1,12,0:0:0:0:
165,255,27544,2,0,P|158:206|105:125,1,135,0|0,0:0|0:0,0:0:0:0:
80,110,27852,1,8,0:0:0:0:
96,30,28006,1,4,0:0:0:0:
176,22,28159,6,0,L|267:15,1,90,8|4,0:0|0:0,0:0:0:0:
309,84,28467,2,0,L|420:87,1,90,8|4,0:0|0:0,0:0:0:0:
480,90,28775,1,8,0:0:0:0:
497,223,28929,1,12,0:0:0:0:
497,223,29236,1,12,0:0:0:0:
497,223,29544,38,0,L|407:235,1,90,12|0,0:0|0:0,0:0:0:0:
237,260,29852,2,0,L|327:248,1,90,12|0,0:0|0:0,0:0:0:0:
497,223,30159,1,12,0:0:0:0:
355,172,30313,1,8,0:0:0:0:
326,248,30467,5,4,0:0:0:0:
384,96,30621,1,8,0:0:0:0:
306,72,30775,1,4,0:0:0:0:
198,162,30929,1,8,0:0:0:0:
278,148,31082,2,0,L|188:143,1,90,4|8,0:0|0:0,0:0:0:0:
46,136,31390,1,12,0:0:0:0:
116,175,31544,1,0,0:0:0:0:
95,335,31698,2,0,P|119:297|131:253,1,90,12|0,0:0|0:0,0:0:0:0:
267,373,32006,38,0,P|223:366|185:343,1,90,12|0,0:0|0:0,0:0:0:0:
268,214,32313,2,0,P|313:221|350:244,1,90,12|0,0:0|0:0,0:0:0:0:
362,384,32621,1,12,0:0:0:0:
478,325,32775,1,8,0:0:0:0:
399,312,32929,5,4,0:0:0:0:
340,199,33082,2,0,P|348:112|411:29,1,180,8|8,0:0|0:0,0:0:0:0:
328,76,33544,2,0,P|276:79|231:69,1,90,4|8,0:0|0:0,0:0:0:0:
129,2,33852,2,0,P|197:51|193:127,1,135,12|0,0:0|0:0,0:0:0:0:
187,133,34159,1,12,0:0:0:0:
107,150,34313,1,0,0:0:0:0:
31,259,34467,38,0,P|17:301|23:346,1,90,12|0,0:0|0:0,0:0:0:0:
208,289,34775,2,0,P|170:264|147:226,1,90,12|0,0:0|0:0,0:0:0:0:
287,278,35082,1,12,0:0:0:0:
101,309,35236,1,8,0:0:0:0:
164,359,35390,5,4,0:0:0:0:
337,342,35544,1,8,0:0:0:0:
287,278,35698,1,4,0:0:0:0:
416,365,35852,1,8,0:0:0:0:
460,297,36006,2,0,P|465:251|461:198,1,90,4|8,0:0|0:0,0:0:0:0:
496,44,36313,1,12,0:0:0:0:
419,72,36467,1,0,0:0:0:0:
306,18,36621,2,0,P|261:21|209:42,1,90,12|0,0:0|0:0,0:0:0:0:
227,187,36929,38,0,L|231:276,1,90,12|0,0:0|0:0,0:0:0:0:
151,160,37236,2,0,L|146:70,1,90,12|0,0:0|0:0,0:0:0:0:
157,298,37544,1,12,0:0:0:0:
316,314,37698,1,8,0:0:0:0:
248,358,37852,5,4,0:0:0:0:
310,208,38006,2,0,P|310:150|262:24,1,180,8|8,0:0|0:0,0:0:0:0:
327,92,38467,1,4,0:0:0:0:
461,58,38621,1,8,0:0:0:0:
421,192,38775,2,0,P|423:252|437:300,1,90,12|0,0:0|0:0,0:0:0:0:
507,384,39082,1,12,0:0:0:0:
429,359,39236,1,0,0:0:0:0:
303,367,39390,38,0,L|213:373,1,90,12|0,0:0|0:0,0:0:0:0:
59,317,39698,2,0,L|149:322,1,90,12|0,0:0|0:0,0:0:0:0:
319,330,40006,1,12,0:0:0:0:
341,169,40159,1,8,0:0:0:0:
265,200,40313,5,4,0:0:0:0:
394,300,40467,1,8,0:0:0:0:
330,250,40621,1,4,0:0:0:0:
215,332,40775,1,8,0:0:0:0:
250,259,40929,2,0,P|249:208|225:146,1,90,4|8,0:0|0:0,0:0:0:0:
78,155,41236,2,0,P|122:164|159:190,1,90,12|0,0:0|0:0,0:0:0:0:
315,139,41544,1,12,0:0:0:0:
318,57,41698,1,0,0:0:0:0:
487,36,41852,38,0,L|398:47,1,90,12|0,0:0|0:0,0:0:0:0:
233,127,42159,2,0,L|144:117,1,90,12|0,0:0|0:0,0:0:0:0:
26,29,42467,1,12,0:0:0:0:
100,187,42621,1,8,0:0:0:0:
25,218,42775,1,4,0:0:0:0:
6,367,42929,6,0,P|31:326|159:254,1,180,8|8,0:0|0:0,0:0:0:0:
161,335,43390,2,0,P|210:336|257:356,1,90,4|8,0:0|0:0,0:0:0:0:
456,261,43698,2,0,P|396:292|330:293,1,135,12|0,0:0|0:0,0:0:0:0:
292,282,44005,1,12,0:0:0:0:
322,206,44159,1,0,0:0:0:0:
277,53,44313,38,0,P|267:97|272:142,1,90,12|0,0:0|0:0,0:0:0:0:
372,274,44621,2,0,P|362:318|333:351,1,90,12|0,0:0|0:0,0:0:0:0:
164,336,44929,1,12,0:0:0:0:
292,282,45082,1,8,0:0:0:0:
211,272,45236,5,4,0:0:0:0:
200,131,45390,1,8,0:0:0:0:
165,205,45544,1,4,0:0:0:0:
327,191,45698,1,8,0:0:0:0:
282,125,45852,2,0,P|288:81|321:40,1,90,4|8,0:0|0:0,0:0:0:0:
443,112,46159,1,12,0:0:0:0:
362,110,46313,1,0,0:0:0:0:
457,217,46467,1,12,0:0:0:0:
439,296,46621,1,0,0:0:0:0:
288,316,46775,38,0,L|198:327,1,90,12|0,0:0|0:0,0:0:0:0:
105,143,47082,2,0,L|194:131,1,90,12|0,0:0|0:0,0:0:0:0:
332,111,47390,1,12,0:0:0:0:
278,240,47544,1,8,0:0:0:0:
268,159,47698,1,4,0:0:0:0:
350,271,47852,5,8,0:0:0:0:
354,275,48006,1,4,0:0:0:0:
490,258,48159,1,8,0:0:0:0:
480,177,48313,1,4,0:0:0:0:
344,194,48468,1,8,0:0:0:0:
430,310,48621,1,12,0:0:0:0:
426,306,48775,1,0,0:0:0:0:
412,150,48929,1,12,0:0:0:0:
408,146,49082,1,0,0:0:0:0:
354,275,49236,22,0,P|281:308|212:311,1,135.000005149842,4|0,0:0|0:0,0:0:0:0:
183,150,49544,2,0,P|256:117|325:114,1,135.000005149842,4|4,0:0|0:0,0:0:0:0:
309,112,49775,1,4,0:0:0:0:
309,112,49852,5,8,0:0:0:0:
314,200,50006,1,4,0:0:0:0:
236,221,50159,1,4,0:0:0:0:
388,231,50313,38,0,B|481:238|481:238|545:182,1,135.000005149842,4|0,0:0|0:0,0:0:0:0:
427,77,50621,2,0,B|355:128|355:128|341:317,1,270.000010299683,4|4,0:0|0:0,0:0:0:0:
341,309,51006,1,4,0:0:0:0:
341,309,51082,5,8,0:0:0:0:
313,243,51236,1,8,0:0:0:0:
238,212,51390,1,8,0:0:0:0:
163,243,51544,1,8,0:0:0:0:
88,211,51698,2,0,P|74:156|83:104,1,90,4|4,0:0|0:0,0:0:0:0:
238,212,52006,38,0,P|239:280|217:343,1,135.000005149842,4|0,0:0|0:0,0:0:0:0:
317,197,52313,2,0,P|395:173|480:173,2,135.000005149842,4|8|4,0:0|0:0|0:0,0:0:0:0:
202,94,52775,38,0,P|119:82|54:50,1,135.000005149842,4|0,0:0|0:0,0:0:0:0:
3,271,53082,2,0,P|76:246|152:249,1,135.000005149842,4|0,0:0|0:0,0:0:0:0:
220,365,53390,1,4,0:0:0:0:
368,329,53544,1,8,0:0:0:0:
311,270,53698,2,0,P|292:186|403:35,1,270.000010299683,4|0,0:0|0:0,0:0:0:0:
266,142,54159,6,0,P|190:151|116:138,1,135.000005149842,4|0,0:0|0:0,0:0:0:0:
36,285,54467,2,0,P|105:243|194:240,1,135.000005149842,4|4,0:0|0:0,0:0:0:0:
157,235,54698,1,4,0:0:0:0:
157,235,54775,5,8,0:0:0:0:
239,273,54929,1,4,0:0:0:0:
244,353,55082,1,4,0:0:0:0:
310,229,55236,38,0,B|325:184|325:184|316:83,1,135.000005149842,4|0,0:0|0:0,0:0:0:0:
474,24,55544,2,0,B|459:69|459:69|468:170,1,135.000005149842,4|0,0:0|0:0,0:0:0:0:
488,282,55852,1,4,0:0:0:0:
488,282,55929,1,4,0:0:0:0:
488,282,56006,5,8,0:0:0:0:
432,223,56159,1,8,0:0:0:0:
360,262,56313,1,8,0:0:0:0:
347,342,56467,1,8,0:0:0:0:
270,369,56621,2,0,P|219:354|184:309,1,90,4|4,0:0|0:0,0:0:0:0:
225,192,56929,38,0,P|235:99|230:48,1,135.000005149842,4|0,0:0|0:0,0:0:0:0:
306,22,57236,1,4,0:0:0:0:
313,192,57390,2,0,P|323:259|346:323,1,135.000005149842,8|4,0:0|0:0,0:0:0:0:
486,342,57698,2,0,P|401:342|192:389,2,270.000010299683,4|4|4,0:0|0:0|0:0,0:0:0:0:
422,190,58467,1,8,0:0:0:0:
387,262,58621,2,0,P|383:127|411:-4,1,270.000010299683,4|0,0:0|0:0,0:0:0:0:
213,147,59082,38,0,P|201:81|203:14,1,135.000005149842,4|0,0:0|0:0,0:0:0:0:
288,186,59390,2,0,P|274:252|228:306,1,135.000005149842,4|4,0:0|0:0,0:0:0:0:
231,303,59621,1,4,0:0:0:0:
231,303,59698,21,8,0:0:0:0:
154,276,59852,1,4,0:0:0:0:
73,286,60006,1,4,0:0:0:0:
89,121,60159,38,0,P|67:56|6:-3,1,135.000005149842,4|0,0:0|0:0,0:0:0:0:
170,89,60467,2,0,P|173:223|136:353,1,270.000010299683,4|4,0:0|0:0,0:0:0:0:
137,354,60852,1,4,0:0:0:0:
137,354,60929,5,8,0:0:0:0:
225,354,61082,1,8,0:0:0:0:
239,274,61236,1,8,0:0:0:0:
318,288,61390,1,8,0:0:0:0:
373,229,61544,2,0,P|385:177|367:111,1,90,4|4,0:0|0:0,0:0:0:0:
292,28,61852,38,0,P|363:87|394:173,1,157.500001502037,4|0,0:0|0:0,0:0:0:0:
493,240,62159,2,0,P|430:296|392:379,2,157.500001502037,4|8|4,0:0|0:0|0:0,0:0:0:0:
389,145,62621,38,0,P|307:150|219:197,1,157.500001502037,4|0,0:0|0:0,0:0:0:0:
160,299,62929,2,0,P|201:221|188:127,1,157.500001502037,4|0,0:0|0:0,0:0:0:0:
94,56,63236,1,4,0:0:0:0:
61,196,63390,1,8,0:0:0:0:
7,119,63544,2,0,P|85:166|81:389,1,315.000003004074,4|0,0:0|0:0,0:0:0:0:
239,333,64006,5,8,0:0:0:0:
239,333,64159,1,8,0:0:0:0:
239,333,64313,1,8,0:0:0:0:
239,333,64467,1,8,0:0:0:0:
239,333,64621,1,8,0:0:0:0:
239,333,64775,1,8,0:0:0:0:
239,333,64929,1,8,0:0:0:0:
239,333,65082,1,8,0:0:0:0:
239,333,65236,1,8,0:0:0:0:
239,333,65390,1,8,0:0:0:0:
239,333,65544,1,8,0:0:0:0:
239,333,65698,1,8,0:0:0:0:
239,333,65852,1,8,0:0:0:0:
239,333,66006,1,8,0:0:0:0:
239,333,66159,1,8,0:0:0:0:
239,333,66313,1,8,0:0:0:0:
237,324,66467,37,14,0:3:0:0:
235,315,66621,1,8,0:0:0:0:
233,306,66775,1,12,0:0:0:0:
231,297,66929,1,8,0:0:0:0:
233,284,67082,5,14,0:3:0:0:
236,272,67236,1,8,0:0:0:0:
239,260,67390,1,12,0:0:0:0:
242,248,67544,1,8,0:0:0:0:
253,227,67698,37,14,0:3:0:0:
216,242,67852,1,8,0:0:0:0:
275,235,68006,5,14,0:3:0:0:
195,237,68160,1,8,0:0:0:0:
292,255,68313,37,14,0:3:0:0:
179,216,68467,1,8,0:0:0:0:
298,285,68621,5,14,0:3:0:0:
173,186,68775,1,8,0:0:0:0:
288,321,68929,6,0,P|351:349|412:351,1,90,4|0,0:0|0:0,0:0:0:0:
385,272,69236,2,0,P|436:260|475:227,1,90,0|0,0:0|0:0,0:0:0:0:
449,90,69544,1,8,0:0:0:0:
445,94,69698,2,0,P|436:138|412:176,1,90,0|0,0:0|0:0,0:0:0:0:
349,124,70006,1,0,0:0:0:0:
345,128,70159,2,0,P|288:139|229:130,1,90,4|0,0:0|0:0,0:0:0:0:
214,208,70467,1,0,0:0:0:0:
210,204,70621,2,0,P|132:201|63:234,1,135,0|0,0:0|0:0,0:0:0:0:
49,249,70929,2,0,L|38:349,2,90,4|0|0,0:0|0:0|0:0,0:0:0:0:
13,176,71390,6,0,L|11:75,1,90,4|0,0:0|0:0,0:0:0:0:
92,83,71698,2,0,L|151:5,1,90,0|0,0:0|0:0,0:0:0:0:
294,41,72006,1,8,0:0:0:0:
290,45,72159,2,0,L|203:68,1,90,0|0,0:0|0:0,0:0:0:0:
225,146,72467,1,0,0:0:0:0:
229,150,72621,2,0,L|150:242,1,90,4|0,0:0|0:0,0:0:0:0:
234,268,72929,1,0,0:0:0:0:
238,272,73082,2,0,B|279:224|279:224|433:212|433:212|503:260,1,270,0|0,0:0|0:0,0:0:0:0:
476,241,73852,38,0,L|471:351,1,90,4|0,0:0|0:0,0:0:0:0:
391,323,74159,2,0,L|310:367,1,90,0|0,0:0|0:0,0:0:0:0:
192,265,74467,1,8,0:0:0:0:
188,269,74621,2,0,L|276:292,1,90,0|0,0:0|0:0,0:0:0:0:
301,209,74929,1,0,0:0:0:0:
297,213,75082,2,0,L|407:202,1,90,4|0,0:0|0:0,0:0:0:0:
391,118,75390,1,0,0:0:0:0:
387,122,75544,2,0,B|467:82|467:82|518:7,2,180,0|0|0,0:0|0:0|0:0,0:0:0:0:
349,50,76313,5,4,0:0:0:0:
345,54,76467,1,0,0:0:0:0:
265,42,76621,1,4,0:0:0:0:
261,46,76775,1,0,0:0:0:0:
255,195,76929,1,8,0:0:0:0:
251,199,77082,1,0,0:0:0:0:
331,203,77236,1,4,0:0:0:0:
386,261,77390,1,0,0:0:0:0:
390,265,77544,38,0,L|483:259,1,90,4|0,0:0|0:0,0:0:0:0:
486,340,77852,1,4,0:0:0:0:
405,348,78006,1,4,0:0:0:0:
396,177,78159,1,8,0:0:0:0:
476,169,78313,1,4,0:0:0:0:
476,169,78775,6,0,P|480:106|474:64,1,90,4|0,0:0|0:0,0:0:0:0:
397,95,79082,2,0,P|373:57|336:30,1,90,0|0,0:0|0:0,0:0:0:0:
210,96,79390,2,0,P|255:96|300:103,1,90,8|0,0:0|0:0,0:0:0:0:
219,114,79698,2,0,P|265:126|303:152,1,90,0|0,0:0|0:0,0:0:0:0:
249,213,80006,38,0,P|255:271|250:324,2,90,4|0|0,0:0|0:0|0:0,0:0:0:0:
123,371,80467,2,0,P|108:311|31:214,1,180,8|0,0:0|0:0,0:0:0:0:
95,160,80929,2,0,P|85:109|63:58,1,90,4|0,0:0|0:0,0:0:0:0:
142,34,81236,6,0,L|257:43,1,90,4|0,0:0|0:0,0:0:0:0:
312,49,81544,2,0,L|401:56,1,90,0|0,0:0|0:0,0:0:0:0:
267,117,81852,2,0,L|260:231,1,90,8|0,0:0|0:0,0:0:0:0:
284,129,82159,2,0,L|286:228,1,90,0|0,0:0|0:0,0:0:0:0:
289,300,82467,38,0,P|230:309|184:329,2,90,4|0|0,0:0|0:0|0:0,0:0:0:0:
369,313,82929,1,0,0:0:0:0:
411,144,83082,1,8,0:0:0:0:
415,148,83236,1,4,0:0:0:0:
415,148,83698,6,0,B|408:92|408:92|386:58,1,90,4|0,0:0|0:0,0:0:0:0:
325,114,84006,1,0,0:0:0:0:
321,118,84159,2,0,B|286:77|286:77|226:68,1,90,0|8,0:0|0:0,0:0:0:0:
237,152,84467,2,0,B|172:143|172:143|133:157,1,90,0|0,0:0|0:0,0:0:0:0:
178,227,84775,1,0,0:0:0:0:
258,236,84929,38,0,B|323:245|323:245|362:231,2,90,4|0|0,0:0|0:0|0:0,0:0:0:0:
208,300,85390,1,0,0:0:0:0:
54,331,85544,1,8,0:0:0:0:
129,359,85698,2,0,P|130:308|94:263,2,90,0|0|0,0:0|0:0|0:0,0:0:0:0:
207,379,86159,6,0,L|303:373,1,90,4|0,0:0|0:0,0:0:0:0:
377,358,86467,2,0,L|287:363,1,90,4|0,0:0|0:0,0:0:0:0:
259,218,86775,2,0,L|348:223,1,90,8|0,0:0|0:0,0:0:0:0:
429,215,87082,2,0,L|339:209,1,90,4|0,0:0|0:0,0:0:0:0:
297,139,87390,38,0,L|207:133,1,90,4|0,0:0|0:0,0:0:0:0:
125,126,87698,1,4,0:0:0:0:
120,130,87852,1,4,0:0:0:0:
127,274,88006,1,8,0:0:0:0:
131,281,88159,1,4,0:0:0:0:
131,281,88621,6,0,P|179:299|230:368,2,135,6|0|0,0:2|0:0|0:0,0:0:0:0:
131,281,90006,2,0,P|169:301|268:293,1,135,0|0,0:0|0:0,0:0:0:0:
258,297,91082,38,0,P|298:283|399:293,2,135,2|0|0,0:2|0:0|0:0,0:0:0:0:
223,223,92313,2,0,P|222:177|232:128,1,90,0|0,0:0|0:0,0:0:0:0:
306,162,92929,2,0,P|341:122|444:119,1,157.5,0|0,0:0|0:0,0:0:0:0:
455,129,93544,6,0,L|449:269,2,135,2|0|0,0:2|0:0|0:0,0:0:0:0:
455,129,94929,2,0,L|463:264,1,135,0|0,0:0|0:0,0:0:0:0:
462,263,96006,38,0,P|412:280|359:349,2,135,2|0|0,0:2|0:0|0:0,0:0:0:0:
452,182,97236,2,0,P|417:146|410:91,1,90,0|0,0:0|0:0,0:0:0:0:
489,110,97852,2,0,P|408:88|320:91,1,157.5,0|0,0:0|0:0,0:0:0:0:
315,92,98467,6,0,P|322:164|323:237,2,135,2|0|2,0:2|0:0|0:2,0:0:0:0:
283,17,99544,1,2,0:2:0:0:
209,50,99698,38,0,P|158:45|115:20,1,90,2|2,0:2|0:2,0:0:0:0:
21,153,100313,2,0,L|12:258,1,90,2|2,0:2|0:2,0:0:0:0:
87,276,100775,6,0,L|87:372,1,90,2|0,0:2|0:0,0:0:0:0:
87,366,101852,1,2,0:2:0:0:
138,303,102006,38,0,P|171:298|229:336,1,90,2|0,0:2|0:0,0:0:0:0:
264,255,102467,2,0,P|305:253|355:225,1,90,2|2,0:2|0:2,0:0:0:0:
376,71,103082,1,2,0:2:0:0:
323,132,103236,2,0,P|282:134|232:162,1,90,2|0,0:2|0:0,0:0:0:0:
238,155,104313,2,0,L|181:158,1,45,2|2,0:2|0:2,0:0:0:0:
133,101,104621,6,0,L|26:95,1,90,2|2,0:2|0:2,0:0:0:0:
24,257,105236,2,0,L|-35:264,2,45,2|2|2,0:2|0:2|0:2,0:0:0:0:
90,304,105698,38,0,L|236:311,1,135,2|0,0:2|0:0,0:0:0:0:
224,310,106775,1,2,0:2:0:0:
297,274,106929,6,0,P|287:227|281:130,1,135,2|2,0:2|0:2,0:0:0:0:
288,59,107544,1,2,0:2:0:0:
209,38,107698,2,0,L|155:41,1,45,2|0,0:2|0:0,0:0:0:0:
81,179,108159,38,0,L|183:187,1,90,2|0,0:2|0:0,0:0:0:0:
170,186,109236,1,2,0:2:0:0:
328,222,109544,6,0,P|325:248|316:286,1,45,2|2,0:2|0:2,0:0:0:0:
186,356,110006,2,0,P|173:298|168:248,1,90,2|2,0:2|0:2,0:0:0:0:
92,124,110621,38,0,P|85:160|55:228,1,90,2|2,0:2|0:2,0:0:0:0:
65,209,111698,1,2,0:2:0:0:
216,265,112006,6,0,P|247:264|317:251,1,90,2|0,0:2|0:0,0:0:0:0:
360,194,112467,2,0,P|340:234|330:278,1,90,2|2,0:2|0:2,0:0:0:0:
456,380,113082,38,0,P|416:319|425:245,1,135,2|0,0:2|0:0,0:0:0:0:
418,259,114313,1,2,0:0:0:0:
491,224,114467,6,0,L|499:131,1,90,2|2,0:0|0:0,0:0:0:0:
465,59,114929,1,2,0:0:0:0:
465,59,115698,38,0,L|399:64,1,45,2|2,0:2|0:2,0:0:0:0:
271,126,116159,2,0,L|132:118,1,135,2|2,0:2|0:2,0:0:0:0:
21,233,116929,6,0,P|29:291|29:329,1,90,2|2,0:2|0:2,0:0:0:0:
183,372,117544,1,2,0:2:0:0:
225,215,117852,38,0,P|224:147|199:33,1,180,2|2,0:2|0:2,0:0:0:0:
200,37,119236,1,2,0:2:0:0:
274,6,119390,6,0,P|279:48|254:97,1,90,2|2,0:2|0:2,0:0:0:0:
115,15,120006,1,2,0:2:0:0:
67,169,120313,38,0,P|61:220|61:355,1,180,2|0,0:2|0:0,0:0:0:0:
60,348,121544,1,2,0:2:0:0:
193,256,121852,6,0,P|238:282|294:283,1,90,2|2,0:2|0:2,0:0:0:0:
280,123,122467,1,2,0:2:0:0:
128,180,122775,2,0,P|112:229|108:276,1,90,2|2,0:2|0:2,0:0:0:0:
156,331,124313,38,0,P|195:331|246:362,1,90,2|2,0:2|0:2,0:0:0:0:
284,198,124929,1,2,0:2:0:0:
253,39,125236,2,0,P|252:93|255:145,1,90,2|2,0:2|0:2,0:0:0:0:
253,128,126467,1,2,0:2:0:0:
105,59,126775,6,0,P|56:53|17:31,1,90,2|2,0:2|0:2,0:0:0:0:
6,195,127390,2,0,L|0:302,1,90,2|2,0:2|0:2,0:0:0:0:
182,355,128006,38,0,L|180:291,1,53.9999983520508,2|0,0:3|0:0,0:0:0:0:
264,281,128313,2,0,L|268:346,1,53.9999983520508,0|0,0:0|0:0,0:0:0:0:
353,321,128621,2,0,L|349:256,1,53.9999983520508,0|0,0:0|0:0,0:0:0:0:
413,207,128929,1,2,0:2:0:0:
417,203,129082,1,2,0:2:0:0:
484,148,129236,6,0,L|488:81,1,53.9999983520508,2|2,0:2|0:2,0:0:0:0:
486,7,129544,2,0,L|476:133,1,107.999996704102,2|2,0:2|0:2,0:0:0:0:
398,150,130006,1,2,0:2:0:0:
394,154,130159,1,2,0:2:0:0:
390,158,130313,1,2,0:2:0:0:
303,166,130467,38,0,L|241:170,1,53.9999983520508,0|0,0:0|0:0,0:0:0:0:
200,96,130775,2,0,L|131:90,1,53.9999983520508,0|0,0:0|0:0,0:0:0:0:
107,13,131082,2,0,L|46:2,1,53.9999983520508,0|0,0:0|0:0,0:0:0:0:
3,74,131390,1,2,0:2:0:0:
37,153,131544,6,0,P|40:202|31:326,1,161.999995056153,2|2,0:2|0:2,0:0:0:0:
101,367,132159,1,0,0:0:0:0:
178,330,132313,2,0,P|212:328|292:344,1,107.999996704102,2|2,0:2|0:2,0:0:0:0:
364,376,132775,38,0,P|339:340|324:213,1,161.999995056153,2|0,0:2|0:0,0:0:0:0:
357,147,133390,1,0,0:0:0:0:
441,164,133544,2,0,P|443:198|439:232,1,53.9999983520508,0|0,0:0|0:0,0:0:0:0:
412,300,133852,1,2,0:2:0:0:
408,304,134006,1,2,0:2:0:0:
327,272,134159,6,0,L|258:267,1,53.9999983520508,2|2,0:2|0:2,0:0:0:0:
198,312,134467,2,0,L|72:321,1,107.999996704102,2|2,0:2|0:2,0:0:0:0:
12,359,134929,1,2,0:2:0:0:
11,354,135082,1,2,0:2:0:0:
0,268,135236,38,0,P|-1:199|11:99,1,161.999995056153,2|0,0:2|0:0,0:0:0:0:
35,23,135852,1,0,0:0:0:0:
121,16,136006,2,0,L|187:12,1,53.9999983520508,0|0,0:0|0:0,0:0:0:0:
232,77,136313,1,2,0:2:0:0:
291,14,136467,6,0,P|268:55|245:180,1,161.999995056153,2|2,0:2|0:2,0:0:0:0:
266,250,137082,1,2,0:2:0:0:
344,212,137236,2,0,L|407:207,2,53.9999983520508,2|2|0,0:2|0:2|0:0,0:0:0:0:
337,298,137698,1,2,0:2:0:0:
168,326,137852,37,6,0:3:0:0:
164,330,138006,1,0,0:0:0:0:
86,297,138159,1,4,0:0:0:0:
82,301,138313,1,0,0:0:0:0:
64,213,138467,1,6,0:3:0:0:
60,217,138621,1,0,0:0:0:0:
100,134,138775,5,4,0:0:0:0:
110,48,138929,1,0,0:0:0:0:
24,37,139082,1,6,0:3:0:0:
14,122,139236,1,0,0:0:0:0:
97,144,139390,2,0,L|159:149,1,53.9999983520508,4|0,0:0|0:0,0:0:0:0:
223,101,139698,2,0,L|295:94,1,53.9999983520508,6|0,0:3|0:0,0:0:0:0:
434,79,140006,1,8,0:0:0:0:
480,6,140159,1,0,0:0:0:0:
493,142,140313,37,6,0:3:0:0:
489,146,140467,1,0,0:0:0:0:
477,231,140621,1,4,0:0:0:0:
473,235,140775,1,0,0:0:0:0:
461,320,140929,1,6,0:3:0:0:
457,324,141083,1,0,0:0:0:0:
392,267,141236,5,4,0:0:0:0:
323,319,141390,2,0,P|279:326|252:323,1,53.9999983520508
286,240,141698,37,8,0:0:0:0:
236,169,141852,2,0,P|232:140|232:93,1,53.9999983520508,4|0,0:0|0:0,0:0:0:0:
242,29,142159,5,6,0:3:0:0:
156,15,142313,2,0,L|121:11,2,26.9999991760254,4|4|4,0:0|0:0|0:0,0:0:0:0:
143,101,142621,1,4,0:0:0:0:
135,187,142775,37,6,0:3:0:0:
141,186,142929,1,0,0:0:0:0:
144,272,143082,1,4,0:0:0:0:
150,271,143236,1,0,0:0:0:0:
153,357,143390,1,6,0:3:0:0:
159,356,143544,1,0,0:0:0:0:
331,362,143698,5,8,0:0:0:0:
245,354,143852,1,0,0:0:0:0:
251,267,144006,1,6,0:3:0:0:
336,273,144159,1,0,0:0:0:0:
404,220,144313,2,0,P|406:173|403:159,1,53.9999983520508,4|0,0:0|0:0,0:0:0:0:
368,87,144621,1,6,0:3:0:0:
287,117,144775,1,0,0:0:0:0:
202,97,144929,1,4,0:0:0:0:
143,34,145082,1,0,0:0:0:0:
60,58,145236,38,0,P|53:20|54:-4,2,53.9999983520508,6|0|4,0:3|0:0|0:0,0:0:0:0:
98,147,145698,5,4,0:0:0:0:
98,147,145775,1,4,0:0:0:0:
98,147,145852,1,6,0:3:0:0:
219,170,146006,1,4,0:0:0:0:
219,170,146082,1,4,0:0:0:0:
219,170,146159,1,6,0:3:0:0:
337,253,146313,1,4,0:0:0:0:
337,253,146390,1,4,0:0:0:0:
352,276,146467,21,4,0:0:0:0:
80,290,147698,6,0,P|83:245|94:201,1,90,12|0,0:0|0:0,0:0:0:0:
257,246,148006,2,0,P|247:323|227:371,1,90,12|0,0:0|0:0,0:0:0:0:
95,370,148313,1,12,0:0:0:0:
122,216,148467,1,8,0:0:0:0:
74,150,148621,5,4,0:0:0:0:
47,304,148775,1,8,0:0:0:0:
127,295,148929,1,4,0:0:0:0:
267,338,149082,1,8,0:0:0:0:
206,284,149236,2,0,P|203:239|209:194,1,90,4|8,0:0|0:0,0:0:0:0:
250,48,149544,1,12,0:0:0:0:
257,129,149698,1,0,0:0:0:0:
95,104,149852,1,12,0:0:0:0:
110,24,150006,1,0,0:0:0:0:
127,177,150159,38,0,P|125:231|115:287,1,90,12|0,0:0|0:0,0:0:0:0:
285,378,150467,2,0,P|276:326|275:267,1,90,12|0,0:0|0:0,0:0:0:0:
306,118,150775,1,12,0:0:0:0:
357,286,150929,1,8,0:0:0:0:
436,297,151082,1,4,0:0:0:0:
311,218,151236,6,0,P|320:156|380:34,1,180,8|8,0:0|0:0,0:0:0:0:
427,105,151698,2,0,P|471:89|522:83,1,90,4|8,0:0|0:0,0:0:0:0:
475,257,152006,2,0,P|429:257|337:220,1,135,12|0,0:0|0:0,0:0:0:0:
313,202,152313,1,12,0:0:0:0:
355,271,152467,1,0,0:0:0:0:
232,225,152621,38,0,P|179:243|147:288,1,90,12|0,0:0|0:0,0:0:0:0:
12,349,152929,2,0,P|62:366|103:364,1,90,12|0,0:0|0:0,0:0:0:0:
230,304,153236,1,12,0:0:0:0:
82,215,153390,1,8,0:0:0:0:
162,201,153544,5,4,0:0:0:0:
182,37,153698,1,8,0:0:0:0:
197,116,153852,1,4,0:0:0:0:
182,280,154006,1,8,0:0:0:0:
201,201,154159,2,0,P|210:139|206:90,1,90,4|8,0:0|0:0,0:0:0:0:
359,22,154467,1,12,0:0:0:0:
328,97,154621,1,0,0:0:0:0:
469,176,154775,1,12,0:0:0:0:
398,136,154929,1,0,0:0:0:0:
367,262,155082,38,0,P|365:319|372:361,1,90,12|0,0:0|0:0,0:0:0:0:
507,280,155390,2,0,P|509:223|502:181,1,90,12|0,0:0|0:0,0:0:0:0:
423,43,155698,1,12,0:0:0:0:
430,220,155852,1,8,0:0:0:0:
355,252,156006,1,4,0:0:0:0:
231,172,156159,6,0,P|142:169|55:192,1,180,8|8,0:0|0:0,0:0:0:0:
4,255,156621,1,4,0:0:0:0:
122,145,156775,1,8,0:0:0:0:
150,296,156929,1,12,0:0:0:0:
68,298,157082,2,0,P|24:298|-14:320,1,90,0|12,0:0|0:0,0:0:0:0:
45,376,157390,1,0,0:0:0:0:
110,226,157544,38,0,P|113:172|108:129,1,90,12|0,0:0|0:0,0:0:0:0:
251,9,157852,2,0,P|239:65|236:108,1,90,12|0,0:0|0:0,0:0:0:0:
272,271,158159,1,12,0:0:0:0:
443,223,158313,1,8,0:0:0:0:
364,203,158467,5,4,0:0:0:0:
350,372,158621,1,8,0:0:0:0:
270,354,158775,1,4,0:0:0:0:
286,183,158929,1,8,0:0:0:0:
254,108,159082,2,0,P|249:59|251:13,1,90,4|8,0:0|0:0,0:0:0:0:
419,5,159390,1,12,0:0:0:0:
407,85,159544,1,0,0:0:0:0:
440,241,159698,2,0,P|440:300|434:333,1,90,12|0,0:0|0:0,0:0:0:0:
268,364,160006,38,0,P|224:348|172:339,1,90,12|0,0:0|0:0,0:0:0:0:
139,193,160313,2,0,P|205:184|251:168,1,90,12|0,0:0|0:0,0:0:0:0:
341,67,160621,1,12,0:0:0:0:
299,230,160775,1,8,0:0:0:0:
378,245,160929,5,4,0:0:0:0:
407,382,161082,2,0,P|397:314|414:184,1,180,8|8,0:0|0:0,0:0:0:0:
374,129,161544,2,0,P|365:74|345:17,1,90,4|8,0:0|0:0,0:0:0:0:
215,106,161852,2,0,P|208:172|155:211,1,135,12|0,0:0|0:0,0:0:0:0:
115,210,162159,1,12,0:0:0:0:
138,131,162313,1,0,0:0:0:0:
166,292,162467,38,0,P|164:349|156:389,1,90,12|0,0:0|0:0,0:0:0:0:
6,317,162775,2,0,P|2:256|6:218,1,90,12|0,0:0|0:0,0:0:0:0:
50,61,163082,1,12,0:0:0:0:
85,237,163236,1,8,0:0:0:0:
145,183,163390,5,4,0:0:0:0:
4,227,163544,1,8,0:0:0:0:
33,302,163698,1,4,0:0:0:0:
163,263,163852,1,8,0:0:0:0:
174,182,164006,2,0,P|174:135|167:89,1,90,4|8,0:0|0:0,0:0:0:0:
321,27,164313,1,12,0:0:0:0:
316,107,164467,1,0,0:0:0:0:
489,84,164621,1,12,0:0:0:0:
475,4,164775,1,0,0:0:0:0:
454,160,164929,38,0,P|456:212|469:258,1,90,12|0,0:0|0:0,0:0:0:0:
319,375,165236,2,0,P|331:316|332:269,1,90,12|0,0:0|0:0,0:0:0:0:
311,124,165544,1,12,0:0:0:0:
154,181,165698,2,0,P|99:180|59:146,1,90,8|4,0:0|0:0,0:0:0:0:
116,25,166006,5,8,0:0:0:0:
129,105,166159,1,4,0:0:0:0:
119,297,166313,1,8,0:0:0:0:
92,373,166467,1,4,0:0:0:0:
66,235,166621,1,8,0:0:0:0:
198,281,166775,2,0,P|246:277|284:262,1,90,12|0,0:0|0:0,0:0:0:0:
431,345,167082,2,0,P|393:321|350:306,1,90,12|0,0:0|0:0,0:0:0:0:
298,183,167390,22,0,P|290:126|298:68,1,90,14|0,0:0|0:0,0:0:0:0:
386,9,167698,2,0,P|384:54|373:98,1,90,14|0,0:0|0:0,0:0:0:0:
304,202,168006,37,14,0:0:0:0:
157,147,168159,1,10,0:0:0:0:
152,66,168313,1,4,0:0:0:0:
109,211,168467,5,10,0:0:0:0:
125,290,168621,1,4,0:0:0:0:
289,275,168775,37,10,0:0:0:0:
273,354,168929,1,4,0:0:0:0:
454,320,169082,5,10,0:0:0:0:
391,195,169236,2,0,P|390:143|399:92,1,90,14|0,0:0|0:0,0:0:0:0:
438,0,169544,2,0,P|433:44|410:82,1,90,14|0,0:0|0:0,0:0:0:0:
272,134,169852,38,0,P|268:196|270:241,1,90,14|0,0:0|0:0,0:0:0:0:
357,364,170159,2,0,P|372:313|410:265,1,90,14|0,0:0|0:0,0:0:0:0:
512,220,170467,5,14,0:0:0:0:
404,77,170621,1,10,0:0:0:0:
395,157,170775,1,4,0:0:0:0:
264,113,170929,37,10,0:0:0:0:
258,32,171082,1,4,0:0:0:0:
192,150,171236,5,10,0:0:0:0:
186,230,171390,1,4,0:0:0:0:
321,168,171544,1,10,0:0:0:0:
232,298,171698,6,0,P|180:258|76:240,1,135,14|0,0:0|0:0,0:0:0:0:
72,236,172006,2,0,P|65:281|64:326,1,90,14|0,0:0|0:0,0:0:0:0:
17,177,172313,6,0,P|23:112|12:5,1,135,14|0,0:0|0:0,0:0:0:0:
11,2,172621,2,0,P|64:22|119:27,1,90,14|0,0:0|0:0,0:0:0:0:
243,21,172929,21,14,0:0:0:0:
230,166,173082,1,10,0:0:0:0:
306,192,173236,1,4,0:0:0:0:
156,198,173390,37,10,0:0:0:0:
138,277,173544,1,4,0:0:0:0:
101,139,173698,5,10,0:0:0:0:
99,57,173852,1,4,0:0:0:0:
222,138,174006,37,10,0:0:0:0:
377,113,174159,2,0,P|408:84|433:37,1,90,14|0,0:0|0:0,0:0:0:0:
294,109,174467,2,0,P|307:151|337:184,1,90,14|0,0:0|0:0,0:0:0:0:
476,197,174775,6,0,P|468:251|468:303,1,90,14|0,0:0|0:0,0:0:0:0:
336,384,175082,2,0,P|336:333|327:268,1,90,14|0,0:0|0:0,0:0:0:0:
466,303,175390,37,14,0:0:0:0:
327,276,175544,1,10,0:0:0:0:
316,195,175698,1,4,0:0:0:0:
448,183,175852,5,10,0:0:0:0:
455,102,176006,1,4,0:0:0:0:
305,106,176159,37,10,0:0:0:0:
295,25,176313,1,4,0:0:0:0:
165,45,176467,1,10,0:0:0:0:
133,173,176621,22,0,P|129:249|131:317,1,135,14|0,0:0|0:0,0:0:0:0:
143,347,176929,2,0,P|202:327|251:326,1,90,14|0,0:0|0:0,0:0:0:0:
478,361,177236,6,0,P|411:363|346:348,1,135,14|0,0:0|0:0,0:0:0:0:
309,334,177544,2,0,P|308:270|313:220,1,90,14|0,0:0|0:0,0:0:0:0:
352,64,177852,21,14,0:0:0:0:
211,82,178006,1,10,0:0:0:0:
287,107,178159,1,4,0:0:0:0:
134,59,178313,37,10,0:0:0:0:
214,66,178467,1,4,0:0:0:0:
69,107,178621,5,10,0:0:0:0:
127,50,178775,1,4,0:0:0:0:
93,183,178929,1,10,0:0:0:0:
116,296,179082,38,0,P|113:344|103:389,1,90,14|0,0:0|0:0,0:0:0:0:
261,336,179390,2,0,P|254:280|259:215,1,90,14|0,0:0|0:0,0:0:0:0:
442,290,179698,6,0,P|439:349|434:386,1,90,14|0,0:0|0:0,0:0:0:0:
271,347,180006,2,0,P|261:291|263:243,1,90,14|0,0:0|0:0,0:0:0:0:
290,120,180313,37,14,0:0:0:0:
425,163,180467,1,10,0:0:0:0:
345,179,180621,1,4,0:0:0:0:
183,124,180775,5,10,0:0:0:0:
104,143,180929,1,4,0:0:0:0:
238,182,181082,37,10,0:0:0:0:
293,240,181236,1,4,0:0:0:0:
261,106,181390,1,10,0:0:0:0:
104,143,181544,22,0,P|65:189|22:283,1,135,14|0,0:0|0:0,0:0:0:0:
55,287,181852,2,0,P|50:337|55:399,1,90,14|0,0:0|0:0,0:0:0:0:
212,351,182159,6,0,P|217:302|285:241,1,135,14|0,0:0|0:0,0:0:0:0:
298,278,182467,2,0,P|346:271|400:289,1,90,14|0,0:0|0:0,0:0:0:0:
479,377,182775,21,14,0:0:0:0:
460,251,182929,1,10,0:0:0:0:
485,174,183082,1,4,0:0:0:0:
404,55,183236,37,10,0:0:0:0:
323,64,183390,1,4,0:0:0:0:
189,114,183544,5,10,0:0:0:0:
270,125,183698,1,4,0:0:0:0:
222,248,183852,1,10,0:0:0:0:
125,178,184006,38,0,P|63:177|8:198,1,90,14|0,0:0|0:0,0:0:0:0:
92,339,184313,2,0,P|160:358|205:352,1,90,14|0,0:0|0:0,0:0:0:0:
203,224,184621,6,0,P|205:180|199:135,1,90,14|0,0:0|0:0,0:0:0:0:
257,286,184929,2,0,P|257:330|262:375,1,90,14|0,0:0|0:0,0:0:0:0:
371,274,185236,37,14,0:0:0:0:
356,136,185390,1,10,0:0:0:0:
292,96,185544,1,4,0:0:0:0:
246,203,185698,5,10,0:0:0:0:
243,279,185852,1,4,0:0:0:0:
360,265,186006,37,10,0:0:0:0:
426,230,186160,1,4,0:0:0:0:
374,358,186313,5,10,0:0:0:0:
232,293,186467,2,0,P|186:296|132:313,1,90,14|0,0:0|0:0,0:0:0:0:
32,203,186775,2,0,P|73:218|118:228,1,90,14|0,0:0|0:0,0:0:0:0:
273,231,187082,38,0,P|285:147|285:60,1,135,4|0,0:0|0:0,0:0:0:0:
444,194,187390,2,0,P|446:289|461:364,1,135.000005149842,4|4,0:0|0:0,0:0:0:0:
452,328,187621,1,4,0:0:0:0:
452,328,187698,21,8,0:0:0:0:
371,328,187852,1,4,0:0:0:0:
293,353,188006,1,4,0:0:0:0:
270,211,188159,38,0,P|268:140|277:55,1,135.000005149842,4|0,0:0|0:0,0:0:0:0:
119,1,188467,2,0,P|97:104|96:314,1,270.000010299683,4|4,0:0|0:0,0:0:0:0:
91,268,188852,1,4,0:0:0:0:
91,268,188929,5,8,0:0:0:0:
176,293,189082,1,8,0:0:0:0:
240,244,189236,1,8,0:0:0:0:
321,242,189390,1,8,0:0:0:0:
357,314,189544,2,0,P|347:229|350:187,1,90,4|4,0:0|0:0,0:0:0:0:
458,53,189852,38,0,P|399:84|361:140,1,135.000005149842,4|0,0:0|0:0,0:0:0:0:
210,202,190159,2,0,P|196:115|212:27,2,135.000005149842,4|8|4,0:0|0:0|0:0,0:0:0:0:
128,12,190621,38,0,P|201:47|297:60,1,135.000005149842,4|0,0:0|0:0,0:0:0:0:
210,202,190929,2,0,P|125:216|47:251,1,135.000005149842,4|0,0:0|0:0,0:0:0:0:
35,370,191236,1,4,0:0:0:0:
26,172,191390,1,8,0:0:0:0:
53,94,191544,2,0,P|55:187|9:365,1,270.000010299683,4|0,0:0|0:0,0:0:0:0:
185,280,192006,6,0,B|268:272|268:272|326:307,1,135.000005149842,4|0,0:0|0:0,0:0:0:0:
506,380,192313,2,0,B|426:371|426:371|380:342,1,135.000005149842,4|4,0:0|0:0,0:0:0:0:
380,342,192544,1,4,0:0:0:0:
380,342,192621,5,8,0:0:0:0:
415,269,192775,1,4,0:0:0:0:
412,187,192929,1,4,0:0:0:0:
352,42,193082,38,0,P|380:130|386:232,1,135.000005149842,4|0,0:0|0:0,0:0:0:0:
251,300,193390,2,0,P|287:243|303:177,1,135.000005149842,4|0,0:0|0:0,0:0:0:0:
265,9,193698,1,4,0:0:0:0:
265,9,193775,1,4,0:0:0:0:
265,9,193852,5,8,0:0:0:0:
184,19,194006,1,8,0:0:0:0:
170,98,194159,1,8,0:0:0:0:
243,132,194313,1,8,0:0:0:0:
303,77,194467,2,0,P|299:24|278:-17,1,90,4|4,0:0|0:0,0:0:0:0:
243,132,194775,38,0,P|243:217|265:324,1,135.000005149842,4|0,0:0|0:0,0:0:0:0:
428,289,195082,2,0,P|484:332|525:389,2,135.000005149842,4|8|4,0:0|0:0|0:0,0:0:0:0:
278,344,195544,38,0,P|191:341|50:186,2,270.000010299683,4|4|4,0:0|0:0|0:0,0:0:0:0:
317,131,196313,1,8,0:0:0:0:
385,174,196467,2,0,P|313:96|112:57,1,270.000010299683,4|0,0:0|0:0,0:0:0:0:
191,191,196929,6,0,P|211:268|203:363,1,135.000005149842,4|0,0:0|0:0,0:0:0:0:
40,384,197236,2,0,P|14:297|13:212,1,135.000005149842,4|4,0:0|0:0,0:0:0:0:
10,253,197467,1,4,0:0:0:0:
10,253,197544,5,8,0:0:0:0:
99,267,197698,1,4,0:0:0:0:
179,275,197852,1,4,0:0:0:0:
316,178,198006,38,0,L|470:169,1,135.000005149842,4|0,0:0|0:0,0:0:0:0:
347,34,198313,2,0,L|63:26,1,270.000010299683,4|4,0:0|0:0,0:0:0:0:
77,26,198698,1,4,0:0:0:0:
77,26,198775,5,8,0:0:0:0:
158,66,198929,1,8,0:0:0:0:
197,136,199082,1,8,0:0:0:0:
193,216,199236,1,8,0:0:0:0:
154,286,199390,2,0,P|115:309|71:319,1,90,4|4,0:0|0:0,0:0:0:0:
223,331,199698,38,0,P|288:352|348:382,1,135.000005149842,4|0,0:0|0:0,0:0:0:0:
405,218,200006,2,0,P|494:202|548:174,2,135.000005149842,4|8|4,0:0|0:0|0:0,0:0:0:0:
244,160,200467,38,0,P|231:88|230:-5,1,135.000005149842,4|0,0:0|0:0,0:0:0:0:
113,215,200775,2,0,P|106:289|86:358,1,135.000005149842,4|0,0:0|0:0,0:0:0:0:
266,375,201082,1,4,0:0:0:0:
218,193,201236,1,8,0:0:0:0:
249,267,201390,2,0,P|255:179|333:16,1,270.000010299683,4|0,0:0|0:0,0:0:0:0:
246,108,201852,6,0,P|171:115|59:85,1,135.000005149842,4|0,0:0|0:0,0:0:0:0:
11,228,202159,2,0,P|57:290|130:322,1,135.000005149842,4|4,0:0|0:0,0:0:0:0:
106,316,202390,1,4,0:0:0:0:
106,316,202467,5,8,0:0:0:0:
160,257,202621,1,4,0:0:0:0:
235,226,202775,1,4,0:0:0:0:
417,318,202929,38,0,P|350:311|288:286,1,135.000005149842,4|0,0:0|0:0,0:0:0:0:
373,162,203236,2,0,P|323:68|326:-9,1,135.000005149842,4|0,0:0|0:0,0:0:0:0:
502,35,203544,1,4,0:0:0:0:
502,35,203621,1,4,0:0:0:0:
502,35,203698,5,8,0:0:0:0:
495,115,203852,1,8,0:0:0:0:
459,187,204006,1,8,0:0:0:0:
398,239,204159,1,8,0:0:0:0:
320,263,204313,2,0,P|253:256|204:234,1,90,4|4,0:0|0:0,0:0:0:0:
246,22,204621,38,0,P|327:52|374:102,1,135.000005149842,4|0,0:0|0:0,0:0:0:0:
398,239,204929,2,0,P|412:309|454:376,2,135.000005149842,4|8|4,0:0|0:0|0:0,0:0:0:0:
235,173,205390,38,0,P|141:177|50:200,1,135.000005149842,4|0,0:0|0:0,0:0:0:0:
175,349,205698,2,0,P|258:349|321:332,1,135.000005149842,4|0,0:0|0:0,0:0:0:0:
463,259,206006,1,4,0:0:0:0:
432,93,206159,1,8,0:0:0:0:
472,23,206313,2,0,P|453:137|455:320,1,270.000010299683,4|0,0:0|0:0,0:0:0:0:
297,360,206775,6,0,P|276:264|276:146,1,161.999995056153,6|0,0:0|0:0,0:0:0:0:
294,105,207082,2,0,P|252:184|136:228,1,161.999995056153,6|0,0:0|0:0,0:0:0:0:
15,175,207390,1,10,0:0:0:0:
63,259,207544,2,0,P|135:305|155:383,1,161.999995056153,6|0,0:0|0:0,0:0:0:0:
253,380,207852,2,0,P|257:289|249:195,1,161.999995056153,6|0,0:0|0:0,0:0:0:0:
217,127,208159,1,6,0:0:0:0:
273,47,208313,1,0,0:0:0:0:
352,103,208467,1,6,0:0:0:0:
175,43,208621,37,10,0:0:0:0:
206,238,208775,1,8,0:0:0:0:
173,329,208929,2,0,P|186:229|187:139,1,161.999995056153,6|0,0:0|0:0,0:0:0:0:
352,103,209236,6,0,P|361:192|363:278,1,161.999995056153,6|0,0:0|0:0,0:0:0:0:
344,360,209544,2,0,P|354:251|352:164,1,161.999995056153,6|0,0:0|0:0,0:0:0:0:
319,16,209852,1,8,0:0:0:0:
260,93,210006,2,0,P|186:107|100:175,1,161.999995056153,6|0,0:0|0:0,0:0:0:0:
81,246,210313,38,0,P|102:142|98:48,1,161.999995056153,6|0,0:0|0:0,0:0:0:0:
223,231,210621,2,0,P|233:317|259:399,1,161.999995056153,6|0,0:0|0:0,0:0:0:0:
348,358,210929,1,6,0:0:0:0:
492,327,211082,5,10,0:0:0:0:
502,178,211236,1,8,0:0:0:0:
417,226,211390,2,0,P|412:147|466:86,1,161.999995056153,6|0,0:0|0:0,0:0:0:0:
310,10,211698,38,0,P|217:15|135:35,1,161.999995056153,6|0,0:0|0:0,0:0:0:0:
151,128,212006,2,0,P|86:190|44:275,1,161.999995056153,6|0,0:0|0:0,0:0:0:0:
196,364,212313,1,10,0:0:0:0:
282,319,212467,2,0,P|374:316|451:343,1,161.999995056153,6|0,0:0|0:0,0:0:0:0:
501,260,212775,6,0,P|478:170|480:73,1,161.999995056153,6|0,0:0|0:0,0:0:0:0:
486,4,213082,2,0,P|459:91|346:115,1,161.999995056153,6|0,0:0|0:0,0:0:0:0:
390,24,213390,1,6,0:0:0:0:
363,211,213544,37,10,0:0:0:0:
215,97,213698,1,8,0:0:0:0:
310,117,213852,2,0,P|344:206|341:307,1,161.999995056153,6|0,0:0|0:0,0:0:0:0:
148,374,214159,6,0,P|216:332|250:260,1,161.999995056153,6|0,0:0|0:0,0:0:0:0:
152,241,214467,2,0,P|77:262|8:215,1,161.999995056153,6|0,0:0|0:0,0:0:0:0:
109,68,214775,1,8,0:0:0:0:
27,121,214929,2,0,P|102:100|168:143,1,161.999995056153,6|0,0:0|0:0,0:0:0:0:
250,91,215236,38,0,P|330:77|409:32,1,161.999995056153,6|0,0:0|0:0,0:0:0:0:
493,70,215544,2,0,P|459:149|393:237,1,161.999995056153,6|0,0:0|0:0,0:0:0:0:
339,272,215852,1,6,0:0:0:0:
472,330,216006,5,10,0:0:0:0:
324,183,216159,1,8,0:0:0:0:
236,225,216313,2,0,P|149:217|85:171,1,161.999995056153,6|0,0:0|0:0,0:0:0:0:
53,6,216621,38,0,P|65:86|63:167,1,161.999995056153,6|0,0:0|0:0,0:0:0:0:
27,258,216929,2,0,P|25:314|108:380,1,161.999995056153,6|0,0:0|0:0,0:0:0:0:
271,293,217236,2,0,P|194:271|115:283,1,161.999995056153,10|6,0:0|0:0,0:0:0:0:
201,236,217544,5,0,0:0:0:0:
250,152,217698,1,6,0:0:0:0:
216,60,217852,1,0,0:0:0:0:
260,146,218006,1,6,0:0:0:0:
354,125,218159,2,0,P|431:140|470:208,1,161.999995056153,0|4,0:0|0:0,0:0:0:0:
437,363,218467,37,10,0:0:0:0:
375,220,218621,1,8,0:0:0:0:
318,299,218775,2,0,P|227:297|139:347,1,161.999995056153,6|0,0:0|0:0,0:0:0:0:
39,235,219082,6,0,P|105:169|190:130,1,161.999995056153,6|0,0:0|0:0,0:0:0:0:
213,52,219390,2,0,P|307:79|386:75,1,161.999995056153,6|0,0:0|0:0,0:0:0:0:
505,16,219698,1,8,0:0:0:0:
459,101,219852,2,0,P|381:122|334:219,1,161.999995056153,6|0,0:0|0:0,0:0:0:0:
241,171,220159,38,0,P|240:282|254:362,1,161.999995056153,6|0,0:0|0:0,0:0:0:0:
149,346,220467,2,0,P|102:280|25:270,1,161.999995056153,6|0,0:0|0:0,0:0:0:0:
54,364,220775,1,6,0:0:0:0:
118,190,220929,5,10,0:0:0:0:
68,26,221082,1,8,0:0:0:0:
136,95,221236,2,0,P|223:118|320:97,1,161.999995056153,6|0,0:0|0:0,0:0:0:0:
403,4,221544,38,0,P|354:85|276:133,1,161.999995056153,6|0,0:0|0:0,0:0:0:0:
366,195,221852,2,0,P|372:295|403:377,1,161.999995056153,6|0,0:0|0:0,0:0:0:0:
202,384,222159,2,0,P|220:291|224:210,1,161.999995056153,10|6,0:0|0:0,0:0:0:0:
202,128,222467,5,0,0:0:0:0:
255,46,222621,1,6,0:0:0:0:
351,38,222775,1,0,0:0:0:0:
256,59,222929,1,6,0:0:0:0:
305,141,223082,2,0,P|314:207|316:318,1,161.999995056153,0|6,0:0|0:0,0:0:0:0:
183,382,223390,37,10,0:0:0:0:
161,204,223544,1,8,0:0:0:0:
140,108,223698,2,0,P|135:221|151:318,1,161.999995056153,6|0,0:0|0:0,0:0:0:0:
238,269,224006,6,0,P|300:318|389:338,1,161.999995056153,6|0,0:0|0:0,0:0:0:0:
370,240,224313,2,0,P|319:217|301:93,1,161.999995056153,6|0,0:0|0:0,0:0:0:0:
457,80,224621,1,8,0:0:0:0:
384,144,224775,2,0,P|390:211|381:324,1,161.999995056153,6|0,0:0|0:0,0:0:0:0:
290,280,225082,38,0,P|234:343|146:349,1,161.999995056153,6|0,0:0|0:0,0:0:0:0:
60,347,225390,2,0,P|18:280|39:205,1,161.999995056153,6|0,0:0|0:0,0:0:0:0:
112,267,225698,1,6,0:0:0:0:
94,95,225852,5,10,0:0:0:0:
248,82,226006,1,8,0:0:0:0:
187,6,226159,2,0,P|213:101|213:297,1,242.999992584229,6|0,0:0|0:0,0:0:0:0:
217,265,226467,6,0,P|203:323|166:391,2,135,6|0|2,0:2|0:0|0:2,0:0:0:0:
295,246,227544,1,2,0:2:0:0:
265,170,227698,6,0,P|263:126|274:69,1,90,2|2,0:2|0:2,0:0:0:0:
419,143,228313,2,0,P|430:209|458:241,1,90,2|2,0:2|0:2,0:0:0:0:
508,274,228775,38,0,P|443:257|368:256,1,135,2|0,0:2|0:0,0:0:0:0:
375,255,229852,1,2,0:2:0:0:
305,296,230006,6,0,P|262:297|175:251,1,135,2|2,0:2|0:2,0:0:0:0:
92,120,230775,2,0,P|134:142|156:178,1,90,2|2,0:2|0:2,0:0:0:0:
79,204,231236,38,0,P|79:259|67:356,1,135,2|0,0:2|0:0,0:0:0:0:
70,338,232313,2,0,L|125:341,1,45,2|2,0:2|0:2,0:0:0:0:
172,282,232621,6,0,L|265:279,1,90,2|2,0:2|0:2,0:0:0:0:
413,337,233236,2,0,L|472:342,2,45,2|2|2,0:2|0:2|0:2,0:0:0:0:
338,369,233698,38,0,P|328:306|328:222,1,135,2|0,0:2|0:0,0:0:0:0:
327,234,234775,1,2,0:2:0:0:
349,311,234929,6,0,P|354:267|389:176,1,135,2|2,0:2|0:2,0:0:0:0:
450,133,235544,1,2,0:2:0:0:
478,56,235698,2,0,P|478:21|475:6,1,45,2|2,0:2|0:2,0:0:0:0:
476,11,236313,38,0,L|328:5,2,135,2|0|0,0:2|0:0|0:0,0:0:0:0:
476,11,237698,2,0,L|324:19,1,135,0|0,0:0|0:0,0:0:0:0:
341,18,238775,6,0,P|286:38|200:24,2,135,2|0|0,0:2|0:0|0:0,0:0:0:0:
341,18,240006,2,0,P|317:47|257:74,1,90
109,56,240621,2,0,P|97:146|94:218,1,157.5,0|0,0:0|0:0,0:0:0:0:
97,252,241236,38,0,P|130:245|213:297,2,135,2|0|0,0:2|0:0|0:0,0:0:0:0:
97,252,242621,2,0,P|161:238|233:275,1,135,0|0,0:0|0:0,0:0:0:0:
222,264,243698,6,0,P|261:291|354:324,2,135,2|0|0,0:2|0:0|0:0,0:0:0:0:
222,264,244929,2,0,P|191:224|173:173,1,90,0|0,0:0|0:0,0:0:0:0:
210,29,245544,2,0,P|179:89|92:110,1,157.5,0|0,0:0|0:0,0:0:0:0:
88,110,246159,38,0,P|80:186|82:237,1,126,2|0,0:2|0:0,0:0:0:0:
81,235,248621,2,0,P|85:271|80:362,1,126,2|0,0:2|0:0,0:0:0:0:
80,360,251082,2,0,P|75:346|152:345,1,144,2|2,0:2|0:2,0:0:0:0:
355,358,256006,6,0,L|376:359,1,18,2|0,0:2|0:0,0:0:0:0:
410,358,256467,2,0,P|401:317|394:257,1,99,2|0,0:2|0:0,0:0:0:0:
394,260,258467,2,0,P|394:222|389:135,1,126,2|0,0:2|0:0,0:0:0:0:
388,134,260929,2,0,P|379:109|314:155,1,144,2|2,0:2|0:2,0:0:0:0:
256,192,264621,12,0,268313,0:0:0:0:
