osu file format v14

[General]
AudioFilename: audio.mp3
AudioLeadIn: 0
PreviewTime: 101241
Countdown: 0
SampleSet: None
StackLeniency: 0.5
Mode: 0
LetterboxInBreaks: 0
WidescreenStoryboard: 1

[Editor]
Bookmarks: 14474,54470,77313,100170,123027,134455,157312,168741,191598,214455,225884
DistanceSpacing: 1.1
BeatDivisor: 4
GridSize: 32
TimelineZoom: 1.648001

[Metadata]
Title:Myopia
TitleUnicode:Myopia
Artist:Enter Shikari
ArtistUnicode:Enter Shikari
Creator:h4d0uk3n1
Version:Collab Hard
Source:
Tags:Namki Bakari riffy smozit mindsweep alternative metal trancecore electonicore english rock
BeatmapID:1402979
BeatmapSetID:654575

[Difficulty]
HPDrainRate:5
CircleSize:4
OverallDifficulty:6.5
ApproachRate:7.5
SliderMultiplier:1.2
SliderTickRate:1

[Events]
//Background and Video events
0,0,"dripdripdrop.jpg",0,0
//Break Periods
//Storyboard Layer 0 (Background)
//Storyboard Layer 1 (Fail)
//Storyboard Layer 2 (Pass)
//Storyboard Layer 3 (Foreground)
//Storyboard Sound Samples

[TimingPoints]
14471,357.142857142857,4,3,3,40,1,0
14471,-133.333333333333,4,3,3,40,0,0
54470,-117.647058823529,4,3,3,10,0,0
54560,-117.647058823529,4,3,3,40,0,0
57328,-117.647058823529,4,3,3,17,0,0
57417,-117.647058823529,4,3,3,40,0,0
60185,-117.647058823529,4,3,3,24,0,0
60274,-117.647058823529,4,3,3,40,0,0
63042,-117.647058823529,4,3,3,31,0,0
63131,-117.647058823529,4,3,3,40,0,0
65899,-117.647058823529,4,3,3,10,0,0
65988,-117.647058823529,4,3,3,40,0,0
68756,-117.647058823529,4,3,3,17,0,0
68845,-117.647058823529,4,3,3,40,0,0
71613,-117.647058823529,4,3,3,24,0,0
71703,-117.647058823529,4,3,3,40,0,0
74470,-117.647058823529,4,3,3,31,0,0
74560,-117.647058823529,4,3,3,40,0,0
77313,357.142857142857,4,3,3,55,1,1
77313,-90.9090909090909,4,3,3,55,0,1
83027,-90.9090909090909,4,3,3,55,0,0
88652,-90.9090909090909,4,3,3,5,0,0
88741,-90.9090909090909,4,3,3,55,0,1
94455,-90.9090909090909,4,3,3,55,0,0
123028,-90.9090909090909,4,3,3,45,0,0
131599,-90.9090909090909,4,3,3,55,0,0
133742,-90.9090909090909,4,3,3,65,0,0
134455,-90.9090909090909,4,3,3,65,0,1
135170,-90.9090909090909,4,3,3,65,0,0
140170,-90.9090909090909,4,3,3,65,0,1
140884,-90.9090909090909,4,3,3,65,0,0
145170,-90.9090909090909,4,3,3,40,0,0
145527,-90.9090909090909,4,3,2,40,0,0
145884,-90.9090909090909,4,3,3,65,0,1
146598,-90.9090909090909,4,3,3,65,0,0
151598,-90.9090909090909,4,3,3,65,0,1
152312,-90.9090909090909,4,3,3,65,0,0
156063,-90.9090909090909,4,3,3,65,0,0
156599,-90.9090909090909,4,3,3,65,0,0
157312,-90.9090909090909,4,3,3,55,0,0
168741,-90.9090909090909,4,3,3,55,0,1
174455,-90.9090909090909,4,3,3,55,0,0
180170,-90.9090909090909,4,3,3,55,0,1
185884,-90.9090909090909,4,3,3,55,0,0
214455,-90.9090909090909,4,3,3,45,0,0
223027,-90.9090909090909,4,3,3,55,0,0
225170,-90.9090909090909,4,3,3,65,0,0
225884,-90.9090909090909,4,3,3,65,0,1
226598,-90.9090909090909,4,3,3,65,0,0
231598,-90.9090909090909,4,3,3,65,0,1
232312,-90.9090909090909,4,3,3,65,0,0
236598,-90.9090909090909,4,3,3,40,0,0
236955,-90.9090909090909,4,3,2,40,0,0
237312,-90.9090909090909,4,3,3,65,0,1
238027,-90.9090909090909,4,3,3,65,0,0
243027,-90.9090909090909,4,3,3,65,0,1
243741,-90.9090909090909,4,3,3,65,0,0

[Colours]
Combo1 : 94,196,142
Combo2 : 177,86,109
Combo3 : 109,117,167
Combo4 : 215,163,100

[HitObjects]
108,295,14471,22,0,P|57:310|20:340,2,90.0000034332277,2|2|2,0:2|0:2|0:2,0:0:0:0:
164,73,15721,2,0,P|212:80|267:70,1,90.0000034332277,2|2,0:2|0:2,0:0:0:0:
394,14,16435,2,0,P|341:54|328:133,1,135.000005149841,2|2,0:2|0:2,0:0:0:0:
329,122,17149,1,2,0:2:0:0:
332,126,17328,22,0,P|329:178|211:206,1,180.000006866455,2|2,0:2|0:2,0:0:0:0:
102,124,18399,2,0,P|133:130|153:138,1,45.0000017166138,2|2,0:2|0:2,0:0:0:0:
109,202,18756,2,0,P|86:198|65:191,2,45.0000017166138,2|2|2,0:2|0:2|0:2,0:0:0:0:
185,202,19292,1,2,0:2:0:0:
442,366,20006,1,2,0:2:0:0:
407,297,20185,22,0,P|399:247|418:150,1,135.000005149841,2|2,0:2|0:2,0:0:0:0:
480,27,21078,2,0,P|477:55|462:82,1,45.0000017166138,2|2,0:2|0:2,0:0:0:0:
396,90,21435,2,0,P|343:67|301:61,2,90.0000034332277,2|2|2,0:2|0:2|0:2,0:0:0:0:
100,332,23042,22,0,P|129:331|156:322,2,45.0000017166138,2|2|2,0:2|0:2|0:2,0:0:0:0:
26,311,23578,2,0,P|33:242|7:167,1,135.000005149841,2|2,0:2|0:2,0:0:0:0:
61,119,24292,2,0,P|118:122|158:120,1,90.0000034332277,2|2,0:2|0:2,0:0:0:0:
153,197,24828,2,0,P|190:205|246:226,1,90.0000034332277,2|2,0:2|0:2,0:0:0:0:
372,35,25721,1,2,0:2:0:0:
426,89,25899,22,0,P|425:156|264:345,1,315.000012016297,2|0,0:2|0:0,0:0:0:0:
242,271,27328,2,0,P|344:165|309:13,1,315.000012016297,2|0,0:2|0:0,0:0:0:0:
246,57,28756,22,0,P|271:147|121:160,1,270.000010299683,2|0,0:2|0:0,0:0:0:0:
53,307,30185,2,0,P|116:310|158:332,1,90.0000034332277,2|2,0:2|0:2,0:0:0:0:
207,356,30720,2,0,P|257:343|274:296,1,90.0000034332277,2|2,0:2|0:2,0:0:0:0:
268,158,31435,22,0,P|341:239|340:349,1,225.000008583069,2|0,0:2|0:0,0:0:0:0:
458,67,33042,2,0,P|393:55|325:7,1,135.000005149841,2|2,0:2|0:2,0:0:0:0:
335,18,34471,21,0,0:0:0:0:
335,18,35721,2,0,P|331:66|313:126,2,90.0000034332277,2|2|2,0:2|0:2|0:2,0:0:0:0:
128,119,36971,2,0,P|131:148|140:179,1,45.0000017166138,2|2,0:2|0:2,0:0:0:0:
174,229,37328,22,0,P|212:216|313:247,1,135.000005149841,2|2,0:2|0:2,0:0:0:0:
482,379,38399,2,0,P|411:326|378:243,1,180.000006866455,2|2,0:2|0:2,0:0:0:0:
404,93,39470,1,2,0:2:0:0:
253,120,39828,22,0,P|252:228|236:310,1,180.000006866455,2|2,0:2|0:2,0:0:0:0:
501,20,41435,1,2,0:2:0:0:
501,20,41613,2,0,P|493:71|490:163,1,135.000005149841,2|2,0:2|0:2,0:0:0:0:
452,303,42506,1,2,0:2:0:0:
347,191,42863,22,0,P|280:240|176:230,1,180.000006866455,2|0,0:2|0:0,0:0:0:0:
340,65,44113,1,2,0:2:0:0:
187,65,44470,2,0,P|120:98|82:155,2,135.000005149841,2|2|2,0:2|0:2|0:2,0:0:0:0:
221,214,45899,22,0,P|220:263|192:351,1,135.000005149841,2|2,0:2|0:2,0:0:0:0:
331,159,46970,2,0,P|347:200|363:379,1,225.000008583069,2|0,0:2|0:0,0:0:0:0:
482,182,48399,2,0,P|476:147|477:125,1,45.0000017166138,2|2,0:2|0:2,0:0:0:0:
485,61,48756,22,0,P|438:51|359:14,1,135.000005149841,2|2,0:2|0:2,0:0:0:0:
132,53,49828,2,0,P|139:98|90:225,1,180.000006866455,2|2,0:2|0:2,0:0:0:0:
109,373,50899,1,2,0:2:0:0:
233,284,51256,22,0,P|318:291|412:307,1,180.000006866455,2|2,0:2|0:2,0:0:0:0:
126,51,52863,2,0,P|123:83|115:108,2,45.0000017166138,2|2|2,0:2|0:2|0:2,0:0:0:0:
68,192,53578,38,0,P|123:169|210:192,1,135.000005149841,2|2,0:0|0:0,0:0:0:0:
344,91,54470,37,4,0:0:0:0:
344,91,55720,1,0,0:0:0:0:
344,91,55899,2,0,P|290:86|241:124,1,102.000001945496,0|0,0:0|0:0,0:0:0:0:
172,126,56435,2,0,B|190:171|172:224|168:227|165:230|151:275|169:325,1,204.000003890991,0|0,0:0|0:0,0:0:0:0:
250,301,57328,22,0,P|222:263|88:307,1,204.000003890991,4|0,0:0|0:0,0:0:0:0:
363,346,58578,1,0,0:0:0:0:
420,288,58756,2,0,P|413:247|409:183,1,102.000001945496,0|0,0:0|0:0,0:0:0:0:
457,120,59292,2,0,P|435:92|314:95,1,153.000002918243,0|0,0:0|0:0,0:0:0:0:
235,254,60185,22,0,L|246:94,2,153.000002918243,4|0|0,0:0|0:0|0:0,0:0:0:0:
170,304,61435,1,0,0:0:0:0:
170,304,61613,2,0,P|124:295|54:295,1,102.000001945496,0|0,0:0|0:0,0:0:0:0:
9,349,62149,1,0,0:0:0:0:
340,349,63042,22,0,L|348:184,1,153.000002918243,4|0,0:0|0:0,0:0:0:0:
101,80,64292,1,0,0:0:0:0:
101,80,64470,2,0,P|132:107|208:103,1,102.000001945496,0|0,0:0|0:0,0:0:0:0:
243,48,65006,38,0,L|256:266,1,204.000003890991,2|0,0:0|0:0,0:0:0:0:
194,306,65899,38,0,P|176:266|327:207,1,255.000004863739,4|0,0:0|0:0,0:0:0:0:
434,310,67149,1,0,0:0:0:0:
389,241,67328,2,0,P|392:187|401:129,1,102.000001945496,0|0,0:0|0:0,0:0:0:0:
448,75,67863,2,0,B|373:99|384:50|286:78,1,153.000002918243,0|0,0:0|0:0,0:0:0:0:
137,43,68756,22,0,P|209:32|253:180,1,255.000004863739,4|0,0:0|0:0,0:0:0:0:
112,255,70006,1,0,0:0:0:0:
112,255,70185,2,0,P|160:247|217:242,1,102.000001945496,0|0,0:0|0:0,0:0:0:0:
282,285,70720,2,0,P|332:289|383:297,1,102.000001945496,0|0,0:0|0:0,0:0:0:0:
485,96,71613,22,0,P|466:147|357:161,2,153.000002918243,4|0|0,0:0|0:0|0:0,0:0:0:0:
403,90,72863,1,0,0:0:0:0:
403,90,73042,2,0,L|296:86,1,102.000001945496,0|0,0:0|0:0,0:0:0:0:
223,110,73578,2,0,P|211:151|235:217,1,102.000001945496,0|0,0:0|0:0,0:0:0:0:
74,316,74470,22,0,B|175:299|175:299|230:307|230:307|341:288,1,255.000004863739,4|0,0:0|0:0,0:0:0:0:
475,355,75720,1,0,0:0:0:0:
428,287,75899,2,0,L|437:175,1,102.000001945496,0|0,0:0|0:0,0:0:0:0:
428,94,77313,6,0,P|429:141|422:181,1,66.0000020141602,12|0,0:1|0:0,0:0:0:0:
341,196,77670,2,0,P|340:149|347:109,1,66.0000020141602,12|0,0:1|0:0,0:0:0:0:
293,5,78027,22,0,P|271:50|256:125,1,99.0000030212403,12|0,0:1|0:0,0:0:0:0:
258,117,78384,1,12,0:1:0:0:
166,130,78563,2,0,P|117:125|82:112,1,66.0000020141602,12|0,0:1|0:0,0:0:0:0:
99,6,78920,2,0,P|148:11|183:24,1,66.0000020141602,12|0,0:1|0:0,0:0:0:0:
170,136,79277,2,0,P|109:129|65:113,1,99.0000030212403,12|0,0:1|0:0,0:0:0:0:
56,108,79634,1,12,0:1:0:0:
71,243,79813,2,0,P|70:292|56:330,1,66.0000020141602,12|12,0:1|0:1,0:0:0:0:
154,266,80170,22,0,P|201:252|250:253,1,99.0000030212403,12|0,0:1|0:0,0:0:0:0:
267,259,80527,2,0,P|259:291|262:324,1,66.0000020141602,12|0,0:1|0:0,0:0:0:0:
351,348,80884,2,0,P|380:365|406:385,1,66.0000020141602,12|0,0:1|0:0,0:0:0:0:
460,265,81241,21,12,0:2:0:0:
460,265,81420,2,0,P|471:213|469:171,1,66.0000020141602,12|0,0:2|0:0,0:0:0:0:
379,196,81777,2,0,P|354:175|340:146,1,66.0000020141602,12|0,0:2|0:0,0:0:0:0:
428,118,82134,2,0,P|446:82|457:50,1,66.0000020141602,12|0,0:2|0:0,0:0:0:0:
382,0,82491,1,0,0:0:0:0:
382,0,82580,1,0,0:0:0:0:
382,0,82670,2,0,P|362:32|335:54,1,66.0000020141602,8|0,0:2|0:0,0:0:0:0:
200,102,83027,22,0,P|239:131|257:177,1,99.0000030212403,4|0,0:2|0:0,0:0:0:0:
256,197,83384,2,0,L|329:210,1,66.0000020141602,8|0,0:0|0:0,0:0:0:0:
400,216,83741,2,0,L|327:203,1,66.0000020141602,0|0,0:0|0:0,0:0:0:0:
344,283,84098,1,8,0:0:0:0:
344,283,84277,1,0,0:0:0:0:
282,332,84455,22,0,P|220:343|166:338,1,99.0000030212403,0|0,0:0|0:0,0:0:0:0:
164,339,84813,2,0,L|175:263,2,66.0000020141602,8|0|0,0:0|0:0|0:0,0:0:0:0:
17,313,85348,22,0,L|43:252,1,66.0000020141602,2|8,0:0|0:0,0:0:0:0:
81,169,85705,2,0,P|124:216|188:222,1,132.00000402832,2|0,0:0|0:0,0:0:0:0:
192,227,86152,1,0,0:0:0:0:
196,231,86241,22,0,L|202:313,1,66.0000020141602,8|0,0:0|0:0,0:0:0:0:
275,324,86598,2,0,L|281:242,1,66.0000020141602,0|0,0:0|0:0,0:0:0:0:
287,179,86955,2,0,L|369:172,1,66.0000020141602,8|0,0:0|0:0,0:0:0:0:
432,164,87313,2,0,P|378:145|333:90,1,99.0000030212403,0|0,0:0|0:0,0:0:0:0:
341,99,87670,22,0,L|260:101,1,66.0000020141602,8|0,0:0|0:0,0:0:0:0:
195,100,88027,1,8,0:0:0:0:
127,59,88205,1,0,0:0:0:0:
204,179,88384,2,0,P|216:228|208:280,1,99.0000030212403,8|0,0:0|0:0,0:0:0:0:
203,295,88741,22,0,P|238:290|277:303,1,66.0000020141602,12|0,0:1|0:0,0:0:0:0:
349,340,89098,2,0,P|380:349|413:355,1,66.0000020141602,12|0,0:1|0:0,0:0:0:0:
474,285,89455,22,0,P|437:257|427:185,1,99.0000030212403,12|0,0:1|0:0,0:0:0:0:
425,188,89813,1,12,0:1:0:0:
420,54,89991,2,0,P|396:77|381:106,1,66.0000020141602,12|0,0:1|0:0,0:0:0:0:
331,183,90348,2,0,P|307:161|293:132,1,66.0000020141602,12|0,0:1|0:0,0:0:0:0:
235,204,90705,2,0,P|216:238|200:302,1,99.0000030212403,12|0,0:1|0:0,0:0:0:0:
200,316,91063,1,12,0:1:0:0:
328,290,91241,2,0,P|364:303|391:325,1,66.0000020141602,12|12,0:1|0:1,0:0:0:0:
425,221,91598,22,0,P|428:161|442:112,1,99.0000030212403,12|0,0:1|0:0,0:0:0:0:
444,105,91955,2,0,P|407:116|372:115,1,66.0000020141602,12|0,0:1|0:0,0:0:0:0:
314,182,92313,2,0,P|272:190|241:205,1,66.0000020141602,12|0,0:1|0:0,0:0:0:0:
200,85,92670,21,12,0:2:0:0:
200,85,92848,2,0,P|180:45|179:2,1,66.0000020141602,12|0,0:2|0:0,0:0:0:0:
87,12,93205,2,0,P|70:61|58:133,1,99.0000030212403,12|0,0:2|0:0,0:0:0:0:
58,126,93563,2,0,P|101:175|102:243,1,132.00000402832,12|0,0:2|0:0,0:0:0:0:
103,239,94009,1,0,0:0:0:0:
103,239,94098,1,8,0:0:0:0:
17,208,94277,1,0,0:0:0:0:
24,369,94455,22,0,B|64:343|64:343|115:339,1,99.0000030212403,4|0,0:2|0:0,0:0:0:0:
133,339,94813,2,0,P|168:310|200:302,1,66.0000020141602,8|0,0:0|0:0,0:0:0:0:
228,236,95170,2,0,P|190:228|151:236,1,66.0000020141602,0|0,0:0|0:0,0:0:0:0:
84,226,95527,2,0,P|100:187|123:165,1,66.0000020141602,8|0,0:0|0:0,0:0:0:0:
129,91,95884,22,0,P|174:112|223:118,1,99.0000030212403,0|0,0:0|0:0,0:0:0:0:
240,116,96241,2,0,P|251:146|257:188,2,66.0000020141602,8|0|0,0:0|0:0|0:0,0:0:0:0:
332,66,96777,22,0,L|352:-9,1,66.0000020141602,2|8,0:0|0:0,0:0:0:0:
424,22,97134,2,0,L|394:151,1,132.00000402832,2|0,0:0|0:0,0:0:0:0:
398,155,97580,1,0,0:0:0:0:
402,159,97670,22,0,P|416:191|423:231,1,66.0000020141602,8|0,0:0|0:0,0:0:0:0:
495,252,98027,2,0,P|480:294|476:333,1,66.0000020141602,0|0,0:0|0:0,0:0:0:0:
408,355,98384,2,0,P|373:334|339:326,1,66.0000020141602,8|0,0:0|0:0,0:0:0:0:
313,256,98741,2,0,P|270:286|207:303,1,99.0000030212403,0|0,0:0|0:0,0:0:0:0:
206,299,99098,22,0,P|216:261|211:229,1,66.0000020141602,8|0,0:0|0:0,0:0:0:0:
144,193,99455,2,0,P|134:225|137:258,1,66.0000020141602,8|0,0:0|0:0,0:0:0:0:
80,146,99812,2,0,B|52:127|52:127|38:92,1,66.0000020141602,8|0,0:0|0:0,0:0:0:0:
137,10,100170,38,0,P|142:54|218:99,1,132.00000402832,4|8,0:2|0:0,0:0:0:0:
214,20,100705,2,0,L|231:158,1,132.00000402832,0|0,0:0|0:0,0:0:0:0:
307,241,101241,21,10,0:2:0:0:
237,279,101420,1,2,0:2:0:0:
186,213,101598,2,0,L|43:198,1,132.00000402832,2|8,0:2|0:0,0:0:0:0:
6,136,102134,2,0,P|3:104|14:73,1,66.0000020141602,2|0,0:2|0:0,0:0:0:0:
87,16,102491,2,0,P|98:46|95:78,1,66.0000020141602,2|8,0:2|0:0,0:0:0:0:
181,136,102848,22,0,L|342:126,1,132.00000402832,2|0,0:2|0:0,0:0:0:0:
390,144,103384,2,0,P|402:106|403:58,2,66.0000020141602,10|0|0,0:2|0:0|0:0,0:0:0:0:
334,201,103920,2,0,P|337:233|348:264,1,66.0000020141602,0|8,0:0|0:0,0:0:0:0:
451,323,104277,21,2,0:2:0:0:
375,292,104455,2,0,P|318:285|213:284,1,132.00000402832,2|8,0:2|0:0,0:0:0:0:
166,302,104991,2,0,P|178:332|204:352,1,66.0000020141602,2|0,0:2|0:0,0:0:0:0:
185,223,105348,2,0,P|201:195|208:163,2,66.0000020141602,2|8|2,0:2|0:0|0:2,0:0:0:0:
139,114,105884,22,0,P|238:125|336:119,1,198.000006042481,0|0,0:0|0:0,0:0:0:0:
413,99,106598,1,0,0:0:0:0:
354,45,106777,1,0,0:0:0:0:
396,176,106955,22,0,P|431:181|462:198,1,66.0000020141602,10|0,0:2|0:0,0:0:0:0:
401,271,107312,2,0,L|269:267,1,132.00000402832,2|8,0:2|0:0,0:0:0:0:
210,320,107848,2,0,P|168:326|85:285,1,132.00000402832,2|0,0:2|0:0,0:0:0:0:
82,210,108384,1,10,0:2:0:0:
160,219,108562,1,0,0:0:0:0:
99,133,108741,22,0,P|65:132|33:145,1,66.0000020141602,2|0,0:2|0:0,0:0:0:0:
160,219,109098,1,8,0:0:0:0:
227,177,109277,2,0,L|358:176,1,132.00000402832,2|0,0:2|0:0,0:0:0:0:
415,233,109812,2,0,P|412:265|401:296,1,66.0000020141602,10|0,0:2|0:0,0:0:0:0:
490,210,110170,22,0,P|478:172|477:144,1,66.0000020141602,0|0,0:0|0:0,0:0:0:0:
423,87,110527,2,0,P|437:61|445:24,2,66.0000020141602,8|0|8,0:0|0:0|0:0,0:0:0:0:
359,133,111062,1,0,0:0:0:0:
294,86,111241,1,8,0:0:0:0:
234,135,111420,21,0,0:0:0:0:
234,135,111509,1,0,0:0:0:0:
234,135,111598,2,0,L|248:283,1,132.00000402832,4|8,0:2|0:0,0:0:0:0:
261,344,112134,1,0,0:0:0:0:
192,384,112312,2,0,P|180:354|184:322,1,66.0000020141602,0|0,0:0|0:0,0:0:0:0:
166,223,112670,21,10,0:2:0:0:
166,223,112848,1,2,0:2:0:0:
222,167,113027,2,0,P|198:148|144:146,2,66.0000020141602,2|2|8,0:2|0:2|0:0,0:0:0:0:
283,212,113562,2,0,L|349:205,1,66.0000020141602,2|0,0:2|0:0,0:0:0:0:
385,283,113920,2,0,L|312:283,1,66.0000020141602,2|8,0:2|0:0,0:0:0:0:
278,207,114277,22,0,L|420:193,1,132.00000402832,2|0,0:2|0:0,0:0:0:0:
401,115,114812,1,10,0:2:0:0:
401,115,114991,2,0,P|433:117|461:134,2,66.0000020141602
325,135,115527,1,8,0:0:0:0:
338,28,115705,21,2,0:2:0:0:
264,55,115884,2,0,L|114:42,1,132.00000402832,2|8,0:2|0:0,0:0:0:0:
67,88,116420,2,0,P|59:127|64:155,1,66.0000020141602,2|0,0:2|0:0,0:0:0:0:
180,222,116777,2,0,P|188:183|183:155,1,66.0000020141602,2|8,0:2|0:0,0:0:0:0:
120,264,117134,21,2,0:2:0:0:
120,264,117223,1,0,0:0:0:0:
120,264,117312,2,0,L|261:260,1,132.00000402832,0|8,0:0|0:0,0:0:0:0:
331,261,117848,1,0,0:0:0:0:
387,317,118027,2,0,P|381:356|381:394,1,66.0000020141602
475,353,118384,22,0,P|465:322|463:286,1,66.0000020141602,10|0,0:2|0:0,0:0:0:0:
506,223,118741,2,0,P|513:162|512:82,1,132.00000402832,2|8,0:2|0:0,0:0:0:0:
459,28,119277,2,0,P|428:61|333:76,1,132.00000402832,2|0,0:2|0:0,0:0:0:0:
285,26,119812,2,0,P|311:7|343:0,1,66.0000020141602,10|0,0:2|0:0,0:0:0:0:
274,113,120170,22,0,P|242:105|215:86,2,66.0000020141602,2|0|8,0:2|0:0|0:0,0:0:0:0:
149,149,120705,2,0,L|164:289,1,132.00000402832,2|0,0:2|0:0,0:0:0:0:
235,313,121241,2,0,P|278:304|306:288,1,66.0000020141602,10|0,0:2|0:0,0:0:0:0:
390,236,121598,2,0,P|311:219|260:190,1,132.00000402832,0|8,0:0|0:0,0:0:0:0:
252,116,122134,1,0,0:0:0:0:
252,116,122312,2,0,P|256:84|258:51,1,66.0000020141602,8|0,0:0|0:0,0:0:0:0:
351,17,122670,2,0,P|352:50|356:83,1,66.0000020141602,8|0,0:0|0:0,0:0:0:0:
444,208,123027,6,0,P|407:240|389:286,1,99.0000030212403,8|0,0:0|0:0,0:0:0:0:
387,302,123384,2,0,L|306:295,1,66.0000020141602,8|0,0:0|0:0,0:0:0:0:
241,286,123741,2,0,P|243:318|259:347,1,66.0000020141602,10|0,0:2|0:0,0:0:0:0:
183,371,124098,2,0,L|105:379,1,66.0000020141602,10|2,0:2|0:2,0:0:0:0:
34,259,124455,6,0,L|37:360,1,99.0000030212403,8|0,0:0|0:0,0:0:0:0:
37,377,124812,2,0,P|44:345|62:318,1,66.0000020141602,10|0,0:2|0:0,0:0:0:0:
134,283,125170,2,0,P|116:241|112:198,1,66.0000020141602,8|0,0:0|0:0,0:0:0:0:
172,168,125527,2,0,P|190:210|194:253,1,66.0000020141602,8|0,0:0|0:0,0:0:0:0:
228,117,125884,38,0,P|240:62|245:4,1,99.0000030212403,8|0,0:0|0:0,0:0:0:0:
248,0,126241,2,0,L|328:13,1,66.0000020141602,10|0,0:2|0:0,0:0:0:0:
324,89,126598,2,0,L|404:80,1,66.0000020141602,10|2,0:2|0:2,0:0:0:0:
421,155,126955,2,0,L|496:126,1,66.0000020141602,8|2,0:0|0:2,0:0:0:0:
413,235,127312,6,0,P|404:276|412:341,1,99.0000030212403,8|0,0:0|0:0,0:0:0:0:
417,351,127670,2,0,L|344:369,1,66.0000020141602,8|0,0:0|0:0,0:0:0:0:
281,332,128027,2,0,P|291:294|282:259,1,66.0000020141602,10|2,0:2|0:2,0:0:0:0:
214,234,128384,2,0,P|204:272|213:307,1,66.0000020141602,8|0,0:0|0:0,0:0:0:0:
133,225,128741,38,0,B|89:220|89:220|30:245,1,99.0000030212403,8|0,0:0|0:0,0:0:0:0:
22,252,129098,2,0,P|48:216|53:181,1,66.0000020141602,8|0,0:0|0:0,0:0:0:0:
32,117,129455,2,0,P|19:88|22:52,1,66.0000020141602,8|0,0:0|0:0,0:0:0:0:
97,73,129812,2,0,P|121:107|154:123,1,66.0000020141602,10|0,0:3|0:0,0:0:0:0:
160,227,130170,6,0,P|190:182|236:143,1,99.0000030212403,10|0,0:3|0:0,0:0:0:0:
240,142,130527,2,0,P|249:184|269:222,1,66.0000020141602,8|0,0:0|0:0,0:0:0:0:
357,282,130884,2,0,P|339:255|335:223,1,66.0000020141602,10|0,0:3|0:0,0:0:0:0:
392,167,131241,2,0,P|409:194|414:226,1,66.0000020141602,8|0,0:0|0:0,0:0:0:0:
421,335,131598,38,0,P|459:302|485:261,1,99.0000030212403,10|0,0:3|0:0,0:0:0:0:
492,242,131955,2,0,L|499:169,1,66.0000020141602,10|2,0:0|0:0,0:0:0:0:
505,96,132312,2,0,P|473:100|444:117,1,66.0000020141602,10|0,0:0|0:0,0:0:0:0:
377,73,132670,2,0,P|359:41|332:21,1,66.0000020141602,10|0,0:0|0:0,0:0:0:0:
301,94,133027,6,0,L|329:206,1,99.0000030212403,10|0,0:0|0:0,0:0:0:0:
331,209,133384,2,0,P|284:194|254:192,1,66.0000020141602,8|0,0:0|0:0,0:0:0:0:
188,196,133741,37,10,0:1:0:0:
188,196,133920,1,10,0:1:0:0:
195,274,134098,1,10,0:1:0:0:
195,274,134277,1,10,0:1:0:0:
280,240,134455,22,0,B|379:275|373:192|480:232,1,198.000006042481,4|0,0:2|0:0,0:0:0:0:
427,311,135170,1,12,0:1:0:0:
379,132,135527,22,0,P|368:91|371:58,1,66.0000020141602,4|0,0:1|0:0,0:0:0:0:
458,40,135884,2,0,L|315:42,1,132.00000402832,4|4,0:1|0:1,0:0:0:0:
233,40,136420,2,0,L|222:8,2,33.0000010070801,0|0|12,0:0|0:0|0:1,0:0:0:0:
279,119,136777,21,0,0:0:0:0:
329,195,136955,2,0,L|314:279,1,66.0000020141602,4|0,0:1|0:0,0:0:0:0:
362,340,137312,22,0,P|267:339|225:255,1,198.000006042481,4|0,0:2|0:0,0:0:0:0:
229,162,138027,2,0,P|195:170|161:173,1,66.0000020141602,12|0,0:1|0:0,0:0:0:0:
72,159,138384,1,4,0:2:0:0:
72,159,138920,22,0,P|73:93|121:52,1,132.00000402832,4|0,0:2|0:0,0:0:0:0:
211,66,139455,2,0,P|262:75|288:77,2,66.0000020141602,12|0|0,0:1|0:0|0:2,0:0:0:0:
392,30,140170,21,4,0:2:0:0:
392,30,140348,1,0,0:0:0:0:
374,120,140527,2,0,L|358:196,1,66.0000020141602,4|0,0:1|0:0,0:0:0:0:
364,279,140884,1,12,0:1:0:0:
364,279,141598,22,0,P|321:292|298:291,1,66.0000020141602,4|0,0:1|0:0,0:0:0:0:
248,214,141955,2,0,P|205:200|182:201,1,66.0000020141602,4|0,0:1|0:0,0:0:0:0:
152,234,142223,21,0,0:0:0:0:
152,234,142312,2,0,L|161:317,2,66.0000020141602,12|0|4,0:1|0:0|0:1,0:0:0:0:
80,175,142848,1,0,0:0:0:0:
68,83,143027,2,0,P|86:46|231:58,1,198.000006042481,4|0,0:2|0:0,0:0:0:0:
269,127,143741,1,12,0:1:0:0:
421,23,144098,22,0,P|464:6|495:8,1,66.0000020141602,4|0,0:2|0:0,0:0:0:0:
499,191,144634,2,0,L|362:191,1,132.00000402832,4|0,0:2|0:0,0:0:0:0:
284,221,145170,1,12,0:1:0:0:
284,221,145259,1,8,0:0:0:0:
284,221,145348,2,0,L|289:260,4,33.0000010070801,8|8|4|4|4,0:0|0:0|0:3|0:3|0:3,0:0:0:0:
221,153,145884,21,6,0:1:0:0:
163,224,146062,1,2,0:1:0:0:
75,192,146241,2,0,P|33:173|-4:176,1,66.0000020141602,2|2,0:1|0:1,0:0:0:0:
151,315,146598,22,0,P|186:313|218:299,1,66.0000020141602,12|0,0:2|0:0,0:0:0:0:
282,239,146955,2,0,P|326:240|366:256,1,66.0000020141602,0|0,0:0|0:0,0:0:0:0:
374,334,147312,2,0,L|365:257,1,66.0000020141602,4|0,0:2|0:0,0:0:0:0:
413,187,147670,2,0,L|422:109,1,66.0000020141602,0|0,0:0|0:0,0:0:0:0:
394,91,147937,21,0,0:0:0:0:
394,91,148027,2,0,P|357:72|319:71,1,66.0000020141602,12|0,0:2|0:0,0:0:0:0:
255,54,148384,2,0,P|226:70|194:75,1,66.0000020141602,4|0,0:1|0:0,0:0:0:0:
135,134,148741,2,0,P|153:227|243:257,1,198.000006042481,4|0,0:1|0:0,0:0:0:0:
222,167,149455,1,12,0:1:0:0:
263,347,149812,2,0,P|296:340|337:338,1,66.0000020141602,4|0,0:2|0:0,0:0:0:0:
508,384,150348,2,0,P|506:298|488:246,1,132.00000402832,4|0,0:2|0:0,0:0:0:0:
435,182,150884,2,0,P|390:190|355:187,1,66.0000020141602,12|0,0:2|0:0,0:0:0:0:
296,132,151241,2,0,P|251:123|216:126,1,66.0000020141602,8|0,0:0|0:0,0:0:0:0:
188,283,151598,21,2,0:1:0:0:
252,214,151777,1,2,0:1:0:0:
162,190,151955,2,0,P|131:196|90:198,1,66.0000020141602,6|2,0:1|0:1,0:0:0:0:
30,132,152312,21,12,0:1:0:0:
199,59,152670,1,4,0:1:0:0:
199,59,153027,22,0,L|336:65,1,132.00000402832,4|4,0:1|0:1,0:0:0:0:
423,66,153562,2,0,L|414:22,2,33.0000010070801,0|0|12,0:0|0:0|0:1,0:0:0:0:
374,145,153920,21,0,0:0:0:0:
318,218,154098,2,0,L|328:290,1,66.0000020141602,4|0,0:1|0:0,0:0:0:0:
283,365,154455,2,0,B|193:374|199:333|81:347,1,198.000006042481,4|0,0:2|0:0,0:0:0:0:
0,312,155170,2,0,P|15:284|42:264,1,66.0000020141602,12|0,0:1|0:0,0:0:0:0:
134,258,155527,2,0,P|127:204|93:131,1,132.00000402832,4|0,0:2|0:0,0:0:0:0:
31,67,156062,21,0,0:0:0:0:
31,67,156152,1,0,0:0:0:0:
31,67,156241,2,0,P|65:50|91:26,1,66.0000020141602,12|8,0:2|0:0,0:0:0:0:
208,94,156598,1,8,0:0:0:0:
208,94,156687,1,0,0:0:0:0:
208,94,156777,2,0,L|153:96,2,33.0000010070801,0|0|8,0:0|0:0|0:0,0:0:0:0:
209,96,157312,6,0,P|211:162|263:236,1,132.00000402832,4|8,0:2|0:0,0:0:0:0:
268,293,157848,2,0,P|314:277|423:292,1,132.00000402832,0|0,0:0|0:0,0:0:0:0:
467,315,158384,2,0,P|447:341|418:356,1,66.0000020141602,10|2,0:2|0:2,0:0:0:0:
461,236,158741,22,0,P|456:197|464:153,2,66.0000020141602,2|2|8,0:2|0:2|0:0,0:0:0:0:
379,212,159277,2,0,P|349:165|344:130,1,66.0000020141602,2|0,0:2|0:0,0:0:0:0:
360,76,159634,2,0,P|341:46|316:29,1,66.0000020141602,2|8,0:2|0:0,0:0:0:0:
285,103,159991,1,2,0:2:0:0:
205,98,160170,22,0,P|216:145|252:177,1,99.0000030212403,0|0,0:0|0:0,0:0:0:0:
263,191,160527,2,0,L|268:264,1,66.0000020141602,10|0,0:2|0:0,0:0:0:0:
267,256,161062,1,0,0:0:0:0:
188,253,161241,1,8,0:0:0:0:
226,332,161420,1,2,0:2:0:0:
226,332,161598,22,0,L|131:341,2,66.0000020141602,2|2|8,0:2|0:2|0:0,0:0:0:0:
295,369,162134,2,0,L|446:378,1,132.00000402832,2|2,0:2|0:2,0:0:0:0:
505,380,162670,1,8,0:0:0:0:
405,297,162848,1,2,0:2:0:0:
405,297,162937,1,0,0:0:0:0:
405,297,163027,22,0,P|461:265|490:207,1,132.00000402832,0|8,0:0|0:0,0:0:0:0:
423,167,163562,2,0,P|406:117|435:25,1,132.00000402832,0|0,0:0|0:0,0:0:0:0:
495,72,164098,2,0,P|481:100|491:131,1,66.0000020141602,10|0,0:2|0:0,0:0:0:0:
374,60,164455,22,0,P|299:34|225:57,1,132.00000402832,2|8,0:2|0:0,0:0:0:0:
288,112,164991,2,0,P|331:131|283:186,1,132.00000402832,2|0,0:2|0:0,0:0:0:0:
222,156,165527,2,0,P|215:188|221:220,1,66.0000020141602,10|0,0:2|0:0,0:0:0:0:
218,76,165884,22,0,P|167:61|109:17,1,99.0000030212403,2|0,0:2|0:0,0:0:0:0:
116,25,166241,1,8,0:0:0:0:
141,100,166420,2,0,P|141:151|109:229,1,132.00000402832,2|0,0:2|0:0,0:0:0:0:
45,268,166955,2,0,P|73:301|87:335,1,66.0000020141602,10|0,0:2|0:0,0:0:0:0:
147,367,167312,22,0,L|259:359,1,99.0000030212403,0|0,0:0|0:0,0:0:0:0:
262,357,167670,2,0,P|267:311|283:277,1,66.0000020141602,8|0,0:0|0:0,0:0:0:0:
351,274,168027,2,0,P|346:320|330:354,1,66.0000020141602,8|0,0:0|0:0,0:0:0:0:
407,378,168384,2,0,B|432:348|432:348|498:330,1,99.0000030212403,8|0,0:0|0:0,0:0:0:0:
501,344,168741,6,0,P|489:308|524:144,1,198.000006042481,12|0,0:1|0:0,0:0:0:0:
462,79,169455,2,0,L|379:76,1,66.0000020141602,12|0,0:1|0:0,0:0:0:0:
318,127,169812,1,12,0:1:0:0:
234,81,169991,2,0,P|226:32|229:9,1,66.0000020141602,12|0,0:1|0:0,0:0:0:0:
325,135,170348,2,0,P|326:167|318:199,1,66.0000020141602,12|0,0:1|0:0,0:0:0:0:
239,248,170705,2,0,L|103:241,1,132.00000402832,12|12,0:1|0:1,0:0:0:0:
36,300,171241,2,0,P|43:349|16:382,1,66.0000020141602,12|12,0:1|0:1,0:0:0:0:
154,349,171598,22,0,L|226:338,1,66.0000020141602,12|0,0:1|0:0,0:0:0:0:
308,315,171955,2,0,L|373:324,1,66.0000020141602,12|0,0:1|0:0,0:0:0:0:
452,372,172312,2,0,P|485:329|473:249,1,132.00000402832,12|12,0:1|0:2,0:0:0:0:
405,217,172848,2,0,L|321:224,1,66.0000020141602,12|0,0:2|0:0,0:0:0:0:
447,132,173205,2,0,L|512:126,1,66.0000020141602,12|0,0:2|0:0,0:0:0:0:
405,207,173562,2,0,L|265:213,1,132.00000402832,12|0,0:2|0:0,0:0:0:0:
207,146,174098,2,0,P|233:128|265:119,1,66.0000020141602,8|0,0:0|0:0,0:0:0:0:
262,226,174455,21,4,0:2:0:0:
102,319,174812,2,0,L|14:314,1,66.0000020141602,8|0,0:0|0:0,0:0:0:0:
45,224,175170,2,0,L|133:219,1,66.0000020141602,0|0,0:0|0:0,0:0:0:0:
177,284,175527,2,0,P|187:331|179:357,1,66.0000020141602,8|0,0:0|0:0,0:0:0:0:
277,343,175884,2,0,P|272:310|283:279,1,66.0000020141602,0|0,0:0|0:0,0:0:0:0:
354,314,176241,1,8,0:0:0:0:
424,277,176420,2,0,L|418:140,1,132.00000402832,0|2,0:0|0:0,0:0:0:0:
431,67,176955,2,0,P|378:77|360:93,1,66.0000020141602,8|2,0:0|0:0,0:0:0:0:
292,140,177312,21,0,0:0:0:0:
292,140,177670,2,0,P|285:89|286:64,1,66.0000020141602,8|0,0:0|0:0,0:0:0:0:
204,23,178027,2,0,P|162:14|133:21,1,66.0000020141602,0|0,0:0|0:0,0:0:0:0:
133,110,178384,2,0,P|175:119|204:112,1,66.0000020141602,8|0,0:0|0:0,0:0:0:0:
282,79,178741,1,0,0:0:0:0:
387,230,179098,1,8,0:0:0:0:
301,193,179277,2,0,L|164:199,1,132.00000402832,0|0,0:0|0:0,0:0:0:0:
103,262,179812,2,0,P|110:311|156:349,1,99.0000030212403,8|0,0:0|0:0,0:0:0:0:
159,337,180170,22,0,L|233:328,1,66.0000020141602,12|0,0:1|0:0,0:0:0:0:
312,359,180527,1,12,0:1:0:0:
355,277,180705,1,0,0:0:0:0:
355,277,180884,2,0,P|360:234|353:208,1,66.0000020141602,12|0,0:1|0:0,0:0:0:0:
300,137,181241,1,12,0:1:0:0:
227,194,181420,2,0,P|191:200|155:196,1,66.0000020141602,12|0,0:1|0:0,0:0:0:0:
306,129,181777,2,0,P|342:123|378:127,1,66.0000020141602,12|0,0:1|0:0,0:0:0:0:
447,177,182134,2,0,L|438:309,1,132.00000402832,12|12,0:1|0:1,0:0:0:0:
508,369,182670,1,12,0:1:0:0:
342,287,183027,22,0,P|279:273|231:302,1,99.0000030212403,12|0,0:1|0:0,0:0:0:0:
241,300,183384,2,0,L|245:370,1,66.0000020141602,12|0,0:1|0:0,0:0:0:0:
152,365,183741,2,0,L|148:299,1,66.0000020141602,12|0,0:1|0:0,0:0:0:0:
88,228,184098,1,12,0:2:0:0:
136,148,184277,1,12,0:2:0:0:
136,148,184634,22,0,L|212:155,1,66.0000020141602,12|0,0:2|0:0,0:0:0:0:
272,94,184991,2,0,P|318:84|402:139,1,132.00000402832,12|0,0:2|0:0,0:0:0:0:
465,175,185527,2,0,L|465:298,1,99.0000030212403,8|0,0:0|0:0,0:0:0:0:
464,290,185884,21,4,0:2:0:0:
291,355,186241,2,0,P|243:357|215:347,1,66.0000020141602,8|0,0:0|0:0,0:0:0:0:
152,295,186598,2,0,P|104:293|76:303,1,66.0000020141602,0|0,0:0|0:0,0:0:0:0:
17,358,186955,2,0,L|14:288,1,66.0000020141602,8|0,0:0|0:0,0:0:0:0:
56,209,187312,2,0,L|59:139,1,66.0000020141602,0|0,0:0|0:0,0:0:0:0:
43,51,187670,1,8,0:0:0:0:
128,15,187848,2,0,P|182:26|196:39,1,66.0000020141602
182,124,188205,22,0,P|210:153|228:200,1,66.0000020141602,2|8,0:0|0:0,0:0:0:0:
307,140,188562,1,2,0:0:0:0:
308,29,188741,22,0,P|353:39|402:94,1,99.0000030212403
392,86,189098,2,0,L|391:169,1,66.0000020141602,8|0,0:0|0:0,0:0:0:0:
420,239,189455,2,0,P|394:258|340:263,1,66.0000020141602,0|0,0:0|0:0,0:0:0:0:
277,225,189812,2,0,P|251:206|197:201,1,66.0000020141602,8|0,0:0|0:0,0:0:0:0:
145,257,190170,2,0,L|4:263,1,132.00000402832,0|8,0:0|0:0,0:0:0:0:
179,343,190884,2,0,P|211:350|257:348,1,66.0000020141602,8|0,0:0|0:0,0:0:0:0:
320,297,191241,2,0,P|352:290|398:292,1,66.0000020141602,8|0,0:0|0:0,0:0:0:0:
488,314,191598,6,0,P|460:264|471:186,1,132.00000402832,4|8,0:2|0:0,0:0:0:0:
394,163,192134,2,0,P|346:141|252:131,1,132.00000402832,0|0,0:0|0:0,0:0:0:0:
240,54,192670,2,0,P|270:43|296:23,1,66.0000020141602,10|2,0:2|0:2,0:0:0:0:
161,65,193027,22,0,P|113:76|108:155,1,132.00000402832,2|8,0:2|0:0,0:0:0:0:
142,217,193562,2,0,P|152:248|148:280,1,66.0000020141602,2|0,0:2|0:0,0:0:0:0:
189,347,193920,2,0,P|179:316|183:284,1,66.0000020141602,2|8,0:2|0:0,0:0:0:0:
262,212,194277,1,2,0:2:0:0:
262,212,194366,1,0,0:0:0:0:
262,212,194455,22,0,P|269:261|258:308,1,99.0000030212403,0|0,0:0|0:0,0:0:0:0:
273,313,194812,2,0,P|310:337|336:369,1,66.0000020141602,10|0,0:2|0:0,0:0:0:0:
324,352,195348,1,0,0:0:0:0:
403,344,195527,1,8,0:0:0:0:
407,265,195705,1,2,0:2:0:0:
407,265,195884,22,0,L|413:125,1,132.00000402832,2|8,0:2|0:0,0:0:0:0:
414,53,196420,2,0,P|374:52|334:38,1,66.0000020141602,2|0,0:2|0:0,0:0:0:0:
275,15,196777,2,0,P|260:45|254:77,1,66.0000020141602,2|8,0:2|0:0,0:0:0:0:
302,180,197134,1,2,0:2:0:0:
302,180,197223,1,0,0:0:0:0:
302,180,197312,22,0,P|260:121|194:94,1,132.00000402832,0|8,0:0|0:0,0:0:0:0:
154,155,197848,2,0,P|196:214|262:241,1,132.00000402832,0|0,0:0|0:0,0:0:0:0:
258,317,198384,2,0,L|267:383,1,66.0000020141602,10|0,0:2|0:0,0:0:0:0:
321,269,198741,22,0,P|339:213|400:133,1,132.00000402832,2|8,0:2|0:0,0:0:0:0:
330,90,199277,2,0,P|276:107|199:176,1,132.00000402832,2|0,0:2|0:0,0:0:0:0:
167,213,199812,1,10,0:2:0:0:
114,327,199991,1,0,0:0:0:0:
114,327,200080,1,0,0:0:0:0:
114,327,200170,22,0,P|91:265|88:200,1,132.00000402832,2|8,0:2|0:0,0:0:0:0:
34,142,200705,2,0,P|13:180|11:221,2,66.0000020141602,2|0|0,0:2|0:0|0:0,0:0:0:0:
2,69,201241,2,0,P|23:31|25:-10,1,66.0000020141602,10|0,0:2|0:0,0:0:0:0:
104,20,201598,2,0,P|122:67|130:130,1,99.0000030212403,0|0,0:0|0:0,0:0:0:0:
130,132,201955,21,8,0:0:0:0:
209,139,202134,1,0,0:0:0:0:
287,146,202312,2,0,L|293:211,2,66.0000020141602,8|0|8,0:0|0:0|0:0,0:0:0:0:
248,277,202848,1,0,0:0:0:0:
248,277,202937,1,0,0:0:0:0:
248,277,203027,22,0,P|310:289|362:250,1,132.00000402832,4|8,0:2|0:0,0:0:0:0:
437,226,203562,2,0,P|423:186|430:81,1,132.00000402832,0|0,0:0|0:0,0:0:0:0:
462,27,204098,1,10,0:2:0:0:
462,27,204277,1,2,0:2:0:0:
341,113,204455,22,0,P|322:68|244:20,1,132.00000402832,2|8,0:2|0:0,0:0:0:0:
201,79,204991,2,0,P|189:125|170:157,1,66.0000020141602,2|0,0:2|0:0,0:0:0:0:
238,193,205348,2,0,P|251:224|271:250,1,66.0000020141602,2|8,0:2|0:0,0:0:0:0:
163,219,205705,1,2,0:2:0:0:
163,219,205795,1,0,0:0:0:0:
163,219,205884,22,0,P|165:277|148:346,1,99.0000030212403,0|0,0:0|0:0,0:0:0:0:
153,333,206241,2,0,L|84:341,1,66.0000020141602,10|0,0:2|0:0,0:0:0:0:
87,340,206777,1,0,0:0:0:0:
13,310,206955,1,8,0:0:0:0:
46,238,207134,1,2,0:2:0:0:
46,238,207312,22,0,P|56:184|36:92,1,132.00000402832,2|8,0:2|0:0,0:0:0:0:
93,46,207848,2,0,P|118:68|136:96,1,66.0000020141602,2|0,0:2|0:0,0:0:0:0:
205,135,208205,2,0,P|214:103|211:70,2,66.0000020141602,2|8|2,0:2|0:0|0:2,0:0:0:0:
218,229,208741,22,0,P|179:283|122:315,1,132.00000402832,0|8,0:0|0:0,0:0:0:0:
201,308,209277,2,0,P|249:320|327:371,1,132.00000402832,0|0,0:0|0:0,0:0:0:0:
397,353,209812,2,0,L|481:338,1,66.0000020141602,10|0,0:2|0:0,0:0:0:0:
482,225,210170,22,0,P|447:194|429:119,1,99.0000030212403,2|0,0:2|0:0,0:0:0:0:
429,129,210527,1,8,0:0:0:0:
429,50,210705,2,0,P|370:74|350:135,1,132.00000402832,2|0,0:2|0:0,0:0:0:0:
368,213,211241,1,10,0:2:0:0:
274,141,211420,1,0,0:0:0:0:
274,141,211509,1,0,0:0:0:0:
274,141,211598,22,0,L|122:148,1,132.00000402832,2|8,0:2|0:0,0:0:0:0:
127,225,212134,2,0,P|154:286|164:351,1,132.00000402832,2|0,0:2|0:0,0:0:0:0:
239,375,212670,2,0,P|240:342|236:309,1,66.0000020141602,10|0,0:2|0:0,0:0:0:0:
309,278,213027,2,0,P|356:287|407:311,1,99.0000030212403,0|0,0:0|0:0,0:0:0:0:
418,314,213384,22,0,L|427:238,1,66.0000020141602,8|0,0:0|0:0,0:0:0:0:
483,193,213741,2,0,L|485:114,1,66.0000020141602,8|0,0:0|0:0,0:0:0:0:
485,47,214098,1,8,0:0:0:0:
413,13,214277,1,0,0:0:0:0:
413,13,214366,1,0,0:0:0:0:
413,13,214455,6,0,P|342:22|288:21,1,99.0000030212403,8|0,0:0|0:0,0:0:0:0:
300,14,214812,2,0,P|282:54|280:87,1,66.0000020141602,8|0,0:0|0:0,0:0:0:0:
193,110,215170,2,0,P|150:99|117:102,1,66.0000020141602,10|0,0:2|0:0,0:0:0:0:
120,192,215527,2,0,P|162:202|195:199,1,66.0000020141602,10|2,0:2|0:2,0:0:0:0:
249,265,215884,6,0,P|305:257|378:254,1,99.0000030212403,8|0,0:0|0:0,0:0:0:0:
362,262,216241,2,0,P|380:222|381:192,1,66.0000020141602,10|0,0:2|0:0,0:0:0:0:
332,122,216598,2,0,P|321:86|319:49,1,66.0000020141602,8|0,0:0|0:0,0:0:0:0:
409,75,216955,1,8,0:0:0:0:
409,75,217134,1,0,0:0:0:0:
339,135,217312,38,0,L|213:127,1,99.0000030212403,8|0,0:0|0:0,0:0:0:0:
227,139,217670,2,0,L|237:221,1,66.0000020141602,10|0,0:2|0:0,0:0:0:0:
164,264,218027,2,0,L|156:198,1,66.0000020141602,10|0,0:2|0:0,0:0:0:0:
95,128,218384,2,0,P|119:84|149:68,1,66.0000020141602,10|0,0:2|0:0,0:0:0:0:
209,26,218741,6,0,P|257:35|320:37,1,99.0000030212403,10|0,0:2|0:0,0:0:0:0:
319,26,219098,2,0,P|330:73|342:97,1,66.0000020141602,10|0,0:2|0:0,0:0:0:0:
386,167,219455,2,0,P|387:215|366:255,1,66.0000020141602,10|0,0:3|0:0,0:0:0:0:
299,275,219812,2,0,L|232:278,1,66.0000020141602,10|0,0:3|0:0,0:0:0:0:
143,301,220170,38,0,P|125:254|136:196,1,99.0000030212403,10|0,0:2|0:0,0:0:0:0:
141,193,220527,2,0,L|206:190,1,66.0000020141602,10|0,0:2|0:0,0:0:0:0:
272,124,220884,2,0,P|306:131|350:125,1,66.0000020141602,8|0,0:0|0:0,0:0:0:0:
344,36,221241,2,0,P|310:29|266:35,1,66.0000020141602,10|0,0:3|0:0,0:0:0:0:
195,72,221598,6,0,P|146:65|78:57,1,99.0000030212403,10|0,0:3|0:0,0:0:0:0:
81,66,221955,2,0,P|53:110|49:124,1,66.0000020141602,8|0,0:0|0:0,0:0:0:0:
99,200,222312,2,0,P|110:234|114:278,1,66.0000020141602,10|0,0:3|0:0,0:0:0:0:
59,339,222670,1,8,0:0:0:0:
59,339,222848,1,0,0:0:0:0:
151,333,223027,38,0,P|204:330|272:332,1,99.0000030212403,10|0,0:3|0:0,0:0:0:0:
263,341,223384,2,0,P|294:303|299:278,1,66.0000020141602,8|0,0:0|0:0,0:0:0:0:
387,312,223741,2,0,P|394:263|386:239,1,66.0000020141602,8|0,0:0|0:0,0:0:0:0:
482,234,224098,2,0,P|464:188|445:171,1,66.0000020141602,8|0,0:0|0:0,0:0:0:0:
386,112,224455,6,0,L|255:106,1,132.00000402832,8|8,0:0|0:0,0:0:0:0:
167,139,224991,1,0,0:0:0:0:
167,139,225170,38,0,P|166:174|179:222,1,66.0000020141602,10|10,0:1|3:1,0:0:0:0:
218,284,225527,1,10,0:1:0:0:
218,284,225705,1,10,0:1:0:0:
360,339,225884,22,0,B|360:305|366:267|366:267|342:259|311:259|311:259|302:227|270:203,1,198.000006042481,4|0,0:2|0:0,0:0:0:0:
291,113,226598,1,12,0:1:0:0:
473,87,226955,22,0,P|423:47|359:51,2,132.00000402832,4|4|4,0:1|0:1|0:1,0:0:0:0:
417,161,227848,1,0,0:0:0:0:
417,161,227937,1,0,0:0:0:0:
417,161,228027,2,0,L|423:247,1,66.0000020141602,12|0,0:1|0:0,0:0:0:0:
510,254,228384,2,0,L|507:339,1,66.0000020141602,4|0,0:1|0:0,0:0:0:0:
341,374,228741,22,0,L|329:223,1,132.00000402832,4|4,0:2|0:1,0:0:0:0:
242,212,229277,1,0,0:0:0:0:
242,212,229455,2,0,L|239:277,1,66.0000020141602,12|0,0:1|0:0,0:0:0:0:
184,139,229812,22,0,P|188:83|251:5,1,132.00000402832,4|4,0:2|0:1,0:0:0:0:
303,74,230348,2,0,P|364:94|442:95,1,132.00000402832,4|0,0:2|0:0,0:0:0:0:
497,161,230884,2,0,P|486:225|480:316,1,132.00000402832,12|4,0:1|0:1,0:0:0:0:
480,291,231598,22,0,P|427:296|389:311,1,66.0000020141602,6|0,0:2|0:0,0:0:0:0:
299,207,231955,2,0,P|330:217|362:222,1,66.0000020141602,4|0,0:1|0:0,0:0:0:0:
432,160,232312,21,12,0:1:0:0:
432,160,232670,1,4,0:1:0:0:
297,33,233027,2,0,P|361:29|412:69,1,132.00000402832,4|4,0:1|0:1,0:0:0:0:
334,117,233562,2,0,L|336:168,2,33.0000010070801,0|0|12,0:0|0:0|0:1,0:0:0:0:
241,129,233920,1,0,3:0:0:0:
149,141,234098,2,0,L|136:205,1,66.0000020141602,4|0,3:1|3:0,0:0:0:0:
112,327,234455,22,0,P|160:284|225:274,1,132.00000402832,4|4,0:2|0:1,0:0:0:0:
282,347,234991,1,0,0:0:0:0:
282,347,235170,2,0,P|336:341|371:329,1,66.0000020141602,12|0,0:1|0:0,0:0:0:0:
491,291,235527,22,0,P|435:257|371:248,1,132.00000402832,4|4,0:2|0:1,0:0:0:0:
353,157,236062,2,0,P|351:109|394:25,1,132.00000402832,4|0,0:2|0:0,0:0:0:0:
297,3,236598,1,12,0:1:0:0:
297,3,236687,1,8,0:0:0:0:
297,3,236777,2,0,L|264:1,4,33.0000010070801,8|0|4|4|0,0:0|0:0|0:0|0:0|0:0,0:0:0:0:
256,85,237312,21,6,0:1:0:0:
282,173,237491,1,2,0:1:0:0:
227,247,237670,2,0,P|226:287|208:340,1,66.0000020141602,6|2,0:1|0:1,0:0:0:0:
298,360,238027,22,0,L|376:353,1,66.0000020141602,12|0,0:2|0:0,0:0:0:0:
331,267,238384,2,0,L|409:273,1,66.0000020141602,0|0,0:0|0:0,0:0:0:0:
379,181,238741,2,0,L|454:201,1,66.0000020141602,4|0,0:2|0:0,0:0:0:0:
448,111,239098,2,0,L|519:143,1,66.0000020141602,0|0,0:0|0:0,0:0:0:0:
508,138,239366,1,0,0:0:0:0:
508,138,239455,22,0,P|501:94|500:45,1,66.0000020141602,12|0,0:2|0:0,0:0:0:0:
427,13,239812,2,0,P|394:25|369:47,1,66.0000020141602,0|0,0:0|0:0,0:0:0:0:
242,1,240170,22,0,P|286:50|308:112,1,132.00000402832,4|4,0:1|0:1,0:0:0:0:
235,168,240705,1,0,0:0:0:0:
234,168,240884,2,0,P|224:199|205:226,1,66.0000020141602,12|0,0:1|0:0,0:0:0:0:
320,202,241241,22,0,P|385:197|450:205,1,132.00000402832,4|4,0:2|0:1,0:0:0:0:
472,295,241777,2,0,P|406:300|341:292,1,132.00000402832,4|0,0:2|0:0,0:0:0:0:
252,267,242312,2,0,P|256:331|302:376,1,132.00000402832,12|12,0:1|0:1,0:0:0:0:
302,376,243027,22,0,L|221:385,1,66.0000020141602,6|2,0:1|0:1,0:0:0:0:
159,331,243384,2,0,L|82:325,1,66.0000020141602,6|2,0:1|0:1,0:0:0:0:
26,262,243741,22,0,P|38:221|120:238,1,132.00000402832,12|4,0:1|0:1,0:0:0:0:
80,44,244455,2,0,P|101:105|157:137,1,132.00000402832,4|4,0:1|0:1,0:0:0:0:
172,45,244991,2,0,P|173:27|176:10,2,33.0000010070801,0|0|12,0:0|0:0|0:1,0:0:0:0:
264,53,245348,1,0,0:0:0:0:
356,62,245527,2,0,P|351:118|339:150,1,66.0000020141602,4|0,0:1|0:0,0:0:0:0:
404,248,245884,22,0,P|420:307|490:348,1,132.00000402832,4|4,0:2|0:1,0:0:0:0:
496,255,246420,1,0,0:0:0:0:
496,255,246598,2,0,L|502:165,1,66.0000020141602,12|0,0:1|0:0,0:0:0:0:
432,84,246955,22,0,P|416:151|349:150,1,132.00000402832,4|4,0:1|0:1,0:0:0:0:
274,124,247491,2,0,P|249:168|233:267,1,132.00000402832,0|0,0:0|0:0,0:0:0:0:
145,278,248027,2,0,P|136:209|143:129,1,132.00000402832,12|12,0:2|0:2,0:0:0:0:
139,146,248741,21,4,0:2:0:0:
231,136,248920,1,2,0:0:0:0:
304,80,249098,1,2,0:0:0:0:
396,87,249277,1,4,0:2:0:0:
