osu file format v14

[General]
AudioFilename: audio.mp3
AudioLeadIn: 0
PreviewTime: 95479
Countdown: 1
SampleSet: None
StackLeniency: 0.7
Mode: 1
LetterboxInBreaks: 0
WidescreenStoryboard: 0

[Editor]
Bookmarks: 8140,36822,65479,94136,122793,129957,144285,158613,187270,194434,223091,237419,244136
DistanceSpacing: 1.8
BeatDivisor: 6
GridSize: 32
TimelineZoom: 2.3

[Metadata]
Title:Juggernauts
TitleUnicode:Juggernauts
Artist:Enter Shikari
ArtistUnicode:Enter Shikari
Creator:Grimbow
Version:Resistance
Source:
Tags:
BeatmapID:1868443
BeatmapSetID:894109

[Difficulty]
HPDrainRate:6
CircleSize:5
OverallDifficulty:5
ApproachRate:5
SliderMultiplier:1.4
SliderTickRate:1

[Events]
//Background and Video events
0,0,"ehsk.jpg",0,0
//Break Periods
2,94336,107264
//Storyboard Layer 0 (Background)
//Storyboard Layer 1 (Fail)
//Storyboard Layer 2 (Pass)
//Storyboard Layer 3 (Foreground)
//Storyboard Sound Samples

[TimingPoints]
1002,447.761194029851,4,1,0,75,1,0
1002,-66.6666666666667,4,1,0,75,0,1
7718,-66.6666666666667,4,1,0,75,0,0
7943,-100,4,1,0,75,0,0
8166,-100,4,1,0,75,0,1
36822,-133.333333333333,4,1,0,30,0,0
65479,-111.111111111111,4,1,0,30,0,0
122793,-66.6666666666667,4,1,0,75,0,1
129509,-66.6666666666667,4,1,0,75,0,0
129733,-100,4,1,0,75,0,0
129957,-100,4,1,0,75,0,1
144285,-100,4,1,0,75,0,0
187270,-66.6666666666667,4,1,0,75,0,1
193987,-66.6666666666667,4,1,0,75,0,0
194210,-100,4,1,0,75,0,0
194434,-100,4,1,0,75,0,1
237419,-66.6666666666667,4,1,0,75,0,1
244360,-100,4,1,0,75,0,0

[HitObjects]
256,192,1002,5,8,0:0:0:0:
256,192,1077,1,8,0:0:0:0:
256,192,1151,1,0,0:0:0:0:
256,192,1226,1,8,0:0:0:0:
256,192,1301,1,8,0:0:0:0:
256,192,1375,1,0,0:0:0:0:
256,192,1450,1,8,0:0:0:0:
256,192,1525,1,0,0:0:0:0:
256,192,1599,1,0,0:0:0:0:
256,192,1674,1,8,0:0:0:0:
256,192,1748,1,8,0:0:0:0:
256,192,1823,1,0,0:0:0:0:
256,192,1898,1,8,0:0:0:0:
256,192,1972,1,0,0:0:0:0:
256,192,2047,1,0,0:0:0:0:
256,192,2122,1,8,0:0:0:0:
256,192,2196,1,0,0:0:0:0:
256,192,2271,1,0,0:0:0:0:
256,192,2345,1,8,0:0:0:0:
256,192,2420,1,8,0:0:0:0:
256,192,2495,1,0,0:0:0:0:
256,192,2569,1,8,0:0:0:0:
256,192,2644,1,0,0:0:0:0:
256,192,2719,1,0,0:0:0:0:
256,192,2793,1,8,0:0:0:0:
256,192,2868,1,8,0:0:0:0:
256,192,2943,1,0,0:0:0:0:
256,192,3017,1,8,0:0:0:0:
256,192,3092,1,8,0:0:0:0:
256,192,3166,1,0,0:0:0:0:
256,192,3241,1,8,0:0:0:0:
256,192,3316,1,0,0:0:0:0:
256,192,3390,1,0,0:0:0:0:
256,192,3465,1,8,0:0:0:0:
256,192,3540,1,8,0:0:0:0:
256,192,3614,1,0,0:0:0:0:
256,192,3689,1,8,0:0:0:0:
256,192,3763,1,0,0:0:0:0:
256,192,3838,1,0,0:0:0:0:
256,192,3913,1,8,0:0:0:0:
256,192,3987,1,0,0:0:0:0:
256,192,4062,1,0,0:0:0:0:
256,192,4137,1,8,0:0:0:0:
256,192,4211,1,8,0:0:0:0:
256,192,4286,1,0,0:0:0:0:
256,192,4360,1,8,0:0:0:0:
256,192,4435,1,0,0:0:0:0:
256,192,4510,1,0,0:0:0:0:
256,192,4584,1,8,0:0:0:0:
256,192,4659,1,8,0:0:0:0:
256,192,4734,1,0,0:0:0:0:
256,192,4808,1,8,0:0:0:0:
256,192,4883,1,8,0:0:0:0:
256,192,4957,1,0,0:0:0:0:
256,192,5032,1,8,0:0:0:0:
256,192,5107,1,0,0:0:0:0:
256,192,5181,1,0,0:0:0:0:
256,192,5256,1,8,0:0:0:0:
256,192,5331,1,8,0:0:0:0:
256,192,5405,1,0,0:0:0:0:
256,192,5480,1,8,0:0:0:0:
256,192,5554,1,0,0:0:0:0:
256,192,5629,1,0,0:0:0:0:
256,192,5704,1,8,0:0:0:0:
256,192,5778,1,0,0:0:0:0:
256,192,5853,1,0,0:0:0:0:
256,192,5928,1,8,0:0:0:0:
256,192,6002,1,8,0:0:0:0:
256,192,6077,1,0,0:0:0:0:
256,192,6151,1,8,0:0:0:0:
256,192,6226,1,0,0:0:0:0:
256,192,6301,1,0,0:0:0:0:
256,192,6375,1,8,0:0:0:0:
256,192,6450,1,8,0:0:0:0:
256,192,6525,1,0,0:0:0:0:
256,192,6599,1,8,0:0:0:0:
256,192,6674,1,8,0:0:0:0:
256,192,6748,1,0,0:0:0:0:
256,192,6823,1,8,0:0:0:0:
256,192,6898,1,0,0:0:0:0:
256,192,6972,1,0,0:0:0:0:
256,192,7047,1,8,0:0:0:0:
256,192,7122,1,0,0:0:0:0:
256,192,7196,1,0,0:0:0:0:
256,192,7271,1,8,0:0:0:0:
256,192,7345,1,8,0:0:0:0:
256,192,7420,1,8,0:0:0:0:
256,192,7495,1,0,0:0:0:0:
256,192,7569,1,0,0:0:0:0:
256,192,7644,1,0,0:0:0:0:
256,192,7719,1,12,0:0:0:0:
256,192,8166,1,4,0:0:0:0:
256,192,8614,1,8,0:0:0:0:
256,192,8950,1,8,0:0:0:0:
256,192,9062,1,0,0:0:0:0:
256,192,9286,1,0,0:0:0:0:
256,192,9510,1,8,0:0:0:0:
256,192,9957,1,0,0:0:0:0:
256,192,10405,1,8,0:0:0:0:
256,192,10629,1,8,0:0:0:0:
256,192,10741,1,8,0:0:0:0:
256,192,10853,1,0,0:0:0:0:
256,192,10965,1,8,0:0:0:0:
256,192,11077,1,0,0:0:0:0:
256,192,11301,1,8,0:0:0:0:
256,192,11525,1,0,0:0:0:0:
256,192,11972,1,0,0:0:0:0:
256,192,12196,1,8,0:0:0:0:
256,192,12532,1,8,0:0:0:0:
256,192,12644,1,0,0:0:0:0:
256,192,12868,1,0,0:0:0:0:
256,192,13092,1,8,0:0:0:0:
256,192,13316,1,0,0:0:0:0:
256,192,13427,1,0,0:0:0:0:
256,192,13540,1,0,0:0:0:0:
256,192,13763,1,0,0:0:0:0:
256,192,13987,1,8,0:0:0:0:
256,192,14323,1,8,0:0:0:0:
256,192,14435,1,0,0:0:0:0:
256,192,14547,1,8,0:0:0:0:
256,192,14659,1,0,0:0:0:0:
256,192,14771,1,0,0:0:0:0:
256,192,14883,1,8,0:0:0:0:
256,192,15107,1,0,0:0:0:0:
256,192,15331,1,0,0:0:0:0:
256,192,15554,1,8,0:0:0:0:
256,192,15778,1,8,0:0:0:0:
256,192,16114,1,8,0:0:0:0:
256,192,16226,1,0,0:0:0:0:
256,192,16450,1,0,0:0:0:0:
256,192,16674,1,8,0:0:0:0:
256,192,16898,1,8,0:0:0:0:
256,192,17009,1,8,0:0:0:0:
256,192,17122,1,0,0:0:0:0:
256,192,17345,1,0,0:0:0:0:
256,192,17569,1,8,0:0:0:0:
256,192,17793,1,0,0:0:0:0:
256,192,17905,1,8,0:0:0:0:
256,192,18017,1,0,0:0:0:0:
256,192,18129,1,8,0:0:0:0:
256,192,18241,1,8,0:0:0:0:
256,192,18465,1,8,0:0:0:0:
256,192,18689,1,0,0:0:0:0:
256,192,19137,1,0,0:0:0:0:
256,192,19360,1,8,0:0:0:0:
256,192,19696,1,8,0:0:0:0:
256,192,19808,1,0,0:0:0:0:
256,192,20032,1,0,0:0:0:0:
256,192,20256,1,8,0:0:0:0:
256,192,20480,1,8,0:0:0:0:
256,192,20704,1,0,0:0:0:0:
256,192,20815,1,8,0:0:0:0:
256,192,20928,1,0,0:0:0:0:
256,192,21151,1,8,0:0:0:0:
256,192,21375,1,0,0:0:0:0:
256,192,21487,1,8,0:0:0:0:
256,192,21599,1,0,0:0:0:0:
256,192,21711,1,8,0:0:0:0:
256,192,21823,1,8,0:0:0:0:
256,192,21934,1,0,0:0:0:0:
256,192,22047,1,8,0:0:0:0:
256,192,22494,1,0,0:0:0:0:
256,192,22942,1,8,0:0:0:0:
256,192,23278,1,8,0:0:0:0:
256,192,23390,1,0,0:0:0:0:
256,192,23613,1,0,0:0:0:0:
256,192,23837,1,8,0:0:0:0:
256,192,24061,1,8,0:0:0:0:
256,192,24136,1,8,0:0:0:0:
256,192,24210,1,8,0:0:0:0:
256,192,24285,1,0,0:0:0:0:
256,192,24509,1,0,0:0:0:0:
256,192,24733,1,8,0:0:0:0:
256,192,24957,1,0,0:0:0:0:
256,192,25069,1,8,0:0:0:0:
256,192,25181,1,0,0:0:0:0:
256,192,25404,1,0,0:0:0:0:
256,192,25628,1,8,0:0:0:0:
256,192,26076,1,0,0:0:0:0:
256,192,26524,1,8,0:0:0:0:
256,192,26860,1,8,0:0:0:0:
256,192,26972,1,0,0:0:0:0:
256,192,27196,1,0,0:0:0:0:
256,192,27419,1,8,0:0:0:0:
256,192,27643,1,8,0:0:0:0:
256,192,27718,1,8,0:0:0:0:
256,192,27793,1,8,0:0:0:0:
256,192,27867,1,0,0:0:0:0:
256,192,28091,1,0,0:0:0:0:
256,192,28315,1,8,0:0:0:0:
256,192,28539,1,0,0:0:0:0:
256,192,28651,1,8,0:0:0:0:
256,192,28763,1,0,0:0:0:0:
256,192,28875,1,8,0:0:0:0:
256,192,28987,1,0,0:0:0:0:
256,192,29099,1,0,0:0:0:0:
256,192,29210,1,8,0:0:0:0:
256,192,29658,1,0,0:0:0:0:
256,192,30106,1,8,0:0:0:0:
256,192,30442,1,8,0:0:0:0:
256,192,30554,1,0,0:0:0:0:
256,192,30778,1,0,0:0:0:0:
256,192,31002,1,8,0:0:0:0:
256,192,31225,1,8,0:0:0:0:
256,192,31300,1,8,0:0:0:0:
256,192,31375,1,8,0:0:0:0:
256,192,31449,1,0,0:0:0:0:
256,192,31673,1,0,0:0:0:0:
256,192,31897,1,8,0:0:0:0:
256,192,32121,1,0,0:0:0:0:
256,192,32233,1,8,0:0:0:0:
256,192,32345,1,8,0:0:0:0:
256,192,32457,1,0,0:0:0:0:
256,192,32569,1,0,0:0:0:0:
256,192,32793,1,8,0:0:0:0:
256,192,33016,1,0,0:0:0:0:
256,192,33240,1,0,0:0:0:0:
256,192,33688,1,8,0:0:0:0:
256,192,33912,1,0,0:0:0:0:
256,192,34024,1,8,0:0:0:0:
256,192,34136,1,0,0:0:0:0:
256,192,34360,1,0,0:0:0:0:
256,192,34584,1,8,0:0:0:0:
256,192,34807,1,8,0:0:0:0:
256,192,34882,1,8,0:0:0:0:
256,192,34957,1,8,0:0:0:0:
256,192,35031,1,0,0:0:0:0:
256,192,35255,1,0,0:0:0:0:
256,192,35479,1,8,0:0:0:0:
256,192,35703,1,0,0:0:0:0:
256,192,35815,1,8,0:0:0:0:
256,192,35927,1,0,0:0:0:0:
256,192,36039,1,8,0:0:0:0:
256,192,36151,1,0,0:0:0:0:
256,192,36225,1,0,0:0:0:0:
256,192,36300,1,0,0:0:0:0:
256,192,36375,1,8,0:0:0:0:
256,192,36822,1,12,0:0:0:0:
256,192,37270,1,8,0:0:0:0:
256,192,37494,1,0,0:0:0:0:
256,192,37718,1,8,0:0:0:0:
256,192,38166,1,8,0:0:0:0:
256,192,38613,1,0,0:0:0:0:
256,192,38837,1,0,0:0:0:0:
256,192,39285,1,0,0:0:0:0:
256,192,39509,1,8,0:0:0:0:
256,192,39733,1,8,0:0:0:0:
256,192,39957,1,8,0:0:0:0:
256,192,40404,1,0,0:0:0:0:
256,192,40628,1,8,0:0:0:0:
256,192,40852,1,8,0:0:0:0:
256,192,41076,1,0,0:0:0:0:
256,192,41300,1,8,0:0:0:0:
256,192,41748,1,8,0:0:0:0:
256,192,41972,1,0,0:0:0:0:
256,192,42419,1,0,0:0:0:0:
256,192,42867,1,0,0:0:0:0:
256,192,43091,1,8,0:0:0:0:
256,192,43315,1,8,0:0:0:0:
256,192,43427,1,8,0:0:0:0:
256,192,43539,1,8,0:0:0:0:
256,192,43987,1,0,0:0:0:0:
256,192,44434,1,8,0:0:0:0:
256,192,44658,1,0,0:0:0:0:
256,192,44882,1,8,0:0:0:0:
256,192,45330,1,8,0:0:0:0:
256,192,45554,1,8,0:0:0:0:
256,192,46002,1,0,0:0:0:0:
256,192,46449,1,0,0:0:0:0:
256,192,46673,1,8,0:0:0:0:
256,192,47121,1,8,0:0:0:0:
256,192,47345,1,8,0:0:0:0:
256,192,47569,1,0,0:0:0:0:
256,192,47793,1,8,0:0:0:0:
256,192,48240,1,0,0:0:0:0:
256,192,48464,1,8,0:0:0:0:
256,192,48912,1,8,0:0:0:0:
256,192,49136,1,8,0:0:0:0:
256,192,49584,1,0,0:0:0:0:
256,192,50031,1,0,0:0:0:0:
256,192,50255,1,8,0:0:0:0:
256,192,50479,1,8,0:0:0:0:
256,192,50591,1,8,0:0:0:0:
256,192,50703,1,8,0:0:0:0:
256,192,50927,1,8,0:0:0:0:
256,192,51151,1,0,0:0:0:0:
256,192,51599,1,8,0:0:0:0:
256,192,51822,1,0,0:0:0:0:
256,192,52046,1,8,0:0:0:0:
256,192,52270,1,0,0:0:0:0:
256,192,52494,1,8,0:0:0:0:
256,192,52718,1,8,0:0:0:0:
256,192,53166,1,0,0:0:0:0:
256,192,53390,1,8,0:0:0:0:
256,192,53613,1,0,0:0:0:0:
256,192,53837,1,8,0:0:0:0:
256,192,54061,1,8,0:0:0:0:
256,192,54285,1,0,0:0:0:0:
256,192,54733,1,0,0:0:0:0:
256,192,54957,1,8,0:0:0:0:
256,192,55181,1,8,0:0:0:0:
256,192,55404,1,0,0:0:0:0:
256,192,55628,1,8,0:0:0:0:
256,192,56076,1,8,0:0:0:0:
256,192,56524,1,8,0:0:0:0:
256,192,56748,1,0,0:0:0:0:
256,192,57196,1,0,0:0:0:0:
256,192,57419,1,8,0:0:0:0:
256,192,57643,1,8,0:0:0:0:
256,192,57867,1,8,0:0:0:0:
256,192,58091,1,0,0:0:0:0:
256,192,58315,1,0,0:0:0:0:
256,192,58539,1,8,0:0:0:0:
256,192,58763,1,8,0:0:0:0:
256,192,58987,1,0,0:0:0:0:
256,192,59210,1,8,0:0:0:0:
256,192,59658,1,8,0:0:0:0:
256,192,59882,1,8,0:0:0:0:
256,192,60330,1,0,0:0:0:0:
256,192,60778,1,0,0:0:0:0:
256,192,61002,1,8,0:0:0:0:
256,192,61225,1,8,0:0:0:0:
256,192,61449,1,8,0:0:0:0:
256,192,61897,1,0,0:0:0:0:
256,192,62121,1,8,0:0:0:0:
256,192,62345,1,0,0:0:0:0:
256,192,62569,1,0,0:0:0:0:
256,192,62793,1,8,0:0:0:0:
256,192,63240,1,8,0:0:0:0:
256,192,63464,1,8,0:0:0:0:
256,192,63912,1,0,0:0:0:0:
256,192,64360,1,0,0:0:0:0:
256,192,64584,1,8,0:0:0:0:
256,192,64807,1,8,0:0:0:0:
256,192,65031,1,8,0:0:0:0:
256,192,65479,1,0,0:0:0:0:
256,192,65703,1,8,0:0:0:0:
256,192,65927,1,0,0:0:0:0:
256,192,66151,1,0,0:0:0:0:
256,192,66375,1,8,0:0:0:0:
256,192,66599,1,0,0:0:0:0:
256,192,66822,1,0,0:0:0:0:
256,192,67270,1,8,0:0:0:0:
256,192,67494,1,0,0:0:0:0:
256,192,67718,1,8,0:0:0:0:
256,192,67942,1,0,0:0:0:0:
256,192,68166,1,8,0:0:0:0:
256,192,68390,1,8,0:0:0:0:
256,192,68613,1,8,0:0:0:0:
256,192,69061,1,0,0:0:0:0:
256,192,69285,1,8,0:0:0:0:
256,192,69509,1,0,0:0:0:0:
256,192,69733,1,0,0:0:0:0:
256,192,69957,1,8,0:0:0:0:
256,192,70181,1,8,0:0:0:0:
256,192,70404,1,8,0:0:0:0:
256,192,70628,1,0,0:0:0:0:
256,192,70852,1,8,0:0:0:0:
256,192,71076,1,0,0:0:0:0:
256,192,71524,1,0,0:0:0:0:
256,192,71748,1,8,0:0:0:0:
256,192,71972,1,8,0:0:0:0:
256,192,72196,1,8,0:0:0:0:
256,192,72643,1,0,0:0:0:0:
256,192,72867,1,8,0:0:0:0:
256,192,73091,1,0,0:0:0:0:
256,192,73315,1,0,0:0:0:0:
256,192,73539,1,8,0:0:0:0:
256,192,73987,1,8,0:0:0:0:
256,192,74210,1,8,0:0:0:0:
256,192,74434,1,0,0:0:0:0:
256,192,74658,1,8,0:0:0:0:
256,192,74882,1,0,0:0:0:0:
256,192,75106,1,0,0:0:0:0:
256,192,75330,1,8,0:0:0:0:
256,192,75778,1,8,0:0:0:0:
256,192,76002,1,8,0:0:0:0:
256,192,76225,1,0,0:0:0:0:
256,192,76449,1,8,0:0:0:0:
256,192,76673,1,0,0:0:0:0:
256,192,76897,1,0,0:0:0:0:
256,192,77121,1,8,0:0:0:0:
256,192,77569,1,8,0:0:0:0:
256,192,77793,1,0,0:0:0:0:
256,192,78240,1,0,0:0:0:0:
256,192,78688,1,0,0:0:0:0:
256,192,78912,1,8,0:0:0:0:
256,192,79136,1,0,0:0:0:0:
256,192,79360,1,8,0:0:0:0:
256,192,79584,1,8,0:0:0:0:
256,192,79807,1,0,0:0:0:0:
256,192,80031,1,8,0:0:0:0:
256,192,80255,1,0,0:0:0:0:
256,192,80479,1,0,0:0:0:0:
256,192,80703,1,8,0:0:0:0:
256,192,81151,1,8,0:0:0:0:
256,192,81599,1,0,0:0:0:0:
256,192,81822,1,8,0:0:0:0:
256,192,82046,1,0,0:0:0:0:
256,192,82270,1,0,0:0:0:0:
256,192,82494,1,8,0:0:0:0:
256,192,82942,1,8,0:0:0:0:
256,192,83166,1,8,0:0:0:0:
256,192,83390,1,0,0:0:0:0:
256,192,83613,1,8,0:0:0:0:
256,192,83837,1,0,0:0:0:0:
256,192,84061,1,0,0:0:0:0:
256,192,84285,1,8,0:0:0:0:
256,192,84733,1,8,0:0:0:0:
256,192,84957,1,0,0:0:0:0:
256,192,85181,1,8,0:0:0:0:
256,192,85404,1,0,0:0:0:0:
256,192,85628,1,0,0:0:0:0:
256,192,85852,1,0,0:0:0:0:
256,192,86076,1,8,0:0:0:0:
256,192,86300,1,0,0:0:0:0:
256,192,86748,1,8,0:0:0:0:
256,192,86972,1,0,0:0:0:0:
256,192,87196,1,8,0:0:0:0:
256,192,87419,1,0,0:0:0:0:
256,192,87643,1,0,0:0:0:0:
256,192,87867,1,8,0:0:0:0:
256,192,88091,1,8,0:0:0:0:
256,192,88315,1,0,0:0:0:0:
256,192,88763,1,0,0:0:0:0:
256,192,88987,1,8,0:0:0:0:
256,192,89210,1,0,0:0:0:0:
256,192,89434,1,0,0:0:0:0:
256,192,89658,1,8,0:0:0:0:
256,192,89882,1,8,0:0:0:0:
256,192,90106,1,8,0:0:0:0:
256,192,90554,1,0,0:0:0:0:
256,192,90778,1,8,0:0:0:0:
256,192,91002,1,0,0:0:0:0:
256,192,91225,1,0,0:0:0:0:
256,192,91449,1,8,0:0:0:0:
256,192,91673,1,0,0:0:0:0:
256,192,91897,1,8,0:0:0:0:
256,192,92121,1,8,0:0:0:0:
256,192,92345,1,8,0:0:0:0:
256,192,92569,1,0,0:0:0:0:
256,192,93016,1,0,0:0:0:0:
256,192,93240,1,8,0:0:0:0:
256,192,93464,1,0,0:0:0:0:
256,192,93688,1,8,0:0:0:0:
256,192,94136,1,12,0:0:0:0:
256,192,108464,12,0,122121,0:0:0:0:
256,192,122793,5,8,0:0:0:0:
256,192,122867,1,8,0:0:0:0:
256,192,122942,1,0,0:0:0:0:
256,192,123016,1,8,0:0:0:0:
256,192,123091,1,8,0:0:0:0:
256,192,123166,1,0,0:0:0:0:
256,192,123240,1,8,0:0:0:0:
256,192,123315,1,0,0:0:0:0:
256,192,123390,1,0,0:0:0:0:
256,192,123464,1,8,0:0:0:0:
256,192,123539,1,0,0:0:0:0:
256,192,123613,1,0,0:0:0:0:
256,192,123688,1,8,0:0:0:0:
256,192,123763,1,8,0:0:0:0:
256,192,123837,1,0,0:0:0:0:
256,192,123912,1,8,0:0:0:0:
256,192,123987,1,0,0:0:0:0:
256,192,124061,1,0,0:0:0:0:
256,192,124136,1,8,0:0:0:0:
256,192,124210,1,8,0:0:0:0:
256,192,124285,1,0,0:0:0:0:
256,192,124360,1,8,0:0:0:0:
256,192,124434,1,0,0:0:0:0:
256,192,124509,1,0,0:0:0:0:
256,192,124584,1,8,0:0:0:0:
256,192,124658,1,8,0:0:0:0:
256,192,124733,1,0,0:0:0:0:
256,192,124807,1,8,0:0:0:0:
256,192,124882,1,8,0:0:0:0:
256,192,124957,1,0,0:0:0:0:
256,192,125031,1,8,0:0:0:0:
256,192,125106,1,0,0:0:0:0:
256,192,125181,1,0,0:0:0:0:
256,192,125255,1,8,0:0:0:0:
256,192,125330,1,0,0:0:0:0:
256,192,125404,1,0,0:0:0:0:
256,192,125479,1,8,0:0:0:0:
256,192,125554,1,8,0:0:0:0:
256,192,125628,1,0,0:0:0:0:
256,192,125703,1,8,0:0:0:0:
256,192,125778,1,0,0:0:0:0:
256,192,125852,1,0,0:0:0:0:
256,192,125927,1,8,0:0:0:0:
256,192,126002,1,8,0:0:0:0:
256,192,126076,1,0,0:0:0:0:
256,192,126151,1,8,0:0:0:0:
256,192,126225,1,0,0:0:0:0:
256,192,126300,1,0,0:0:0:0:
256,192,126375,1,8,0:0:0:0:
256,192,126449,1,8,0:0:0:0:
256,192,126524,1,0,0:0:0:0:
256,192,126599,1,8,0:0:0:0:
256,192,126673,1,8,0:0:0:0:
256,192,126748,1,0,0:0:0:0:
256,192,126822,1,8,0:0:0:0:
256,192,126897,1,0,0:0:0:0:
256,192,126972,1,0,0:0:0:0:
256,192,127046,1,8,0:0:0:0:
256,192,127121,1,0,0:0:0:0:
256,192,127196,1,0,0:0:0:0:
256,192,127270,1,8,0:0:0:0:
256,192,127345,1,8,0:0:0:0:
256,192,127419,1,0,0:0:0:0:
256,192,127494,1,8,0:0:0:0:
256,192,127569,1,0,0:0:0:0:
256,192,127643,1,0,0:0:0:0:
256,192,127718,1,8,0:0:0:0:
256,192,127793,1,8,0:0:0:0:
256,192,127867,1,0,0:0:0:0:
256,192,127942,1,8,0:0:0:0:
256,192,128016,1,0,0:0:0:0:
256,192,128091,1,0,0:0:0:0:
256,192,128166,1,8,0:0:0:0:
256,192,128240,1,8,0:0:0:0:
256,192,128315,1,0,0:0:0:0:
256,192,128390,1,8,0:0:0:0:
256,192,128464,1,8,0:0:0:0:
256,192,128539,1,0,0:0:0:0:
256,192,128613,1,8,0:0:0:0:
256,192,128688,1,0,0:0:0:0:
256,192,128763,1,0,0:0:0:0:
256,192,128837,1,8,0:0:0:0:
256,192,128912,1,0,0:0:0:0:
256,192,128987,1,0,0:0:0:0:
256,192,129061,1,8,0:0:0:0:
256,192,129136,1,8,0:0:0:0:
256,192,129210,1,8,0:0:0:0:
256,192,129285,1,0,0:0:0:0:
256,192,129360,1,0,0:0:0:0:
256,192,129434,1,0,0:0:0:0:
256,192,129509,1,12,0:0:0:0:
256,192,129957,1,4,0:0:0:0:
256,192,130404,1,8,0:0:0:0:
256,192,130628,1,0,0:0:0:0:
256,192,130740,1,8,0:0:0:0:
256,192,130852,1,0,0:0:0:0:
256,192,131076,1,0,0:0:0:0:
256,192,131300,1,8,0:0:0:0:
256,192,131524,1,8,0:0:0:0:
256,192,131636,1,8,0:0:0:0:
256,192,131748,1,0,0:0:0:0:
256,192,131972,1,0,0:0:0:0:
256,192,132196,1,8,0:0:0:0:
256,192,132419,1,0,0:0:0:0:
256,192,132531,1,8,0:0:0:0:
256,192,132643,1,0,0:0:0:0:
256,192,132755,1,8,0:0:0:0:
256,192,132867,1,8,0:0:0:0:
256,192,133091,1,8,0:0:0:0:
256,192,133315,1,0,0:0:0:0:
256,192,133763,1,0,0:0:0:0:
256,192,133987,1,8,0:0:0:0:
256,192,134210,1,0,0:0:0:0:
256,192,134322,1,8,0:0:0:0:
256,192,134434,1,0,0:0:0:0:
256,192,134658,1,0,0:0:0:0:
256,192,134882,1,8,0:0:0:0:
256,192,135106,1,0,0:0:0:0:
256,192,135218,1,8,0:0:0:0:
256,192,135330,1,8,0:0:0:0:
256,192,135554,1,0,0:0:0:0:
256,192,135778,1,8,0:0:0:0:
256,192,136002,1,8,0:0:0:0:
256,192,136113,1,8,0:0:0:0:
256,192,136225,1,0,0:0:0:0:
256,192,136337,1,8,0:0:0:0:
256,192,136449,1,8,0:0:0:0:
256,192,136673,1,8,0:0:0:0:
256,192,136897,1,0,0:0:0:0:
256,192,137345,1,0,0:0:0:0:
256,192,137569,1,8,0:0:0:0:
256,192,137904,1,8,0:0:0:0:
256,192,138016,1,0,0:0:0:0:
256,192,138240,1,0,0:0:0:0:
256,192,138464,1,8,0:0:0:0:
256,192,138576,1,8,0:0:0:0:
256,192,138688,1,8,0:0:0:0:
256,192,138912,1,0,0:0:0:0:
256,192,139136,1,0,0:0:0:0:
256,192,139360,1,8,0:0:0:0:
256,192,139584,1,0,0:0:0:0:
256,192,139696,1,8,0:0:0:0:
256,192,139807,1,8,0:0:0:0:
256,192,139919,1,0,0:0:0:0:
256,192,140031,1,8,0:0:0:0:
256,192,140255,1,8,0:0:0:0:
256,192,140479,1,0,0:0:0:0:
256,192,140927,1,0,0:0:0:0:
256,192,141151,1,8,0:0:0:0:
256,192,141375,1,0,0:0:0:0:
256,192,141487,1,8,0:0:0:0:
256,192,141599,1,0,0:0:0:0:
256,192,141822,1,0,0:0:0:0:
256,192,142046,1,8,0:0:0:0:
256,192,142270,1,8,0:0:0:0:
256,192,142382,1,8,0:0:0:0:
256,192,142494,1,0,0:0:0:0:
256,192,142718,1,0,0:0:0:0:
256,192,142942,1,8,0:0:0:0:
256,192,143166,1,0,0:0:0:0:
256,192,143278,1,8,0:0:0:0:
256,192,143390,1,0,0:0:0:0:
256,192,143502,1,8,0:0:0:0:
256,192,143613,1,0,0:0:0:0:
256,192,143725,1,0,0:0:0:0:
256,192,143837,1,8,0:0:0:0:
256,192,143949,1,8,0:0:0:0:
256,192,144061,1,0,0:0:0:0:
256,192,144285,1,8,0:0:0:0:
256,192,144397,1,0,0:0:0:0:
256,192,144509,1,0,0:0:0:0:
256,192,144733,1,0,0:0:0:0:
256,192,144845,1,0,0:0:0:0:
256,192,144957,1,0,0:0:0:0:
256,192,145181,1,8,0:0:0:0:
256,192,145293,1,0,0:0:0:0:
256,192,145404,1,0,0:0:0:0:
256,192,145628,1,8,0:0:0:0:
256,192,146076,1,8,0:0:0:0:
256,192,146300,1,0,0:0:0:0:
256,192,146412,1,0,0:0:0:0:
256,192,146524,1,0,0:0:0:0:
256,192,146972,1,8,0:0:0:0:
256,192,147084,1,0,0:0:0:0:
256,192,147196,1,0,0:0:0:0:
256,192,147307,1,0,0:0:0:0:
256,192,147419,1,0,0:0:0:0:
256,192,147867,1,8,0:0:0:0:
256,192,147979,1,0,0:0:0:0:
256,192,148091,1,0,0:0:0:0:
256,192,148315,1,0,0:0:0:0:
256,192,148427,1,0,0:0:0:0:
256,192,148539,1,0,0:0:0:0:
256,192,148763,1,8,0:0:0:0:
256,192,148875,1,0,0:0:0:0:
256,192,148987,1,8,0:0:0:0:
256,192,149099,1,0,0:0:0:0:
256,192,149210,1,8,0:0:0:0:
256,192,149322,1,8,0:0:0:0:
256,192,149434,1,0,0:0:0:0:
256,192,149658,1,8,0:0:0:0:
256,192,149882,1,0,0:0:0:0:
256,192,149994,1,0,0:0:0:0:
256,192,150106,1,0,0:0:0:0:
256,192,150554,1,8,0:0:0:0:
256,192,150666,1,0,0:0:0:0:
256,192,150778,1,0,0:0:0:0:
256,192,150890,1,0,0:0:0:0:
256,192,151002,1,0,0:0:0:0:
256,192,151449,1,8,0:0:0:0:
256,192,151561,1,0,0:0:0:0:
256,192,151673,1,0,0:0:0:0:
256,192,151897,1,0,0:0:0:0:
256,192,152009,1,0,0:0:0:0:
256,192,152121,1,0,0:0:0:0:
256,192,152345,1,8,0:0:0:0:
256,192,152457,1,0,0:0:0:0:
256,192,152569,1,0,0:0:0:0:
256,192,152681,1,0,0:0:0:0:
256,192,152793,1,8,0:0:0:0:
256,192,153240,1,8,0:0:0:0:
256,192,153464,1,0,0:0:0:0:
256,192,153576,1,0,0:0:0:0:
256,192,153688,1,0,0:0:0:0:
256,192,154136,1,8,0:0:0:0:
256,192,154248,1,0,0:0:0:0:
256,192,154360,1,8,0:0:0:0:
256,192,154472,1,0,0:0:0:0:
256,192,154584,1,8,0:0:0:0:
256,192,154696,1,8,0:0:0:0:
256,192,154807,1,0,0:0:0:0:
256,192,155031,1,8,0:0:0:0:
256,192,155143,1,0,0:0:0:0:
256,192,155255,1,0,0:0:0:0:
256,192,155479,1,0,0:0:0:0:
256,192,155591,1,0,0:0:0:0:
256,192,155703,1,0,0:0:0:0:
256,192,155927,1,8,0:0:0:0:
256,192,156039,1,0,0:0:0:0:
256,192,156151,1,0,0:0:0:0:
256,192,156263,1,0,0:0:0:0:
256,192,156375,1,8,0:0:0:0:
256,192,156822,1,8,0:0:0:0:
256,192,157046,1,0,0:0:0:0:
256,192,157158,1,0,0:0:0:0:
256,192,157270,1,0,0:0:0:0:
256,192,157718,1,8,0:0:0:0:
256,192,157830,1,0,0:0:0:0:
256,192,157942,1,0,0:0:0:0:
256,192,158054,1,0,0:0:0:0:
256,192,158166,1,8,0:0:0:0:
256,192,158613,1,0,0:0:0:0:
256,192,158725,1,0,0:0:0:0:
256,192,158837,1,0,0:0:0:0:
256,192,159061,1,0,0:0:0:0:
256,192,159173,1,0,0:0:0:0:
256,192,159285,1,0,0:0:0:0:
256,192,159509,1,8,0:0:0:0:
256,192,159621,1,0,0:0:0:0:
256,192,159733,1,0,0:0:0:0:
256,192,160181,1,0,0:0:0:0:
256,192,160404,1,0,0:0:0:0:
256,192,160628,1,0,0:0:0:0:
256,192,160852,1,0,0:0:0:0:
256,192,161076,1,0,0:0:0:0:
256,192,161300,1,8,0:0:0:0:
256,192,161524,1,0,0:0:0:0:
256,192,161748,1,0,0:0:0:0:
256,192,161972,1,4,0:0:0:0:
256,192,162196,1,8,0:0:0:0:
256,192,162307,1,0,0:0:0:0:
256,192,162419,1,0,0:0:0:0:
256,192,162643,1,0,0:0:0:0:
256,192,162755,1,0,0:0:0:0:
256,192,162867,1,0,0:0:0:0:
256,192,163091,1,8,0:0:0:0:
256,192,163203,1,0,0:0:0:0:
256,192,163315,1,0,0:0:0:0:
256,192,163539,1,8,0:0:0:0:
256,192,163763,1,0,0:0:0:0:
256,192,163987,1,0,0:0:0:0:
256,192,164210,1,0,0:0:0:0:
256,192,164434,1,0,0:0:0:0:
256,192,164658,1,0,0:0:0:0:
256,192,164882,1,8,0:0:0:0:
256,192,164957,1,0,0:0:0:0:
256,192,165031,1,0,0:0:0:0:
256,192,165106,1,8,0:0:0:0:
256,192,165330,1,8,0:0:0:0:
256,192,165404,1,0,0:0:0:0:
256,192,165479,1,0,0:0:0:0:
256,192,165554,1,8,0:0:0:0:
256,192,165778,1,4,0:0:0:0:
256,192,166225,1,4,0:0:0:0:
256,192,166673,1,8,0:0:0:0:
256,192,166785,1,0,0:0:0:0:
256,192,166897,1,0,0:0:0:0:
256,192,167345,1,0,0:0:0:0:
256,192,167569,1,0,0:0:0:0:
256,192,167793,1,0,0:0:0:0:
256,192,168016,1,0,0:0:0:0:
256,192,168240,1,0,0:0:0:0:
256,192,168464,1,8,0:0:0:0:
256,192,168688,1,0,0:0:0:0:
256,192,168912,1,0,0:0:0:0:
256,192,169136,1,4,0:0:0:0:
256,192,169360,1,8,0:0:0:0:
256,192,169472,1,0,0:0:0:0:
256,192,169584,1,0,0:0:0:0:
256,192,169807,1,0,0:0:0:0:
256,192,169919,1,0,0:0:0:0:
256,192,170031,1,0,0:0:0:0:
256,192,170255,1,8,0:0:0:0:
256,192,170367,1,0,0:0:0:0:
256,192,170479,1,0,0:0:0:0:
256,192,170703,1,8,0:0:0:0:
256,192,170927,1,4,0:0:0:0:
256,192,171375,1,4,0:0:0:0:
256,192,171822,1,4,0:0:0:0:
256,192,172046,1,12,0:0:0:0:
256,192,172270,1,0,0:0:0:0:
256,192,172494,1,12,0:0:0:0:
256,192,172718,1,0,0:0:0:0:
256,192,172942,1,8,0:0:0:0:
256,192,173054,1,0,0:0:0:0:
256,192,173166,1,0,0:0:0:0:
256,192,173390,1,0,0:0:0:0:
256,192,173502,1,0,0:0:0:0:
256,192,173613,1,0,0:0:0:0:
256,192,173837,1,8,0:0:0:0:
256,192,173949,1,0,0:0:0:0:
256,192,174061,1,0,0:0:0:0:
256,192,174509,1,0,0:0:0:0:
256,192,174733,1,0,0:0:0:0:
256,192,174957,1,0,0:0:0:0:
256,192,175181,1,0,0:0:0:0:
256,192,175404,1,0,0:0:0:0:
256,192,175628,1,8,0:0:0:0:
256,192,175852,1,0,0:0:0:0:
256,192,176076,1,0,0:0:0:0:
256,192,176300,1,4,0:0:0:0:
256,192,176524,1,8,0:0:0:0:
256,192,176636,1,0,0:0:0:0:
256,192,176748,1,0,0:0:0:0:
256,192,176972,1,0,0:0:0:0:
256,192,177084,1,0,0:0:0:0:
256,192,177196,1,0,0:0:0:0:
256,192,177419,1,8,0:0:0:0:
256,192,177531,1,0,0:0:0:0:
256,192,177643,1,0,0:0:0:0:
256,192,178091,1,0,0:0:0:0:
256,192,178203,1,0,0:0:0:0:
256,192,178315,1,0,0:0:0:0:
256,192,178539,1,0,0:0:0:0:
256,192,178763,1,0,0:0:0:0:
256,192,178987,1,0,0:0:0:0:
256,192,179210,1,8,0:0:0:0:
256,192,179285,1,0,0:0:0:0:
256,192,179360,1,0,0:0:0:0:
256,192,179434,1,0,0:0:0:0:
256,192,179658,1,8,0:0:0:0:
256,192,179733,1,0,0:0:0:0:
256,192,179807,1,0,0:0:0:0:
256,192,179882,1,8,0:0:0:0:
256,192,180106,1,12,0:0:0:0:
256,192,180554,1,12,0:0:0:0:
256,192,181002,1,8,0:0:0:0:
256,192,181113,1,0,0:0:0:0:
256,192,181225,1,0,0:0:0:0:
256,192,181673,1,0,0:0:0:0:
256,192,181897,1,0,0:0:0:0:
256,192,182121,1,0,0:0:0:0:
256,192,182345,1,0,0:0:0:0:
256,192,182569,1,0,0:0:0:0:
256,192,182793,1,8,0:0:0:0:
256,192,183016,1,0,0:0:0:0:
256,192,183240,1,0,0:0:0:0:
256,192,183464,1,4,0:0:0:0:
256,192,183688,1,8,0:0:0:0:
256,192,183800,1,0,0:0:0:0:
256,192,183912,1,0,0:0:0:0:
256,192,184136,1,0,0:0:0:0:
256,192,184248,1,0,0:0:0:0:
256,192,184360,1,0,0:0:0:0:
256,192,184584,1,8,0:0:0:0:
256,192,184696,1,0,0:0:0:0:
256,192,184807,1,0,0:0:0:0:
256,192,185255,1,4,0:0:0:0:
256,192,185703,1,4,0:0:0:0:
256,192,186151,1,4,0:0:0:0:
256,192,186375,1,12,0:0:0:0:
256,192,186599,1,0,0:0:0:0:
256,192,186822,1,12,0:0:0:0:
256,192,187046,1,0,0:0:0:0:
256,192,187270,1,8,0:0:0:0:
256,192,187345,1,8,0:0:0:0:
256,192,187419,1,0,0:0:0:0:
256,192,187494,1,8,0:0:0:0:
256,192,187569,1,8,0:0:0:0:
256,192,187643,1,0,0:0:0:0:
256,192,187718,1,8,0:0:0:0:
256,192,187793,1,0,0:0:0:0:
256,192,187867,1,0,0:0:0:0:
256,192,187942,1,8,0:0:0:0:
256,192,188016,1,0,0:0:0:0:
256,192,188091,1,0,0:0:0:0:
256,192,188166,1,8,0:0:0:0:
256,192,188240,1,8,0:0:0:0:
256,192,188315,1,0,0:0:0:0:
256,192,188390,1,8,0:0:0:0:
256,192,188464,1,0,0:0:0:0:
256,192,188539,1,0,0:0:0:0:
256,192,188613,1,8,0:0:0:0:
256,192,188688,1,8,0:0:0:0:
256,192,188763,1,0,0:0:0:0:
256,192,188837,1,8,0:0:0:0:
256,192,188912,1,0,0:0:0:0:
256,192,188987,1,0,0:0:0:0:
256,192,189061,1,8,0:0:0:0:
256,192,189136,1,8,0:0:0:0:
256,192,189210,1,0,0:0:0:0:
256,192,189285,1,8,0:0:0:0:
256,192,189360,1,8,0:0:0:0:
256,192,189434,1,0,0:0:0:0:
256,192,189509,1,8,0:0:0:0:
256,192,189584,1,0,0:0:0:0:
256,192,189658,1,0,0:0:0:0:
256,192,189733,1,8,0:0:0:0:
256,192,189807,1,8,0:0:0:0:
256,192,189882,1,0,0:0:0:0:
256,192,189957,1,8,0:0:0:0:
256,192,190031,1,0,0:0:0:0:
256,192,190106,1,0,0:0:0:0:
256,192,190181,1,8,0:0:0:0:
256,192,190255,1,0,0:0:0:0:
256,192,190330,1,0,0:0:0:0:
256,192,190404,1,8,0:0:0:0:
256,192,190479,1,8,0:0:0:0:
256,192,190554,1,0,0:0:0:0:
256,192,190628,1,8,0:0:0:0:
256,192,190703,1,0,0:0:0:0:
256,192,190778,1,0,0:0:0:0:
256,192,190852,1,8,0:0:0:0:
256,192,190927,1,8,0:0:0:0:
256,192,191002,1,0,0:0:0:0:
256,192,191076,1,8,0:0:0:0:
256,192,191151,1,8,0:0:0:0:
256,192,191225,1,0,0:0:0:0:
256,192,191300,1,8,0:0:0:0:
256,192,191375,1,0,0:0:0:0:
256,192,191449,1,0,0:0:0:0:
256,192,191524,1,8,0:0:0:0:
256,192,191599,1,0,0:0:0:0:
256,192,191673,1,0,0:0:0:0:
256,192,191748,1,8,0:0:0:0:
256,192,191822,1,8,0:0:0:0:
256,192,191897,1,0,0:0:0:0:
256,192,191972,1,8,0:0:0:0:
256,192,192046,1,0,0:0:0:0:
256,192,192121,1,0,0:0:0:0:
256,192,192196,1,8,0:0:0:0:
256,192,192270,1,8,0:0:0:0:
256,192,192345,1,0,0:0:0:0:
256,192,192419,1,8,0:0:0:0:
256,192,192494,1,0,0:0:0:0:
256,192,192569,1,0,0:0:0:0:
256,192,192643,1,8,0:0:0:0:
256,192,192718,1,8,0:0:0:0:
256,192,192793,1,0,0:0:0:0:
256,192,192867,1,8,0:0:0:0:
256,192,192942,1,8,0:0:0:0:
256,192,193016,1,0,0:0:0:0:
256,192,193091,1,8,0:0:0:0:
256,192,193166,1,0,0:0:0:0:
256,192,193240,1,0,0:0:0:0:
256,192,193315,1,8,0:0:0:0:
256,192,193390,1,8,0:0:0:0:
256,192,193464,1,0,0:0:0:0:
256,192,193539,1,8,0:0:0:0:
256,192,193613,1,8,0:0:0:0:
256,192,193688,1,8,0:0:0:0:
256,192,193763,1,0,0:0:0:0:
256,192,193837,1,0,0:0:0:0:
256,192,193912,1,0,0:0:0:0:
256,192,193987,1,12,0:0:0:0:
256,192,194434,1,4,0:0:0:0:
256,192,194882,1,8,0:0:0:0:
256,192,195218,1,8,0:0:0:0:
256,192,195330,1,0,0:0:0:0:
256,192,195554,1,0,0:0:0:0:
256,192,195778,1,8,0:0:0:0:
256,192,196002,1,8,0:0:0:0:
256,192,196113,1,8,0:0:0:0:
256,192,196225,1,0,0:0:0:0:
256,192,196337,1,8,0:0:0:0:
256,192,196449,1,0,0:0:0:0:
256,192,196673,1,8,0:0:0:0:
256,192,196897,1,0,0:0:0:0:
256,192,197009,1,8,0:0:0:0:
256,192,197121,1,0,0:0:0:0:
256,192,197233,1,8,0:0:0:0:
256,192,197345,1,0,0:0:0:0:
256,192,197457,1,0,0:0:0:0:
256,192,197569,1,8,0:0:0:0:
256,192,197793,1,0,0:0:0:0:
256,192,198240,1,0,0:0:0:0:
256,192,198464,1,8,0:0:0:0:
256,192,198688,1,8,0:0:0:0:
256,192,198800,1,8,0:0:0:0:
256,192,198912,1,0,0:0:0:0:
256,192,199136,1,0,0:0:0:0:
256,192,199360,1,8,0:0:0:0:
256,192,199472,1,0,0:0:0:0:
256,192,199584,1,8,0:0:0:0:
256,192,199807,1,0,0:0:0:0:
256,192,200031,1,0,0:0:0:0:
256,192,200255,1,8,0:0:0:0:
256,192,200479,1,0,0:0:0:0:
256,192,200591,1,8,0:0:0:0:
256,192,200703,1,0,0:0:0:0:
256,192,200815,1,8,0:0:0:0:
256,192,200927,1,8,0:0:0:0:
256,192,201039,1,0,0:0:0:0:
256,192,201151,1,8,0:0:0:0:
256,192,201375,1,0,0:0:0:0:
256,192,201822,1,0,0:0:0:0:
256,192,202046,1,8,0:0:0:0:
256,192,202270,1,0,0:0:0:0:
256,192,202382,1,8,0:0:0:0:
256,192,202494,1,0,0:0:0:0:
256,192,202718,1,0,0:0:0:0:
256,192,202942,1,8,0:0:0:0:
256,192,203166,1,8,0:0:0:0:
256,192,203278,1,8,0:0:0:0:
256,192,203390,1,0,0:0:0:0:
256,192,203502,1,8,0:0:0:0:
256,192,203613,1,0,0:0:0:0:
256,192,203837,1,8,0:0:0:0:
256,192,204061,1,0,0:0:0:0:
256,192,204173,1,8,0:0:0:0:
256,192,204285,1,8,0:0:0:0:
256,192,204397,1,0,0:0:0:0:
256,192,204509,1,8,0:0:0:0:
256,192,204733,1,8,0:0:0:0:
256,192,204957,1,0,0:0:0:0:
256,192,205404,1,0,0:0:0:0:
256,192,205628,1,8,0:0:0:0:
256,192,205852,1,0,0:0:0:0:
256,192,205964,1,8,0:0:0:0:
256,192,206076,1,0,0:0:0:0:
256,192,206300,1,0,0:0:0:0:
256,192,206524,1,8,0:0:0:0:
256,192,206636,1,8,0:0:0:0:
256,192,206748,1,8,0:0:0:0:
256,192,206972,1,0,0:0:0:0:
256,192,207084,1,8,0:0:0:0:
256,192,207196,1,0,0:0:0:0:
256,192,207307,1,0,0:0:0:0:
256,192,207419,1,8,0:0:0:0:
256,192,207643,1,0,0:0:0:0:
256,192,207755,1,8,0:0:0:0:
256,192,207867,1,0,0:0:0:0:
256,192,207979,1,8,0:0:0:0:
256,192,208091,1,8,0:0:0:0:
256,192,208203,1,0,0:0:0:0:
256,192,208315,1,8,0:0:0:0:
256,192,208539,1,0,0:0:0:0:
256,192,208987,1,0,0:0:0:0:
256,192,209210,1,8,0:0:0:0:
256,192,209434,1,0,0:0:0:0:
256,192,209546,1,8,0:0:0:0:
256,192,209658,1,0,0:0:0:0:
256,192,209882,1,0,0:0:0:0:
256,192,210106,1,8,0:0:0:0:
256,192,210330,1,0,0:0:0:0:
256,192,210404,1,0,0:0:0:0:
256,192,210479,1,0,0:0:0:0:
256,192,210554,1,8,0:0:0:0:
256,192,210666,1,8,0:0:0:0:
256,192,210778,1,0,0:0:0:0:
256,192,211002,1,8,0:0:0:0:
256,192,211225,1,0,0:0:0:0:
256,192,211337,1,8,0:0:0:0:
256,192,211449,1,0,0:0:0:0:
256,192,211561,1,8,0:0:0:0:
256,192,211673,1,0,0:0:0:0:
256,192,211785,1,0,0:0:0:0:
256,192,211897,1,8,0:0:0:0:
256,192,212345,1,0,0:0:0:0:
256,192,212569,1,0,0:0:0:0:
256,192,212793,1,8,0:0:0:0:
256,192,213016,1,0,0:0:0:0:
256,192,213128,1,8,0:0:0:0:
256,192,213240,1,0,0:0:0:0:
256,192,213464,1,0,0:0:0:0:
256,192,213688,1,8,0:0:0:0:
256,192,213912,1,0,0:0:0:0:
256,192,213987,1,0,0:0:0:0:
256,192,214061,1,0,0:0:0:0:
256,192,214136,1,8,0:0:0:0:
256,192,214248,1,8,0:0:0:0:
256,192,214360,1,0,0:0:0:0:
256,192,214584,1,8,0:0:0:0:
256,192,214807,1,0,0:0:0:0:
256,192,214919,1,8,0:0:0:0:
256,192,215031,1,0,0:0:0:0:
256,192,215143,1,8,0:0:0:0:
256,192,215255,1,8,0:0:0:0:
256,192,215367,1,0,0:0:0:0:
256,192,215479,1,8,0:0:0:0:
256,192,215927,1,0,0:0:0:0:
256,192,216151,1,0,0:0:0:0:
256,192,216375,1,8,0:0:0:0:
256,192,216599,1,0,0:0:0:0:
256,192,216710,1,8,0:0:0:0:
256,192,216822,1,0,0:0:0:0:
256,192,217046,1,0,0:0:0:0:
256,192,217270,1,8,0:0:0:0:
256,192,217494,1,0,0:0:0:0:
256,192,217569,1,0,0:0:0:0:
256,192,217643,1,0,0:0:0:0:
256,192,217718,1,8,0:0:0:0:
256,192,217830,1,8,0:0:0:0:
256,192,217942,1,0,0:0:0:0:
256,192,218166,1,8,0:0:0:0:
256,192,218390,1,0,0:0:0:0:
256,192,218502,1,8,0:0:0:0:
256,192,218613,1,0,0:0:0:0:
256,192,218725,1,0,0:0:0:0:
256,192,218837,1,0,0:0:0:0:
256,192,219061,1,8,0:0:0:0:
256,192,219285,1,0,0:0:0:0:
256,192,219509,1,0,0:0:0:0:
256,192,219957,1,8,0:0:0:0:
256,192,220181,1,0,0:0:0:0:
256,192,220293,1,8,0:0:0:0:
256,192,220404,1,0,0:0:0:0:
256,192,220628,1,0,0:0:0:0:
256,192,220852,1,8,0:0:0:0:
256,192,221076,1,0,0:0:0:0:
256,192,221151,1,0,0:0:0:0:
256,192,221225,1,0,0:0:0:0:
256,192,221300,1,8,0:0:0:0:
256,192,221412,1,8,0:0:0:0:
256,192,221524,1,0,0:0:0:0:
256,192,221748,1,8,0:0:0:0:
256,192,221972,1,0,0:0:0:0:
256,192,222084,1,8,0:0:0:0:
256,192,222196,1,0,0:0:0:0:
256,192,222307,1,8,0:0:0:0:
256,192,222419,1,0,0:0:0:0:
256,192,222531,1,0,0:0:0:0:
256,192,222643,1,8,0:0:0:0:
256,192,222867,1,8,0:0:0:0:
256,192,222979,1,8,0:0:0:0:
256,192,223091,1,12,0:0:0:0:
256,192,223315,1,0,0:0:0:0:
256,192,223539,1,8,0:0:0:0:
256,192,223763,1,0,0:0:0:0:
256,192,223875,1,8,0:0:0:0:
256,192,223987,1,0,0:0:0:0:
256,192,224099,1,0,0:0:0:0:
256,192,224210,1,0,0:0:0:0:
256,192,224434,1,8,0:0:0:0:
256,192,224658,1,8,0:0:0:0:
256,192,224770,1,8,0:0:0:0:
256,192,224882,1,0,0:0:0:0:
256,192,225106,1,0,0:0:0:0:
256,192,225330,1,8,0:0:0:0:
256,192,225554,1,0,0:0:0:0:
256,192,225666,1,8,0:0:0:0:
256,192,225778,1,0,0:0:0:0:
256,192,225890,1,8,0:0:0:0:
256,192,226002,1,0,0:0:0:0:
256,192,226225,1,8,0:0:0:0:
256,192,226449,1,0,0:0:0:0:
256,192,226897,1,0,0:0:0:0:
256,192,227121,1,8,0:0:0:0:
256,192,227345,1,0,0:0:0:0:
256,192,227457,1,8,0:0:0:0:
256,192,227569,1,0,0:0:0:0:
256,192,227793,1,0,0:0:0:0:
256,192,228016,1,8,0:0:0:0:
256,192,228240,1,8,0:0:0:0:
256,192,228352,1,8,0:0:0:0:
256,192,228464,1,0,0:0:0:0:
256,192,228576,1,8,0:0:0:0:
256,192,228688,1,0,0:0:0:0:
256,192,228912,1,8,0:0:0:0:
256,192,229136,1,0,0:0:0:0:
256,192,229248,1,8,0:0:0:0:
256,192,229360,1,0,0:0:0:0:
256,192,229472,1,8,0:0:0:0:
256,192,229584,1,8,0:0:0:0:
256,192,229696,1,0,0:0:0:0:
256,192,229807,1,8,0:0:0:0:
256,192,230031,1,0,0:0:0:0:
256,192,230479,1,0,0:0:0:0:
256,192,230703,1,8,0:0:0:0:
256,192,230927,1,0,0:0:0:0:
256,192,231039,1,8,0:0:0:0:
256,192,231151,1,0,0:0:0:0:
256,192,231375,1,0,0:0:0:0:
256,192,231599,1,8,0:0:0:0:
256,192,231710,1,0,0:0:0:0:
256,192,231822,1,8,0:0:0:0:
256,192,231934,1,8,0:0:0:0:
256,192,232046,1,0,0:0:0:0:
256,192,232270,1,0,0:0:0:0:
256,192,232494,1,8,0:0:0:0:
256,192,232718,1,8,0:0:0:0:
256,192,232830,1,8,0:0:0:0:
256,192,232942,1,0,0:0:0:0:
256,192,233054,1,8,0:0:0:0:
256,192,233166,1,0,0:0:0:0:
256,192,233278,1,0,0:0:0:0:
256,192,233390,1,8,0:0:0:0:
256,192,233613,1,0,0:0:0:0:
256,192,234061,1,0,0:0:0:0:
256,192,234285,1,8,0:0:0:0:
256,192,234509,1,0,0:0:0:0:
256,192,234621,1,8,0:0:0:0:
256,192,234733,1,0,0:0:0:0:
256,192,234957,1,0,0:0:0:0:
256,192,235181,1,8,0:0:0:0:
256,192,235404,1,8,0:0:0:0:
256,192,235516,1,8,0:0:0:0:
256,192,235628,1,0,0:0:0:0:
256,192,235852,1,0,0:0:0:0:
256,192,236076,1,8,0:0:0:0:
256,192,236300,1,0,0:0:0:0:
256,192,236412,1,8,0:0:0:0:
256,192,236524,1,0,0:0:0:0:
256,192,236636,1,8,0:0:0:0:
256,192,236748,1,0,0:0:0:0:
256,192,236860,1,0,0:0:0:0:
256,192,236972,1,8,0:0:0:0:
256,192,237084,1,8,0:0:0:0:
256,192,237196,1,0,0:0:0:0:
256,192,237419,1,8,0:0:0:0:
256,192,237494,1,8,0:0:0:0:
256,192,237569,1,0,0:0:0:0:
256,192,237643,1,8,0:0:0:0:
256,192,237718,1,8,0:0:0:0:
256,192,237793,1,0,0:0:0:0:
256,192,237867,1,8,0:0:0:0:
256,192,237942,1,0,0:0:0:0:
256,192,238016,1,0,0:0:0:0:
256,192,238091,1,8,0:0:0:0:
256,192,238166,1,0,0:0:0:0:
256,192,238240,1,0,0:0:0:0:
256,192,238315,1,8,0:0:0:0:
256,192,238390,1,8,0:0:0:0:
256,192,238464,1,0,0:0:0:0:
256,192,238539,1,8,0:0:0:0:
256,192,238613,1,0,0:0:0:0:
256,192,238688,1,0,0:0:0:0:
256,192,238763,1,8,0:0:0:0:
256,192,238837,1,8,0:0:0:0:
256,192,238912,1,0,0:0:0:0:
256,192,238987,1,8,0:0:0:0:
256,192,239061,1,0,0:0:0:0:
256,192,239136,1,0,0:0:0:0:
256,192,239210,1,8,0:0:0:0:
256,192,239285,1,8,0:0:0:0:
256,192,239360,1,0,0:0:0:0:
256,192,239434,1,8,0:0:0:0:
256,192,239509,1,8,0:0:0:0:
256,192,239584,1,0,0:0:0:0:
256,192,239658,1,8,0:0:0:0:
256,192,239733,1,0,0:0:0:0:
256,192,239807,1,0,0:0:0:0:
256,192,239882,1,8,0:0:0:0:
256,192,239957,1,0,0:0:0:0:
256,192,240031,1,0,0:0:0:0:
256,192,240106,1,8,0:0:0:0:
256,192,240181,1,8,0:0:0:0:
256,192,240255,1,0,0:0:0:0:
256,192,240330,1,8,0:0:0:0:
256,192,240404,1,0,0:0:0:0:
256,192,240479,1,0,0:0:0:0:
256,192,240554,1,8,0:0:0:0:
256,192,240628,1,8,0:0:0:0:
256,192,240703,1,0,0:0:0:0:
256,192,240778,1,8,0:0:0:0:
256,192,240852,1,0,0:0:0:0:
256,192,240927,1,0,0:0:0:0:
256,192,241002,1,8,0:0:0:0:
256,192,241076,1,8,0:0:0:0:
256,192,241151,1,0,0:0:0:0:
256,192,241225,1,8,0:0:0:0:
256,192,241300,1,8,0:0:0:0:
256,192,241375,1,0,0:0:0:0:
256,192,241449,1,8,0:0:0:0:
256,192,241524,1,0,0:0:0:0:
256,192,241599,1,0,0:0:0:0:
256,192,241673,1,8,0:0:0:0:
256,192,241748,1,0,0:0:0:0:
256,192,241822,1,0,0:0:0:0:
256,192,241897,1,8,0:0:0:0:
256,192,241972,1,8,0:0:0:0:
256,192,242046,1,0,0:0:0:0:
256,192,242121,1,8,0:0:0:0:
256,192,242196,1,0,0:0:0:0:
256,192,242270,1,0,0:0:0:0:
256,192,242345,1,8,0:0:0:0:
256,192,242419,1,8,0:0:0:0:
256,192,242494,1,0,0:0:0:0:
256,192,242569,1,8,0:0:0:0:
256,192,242643,1,0,0:0:0:0:
256,192,242718,1,0,0:0:0:0:
256,192,242793,1,8,0:0:0:0:
256,192,242867,1,8,0:0:0:0:
256,192,242942,1,0,0:0:0:0:
256,192,243016,1,8,0:0:0:0:
256,192,243091,1,8,0:0:0:0:
256,192,243166,1,0,0:0:0:0:
256,192,243240,1,8,0:0:0:0:
256,192,243315,1,0,0:0:0:0:
256,192,243390,1,0,0:0:0:0:
256,192,243464,1,8,0:0:0:0:
256,192,243539,1,0,0:0:0:0:
256,192,243613,1,0,0:0:0:0:
256,192,243688,1,8,0:0:0:0:
256,192,243763,1,8,0:0:0:0:
256,192,243837,1,8,0:0:0:0:
256,192,243912,1,0,0:0:0:0:
256,192,243987,1,0,0:0:0:0:
256,192,244061,1,0,0:0:0:0:
256,192,244136,1,12,0:0:0:0:
