osu file format v14

[General]
AudioFilename: audio.mp3
AudioLeadIn: 0
PreviewTime: 48356
Countdown: 0
SampleSet: Soft
StackLeniency: 0.7
Mode: 0
LetterboxInBreaks: 0
WidescreenStoryboard: 1

[Editor]
Bookmarks: 1523,17522,38856,49522,76189,97522,108189,118856,140189,150856,177522,199522
DistanceSpacing: 1
BeatDivisor: 2
GridSize: 32
TimelineZoom: 0.8

[Metadata]
Title:Time Traveler
TitleUnicode:Time Traveler
Artist:Ensou
ArtistUnicode:Ensou
Creator:Hinsvar
Version:Easy
Source:
Tags:Traveller ボーカロイド VOCALOID ボカロ メグッポイド Megpoid GUMI THEIA EP Tagalog Filipino Philippines Rock DASOU Describing A Story Of Us Dasu Featured Artist FA Mappers' Guild MG MPG
BeatmapID:4511591
BeatmapSetID:2142618

[Difficulty]
HPDrainRate:2
CircleSize:2
OverallDifficulty:2
ApproachRate:4
SliderMultiplier:0.96
SliderTickRate:1

[Events]
//Background and Video events
0,0,"BG.jpg",0,0
//Break Periods
2,39056,42869
2,111056,116869
//Storyboard Layer 0 (Background)
//Storyboard Layer 1 (Fail)
//Storyboard Layer 2 (Pass)
//Storyboard Layer 3 (Foreground)
//Storyboard Layer 4 (Overlay)
//Storyboard Sound Samples

[TimingPoints]
1523,333.333333333333,4,2,1,50,1,0
17522,-111.111111111111,4,2,1,40,0,0
38856,-111.111111111111,4,2,1,30,0,0
44189,-100,4,2,1,50,0,0
49522,-95.2380952380952,4,2,1,60,0,1
76189,-111.111111111111,4,2,1,40,0,0
86189,-111.111111111111,4,2,1,30,0,0
86856,-111.111111111111,4,2,1,40,0,0
97522,-100,4,2,1,45,0,0
102856,-100,4,2,1,50,0,0
108189,-100,4,2,1,40,0,0
118856,-111.111111111111,4,2,1,30,0,0
140189,-100,4,2,1,45,0,0
148189,-100,4,2,1,50,0,0
150856,-95.2380952380952,4,2,1,60,0,1
159856,-95.2380952380952,4,2,1,60,0,0
161522,-95.2380952380952,4,2,1,60,0,1
177522,-100,4,2,1,50,0,0
204189,-100,4,2,1,40,0,0
205522,-100,4,2,1,30,0,0
206856,-100,4,2,1,20,0,0
208189,-100,4,2,1,10,0,0
209522,-100,4,2,1,5,0,0

[Colours]
Combo1 : 209,185,88
Combo2 : 235,180,50
Combo3 : 227,239,80
Combo4 : 219,119,85

[HitObjects]
484,272,1523,6,0,P|484:319|463:361,2,96,6|8|8,3:2|0:0|0:0,0:0:0:0:
429,192,2522,1,8,0:0:0:0:
375,112,2856,2,0,P|374:64|395:22,2,96,2|8|8,3:2|0:0|0:0,0:0:0:0:
183,120,4189,6,0,L|85:105,2,96,6|8|8,3:2|0:0|0:0,0:0:0:0:
212,211,5189,1,8,0:0:0:0:
300,173,5522,1,2,3:2:0:0:
329,264,5856,2,0,P|397:325|487:287,1,192,8|0,0:0|3:0,0:0:0:0:
483,196,6856,5,6,3:2:0:0:
484,100,7189,2,0,B|426:109|415:81|418:77|406:43|347:54,1,144,0|0,3:0|3:0,0:0:0:0:
200,26,8189,1,2,3:2:0:0:
201,122,8522,2,0,B|143:113|132:141|135:145|123:179|64:168,1,144,0|0,3:0|3:0,0:0:0:0:
1,310,9522,5,6,3:2:0:0:
76,369,9856,2,0,P|149:371|227:350,1,144,0|0,3:0|3:0,0:0:0:0:
276,278,10689,2,0,P|278:205|257:127,1,144,8|8,0:0|0:0,0:0:0:0:
240,42,11522,1,8,0:0:0:0:
431,22,12189,5,4,3:2:0:0:
501,87,12522,1,2,3:2:0:0:
479,180,12856,1,0,3:0:0:0:
387,207,13189,2,0,B|322:230|300:190|302:186|274:139|204:165,1,192,10|0,0:0|3:0,0:0:0:0:
120,189,14189,1,8,0:0:0:0:
13,348,14856,5,4,3:2:0:0:
108,355,15189,1,2,3:2:0:0:
203,362,15522,2,0,P|277:358|309:294,1,144,8|8,0:0|0:0,0:0:0:0:
282,209,16356,1,8,0:0:0:0:
256,116,16689,2,0,P|292:57|361:56,1,144,8|0,0:0|3:0,0:0:0:0:
450,21,17522,6,0,B|486:56|465:107|460:101|438:152|482:198,1,172.799994726563,4|8,3:2|0:0,0:0:0:0:
468,279,18522,1,0,3:0:0:0:
373,276,18856,1,2,3:2:0:0:
233,146,19522,1,8,0:0:0:0:
138,143,19856,1,8,0:0:0:0:
135,238,20189,2,0,P|140:275|125:328,2,86.3999973632813,2|0|8,3:2|3:0|0:0,0:0:0:0:
45,269,21189,1,0,3:0:0:0:
1,83,21856,2,0,P|56:75|136:98,1,129.599996044922,0|0,3:0|3:0,0:0:0:0:
268,157,22856,6,0,P|324:110|323:40,2,129.599996044922,2|0|0,3:2|3:0|3:0,0:0:0:0:
186,205,24189,1,2,3:2:0:0:
335,329,24856,1,8,0:0:0:0:
422,366,25189,1,8,0:0:0:0:
497,309,25522,2,0,P|495:244|508:164,2,129.599996044922,2|0|2,3:2|3:0|3:2,0:0:0:0:
353,184,27189,2,0,P|354:140|345:87,1,86.3999973632813,0|8,3:0|0:0,0:0:0:0:
280,31,27856,1,8,0:0:0:0:
188,57,28189,6,0,P|110:30|49:89,1,172.799994726563,6|8,3:2|0:0,0:0:0:0:
0,167,29189,1,0,3:0:0:0:
82,216,29522,1,2,3:2:0:0:
256,140,30189,1,8,0:0:0:0:
338,189,30522,1,8,0:0:0:0:
289,271,30856,2,0,P|271:309|282:376,2,86.3999973632813,2|0|8,3:2|3:0|0:0,0:0:0:0:
365,327,31856,1,0,3:0:0:0:
479,175,32522,2,0,P|501:126|487:41,1,129.599996044922,0|0,3:0|3:0,0:0:0:0:
340,77,33522,6,0,B|299:82|277:55|279:56|259:29|210:34,2,129.599996044922,2|0|0,3:2|3:0|3:0,0:0:0:0:
349,171,34856,1,2,3:2:0:0:
163,211,35522,1,8,0:0:0:0:
85,155,35856,1,0,0:0:0:0:
29,233,36189,2,0,P|24:315|98:338,1,172.799994726563,2|8,3:2|0:0,0:0:0:0:
286,308,37522,1,10,0:0:0:0:
379,328,37856,1,8,0:0:0:0:
471,348,38189,2,0,P|499:312|500:269,1,86.3999973632813,8|8,0:0|0:0,0:0:0:0:
490,177,38856,5,6,3:2:0:0:
80,70,44189,6,0,P|32:62|-1:14,2,96,6|0|8,3:2|3:0|0:0,0:0:0:0:
165,25,45189,2,0,P|213:33|246:81,1,96,6|0,3:2|3:0,0:0:0:0:
215,160,45856,1,0,3:0:0:0:
304,192,46189,1,10,0:0:0:0:
414,345,46856,5,2,3:2:0:0:
504,313,47189,1,8,0:0:0:0:
501,217,47522,2,0,P|480:128|396:80,1,192,8|8,0:0|0:0,0:0:0:0:
397,80,49522,5,6,3:2:0:0:
330,155,49856,1,0,3:0:0:0:
255,88,50189,2,0,P|164:42|68:68,2,201.599993847656,8|2|8,0:0|0:0|0:0,0:0:0:0:
232,186,51856,1,2,0:0:0:0:
306,254,52189,5,0,3:0:0:0:
264,345,52522,1,0,3:0:0:0:
164,333,52856,2,0,P|112:335|62:349,2,100.799996923828,8|2|0,0:0|0:0|0:0,0:0:0:0:
144,234,53856,1,2,3:2:0:0:
48,56,54522,1,8,0:0:0:0:
145,29,54856,6,0,B|219:18|244:48|240:51|276:89|338:58,1,201.599993847656,6|8,3:2|0:0,0:0:0:0:
434,38,55856,2,0,B|445:112|415:137|412:133|374:169|405:231,1,201.599993847656,2|2,0:0|3:2,0:0:0:0:
425,327,56856,1,8,0:0:0:0:
227,366,57522,5,6,3:2:0:0:
178,277,57856,1,0,3:0:0:0:
247,202,58189,1,8,0:0:0:0:
196,113,58522,2,0,P|111:47|28:88,1,201.599993847656,2|0,3:2|3:0,0:0:0:0:
39,181,59522,1,8,0:0:0:0:
154,346,60189,5,6,3:2:0:0:
252,364,60522,1,0,3:0:0:0:
318,288,60856,2,0,P|409:246|518:243,2,201.599993847656,8|2|8,0:0|0:0|0:0,0:0:0:0:
219,267,62522,1,2,0:0:0:0:
151,192,62856,5,0,3:0:0:0:
155,90,63189,1,0,3:0:0:0:
229,19,63522,2,0,P|277:8|334:26,2,100.799996923828,8|2|2,0:0|0:0|0:0,0:0:0:0:
277,107,64522,1,0,3:0:0:0:
468,171,65189,1,2,0:0:0:0:
493,268,65522,6,0,B|439:295|397:252|402:247|364:211|299:244,1,201.599993847656,6|8,3:2|0:0,0:0:0:0:
241,320,66522,2,0,B|187:293|145:336|150:341|112:377|47:344,1,201.599993847656,2|2,0:0|3:2,0:0:0:0:
4,258,67522,2,0,P|45:230|57:177,1,100.799996923828,8|8,0:0|0:0,0:0:0:0:
46,82,68189,5,6,3:2:0:0:
121,15,68522,1,8,0:0:0:0:
221,20,68856,1,8,0:0:0:0:
288,94,69189,2,0,B|329:144|297:191|292:190|256:234|304:282,1,201.599993847656,2|8,3:2|0:0,0:0:0:0:
369,354,70189,1,0,3:0:0:0:
510,209,70856,5,6,3:2:0:0:
508,108,71189,2,0,P|497:60|450:31,1,100.799996923828,0|8,3:0|0:0,0:0:0:0:
355,34,71856,1,0,0:0:0:0:
261,72,72189,2,0,B|204:99|164:65|168:62|122:22|72:55,1,201.599993847656,2|8,0:0|0:0,0:0:0:0:
13,248,73522,6,0,P|33:311|121:351,2,151.199995385742,6|2|0,3:2|3:2|3:0,0:0:0:0:
56,156,74856,2,0,P|143:200|177:292,1,201.599993847656,12|8,0:0|0:0,0:0:0:0:
256,355,75856,1,0,3:0:0:0:
335,293,76189,6,0,B|402:296|415:264|409:261|421:221|491:224,1,172.799994726563,6|8,3:2|0:0,0:0:0:0:
479,128,77189,1,0,3:0:0:0:
395,84,77522,1,2,3:2:0:0:
215,20,78189,1,8,0:0:0:0:
134,70,78523,1,8,0:0:0:0:
138,165,78856,2,0,L|43:182,2,86.3999973632813,2|0|8,3:2|3:0|0:0,0:0:0:0:
231,184,79856,1,0,3:0:0:0:
322,350,80522,2,0,B|274:379|260:358|259:356|243:330|191:350,1,129.599996044922,0|0,3:0|3:0,0:0:0:0:
60,278,81522,6,0,P|14:305|4:391,2,129.599996044922,2|0|0,3:2|3:0|3:0,0:0:0:0:
154,263,82856,1,2,3:2:0:0:
302,144,83522,1,8,0:0:0:0:
383,192,83856,1,8,0:0:0:0:
467,147,84189,2,0,P|482:202|481:294,2,129.599996044922,2|0|2,3:2|3:0|3:2,0:0:0:0:
304,47,85856,1,8,0:0:0:0:
210,62,86189,1,8,0:0:0:0:
21,34,86856,6,0,P|2:117|67:164,1,172.799994726563,6|8,3:2|0:0,0:0:0:0:
158,180,87856,1,0,3:0:0:0:
191,270,88189,1,2,3:2:0:0:
382,350,88856,1,8,0:0:0:0:
476,333,89189,1,8,0:0:0:0:
503,243,89522,2,0,P|507:199|491:154,2,86.3999973632813,2|0|8,3:2|3:0|0:0,0:0:0:0:
413,211,90522,1,0,3:0:0:0:
318,45,91189,2,0,B|268:60|257:37|259:36|248:16|194:29,1,129.599996044922,0|0,3:0|3:0,0:0:0:0:
107,156,92189,6,0,P|46:123|38:64,2,129.599996044922,2|0|0,3:2|3:0|3:0,0:0:0:0:
202,150,93522,1,2,3:2:0:0:
325,294,94189,1,8,0:0:0:0:
256,359,94522,1,0,0:0:0:0:
186,294,94856,2,0,B|136:274|101:296|105:300|66:324|15:296,1,172.799994726563,2|8,3:2|0:0,0:0:0:0:
2,205,95856,1,0,3:0:0:0:
75,144,96189,2,0,P|118:147|166:168,1,86.3999973632813,8|0,0:0|3:0,0:0:0:0:
243,204,96856,2,0,P|286:201|334:180,1,86.3999973632813,0|8,3:0|0:0,0:0:0:0:
333,89,97522,6,0,P|415:44|505:76,1,192,6|2,3:2|3:2,0:0:0:0:
488,169,98522,1,0,3:0:0:0:
512,270,98856,2,0,P|430:315|340:283,1,192,2|2,3:2|3:2,0:0:0:0:
181,178,100189,2,0,B|121:146|92:183|90:181|54:225|-14:198,1,192,2|2,3:2|3:2,0:0:0:0:
4,106,101189,1,0,3:0:0:0:
61,29,101522,2,0,B|91:13|105:31|106:30|124:52|158:39,1,96,2|8,3:2|0:0,0:0:0:0:
246,24,102189,1,10,0:0:0:0:
309,98,102522,1,8,0:0:0:0:
276,189,102856,6,0,P|262:230|253:285,2,96,6|0|8,3:2|3:0|0:0,0:0:0:0:
367,222,103856,2,0,P|408:236|463:245,1,96,6|0,3:2|3:0,0:0:0:0:
483,151,104522,1,0,3:0:0:0:
512,60,104856,1,8,0:0:0:0:
323,22,105522,5,0,3:0:0:0:
322,118,105856,1,8,0:0:0:0:
226,117,106189,2,0,P|190:91|168:39,1,96,8|0,0:0|3:0,0:0:0:0:
74,58,106856,2,0,P|64:142|-2:233,1,192,2|8,3:2|0:0,0:0:0:0:
25,322,107856,1,8,0:0:0:0:
119,350,108189,5,4,0:0:0:0:
256,192,108356,12,0,110856,0:0:0:0:
35,366,118189,5,0,3:0:0:0:
36,175,118856,2,0,P|127:61|240:27,1,259.199992089844,2|0,3:2|0:0,0:0:0:0:
326,20,120189,1,2,0:0:0:0:
432,176,120856,1,2,0:0:0:0:
345,215,121189,1,0,3:0:0:0:
259,172,121522,2,0,B|199:127|127:175|138:175|72:229|15:189,1,259.199992089844,2|0,3:2|0:0,0:0:0:0:
10,94,122856,1,2,0:0:0:0:
121,356,123856,1,8,0:0:0:0:
208,319,124189,6,0,P|219:204|204:44,1,259.199992089844,2|0,3:2|0:0,0:0:0:0:
295,25,125522,1,2,0:0:0:0:
474,87,126189,1,2,0:0:0:0:
401,262,126856,2,0,P|407:319|474:343,2,129.599996044922,2|0|0,3:0|3:0|3:0,0:0:0:0:
407,165,128189,2,0,P|337:134|265:195,1,172.799994726563,10|0,0:0|3:0,0:0:0:0:
290,279,129189,1,0,3:0:0:0:
224,347,129522,6,0,P|105:350|26:236,1,259.199992089844,2|0,3:2|3:0,0:0:0:0:
31,150,130856,1,10,0:0:0:0:
195,55,131522,1,2,0:0:0:0:
256,236,132189,2,0,B|335:208|378:276|370:276|409:331|496:296,1,259.199992089844,2|0,3:2|3:0,0:0:0:0:
501,202,133522,2,0,B|450:177|462:125|466:129|473:85|416:60,1,172.799994726563,10|8,0:0|0:0,0:0:0:0:
333,22,134522,1,0,3:0:0:0:
307,113,134856,6,0,P|182:144|48:183,1,259.199992089844,2|0,3:2|3:0,0:0:0:0:
30,270,136189,1,10,0:0:0:0:
192,369,136856,1,2,0:0:0:0:
318,227,137522,2,0,P|320:187|316:135,1,86.3999973632813,2|0,3:2|0:0,0:0:0:0:
347,50,138189,2,0,P|387:52|439:48,1,86.3999973632813,8|0,0:0|0:0,0:0:0:0:
470,136,138856,2,0,B|495:185|474:220|470:220|441:251|469:309,1,172.799994726563,2|8,0:0|0:0,0:0:0:0:
281,352,140189,6,0,P|181:349|101:307,1,192,2|8,3:2|0:0,0:0:0:0:
53,223,141189,1,0,3:0:0:0:
52,127,141522,2,0,P|151:129|232:172,1,192,2|2,3:2|3:2,0:0:0:0:
280,256,142522,1,8,0:0:0:0:
375,265,142856,6,0,P|440:238|482:127,1,192,2|8,3:2|0:0,0:0:0:0:
480,35,143856,1,0,3:0:0:0:
384,37,144189,2,0,P|336:39|292:64,1,96,2|0,3:2|3:0,0:0:0:0:
276,156,144856,1,8,0:0:0:0:
180,167,145189,1,8,0:0:0:0:
162,262,145522,6,0,P|150:327|32:352,1,192,2|8,3:2|0:0,0:0:0:0:
23,261,146522,1,0,3:0:0:0:
55,170,146856,2,0,P|45:101|29:26,2,144,2|2|8,3:2|3:2|0:0,0:0:0:0:
143,209,148189,5,2,3:2:0:0:
224,158,148522,1,0,3:0:0:0:
220,62,148856,1,8,0:0:0:0:
301,11,149189,2,0,P|348:20|372:66,1,96,8|8,0:0|0:0,0:0:0:0:
375,154,149856,1,0,3:0:0:0:
375,154,150856,5,6,3:2:0:0:
300,222,151189,1,0,3:0:0:0:
204,189,151522,2,0,P|101:180|16:223,2,201.599993847656,8|2|8,0:0|0:0|0:0,0:0:0:0:
222,288,153189,1,2,0:0:0:0:
305,346,153522,5,0,3:0:0:0:
404,328,153856,1,0,3:0:0:0:
462,245,154189,2,0,P|472:194|459:141,2,100.799996923828,8|2|0,0:0|0:0|0:0,0:0:0:0:
373,196,155189,1,2,3:2:0:0:
178,250,155856,1,8,0:0:0:0:
79,269,156189,6,0,B|63:295|77:318|78:317|93:338|80:366,2,100.799996923828,6|0|8,3:2|3:0|0:0,0:0:0:0:
11,194,157189,2,0,B|68:172|78:122|73:122|85:69|146:54,1,201.599993847656,2|2,0:0|3:2,0:0:0:0:
224,118,158189,1,8,0:0:0:0:
323,293,158856,5,6,3:2:0:0:
417,325,159189,1,0,3:0:0:0:
491,259,159522,1,8,0:0:0:0:
470,161,159856,1,2,3:2:0:0:
200,24,160856,1,8,0:0:0:0:
50,158,161522,5,6,3:2:0:0:
2,247,161856,1,0,3:0:0:0:
71,320,162189,2,0,B|133:296|162:343|159:347|188:391|257:368,2,201.599993847656,8|2|8,0:0|0:0|0:0,0:0:0:0:
58,219,163856,1,2,0:0:0:0:
159,206,164189,5,0,3:0:0:0:
242,262,164522,1,0,3:0:0:0:
331,218,164856,2,0,P|345:267|354:323,2,100.799996923828,8|2|2,0:0|0:0|0:0,0:0:0:0:
297,122,165856,1,0,3:0:0:0:
477,32,166522,1,2,0:0:0:0:
491,131,166856,6,0,B|511:184|474:229|470:228|431:265|472:324,1,201.599993847656,6|8,3:2|0:0,0:0:0:0:
379,366,167856,2,0,B|323:356|302:302|305:299|292:247|221:253,1,201.599993847656,2|2,0:0|3:2,0:0:0:0:
231,151,168856,2,0,P|267:116|256:47,1,100.799996923828,8|8,0:0|0:0,0:0:0:0:
179,20,169522,5,6,3:2:0:0:
78,29,169856,1,8,0:0:0:0:
12,106,170188,1,8,0:0:0:0:
21,207,170522,2,0,B|83:177|117:218|114:221|149:262|217:228,1,201.599993847656,2|8,3:2|0:0,0:0:0:0:
218,332,171522,1,0,3:0:0:0:
417,360,172189,5,6,3:2:0:0:
496,297,172522,2,0,P|498:244|485:190,1,100.799996923828,0|8,3:0|0:0,0:0:0:0:
387,188,173189,1,0,3:0:0:0:
299,138,173522,2,0,P|235:138|206:258,1,201.599993847656,2|8,3:2|0:0,0:0:0:0:
37,369,174856,6,0,P|2:330|18:279,1,100.799996923828,6|0,3:2|3:0,0:0:0:0:
24,186,175522,2,0,P|100:169|155:228,2,151.199995385742,8|8|8,0:0|0:0|0:0,0:0:0:0:
1,87,176856,1,8,0:0:0:0:
76,20,177189,1,8,0:0:0:0:
171,51,177522,6,0,P|220:62|271:56,1,96,4|0,3:2|3:0,0:0:0:0:
359,41,178189,2,0,B|404:19|428:49|426:55|452:82|503:55,2,144,8|0|0,0:0|3:0|3:0,0:0:0:0:
329,132,179522,1,8,0:0:0:0:
486,241,180189,6,0,P|495:284|487:341,1,96,4|0,3:2|3:0,0:0:0:0:
395,356,180856,2,0,P|381:290|393:205,2,144,8|0|0,0:0|3:0|3:0,0:0:0:0:
299,371,182189,1,8,0:0:0:0:
204,355,182522,1,8,0:0:0:0:
108,340,182856,6,0,P|58:330|13:333,1,96,4|0,3:2|3:0,0:0:0:0:
15,237,183522,2,0,P|30:162|25:94,2,144,8|0|0,0:0|3:0|3:0,0:0:0:0:
111,241,184856,1,8,0:0:0:0:
293,299,185522,6,0,L|396:285,2,96,6|0|8,3:2|3:0|0:0,0:0:0:0:
268,142,186689,2,0,B|275:97|313:91|313:100|357:93|364:40,1,144,8|8,0:0|0:0,0:0:0:0:
458,34,187522,1,0,3:0:0:0:
478,224,188189,6,0,P|482:273|453:311,1,96,6|0,3:2|3:0,0:0:0:0:
365,275,188856,1,8,0:0:0:0:
271,297,189189,2,0,P|263:199|321:123,1,192,2|2,3:2|3:2,0:0:0:0:
293,32,190189,1,8,0:0:0:0:
199,54,190522,1,8,0:0:0:0:
106,26,190856,6,0,P|61:32|27:84,1,96,2|0,3:2|3:0,0:0:0:0:
36,164,191522,1,8,0:0:0:0:
120,209,191856,2,0,P|191:264|198:388,1,192,2|2,3:2|3:2,0:0:0:0:
304,359,192856,1,8,0:0:0:0:
293,166,193522,6,0,P|287:121|289:65,1,96,6|0,3:2|3:0,0:0:0:0:
377,34,194189,1,8,0:0:0:0:
471,55,194522,2,0,P|482:144|479:257,1,192,2|2,3:2|3:2,0:0:0:0:
482,342,195522,1,8,0:0:0:0:
385,340,195856,1,8,0:0:0:0:
317,269,196189,6,0,P|277:248|223:254,1,96,6|8,3:2|0:0,0:0:0:0:
159,320,196856,1,8,0:0:0:0:
69,285,197189,2,0,P|65:195|1:107,1,192,6|8,3:2|0:0,0:0:0:0:
74,43,198189,2,0,P|114:64|168:58,1,96,8|8,0:0|0:0,0:0:0:0:
256,34,198856,5,8,0:0:0:0:
256,225,199522,1,6,3:2:0:0:
256,192,199689,12,0,209522,0:0:0:0:
